osu file format v14

[General]
AudioFilename: audio.mp3
AudioLeadIn: 0
PreviewTime: 202690
Countdown: 0
SampleSet: Drum
StackLeniency: 0.7
Mode: 2
LetterboxInBreaks: 0
WidescreenStoryboard: 1

[Editor]
DistanceSpacing: 0.1
BeatDivisor: 4
GridSize: 16
TimelineZoom: 4.499999

[Metadata]
Title:Xronier ("geneXe" Long ver.)
TitleUnicode:Xronièr ("genèXe" Long ver.)
Artist:Camellia as "fluX Xroise"
ArtistUnicode:かめりあ as "fluX Xroisé"
Creator:x_angelkawaii_x
Version:Salad
Source:SOUND VOLTEX IV HEAVENLY HAVEN
Tags:rocma version sdvx Xroniàl Xéro cametek xronial xero omega dimension 5+ electronic instrumental video rhythm game konami
BeatmapID:3109463
BeatmapSetID:1506066

[Difficulty]
HPDrainRate:4
CircleSize:3
OverallDifficulty:7
ApproachRate:7
SliderMultiplier:1.28
SliderTickRate:0.5

[Events]
//Background and Video events
0,0,"bg.jpg",0,0
//Break Periods
//Storyboard Layer 0 (Background)
//Storyboard Layer 1 (Fail)
//Storyboard Layer 2 (Pass)
//Storyboard Layer 3 (Foreground)
//Storyboard Layer 4 (Overlay)
//Storyboard Sound Samples

[TimingPoints]
727,256.410256410256,4,3,2,80,1,0
2778,-100,4,2,2,50,0,0
6880,-100,4,1,2,70,0,0
10983,-100,4,2,2,50,0,0
13034,-100,4,1,2,70,0,0
28419,-100,4,2,2,50,0,0
29444,-100,4,1,2,60,0,0
37650,-100,4,1,2,70,0,0
45983,-100,4,1,2,50,0,0
49957,-100,4,3,2,70,0,0
58162,-100,4,2,2,50,0,0
64316,-100,4,3,2,70,0,0
68419,-100,4,2,2,50,0,0
70470,-100,4,3,2,80,0,0
72521,-100,4,1,2,70,0,0
86880,-100,4,2,2,50,0,0
93162,-100,4,1,2,70,0,0
97137,-100,4,2,2,50,0,0
101239,-100,4,1,2,70,0,0
116624,-100,4,2,2,50,0,0
117650,-100,4,1,2,60,0,0
123803,-100,4,1,2,70,0,0
142265,-100,4,2,2,50,0,0
146368,-100,4,1,2,70,0,0
157650,-100,4,3,2,70,0,0
174060,-100,4,2,2,50,0,0
182265,-100,4,2,2,60,0,0
194573,-100,4,1,2,70,0,0
199957,-100,4,2,2,50,0,0
202778,-80,4,2,2,70,0,0
210983,-100,4,1,2,70,0,1
220214,-80,4,1,2,70,0,1
220726,-100,4,1,2,70,0,1
227393,-100,4,3,3,70,0,0
239701,256.410256410256,7,1,2,70,1,1
254059,256.410256410256,4,2,2,60,1,0
256110,-100,4,3,2,60,0,0
258161,-100,4,1,2,70,0,0
262264,-100,4,2,2,60,0,0
264315,-100,4,3,2,70,0,0
272520,-100,4,3,2,70,0,1
276623,-100,4,3,2,70,0,0
278674,-100,4,1,2,70,0,0
280725,-100,4,3,2,70,0,0
288930,-100,4,2,2,60,0,0
296110,-100,4,3,2,80,0,0
298161,-100,4,2,2,60,0,0

[Colours]
Combo1 : 239,205,44
Combo2 : 0,230,230
Combo3 : 253,32,104
Combo4 : 224,136,3

[HitObjects]
256,192,727,12,4,2778,0:3:0:0:
180,219,4188,6,0,L|340:91,1,192,0|0,3:0|3:0,0:0:0:0:
112,288,4829,6,0,P|52:262|128:128,1,256,4|2,0:0|0:0,0:0:0:0:
262,128,5726,2,0,P|311:142|346:230,1,128,4|0,0:0|0:0,0:0:0:0:
448,336,6880,6,0,L|448:128,1,192,4|0,0:0|0:0,0:0:0:0:
448,96,7393,2,0,L|240:96,1,192,2|2,0:0|0:0,0:0:0:0:
256,352,7906,6,0,L|256:144,1,192,4|0,0:0|0:0,0:0:0:0:
256,112,8419,2,0,L|128:112,1,128,2|0,0:0|0:0,0:0:0:0:
345,127,8932,6,0,P|422:175|345:287,1,256,2|2,0:0|0:0,0:0:0:0:
141,135,9957,6,0,P|64:183|141:295,1,256,2|2,0:0|0:0,0:0:0:0:
496,304,10983,5,4,0:0:0:0:
256,336,12009,5,4,0:0:0:0:
16,336,12521,1,2,0:0:0:0:
128,336,12778,1,8,0:1:0:0:
352,336,13034,6,0,P|416:288|352:224,1,192,4|0,0:0|0:0,0:0:0:0:
288,224,13547,1,0,0:0:0:0:
48,288,14060,6,0,P|49:225|203:124,1,256,2|0,0:0|0:0,0:0:0:0:
320,112,14829,1,8,0:0:0:0:
448,208,15085,6,0,L|208:80,2,256,2|0|2,0:0|0:0|0:0,0:0:0:0:
368,128,16368,1,2,0:0:0:0:
448,48,16624,1,2,0:0:0:0:
144,64,17009,6,0,P|80:96|151:282,1,320,4|0,0:0|0:0,0:0:0:0:
400,288,18162,6,0,L|144:288,1,256,2|0,0:0|0:0,0:0:0:0:
32,288,18932,1,8,0:0:0:0:
144,240,19188,6,0,L|320:112,2,192,4|0|8,0:2|0:0|0:0,0:0:0:0:
358,170,20214,6,0,P|427:252|341:356,1,256,2|2,0:0|2:0,0:0:0:0:
458,350,20983,1,2,2:0:0:0:
224,336,21239,6,0,L|32:336,2,192,4|0|8,0:0|0:0|0:0,0:0:0:0:
400,192,22393,6,0,P|384:272|224:352,1,256,0|8,0:0|0:0,0:0:0:0:
112,320,23162,1,4,0:2:0:0:
320,272,23419,6,0,P|384:256|480:96,1,256,2|2,0:0|0:0,0:0:0:0:
352,64,24188,2,0,L|480:64,1,128,4|4,0:2|0:2,0:0:0:0:
192,96,24829,6,0,P|112:128|64:288,1,256,8|4,0:0|3:0,0:0:0:0:
256,288,25983,6,0,L|304:192,2,96,2|2|4,3:1|3:1|3:0,0:0:0:0:
128,288,26880,2,0,L|272:288,1,128,2|2,3:1|3:1,0:0:0:0:
464,256,27393,6,0,P|447:156|208:48,1,384,2|4,3:1|3:2,0:0:0:0:
80,112,28419,5,4,0:0:0:0:
80,224,28675,2,0,L|192:128,2,128,0|2|4,0:0|0:0|0:0,0:0:0:0:
320,336,29444,6,0,P|396:303|320:192,1,256,2|0,0:0|0:0,0:0:0:0:
192,336,30214,2,0,P|288:320|432:80,1,384,0|0,0:0|0:0,0:0:0:0:
304,80,31239,1,0,0:0:0:0:
80,128,31496,5,2,0:0:0:0:
208,128,31752,2,0,L|192:272,1,128,0|0,0:0|0:0,0:0:0:0:
64,256,32265,2,0,P|153:363|340:246,1,384,0|0,0:0|0:0,0:0:0:0:
208,256,33291,1,0,0:0:0:0:
416,256,33547,6,0,P|470:205|394:122,1,192,2|0,0:0|0:0,0:0:0:0:
352,112,34060,1,0,0:0:0:0:
208,272,34316,2,0,P|148:257|221:37,1,384
320,80,35342,1,8,0:0:0:0:
64,288,35598,6,0,L|64:96,1,192,4|2,0:3|0:0,0:0:0:0:
256,256,36368,2,0,L|256:64,1,192,2|2,0:0|0:0,0:0:0:0:
448,128,37137,2,0,L|448:272,1,128,2|8,0:0|0:0,0:0:0:0:
220,288,37650,6,0,P|80:226|44:128,1,256,4|0,0:0|0:0,0:0:0:0:
272,224,38419,2,0,P|336:192|251:62,1,256,8|8,0:0|0:0,0:0:0:0:
145,61,39188,2,0,L|16:99,1,128,0|8,0:0|0:0,0:0:0:0:
242,136,39701,6,0,L|450:136,1,192,4|0,0:0|0:0,0:0:0:0:
433,216,40214,2,0,L|434:353,1,128,2|8,0:0|0:0,0:0:0:0:
294,352,40726,6,0,P|180:323|100:191,1,256,2|0,0:0|0:0,0:0:0:0:
207,123,41496,1,8,0:0:0:0:
416,320,41752,6,0,L|416:176,1,128,4|0,0:3|0:0,0:0:0:0:
416,160,42265,2,0,L|288:160,1,128,2|0,0:0|0:0,0:0:0:0:
160,320,42778,6,0,L|160:176,1,128,2|0,0:0|0:0,0:0:0:0:
160,160,43291,2,0,L|288:160,1,128,2|8,0:0|0:0,0:0:0:0:
80,160,43803,6,0,P|23:194|102:268,1,192,2|2,0:0|0:0,0:0:0:0:
144,272,44316,2,0,L|320:160,1,192,2|2,0:0|0:0,0:0:0:0:
240,64,44829,6,0,P|138:77|278:310,1,512,4|4,0:2|0:3,0:0:0:0:
256,192,46111,12,0,48675,0:0:0:0:
256,160,49017,5,0,0:0:0:0:
432,160,49444,1,0,0:0:0:0:
96,352,49957,6,0,P|42:319|32:240,1,128,4|0,0:0|0:0,0:0:0:0:
27,259,50342,2,0,P|42:319|96:352,1,128,2|0,0:1|0:0,0:0:0:0:
160,352,50726,5,2,0:1:0:0:
208,288,50919,1,2,0:1:0:0:
160,224,51175,1,2,0:1:0:0:
64,192,51368,1,2,0:1:0:0:
128,128,51560,2,0,L|240:128,1,96,2|2,0:1|0:1,0:0:0:0:
416,352,52009,6,0,P|470:319|480:240,1,128,4|0,0:0|0:0,0:0:0:0:
485,259,52394,2,0,P|470:319|416:352,1,128,2|0,0:1|0:0,0:0:0:0:
352,352,52778,5,0,0:1:0:0:
256,336,52970,1,2,0:1:0:0:
352,304,53162,1,0,0:0:0:0:
416,288,53291,2,0,P|448:240|406:183,1,128,2|2,0:1|0:1,0:0:0:0:
288,176,53803,1,2,0:1:0:0:
80,192,54060,6,0,P|96:144|176:112,1,128,4|0,0:0|0:0,0:0:0:0:
161,110,54444,2,0,P|104:134|80:192,1,128,2|0,0:1|0:0,0:0:0:0:
144,208,54829,5,2,0:1:0:0:
240,208,55021,1,2,0:1:0:0:
144,272,55278,2,0,L|48:272,1,96,2|2,0:1|0:1,0:0:0:0:
48,208,55662,1,2,0:1:0:0:
304,192,55983,5,2,0:1:0:0:
413,192,56175,2,0,P|461:160|477:112,1,96,2|2,0:1|0:1,0:0:0:0:
475,126,56496,2,0,P|454:168|413:192,1,96,2|0,0:1|0:0,0:0:0:0:
240,192,56880,6,0,L|176:128,2,64,0|0|0,0:0|0:0|0:0,0:0:0:0:
368,192,57393,1,0,0:0:0:0:
240,288,57650,2,0,P|200:259|235:201,1,128,0|0,0:0|0:0,0:0:0:0:
432,160,58162,6,0,L|512:160,1,64,4|0,0:0|0:0,0:0:0:0:
368,144,58547,2,0,L|240:144,1,128,2|0,0:0|0:0,0:0:0:0:
304,144,58932,1,2,0:0:0:0:
464,176,59316,5,2,0:0:0:0:
336,256,59573,2,0,L|208:256,2,128,0|2|0,0:0|0:0|0:0,0:0:0:0:
272,240,60214,6,0,P|215:205|206:136,1,128,0|0,0:0|0:0,0:0:0:0:
202,148,60983,2,0,P|217:208|271:239,1,128,2|0,0:0|0:0,0:0:0:0:
271,239,61752,2,0,P|325:269|360:328,1,128,0|0,0:0|0:0,0:0:0:0:
128,336,62265,6,0,P|48:320|48:272,2,128,4|0|2,0:0|0:0|0:0,0:0:0:0:
304,320,63291,2,0,P|384:304|384:256,2,128,2|0|2,0:0|0:0|0:0,0:0:0:0:
480,320,64316,6,0,L|480:112,1,192,4|0,0:0|0:0,0:0:0:0:
320,112,65085,1,0,0:0:0:0:
112,320,65342,6,0,L|112:112,1,192,4|0,0:0|0:0,0:0:0:0:
224,112,65983,2,0,L|320:112,1,96,0|0,0:0|0:0,0:0:0:0:
153,319,66368,6,0,L|153:127,1,192,4|0,0:0|0:0,0:0:0:0:
336,112,67137,1,0,0:0:0:0:
128,176,67393,6,0,L|112:80,2,85.3333333333333,4|0|0,0:0|0:0|0:0,0:0:0:0:
208,176,67906,2,0,L|224:80,2,85.3333333333333,2|0|0,0:1|0:0|0:0,0:0:0:0:
48,128,68419,6,0,L|48:336,1,192,4|0,0:0|0:0,0:0:0:0:
112,320,68932,1,0,0:0:0:0:
208,320,69444,5,0,0:0:0:0:
272,144,69573,2,0,L|272:288,1,128,4|0,0:0|0:0,0:0:0:0:
208,272,69957,6,0,L|208:128,1,128,4|0,0:0|0:0,0:0:0:0:
256,192,70470,12,0,72265,0:0:0:0:
285,173,72521,5,2,0:0:0:0:
429,141,73034,2,0,P|464:201|429:221,1,128,0|8,0:0|0:0,0:0:0:0:
204,240,73547,6,0,L|76:240,1,128,2|8,0:0|0:0,0:0:0:0:
204,240,74060,2,0,L|348:240,1,128,2|8,0:0|0:0,0:0:0:0:
112,320,74573,6,0,L|96:176,1,128,2|8,0:0|0:0,0:0:0:0:
224,192,75085,2,0,L|240:48,1,128,0|8,0:0|0:0,0:0:0:0:
112,64,75598,6,0,P|61:80|126:224,1,256,4|0,0:0|0:0,0:0:0:0:
240,224,76368,1,8,0:0:0:0:
466,239,76624,5,4,0:2:0:0:
256,304,77137,2,0,L|112:304,1,128,2|8,0:0|0:0,0:0:0:0:
256,256,77650,6,0,P|291:223|239:156,1,128,2|8,0:0|0:0,0:0:0:0:
128,176,78162,2,0,P|93:143|145:76,1,128,2|8,0:0|0:0,0:0:0:0:
256,48,78675,5,4,0:2:0:0:
48,176,78932,2,0,L|48:80,1,96,8|0,0:0|0:0,0:0:0:0:
123,79,79316,2,0,L|219:79,1,96,8|8,0:0|0:0,0:0:0:0:
320,160,79701,6,0,P|293:290|176:336,1,256,4|2,0:2|0:0,0:0:0:0:
64,336,80470,1,2,0:0:0:0:
281,176,80726,5,4,0:0:0:0:
112,144,81239,2,0,P|58:202|67:247,1,128,0|8,0:0|0:0,0:0:0:0:
296,239,81752,6,0,L|424:239,1,128,2|8,0:0|0:0,0:0:0:0:
296,239,82265,2,0,L|152:239,1,128,0|8,0:0|0:0,0:0:0:0:
400,320,82778,6,0,L|416:176,1,128,2|8,0:0|0:0,0:0:0:0:
288,192,83290,2,0,L|272:48,1,128,2|8,0:0|0:0,0:0:0:0:
400,64,83803,6,0,P|451:80|386:224,1,256,4|0,0:0|0:0,0:0:0:0:
288,224,84573,1,8,0:0:0:0:
48,288,84829,6,0,P|4:253|45:212,1,128,0|8,0:0|0:0,0:0:0:0:
112,208,85214,1,0,0:0:0:0:
176,208,85342,2,0,L|304:208,1,128,0|8,0:0|0:0,0:0:0:0:
176,144,85855,6,0,L|96:144,2,64,2|0|8,0:0|0:0|0:0,0:0:0:0:
384,240,86368,6,0,P|440:214|454:154,1,128,0|8,0:0|0:0,0:0:0:0:
256,192,86880,12,0,88675,0:0:0:0:
320,304,88932,6,0,L|464:304,1,128,2|0,0:1|0:0,0:0:0:0:
480,272,89359,1,0,0:0:0:0:
448,304,89530,1,0,0:0:0:0:
384,288,89701,1,0,0:0:0:0:
256,288,89957,6,0,L|112:288,1,128,2|0,0:1|0:0,0:0:0:0:
96,256,90384,1,0,0:0:0:0:
128,288,90555,1,0,0:0:0:0:
192,272,90726,1,0,0:0:0:0:
400,304,90983,6,0,L|400:160,1,128,2|0,0:1|0:0,0:0:0:0:
384,128,91410,1,0,0:0:0:0:
345,160,91581,1,0,0:0:0:0:
281,144,91752,1,0,0:0:0:0:
64,304,92009,6,0,L|64:160,1,128,2|0,0:1|0:0,0:0:0:0:
79,127,92436,1,0,0:0:0:0:
118,160,92607,1,0,0:0:0:0:
183,143,92778,1,0,0:0:0:0:
480,208,93162,5,2,0:0:0:0:
320,240,93547,1,2,0:0:0:0:
480,272,93932,1,2,0:0:0:0:
192,320,94316,1,2,0:0:0:0:
352,320,94701,1,2,0:0:0:0:
32,208,95214,5,2,0:0:0:0:
192,240,95599,1,2,0:0:0:0:
32,272,95984,1,2,0:0:0:0:
320,320,96368,1,2,0:0:0:0:
160,320,96753,1,2,0:0:0:0:
304,336,97137,5,2,0:1:0:0:
368,208,97650,1,0,0:0:0:0:
288,112,98162,1,0,0:0:0:0:
128,96,98675,1,0,0:0:0:0:
448,80,99188,5,0,0:0:0:0:
256,336,100214,5,0,0:0:0:0:
496,336,100726,1,0,0:0:0:0:
384,336,100983,1,8,0:1:0:0:
160,336,101239,6,0,P|96:288|160:224,1,192,4|0,0:0|0:0,0:0:0:0:
224,224,101752,1,0,0:0:0:0:
464,288,102265,6,0,P|463:225|309:124,1,256,2|0,0:0|0:0,0:0:0:0:
192,112,103034,1,8,0:0:0:0:
64,208,103290,6,0,L|304:80,2,256,2|0|2,0:0|0:0|0:0,0:0:0:0:
144,128,104573,1,2,0:0:0:0:
64,48,104829,1,2,0:0:0:0:
368,64,105214,6,0,P|432:96|361:282,1,320,4|0,0:0|0:0,0:0:0:0:
112,288,106367,2,0,L|368:288,1,256,2|0,0:0|0:0,0:0:0:0:
480,288,107137,1,8,0:0:0:0:
368,240,107393,6,0,L|192:112,2,192,4|0|8,0:2|0:0|0:0,0:0:0:0:
158,174,108419,6,0,P|89:256|175:360,1,256,2|2,0:0|2:0,0:0:0:0:
44,350,109188,1,2,2:0:0:0:
264,272,109444,6,0,B|344:256|336:149,1,128,0|8,0:0|0:0,0:0:0:0:
112,208,109957,1,0,0:0:0:0:
240,272,110214,2,0,P|322:206|234:118,1,256,8|8,0:0|0:0,0:0:0:0:
112,112,110983,2,0,L|96:256,1,128,4|0,0:2|0:0,0:0:0:0:
320,288,111496,6,0,P|362:251|320:208,1,128,0|8,0:0|0:0,0:0:0:0:
112,208,112009,1,0,0:0:0:0:
240,272,112266,2,0,P|352:224|416:96,1,256,8|8,0:0|0:0,0:0:0:0:
288,144,113035,2,0,L|144:144,1,128,4|0,0:0|0:0,0:0:0:0:
384,224,113547,5,4,3:0:0:0:
256,288,114188,2,0,L|208:192,2,96,2|2|4,3:1|3:1|3:0,0:0:0:0:
384,288,115085,2,0,L|240:288,1,128,2|2,3:1|3:1,0:0:0:0:
48,256,115598,6,0,P|65:156|304:48,1,384,2|4,3:1|3:2,0:0:0:0:
432,112,116624,5,4,0:0:0:0:
432,224,116880,2,0,L|320:128,2,128,0|2|4,0:0|0:0|0:0,0:0:0:0:
192,336,117649,6,0,P|116:303|192:192,1,256,2|0,0:0|0:0,0:0:0:0:
320,336,118419,2,0,P|224:320|80:80,1,384,0|0,0:0|0:0,0:0:0:0:
208,80,119444,1,0,0:0:0:0:
432,128,119701,5,2,0:0:0:0:
304,128,119957,2,0,L|320:272,1,128,0|0,0:0|0:0,0:0:0:0:
448,256,120470,2,0,P|359:363|172:246,1,384,0|0,0:0|0:0,0:0:0:0:
304,256,121496,1,0,0:0:0:0:
96,256,121752,6,0,P|42:205|118:122,1,192,2|0,0:0|0:0,0:0:0:0:
160,112,122265,1,0,0:0:0:0:
304,272,122521,2,0,P|364:257|282:29,1,384,0|0,0:0|0:0,0:0:0:0:
208,80,123547,1,8,0:0:0:0:
448,288,123803,6,0,L|448:96,1,192,4|2,0:3|0:0,0:0:0:0:
256,256,124573,2,0,L|256:64,1,192,2|2,0:0|0:0,0:0:0:0:
64,128,125342,6,0,L|64:272,1,128,2|8,0:0|0:0,0:0:0:0:
281,287,125855,6,0,P|421:225|457:127,1,256,4|0,0:0|0:0,0:0:0:0:
240,224,126624,2,0,P|176:192|261:62,1,256,8|8,0:0|0:0,0:0:0:0:
368,64,127393,2,0,L|496:64,1,128,0|8,0:0|0:0,0:0:0:0:
288,144,127906,6,0,L|80:144,1,192,4|0,0:0|0:0,0:0:0:0:
96,224,128419,2,0,L|240:224,1,128,2|8,0:0|0:0,0:0:0:0:
352,336,128931,6,0,P|426:290|344:175,1,256,2|0,0:0|0:0,0:0:0:0:
256,160,129637,2,0,L|160:160,1,96,0|0,0:0|0:0,0:0:0:0:
96,320,129957,6,0,L|96:176,1,128,2|0,0:0|0:0,0:0:0:0:
96,160,130470,2,0,L|224:80,1,128,2|0,0:0|0:0,0:0:0:0:
416,320,130983,6,0,L|416:176,1,128,2|0,0:0|0:0,0:0:0:0:
416,160,131496,2,0,L|288:80,1,128,2|8,0:0|0:0,0:0:0:0:
80,160,132009,6,0,L|80:272,2,96,2|4|2,0:0|0:2|0:0,0:0:0:0:
144,160,132521,2,0,L|144:272,2,96,2|4|2,0:0|0:2|0:0,0:0:0:0:
208,160,133034,6,0,P|262:113|272:48,1,128,4|0,0:2|0:0,0:0:0:0:
144,112,133547,2,0,L|16:112,1,128,0|4,0:0|0:2,0:0:0:0:
224,48,134060,6,0,L|368:48,1,128,4|8,0:0|0:0,0:0:0:0:
224,176,134573,2,0,L|144:112,2,96,2|0|0,0:0|0:0|0:0,0:0:0:0:
288,176,135085,6,0,P|336:208|268:305,1,192,2|0,0:0|0:0,0:0:0:0:
112,320,135855,1,8,0:0:0:0:
304,320,136111,6,0,P|344:272|290:242,1,128,2|8,0:0|0:0,0:0:0:0:
176,208,136624,2,0,L|96:144,2,96,2|0|0,0:0|0:0|0:0,0:0:0:0:
240,208,137137,6,0,L|240:80,1,128,4|8,0:2|0:0,0:0:0:0:
112,160,137650,2,0,L|112:32,1,128,0|8,0:0|0:0,0:0:0:0:
320,96,138162,5,4,0:0:0:0:
336,208,138419,1,8,0:0:0:0:
224,272,138675,1,2,0:2:0:0:
336,272,138932,1,8,0:0:0:0:
128,288,139188,5,4,0:0:0:0:
240,288,139445,1,8,0:0:0:0:
128,224,139701,1,2,0:0:0:0:
112,112,139958,1,8,0:0:0:0:
336,96,140214,6,0,L|336:240,1,128,4|0,0:0|0:0,0:0:0:0:
208,272,140726,2,0,L|128:208,2,96,8|2|8,0:0|0:0|0:0,0:0:0:0:
272,256,141239,6,0,L|416:256,1,128,4|8,0:2|0:0,0:0:0:0:
400,256,141752,2,0,L|272:256,1,128,0|8,0:0|0:0,0:0:0:0:
64,320,142265,5,4,0:1:0:0:
80,192,142778,1,8,0:0:0:0:
192,160,143290,1,0,0:0:0:0:
368,208,143803,1,8,0:0:0:0:
192,320,144316,5,4,0:2:0:0:
368,320,145000,2,0,L|416:224,1,85.3333333333333,0|0,0:0|0:0,0:0:0:0:
320,224,145342,6,0,P|256:192|336:64,1,256,2|8,0:0|0:0,0:0:0:0:
64,224,146368,6,0,L|256:224,1,192,4|2,0:0|0:0,0:0:0:0:
144,304,147009,1,2,0:0:0:0:
416,288,147393,6,0,P|480:240|402:179,1,192,4|2,0:0|0:0,0:0:0:0:
288,176,148034,1,2,0:0:0:0:
16,192,148419,6,0,L|176:64,1,192,4|8,0:0|0:0,0:0:0:0:
165,72,148932,2,0,L|69:149,1,96,4|2,0:0|0:0,0:0:0:0:
336,176,149444,6,0,L|496:48,1,192,4|8,0:0|0:0,0:0:0:0:
485,56,149957,2,0,L|389:133,1,96,4|2,0:0|0:0,0:0:0:0:
160,336,150470,6,0,P|78:291|173:72,1,384,4|0,0:0|0:0,0:0:0:0:
288,64,151496,1,4,0:2:0:0:
16,288,151880,6,0,P|76:146|236:98,1,320,4|0,0:2|0:0,0:0:0:0:
96,96,152778,1,4,0:2:0:0:
384,336,153162,6,0,P|466:291|368:128,1,320,4|0,0:2|0:0,0:0:0:0:
256,128,154060,1,4,0:2:0:0:
464,256,154316,6,0,P|432:144|288:96,1,256,4|0,0:0|0:0,0:0:0:0:
208,144,155085,1,0,0:0:0:0:
304,192,155342,5,4,0:2:0:0:
256,192,155598,12,0,156880,0:0:0:0:
256,144,157137,5,0,3:0:0:0:
192,208,157307,1,0,3:0:0:0:
256,288,157478,1,0,3:0:0:0:
416,352,157650,6,0,P|470:319|480:240,1,128,4|0,0:0|0:0,0:0:0:0:
485,259,158035,2,0,P|470:319|416:352,1,128,2|0,0:1|0:0,0:0:0:0:
352,352,158419,5,2,0:1:0:0:
304,288,158612,1,2,0:1:0:0:
352,224,158868,1,2,0:1:0:0:
448,192,159061,1,2,0:1:0:0:
384,128,159253,2,0,L|272:128,1,96,2|2,0:1|0:1,0:0:0:0:
96,352,159702,6,0,P|42:319|32:240,1,128,4|0,0:0|0:0,0:0:0:0:
27,259,160085,2,0,P|42:319|96:352,1,128,0|0,0:0|0:0,0:0:0:0:
160,352,160471,5,0,0:1:0:0:
256,336,160663,1,2,0:1:0:0:
160,304,160855,1,0,0:0:0:0:
96,288,160984,2,0,P|64:240|106:183,1,128,2|2,0:1|0:1,0:0:0:0:
224,176,161496,1,2,0:1:0:0:
432,192,161753,6,0,P|416:144|336:112,1,128,4|0,0:0|0:0,0:0:0:0:
351,110,162137,2,0,P|408:134|432:192,1,128,2|0,0:1|0:0,0:0:0:0:
368,208,162522,5,2,0:1:0:0:
272,208,162714,1,2,0:1:0:0:
368,272,162971,2,0,L|464:272,1,96,2|2,0:1|0:1,0:0:0:0:
464,208,163355,1,2,0:1:0:0:
208,192,163676,5,2,0:1:0:0:
127,191,163803,2,0,P|58:176|39:104,1,128,4|2,0:0|0:1,0:0:0:0:
36,126,164189,2,0,P|57:168|98:192,1,96,2|0,0:1|0:0,0:0:0:0:
272,192,164573,6,0,L|336:128,2,64,0|0|0,0:0|0:0|0:0,0:0:0:0:
144,192,165086,1,0,0:0:0:0:
272,288,165343,2,0,P|312:259|277:201,1,128,0|0,0:0|0:0,0:0:0:0:
80,96,165855,6,0,P|48:160|96:185,1,128,4|8,0:1|0:1,0:0:0:0:
144,192,166239,2,0,L|288:192,1,128,0|8,0:0|0:1,0:0:0:0:
208,192,166624,5,0,0:0:0:0:
96,240,166816,2,0,L|80:336,1,96,8|0,0:1|0:0,0:0:0:0:
192,336,167265,2,0,L|208:240,2,96,0|0|0,0:0|0:0|0:0,0:0:0:0:
400,112,167906,6,0,P|432:176|384:201,1,128,4|8,0:1|0:1,0:0:0:0:
336,208,168290,2,0,L|192:208,1,128,0|8,0:0|0:1,0:0:0:0:
272,240,168675,6,0,L|368:240,1,96,0|8,0:0|0:1,0:0:0:0:
288,304,169188,2,0,L|176:208,2,128,0|0|0,0:0|0:0|0:0,0:0:0:0:
96,256,169957,6,0,P|39:230|27:169,1,128,4|8,0:1|0:1,0:0:0:0:
96,144,170342,2,0,L|224:144,1,128,0|8,0:0|0:1,0:0:0:0:
176,176,170726,5,0,0:0:0:0:
128,240,170919,1,8,0:1:0:0:
208,304,171239,1,0,0:0:0:0:
272,288,171368,2,0,L|128:288,1,128,0|0,0:0|0:0,0:0:0:0:
368,208,171880,6,0,P|425:182|368:96,1,192,4|0,0:1|0:0,0:0:0:0:
304,96,172393,2,0,L|176:96,1,128,0|0,0:0|0:0,0:0:0:0:
240,96,172778,1,0,0:0:0:0:
448,80,173034,6,0,L|432:224,1,128,0|0,0:0|0:0,0:0:0:0:
304,176,173547,2,0,L|288:304,1,128,0|0,0:0|0:0,0:0:0:0:
80,304,174060,5,4,0:1:0:0:
80,304,174573,1,8,0:0:0:0:
80,304,175085,1,0,0:0:0:0:
80,304,175598,1,8,0:0:0:0:
80,304,176111,1,0,0:0:0:0:
80,304,176624,1,8,0:0:0:0:
80,304,177137,1,0,0:0:0:0:
80,304,177650,1,8,0:0:0:0:
80,368,178162,6,0,L|80:96,3,256,4|8|0|8,0:1|0:0|0:0|0:0,0:0:0:0:
256,352,180214,6,0,P|384:304|432:192,3,256,4|2|2|2,0:0|0:0|0:0|0:0,0:0:0:0:
192,48,182265,6,0,P|49:126|208:368,1,512,4|0,0:0|0:0,0:0:0:0:
304,320,184316,6,0,L|400:224,2,128,0|0|0,0:0|0:0|0:0,0:0:0:0:
144,304,185342,1,0,0:0:0:0:
64,224,185983,1,2,0:1:0:0:
144,144,186175,1,2,0:1:0:0:
320,48,186368,6,0,P|463:126|304:368,1,512,2|0,0:1|0:0,0:0:0:0:
112,336,188419,6,0,P|64:304|114:202,1,192,2|2,0:1|0:1,0:0:0:0:
304,320,189188,2,0,P|352:288|302:186,1,192,2|2,0:1|0:1,0:0:0:0:
128,224,189957,1,0,0:0:0:0:
96,192,190085,1,0,0:0:0:0:
128,144,190213,1,0,0:0:0:0:
344,176,190470,5,4,0:3:0:0:
336,208,191880,6,0,L|144:96,1,192,0|0,3:0|3:0,0:0:0:0:
400,288,192521,6,0,P|460:262|384:128,1,256,4|2,0:0|0:0,0:0:0:0:
240,128,193418,6,0,P|191:142|156:230,1,128,4|0,0:0|0:0,0:0:0:0:
240,256,193932,1,2,0:0:0:0:
288,352,194316,1,0,0:0:0:0:
64,336,194572,6,0,L|64:128,1,192,4|0,0:0|0:0,0:0:0:0:
64,96,195085,2,0,L|272:96,1,192,2|2,0:0|0:0,0:0:0:0:
256,352,195598,6,0,L|256:144,1,192,4|0,0:0|0:0,0:0:0:0:
256,112,196111,2,0,L|384:112,1,128,2|0,0:0|0:0,0:0:0:0:
161,128,196624,6,0,P|84:176|161:288,1,256,2|2,0:0|0:0,0:0:0:0:
368,129,197649,6,0,P|445:177|368:289,1,256,2|2,0:0|0:0,0:0:0:0:
240,289,198419,5,2,0:0:0:0:
256,192,199957,12,0,202521,0:0:0:0:
288,304,202778,6,0,P|342:257|251:115,1,240,8|0,0:0|0:0,0:0:0:0:
224,96,203291,1,0,0:0:0:0:
320,96,203547,1,0,0:0:0:0:
224,304,203803,6,0,P|170:257|261:115,1,240,8|0,0:0|0:0,0:0:0:0:
288,304,204316,2,0,P|342:257|251:115,1,240,0|0,0:0|0:0,0:0:0:0:
224,304,204829,6,0,P|170:257|261:115,1,240,8|0,0:0|0:0,0:0:0:0:
288,96,205342,1,0,0:0:0:0:
192,96,205598,1,0,0:0:0:0:
288,304,205855,6,0,P|342:257|251:115,1,240,8|0,0:0|0:0,0:0:0:0:
224,304,206368,2,0,P|175:251|176:160,1,160
208,96,206753,1,0,0:0:0:0:
256,96,206881,5,8,0:0:0:0:
256,224,207394,1,0,0:0:0:0:
256,96,207522,2,0,L|256:288,1,160,0|0,0:0|0:0,0:0:0:0:
256,96,207906,5,8,0:0:0:0:
256,176,208162,1,0,0:0:0:0:
256,240,208291,1,0,0:0:0:0:
256,96,208419,2,0,L|256:288,1,160,0|0,0:0|0:0,0:0:0:0:
256,176,208804,1,0,0:0:0:0:
256,272,208932,5,8,0:0:0:0:
256,240,209060,1,0,0:0:0:0:
256,96,209188,2,0,L|256:272,1,160,0|0,0:0|0:0,0:0:0:0:
368,253,209701,1,0,0:0:0:0:
160,320,209957,5,0,0:0:0:0:
256,304,210342,2,0,P|327:265|384:112,1,240,0|8,0:0|0:1,0:0:0:0:
176,112,210983,6,0,L|32:112,1,128,4|8,0:0|0:0,0:0:0:0:
48,192,211368,2,0,L|192:192,1,128,2|2,0:0|0:0,0:0:0:0:
464,240,212009,6,0,L|464:112,1,128,2|8,0:0|0:0,0:0:0:0:
368,176,212521,1,0,0:0:0:0:
416,160,212649,1,2,0:0:0:0:
464,144,212777,1,8,0:0:0:0:
256,320,213034,6,0,L|112:320,1,128,2|8,0:0|0:0,0:0:0:0:
256,240,213547,2,0,L|320:240,1,64,0|2,0:0|0:0,0:0:0:0:
16,256,214060,6,0,L|16:128,1,128,4|4,0:2|0:2,0:0:0:0:
144,96,214573,1,0,0:0:0:0:
192,96,214701,1,2,0:0:0:0:
240,96,214829,1,8,0:0:0:0:
27,259,215085,6,0,P|48:320|112:336,1,128,4|8,0:0|0:0,0:0:0:0:
224,256,215598,2,0,L|240:176,1,64,0|2,0:0|0:0,0:0:0:0:
112,176,215983,6,0,L|96:96,1,64,0|4,0:0|0:0,0:0:0:0:
317,96,216368,1,8,0:0:0:0:
432,128,216624,2,0,L|498:186,1,64,4|4,0:2|0:2,0:0:0:0:
489,248,216880,1,8,0:0:0:0:
256,272,217137,6,0,L|96:128,1,192,4|2,0:0|0:0,0:0:0:0:
113,143,217650,2,0,L|256:272,1,192,8|0,0:0|0:0,0:0:0:0:
384,144,218291,5,2,0:0:0:0:
192,144,218675,2,0,P|134:121|122:61,1,128,4|8,0:2|0:0,0:0:0:0:
336,112,219188,6,0,L|464:112,1,128,4|8,0:0|0:0,0:0:0:0:
464,112,219573,2,0,L|336:112,1,128,2|2,0:0|0:0,0:0:0:0:
80,304,220214,6,0,B|80:144,1,160,4|2,0:3|0:0,0:0:0:0:
208,112,220726,2,0,L|272:112,1,64,4|2,0:2|0:0,0:0:0:0:
50,164,221111,6,0,P|76:238|178:276,1,192,4|8,0:0|0:0,0:0:0:0:
306,276,221752,2,0,L|162:276,1,128,0|8,0:0|0:0,0:0:0:0:
400,96,222265,6,0,P|437:153|400:176,1,128,4|4,0:2|0:2,0:0:0:0:
272,192,222778,1,4,0:2:0:0:
208,192,222906,1,2,0:0:0:0:
416,320,223162,6,0,P|477:258|416:192,1,192,4|8,0:0|0:0,0:0:0:0:
288,176,223803,2,0,L|160:176,1,128,8|2,0:0|0:0,0:0:0:0:
368,80,224316,6,0,P|411:104|369:147,1,128,4|8,0:0|0:0,0:0:0:0:
304,144,224701,2,0,P|261:168|303:211,1,128,2|2,0:0|0:0,0:0:0:0:
368,224,225085,1,8,0:0:0:0:
160,288,225342,6,0,L|128:224,2,64,4|0|8,0:0|0:0|0:0,0:0:0:0:
224,288,225726,2,0,L|256:224,2,64,4|0|2,0:0|0:0|0:0,0:0:0:0:
160,288,226111,1,8,0:0:0:0:
282,272,226368,6,0,L|346:272,1,64,4|0,0:0|0:0,0:0:0:0:
240,224,226752,2,0,P|192:208|144:128,1,128,4|2,0:2|0:0,0:0:0:0:
208,112,227137,1,8,0:0:0:0:
416,288,227393,6,0,P|456:238|393:206,1,128,2|8,0:0|0:0,0:0:0:0:
288,192,227906,1,0,0:0:0:0:
240,192,228034,1,2,0:0:0:0:
192,192,228162,1,8,0:0:0:0:
288,112,228419,6,0,L|288:240,1,128,2|8,0:0|0:0,0:0:0:0:
416,240,228932,2,0,L|416:304,2,64,0|8|8,0:0|0:0|0:0,0:0:0:0:
208,256,229444,6,0,P|158:245|128:176,1,128,2|8,0:0|0:0,0:0:0:0:
256,128,229957,1,0,0:0:0:0:
304,128,230085,1,2,0:0:0:0:
352,128,230213,1,8,0:0:0:0:
144,128,230470,6,0,P|96:160|158:323,1,256,2|0,0:0|0:0,0:0:0:0:
240,320,231175,2,0,L|352:320,1,96,2|8,0:0|0:0,0:0:0:0:
272,256,231496,6,0,L|272:0,1,256,2|4,0:0|0:0,0:0:0:0:
432,32,232201,2,0,L|432:144,1,96,0|0,0:0|0:0,0:0:0:0:
352,288,232521,6,0,L|352:16,1,256,2|0,0:0|0:0,0:0:0:0:
192,64,233226,2,0,L|80:64,1,96,8|8,0:0|0:0,0:0:0:0:
160,128,233547,6,0,L|304:128,1,128,2|0,0:0|0:0,0:0:0:0:
160,208,234060,1,8,0:0:0:0:
112,272,234230,1,8,0:0:0:0:
160,330,234401,1,8,0:0:0:0:
240,320,234573,5,2,0:0:0:0:
320,272,234744,2,0,L|336:176,1,85.3333333333333,8|8,0:0|0:0,0:0:0:0:
256,160,235085,2,0,L|240:64,1,85.3333333333333,0|8,0:0|0:0,0:0:0:0:
400,45,235427,1,8,0:0:0:0:
384,240,235855,6,0,P|360:182|302:158,1,128,4|0,0:0|0:0,0:0:0:0:
176,144,236368,1,8,0:0:0:0:
302,158,236624,6,0,L|302:286,1,128,2|8,0:0|0:0,0:0:0:0:
432,208,237137,2,0,L|432:336,1,128,0|8,0:0|0:0,0:0:0:0:
224,336,237650,6,0,P|128:304|64:160,1,256,2|0,0:0|0:0,0:0:0:0:
176,128,238419,1,8,0:0:0:0:
384,96,238675,6,0,L|416:192,2,96,2|8|8,0:0|0:0|0:0,0:0:0:0:
320,96,239188,2,0,L|208:96,1,96,2|8,0:0|0:0,0:0:0:0:
480,304,239701,6,0,L|480:112,1,192,4|0,0:0|0:0,0:0:0:0:
288,256,240470,1,2,0:0:0:0:
80,256,240726,6,0,L|80:128,1,128,4|0,0:0|0:0,0:0:0:0:
208,112,241239,1,8,0:0:0:0:
336,128,241495,6,0,P|400:176|322:304,1,256,2|0,0:0|0:0,0:0:0:0:
208,304,242264,1,8,0:0:0:0:
336,272,242521,6,0,L|448:208,2,128,2|8|8,0:0|0:0|0:0,0:0:0:0:
128,256,243290,6,0,P|76:233|32:112,1,192,4|0,0:0|0:0,0:0:0:0:
224,256,244059,1,2,0:0:0:0:
432,256,244315,6,0,L|432:128,1,128,0|2,0:0|0:0,0:0:0:0:
304,112,244828,1,8,0:0:0:0:
176,128,245085,6,0,P|112:176|190:304,1,256,2|0,0:0|0:0,0:0:0:0:
304,304,245853,1,8,0:0:0:0:
176,272,246111,6,0,L|64:208,2,128,2|2|8,0:0|0:0|0:0,0:0:0:0:
400,304,246880,6,0,L|464:304,1,64,4|2,0:0|0:0,0:0:0:0:
464,208,247265,2,0,L|384:208,1,64,0|2,0:0|0:0,0:0:0:0:
192,208,247649,2,0,L|112:208,1,64,0|2,0:0|0:0,0:0:0:0:
128,128,248034,2,0,L|192:128,1,64,0|2,0:0|0:0,0:0:0:0:
320,128,248418,1,0,0:0:0:0:
112,208,248675,6,0,L|112:288,1,64,4|2,0:0|0:0,0:0:0:0:
240,320,249059,2,0,L|240:256,1,64,0|2,0:0|0:0,0:0:0:0:
32,240,249444,2,0,L|32:176,1,64,0|2,0:0|0:0,0:0:0:0:
177,196,249829,2,0,L|177:132,1,64,0|2,0:0|0:0,0:0:0:0:
317,96,250213,1,0,0:0:0:0:
112,304,250470,6,0,L|48:304,1,64,4|2,0:2|0:0,0:0:0:0:
48,208,250855,2,0,L|128:208,1,64,0|2,0:0|0:0,0:0:0:0:
320,208,251239,2,0,L|400:208,1,64,0|2,0:0|0:0,0:0:0:0:
384,128,251624,2,0,L|320:128,1,64,0|2,0:0|0:0,0:0:0:0:
192,128,252008,1,0,0:0:0:0:
400,208,252265,6,0,L|400:288,1,64,4|2,0:2|0:0,0:0:0:0:
272,320,252649,2,0,L|272:256,1,64,0|2,0:0|0:0,0:0:0:0:
480,240,253034,2,0,L|480:176,1,64,0|2,0:0|0:0,0:0:0:0:
339,187,253419,2,0,L|339:123,1,64,0|2,0:0|0:0,0:0:0:0:
198,94,253803,1,4,0:2:0:0:
413,319,254059,6,0,L|493:239,2,96,4|0|2,0:0|0:0|0:0,0:0:0:0:
176,320,255084,6,0,L|80:320,2,96,2|0|2,0:0|0:0|0:0,0:0:0:0:
416,320,256110,6,0,L|416:192,1,128,0|0,0:0|0:0,0:0:0:0:
336,224,256494,2,0,L|336:96,1,128,0|0,0:0|0:0,0:0:0:0:
416,64,256879,1,0,0:0:0:0:
208,304,257135,6,0,P|160:256|230:157,1,192,4|0,0:2|0:0,0:0:0:0:
272,144,257648,2,0,L|416:144,1,128,4|4,0:2|0:2,0:0:0:0:
192,128,258161,6,0,L|64:128,1,128,4|0,0:0|0:0,0:0:0:0:
64,192,258546,2,0,L|192:192,1,128,2|0,0:0|0:0,0:0:0:0:
256,192,258930,1,2,0:0:0:0:
464,288,259187,6,0,L|464:160,1,128,4|0,0:2|0:0,0:0:0:0:
400,240,259571,2,0,L|400:112,1,128,2|0,0:0|0:0,0:0:0:0:
464,96,259956,1,2,0:0:0:0:
256,128,260212,6,0,L|64:240,2,192,4|4|4,0:0|0:0|0:0,0:0:0:0:
464,304,261238,6,0,P|448:240|288:160,1,256,4|4,0:0|0:2,0:0:0:0:
192,176,261943,2,0,L|176:272,1,96,2|2,0:0|0:0,0:0:0:0:
240,288,262264,5,4,0:0:0:0:
256,336,263289,5,0,0:0:0:0:
112,272,263801,1,0,0:0:0:0:
64,304,263930,1,0,0:0:0:0:
112,336,264058,1,8,0:1:0:0:
336,304,264315,6,0,L|480:304,1,128,4|0,0:0|0:0,0:0:0:0:
272,240,264956,2,0,L|192:240,1,64,0|2,0:0|0:1,0:0:0:0:
416,160,265341,6,0,L|416:288,1,128,0|0,0:1|0:0,0:0:0:0:
272,288,265853,1,2,0:1:0:0:
320,288,265982,1,0,0:0:0:0:
368,288,266110,1,0,0:0:0:0:
160,240,266366,6,0,L|32:240,1,128,2|2,0:1|0:1,0:0:0:0:
128,112,266794,1,0,0:0:0:0:
256,288,267050,2,0,L|368:288,1,85.3333333333333,2|2,0:1|0:1,0:0:0:0:
176,256,267392,6,0,P|139:216|185:167,1,128,2|0,0:1|0:0,0:0:0:0:
288,160,267905,2,0,L|400:96,1,128,0|0,0:0|0:0,0:0:0:0:
288,32,268417,1,2,0:1:0:0:
80,96,268674,5,4,0:0:0:0:
16,112,268802,2,0,L|32:240,1,128,0|2,0:0|0:1,0:0:0:0:
96,240,269187,1,0,0:0:0:0:
304,272,269443,6,0,P|366:252|432:128,1,192,0|2,0:0|0:1,0:0:0:0:
304,128,270084,2,0,L|240:128,1,64,2|0,0:1|0:0,0:0:0:0:
32,144,270469,6,0,L|32:288,1,128,2|2,0:1|0:1,0:0:0:0:
160,288,270982,2,0,L|288:288,1,128
160,272,271494,5,2,0:1:0:0:
112,224,271664,1,2,0:1:0:0:
160,272,271835,1,0,0:0:0:0:
256,80,272007,2,0,L|256:272,1,192,0|0,2:0|2:0,0:0:0:0:
192,320,272520,6,0,L|64:320,1,128,4|0,0:1|0:0,0:0:0:0:
192,240,273033,2,0,L|320:240,1,128,0|0,0:0|0:0,0:0:0:0:
112,192,273546,6,0,L|112:64,1,128
240,176,274058,2,0,L|240:48,1,128,0|0,0:0|0:0,0:0:0:0:
448,224,274571,6,0,L|320:224,1,128,0|0,0:0|0:0,0:0:0:0:
192,304,275084,2,0,L|320:304,1,128,0|0,0:0|0:0,0:0:0:0:
192,304,275597,6,0,P|160:288|128:256,1,64
272,224,275982,2,0,P|323:159|259:131,1,160
176,160,276494,1,0,0:0:0:0:
112,304,276623,6,0,P|41:274|112:96,1,320,4|2,0:0|1:0,0:0:0:0:
208,96,277456,1,2,1:0:0:0:
368,304,277648,6,0,P|421:272|364:113,1,256,2|2,1:0|1:0,0:0:0:0:
288,304,278333,1,2,1:0:0:0:
208,320,278503,1,2,1:0:0:0:
416,304,278759,5,2,0:0:0:0:
336,288,278930,2,0,L|304:192,2,85.3333333333333,0|2|2,0:0|0:0|0:0,0:0:0:0:
416,304,279443,1,2,0:0:0:0:
306,317,279700,6,0,P|266:297|313:207,1,170.666666666667,4|0,0:2|0:0,0:0:0:0:
384,208,280212,2,0,L|416:144,2,64,0|0|4,0:0|0:0|0:2,0:0:0:0:
176,192,280725,6,0,L|48:192,1,128,4|0,0:0|0:0,0:0:0:0:
48,192,281110,2,0,L|192:192,1,128,2|0,1:0|0:0,0:0:0:0:
240,176,281494,2,0,L|240:80,1,96,2|2,1:0|1:0,0:0:0:0:
144,96,281943,6,0,P|80:112|32:224,1,192,2|2,1:0|1:0,0:0:0:0:
128,256,282520,1,0,0:0:0:0:
336,192,282776,6,0,L|448:96,1,128,4|0,0:2|0:0,0:0:0:0:
433,108,283161,2,0,L|336:192,1,128,2|0,1:0|0:0,0:0:0:0:
272,208,283546,2,0,L|272:320,1,96,2|2,1:0|1:0,0:0:0:0:
352,288,284058,6,0,P|400:272|432:192,1,128,2|2,1:0|1:0,0:0:0:0:
352,160,284571,1,2,1:0:0:0:
144,272,284828,6,0,L|144:128,1,128,2|0,1:0|0:0,0:0:0:0:
208,224,285212,2,0,L|208:80,1,128,2|0,1:0|0:0,0:0:0:0:
144,96,285597,2,0,L|144:208,1,96,2|2,1:0|1:0,0:0:0:0:
240,224,285982,5,0,0:0:0:0:
352,256,286238,1,2,1:0:0:0:
448,224,286430,2,0,L|464:112,1,96,2|0,1:0|0:0,0:0:0:0:
400,112,286751,5,2,1:0:0:0:
240,128,286943,2,0,P|183:166|197:209,1,96,2|2,1:0|1:0,0:0:0:0:
336,224,287456,2,0,P|393:262|379:305,1,96,2|2,1:0|1:0,0:0:0:0:
256,320,287905,6,0,L|144:240,2,128,2|0|0,1:0|0:0|0:0,0:0:0:0:
304,304,288546,1,0,0:0:0:0:
256,320,288674,1,0,0:0:0:0:
32,320,288930,5,4,0:0:0:0:
160,304,290469,1,0,0:0:0:0:
288,256,290982,1,0,0:0:0:0:
320,144,291494,1,0,0:0:0:0:
288,48,292007,1,0,0:0:0:0:
160,64,292520,1,0,0:0:0:0:
256,192,293033,5,8,0:0:0:0:
256,128,293161,1,0,0:0:0:0:
256,192,293289,1,0,0:0:0:0:
256,144,293417,1,0,0:0:0:0:
256,80,293674,2,0,L|256:224,1,128,0|0,0:0|0:0,0:0:0:0:
256,256,294058,5,8,0:0:0:0:
256,320,294315,1,0,0:0:0:0:
256,240,294443,1,0,0:0:0:0:
256,192,294571,1,0,0:0:0:0:
256,80,294699,2,0,L|256:224,1,128,0|0,0:0|0:0,0:0:0:0:
256,112,295084,6,0,L|256:256,1,128,8|0,0:0|0:0,0:0:0:0:
256,256,295469,1,0,0:0:0:0:
256,112,295597,6,0,L|256:256,1,128
256,192,296110,12,4,298161,0:0:0:0:
