osu file format v14

[General]
AudioFilename: audio.mp3
AudioLeadIn: 0
PreviewTime: 202690
Countdown: 0
SampleSet: Normal
StackLeniency: 0.7
Mode: 2
LetterboxInBreaks: 0
WidescreenStoryboard: 1

[Editor]
DistanceSpacing: 0.1
BeatDivisor: 3
GridSize: 16
TimelineZoom: 4.499999

[Metadata]
Title:Xronier ("geneXe" Long ver.)
TitleUnicode:Xronièr ("genèXe" Long ver.)
Artist:Camellia as "fluX Xroise"
ArtistUnicode:かめりあ as "fluX Xroisé"
Creator:x_angelkawaii_x
Version:Rain
Source:SOUND VOLTEX IV HEAVENLY HAVEN
Tags:rocma version sdvx Xroniàl Xéro cametek xronial xero omega dimension 5+ electronic instrumental video rhythm game konami
BeatmapID:3108836
BeatmapSetID:1506066

[Difficulty]
HPDrainRate:3
CircleSize:4
OverallDifficulty:9
ApproachRate:9
SliderMultiplier:1.6
SliderTickRate:1

[Events]
//Background and Video events
0,0,"bg.jpg",0,0
//Break Periods
//Storyboard Layer 0 (Background)
//Storyboard Layer 1 (Fail)
//Storyboard Layer 2 (Pass)
//Storyboard Layer 3 (Foreground)
//Storyboard Layer 4 (Overlay)
//Storyboard Sound Samples

[TimingPoints]
727,256.410256410256,4,3,2,80,1,0
2778,-100,4,2,2,50,0,0
6880,-100,4,1,2,70,0,0
10983,-100,4,2,2,50,0,0
13034,-100,4,1,2,70,0,0
28419,-100,4,2,2,50,0,0
29444,-100,4,1,2,60,0,0
37650,-100,4,1,2,70,0,0
45983,-100,4,1,2,50,0,0
49957,-100,4,3,2,70,0,0
58162,-100,4,2,2,50,0,0
64316,-100,4,3,2,70,0,0
68419,-100,4,2,2,50,0,0
70470,-100,4,3,2,80,0,0
72521,-100,4,1,2,70,0,0
86880,-100,4,2,2,50,0,0
93162,-100,4,1,2,70,0,0
97137,-100,4,2,2,50,0,0
101239,-100,4,1,2,70,0,0
113034,-71.4285714285714,4,1,2,70,0,0
113547,-100,4,1,2,70,0,0
116624,-100,4,2,2,50,0,0
117650,-100,4,1,2,60,0,0
123803,-100,4,1,2,70,0,0
142265,-100,4,2,2,50,0,0
146368,-100,4,1,2,70,0,0
157650,-100,4,3,2,70,0,0
174060,-100,4,2,2,50,0,0
182265,-100,4,2,2,60,0,0
194573,-100,4,1,2,70,0,0
199957,-100,4,2,2,50,0,0
202778,-83.3333333333333,4,2,2,70,0,0
210983,-100,4,1,2,70,0,1
220214,-66.6666666666667,4,1,2,70,0,1
220726,-100,4,1,2,70,0,1
227393,-100,4,3,3,70,0,0
239701,256.410256410256,7,1,2,70,1,1
254059,256.410256410256,4,2,2,60,1,0
256110,-100,4,3,2,60,0,0
258161,-100,4,1,2,70,0,0
262264,-100,4,2,2,60,0,0
264315,-100,4,3,2,70,0,0
272520,-100,4,3,2,70,0,1
276623,-100,4,3,2,70,0,0
278674,-100,4,1,2,70,0,0
280725,-100,4,3,2,70,0,0
288930,-100,4,2,2,60,0,0
296110,-100,4,3,2,80,0,0
298161,-100,4,2,2,60,0,0

[Colours]
Combo1 : 239,205,44
Combo2 : 0,230,230
Combo3 : 253,32,104
Combo4 : 224,136,3

[HitObjects]
256,192,727,12,0,2521,3:0:0:0:
320,352,2778,6,0,P|415:325|315:61,1,480,4|0,0:3|0:0,0:0:0:0:
240,112,3675,2,0,P|184:156|252:292,1,240
496,320,4188,6,0,L|256:320,1,240,0|0,3:0|3:0,0:0:0:0:
96,272,4829,2,0,L|176:272,2,80,4|0|0,0:0|0:0|0:0,0:0:0:0:
256,224,5342,1,2,0:0:0:0:
80,256,5726,6,0,P|112:320|224:352,2,160,4|0|2,0:0|0:0|0:0,0:0:0:0:
176,224,6368,2,0,L|224:224,2,40,0|0|0,0:0|0:0|0:0,0:0:0:0:
80,224,6624,1,0,0:0:0:0:
480,336,6880,6,0,L|480:144,1,160,4|0,0:0|0:0,0:0:0:0:
368,176,7265,2,0,L|320:176,1,40,0|0,0:0|0:0,0:0:0:0:
288,176,7393,2,0,L|432:176,2,120,2|0|2,0:0|0:0|0:0,0:0:0:0:
80,320,7906,6,0,P|29:269|111:231,1,160,4|0,0:0|0:0,0:0:0:0:
208,192,8291,2,0,L|272:192,1,40,0|0,0:0|0:0,0:0:0:0:
208,192,8419,2,0,L|128:192,1,80,2|0,0:0|0:0,0:0:0:0:
87,110,8611,1,0,0:0:0:0:
73,146,8675,1,0,0:0:0:0:
90,181,8739,1,0,0:0:0:0:
127,192,8803,1,2,0:0:0:0:
320,240,8932,6,0,L|448:240,2,120,2|0|2,0:0|0:0|0:0,0:0:0:0:
192,240,9444,2,0,L|64:240,2,120,2|0|2,0:0|0:0|0:0,0:0:0:0:
400,320,9957,6,0,L|432:192,2,120,2|0|2,0:0|0:0|0:0,0:0:0:0:
272,320,10470,2,0,L|240:192,1,120,2|0,0:0|0:0,0:0:0:0:
304,176,10726,2,0,L|320:112,2,40,2|0|0,0:0|0:0|0:0,0:0:0:0:
96,224,10983,6,0,B|16:224|16:224|128:224,1,160,4|0,0:0|0:0,0:0:0:0:
176,224,11368,2,0,B|256:224|256:224|144:224,1,160,2|0,0:0|0:0,0:0:0:0:
64,336,12009,5,4,0:0:0:0:
176,304,12265,1,0,0:0:0:0:
288,272,12521,1,2,0:0:0:0:
176,224,12650,1,2,0:1:0:0:
384,176,12778,2,0,L|464:176,1,80,8|0,0:1|0:0,0:0:0:0:
256,304,13034,6,0,L|176:304,3,80,4|0|8|0,0:0|0:0|0:0|0:0,0:0:0:0:
288,272,13547,1,0,0:0:0:0:
321,202,13675,1,2,0:0:0:0:
292,130,13803,1,8,0:0:0:0:
219,104,13931,1,0,0:0:0:0:
16,224,14060,6,0,L|112:224,1,80,2|0,0:0|0:0,0:0:0:0:
128,192,14252,1,0,0:0:0:0:
96,160,14316,2,0,L|16:160,1,80,8|0,0:0|0:0,0:0:0:0:
112,96,14573,2,0,L|128:208,1,80,0|2,0:0|0:0,0:0:0:0:
32,224,14829,1,8,0:0:0:0:
416,160,15085,6,0,L|496:160,3,80,2|0|8|0,0:0|0:0|0:0|0:0,0:0:0:0:
384,336,15598,1,0,0:0:0:0:
351,266,15726,1,2,0:0:0:0:
380,194,15854,1,8,0:0:0:0:
453,168,15982,1,0,0:0:0:0:
192,144,16111,6,0,L|144:144,2,40,2|0|0,0:0|0:0|0:0,0:0:0:0:
288,144,16368,2,0,L|336:144,2,40,2|0|0,0:0|0:0|0:0,0:0:0:0:
192,208,16624,2,0,L|0:208,1,160,2|0,0:0|0:0,0:0:0:0:
272,336,17009,6,0,P|320:273|272:224,1,160,4|0,0:0|0:0,0:0:0:0:
192,224,17393,1,8,0:0:0:0:
272,176,17521,1,0,0:0:0:0:
160,240,17650,2,0,L|80:240,3,80,0|2|8|0,0:0|0:0|0:0|0:0,0:0:0:0:
304,208,18162,6,0,L|304:128,1,80,2|0,0:0|0:0,0:0:0:0:
263,160,18355,1,0,0:0:0:0:
224,160,18419,2,0,L|224:64,1,80,8|0,0:0|0:0,0:0:0:0:
368,80,18675,1,0,0:0:0:0:
448,80,18803,1,2,0:0:0:0:
448,160,18932,1,8,0:0:0:0:
408,160,18996,1,0,0:0:0:0:
368,160,19060,1,0,0:0:0:0:
160,208,19188,6,0,L|112:208,2,40,4|0|0,0:2|0:0|0:0,0:0:0:0:
256,208,19444,1,4,0:2:0:0:
216,208,19508,1,0,0:0:0:0:
176,208,19572,1,0,0:0:0:0:
80,208,19701,2,0,P|32:160|87:95,1,160,0|8,0:0|0:0,0:0:0:0:
119,92,20021,2,0,L|167:92,1,40,0|0,0:0|0:0,0:0:0:0:
400,208,20214,6,0,L|416:288,2,53.3333333333333,2|2|0,0:0|0:0|0:0,0:0:0:0:
320,208,20470,2,0,L|240:208,2,53.3333333333333,2|2|0,0:0|0:0|0:0,0:0:0:0:
400,128,20726,5,2,2:0:0:0:
438,137,20790,1,0,2:0:0:0:
466,164,20854,1,0,2:0:0:0:
477,202,20918,1,0,2:0:0:0:
467,240,20982,1,2,2:0:0:0:
439,268,21046,1,0,2:0:0:0:
401,278,21110,1,0,2:0:0:0:
160,288,21239,6,0,L|80:288,2,80,4|0|8,0:0|0:0|0:0,0:0:0:0:
256,288,21624,2,0,P|297:254|224:176,1,160,0|2,0:0|0:0,0:0:0:0:
160,176,22009,1,8,0:0:0:0:
272,144,22137,6,0,P|336:176|368:272,1,160
288,272,22521,1,8,0:0:0:0:
176,304,22650,2,0,L|64:304,3,80,0|2|8|0,0:0|0:0|0:0|0:0,0:0:0:0:
288,288,23162,6,0,P|333:249|286:175,1,160,4|2,0:2|0:0,0:0:0:0:
208,176,23547,2,0,L|288:176,1,80,8|0,0:0|0:0,0:0:0:0:
400,176,23803,2,0,L|480:176,2,80,0|2|8,0:0|0:0|0:0,0:0:0:0:
176,240,24188,6,0,L|-16:240,1,160,4|4,0:2|0:2,0:0:0:0:
16,176,24509,2,0,L|16:128,1,40,0|0,0:0|0:0,0:0:0:0:
96,112,24701,1,0,0:0:0:0:
288,112,24829,6,0,L|432:112,2,120,8|0|8,0:0|0:0|0:0,0:0:0:0:
64,16,25342,6,0,L|64:336,1,320,4|0,3:0|3:0,0:0:0:0:
184,336,25983,2,0,L|40:336,1,120,2|2,3:1|3:1,0:0:0:0:
336,16,26368,6,0,L|336:336,1,320,4|2,3:0|3:1,0:0:0:0:
256,336,26966,1,0,3:0:0:0:
208,315,27051,1,0,3:0:0:0:
188,266,27136,1,2,3:1:0:0:
208,218,27222,1,0,3:0:0:0:
256,198,27307,1,0,3:0:0:0:
464,240,27393,6,0,L|480:160,1,53.3333333333333,2|4,3:1|3:2,0:0:0:0:
320,144,27650,1,0,3:0:0:0:
464,112,27821,2,0,L|479:217,1,106.666666666667,4|0,3:2|3:0,0:0:0:0:
400,240,28077,1,0,3:0:0:0:
256,256,28162,2,0,L|240:144,1,106.666666666667,4|0,3:2|3:0,0:0:0:0:
416,128,28419,5,4,0:0:0:0:
464,192,28547,1,0,0:0:0:0:
416,272,28675,2,0,L|224:272,1,160,0|2,0:0|0:0,0:0:0:0:
144,272,29060,2,0,L|48:272,2,80,0|4|0,0:0|0:0|0:0,0:0:0:0:
416,224,29444,6,0,L|240:224,1,160,2|0,0:0|0:0,0:0:0:0:
336,224,29829,1,0,0:0:0:0:
416,320,29957,2,0,L|240:320,1,160,0|0,0:0|0:0,0:0:0:0:
416,320,30470,6,0,L|256:320,1,160,2|0,0:0|0:0,0:0:0:0:
416,320,30983,2,0,L|336:320,1,80,0|0,0:0|0:0,0:0:0:0:
256,304,31239,2,0,L|176:304,1,80,0|0,0:0|0:0,0:0:0:0:
96,192,31496,6,0,L|224:192,1,106.666666666667,2|0,0:0|0:0,0:0:0:0:
256,192,31752,1,0,0:0:0:0:
202,192,31838,1,0,0:0:0:0:
96,240,32009,2,0,L|256:240,1,160,0|0,0:0|0:0,0:0:0:0:
96,320,32522,6,0,L|256:320,1,160,2|0,0:0|0:0,0:0:0:0:
176,320,32906,1,0,0:0:0:0:
96,320,33035,2,0,L|192:320,1,80,0|0,0:0|0:0,0:0:0:0:
256,304,33291,2,0,L|336:304,1,80,0|0,0:0|0:0,0:0:0:0:
416,160,33547,6,0,L|288:160,1,106.666666666667,2|0,0:0|0:0,0:0:0:0:
256,224,33803,1,0,0:0:0:0:
309,160,33889,1,0,0:0:0:0:
416,272,34060,2,0,L|240:272,1,160,0|0,0:0|0:0,0:0:0:0:
416,336,34573,6,0,L|224:336,1,160,2|0,0:0|0:0,0:0:0:0:
416,304,35086,2,0,L|320:304,1,80,0|2,0:0|0:0,0:0:0:0:
256,304,35342,2,0,L|368:304,1,80,8|0,0:0|0:0,0:0:0:0:
96,320,35598,6,0,P|48:288|113:225,1,160,4|0,0:3|0:0,0:0:0:0:
208,192,35983,2,0,L|48:192,1,160,2|0,0:0|0:0,0:0:0:0:
160,208,36368,6,0,P|208:176|143:113,1,160,2|0,0:0|0:0,0:0:0:0:
48,112,36752,2,0,L|208:112,1,160,2|0,0:0|0:0,0:0:0:0:
96,176,37137,6,0,L|16:176,3,80,2|0|8|0,0:0|0:0|0:0|0:0,0:0:0:0:
256,192,37650,6,0,L|432:192,1,160,4|8,0:0|0:0,0:0:0:0:
336,192,38034,1,0,0:0:0:0:
224,224,38162,2,0,P|176:272|242:324,1,160,0|8,0:0|0:0,0:0:0:0:
320,320,38547,1,0,0:0:0:0:
112,320,38675,6,0,L|96:240,1,80,2|0,0:0|0:0,0:0:0:0:
192,240,38932,2,0,L|208:160,1,80,8|0,0:0|0:0,0:0:0:0:
96,128,39188,2,0,L|16:128,3,80,0|2|8|0,0:0|0:0|0:0|0:0,0:0:0:0:
256,128,39701,6,0,L|400:128,2,120,4|0|0,0:0|0:0|0:0,0:0:0:0:
160,160,40214,2,0,L|144:304,1,120,2|2,0:0|0:0,0:0:0:0:
208,256,40470,2,0,L|224:336,1,80,8|0,0:0|0:0,0:0:0:0:
32,272,40726,6,0,L|16:176,1,80,2|0,0:0|0:0,0:0:0:0:
96,160,40983,2,0,L|0:160,1,80,8|0,0:0|0:0,0:0:0:0:
208,144,41239,2,0,L|288:144,1,80,0|2,0:0|0:0,0:0:0:0:
208,144,41496,2,0,L|128:144,1,80,8|0,0:0|0:0,0:0:0:0:
368,256,41752,5,4,0:3:0:0:
405,246,41816,1,0,0:0:0:0:
423,211,41880,1,0,0:0:0:0:
408,175,41944,1,0,0:0:0:0:
371,163,42008,1,0,0:0:0:0:
288,160,42137,1,8,0:0:0:0:
176,160,42265,6,0,L|144:112,4,40,2|0|0|0|0,0:0|0:0|0:0|0:0|0:0,0:0:0:0:
288,160,42650,1,8,0:0:0:0:
80,272,42778,5,2,0:0:0:0:
42,262,42842,1,0,0:0:0:0:
24,227,42906,1,0,0:0:0:0:
39,191,42970,1,0,0:0:0:0:
76,179,43034,1,0,0:0:0:0:
160,176,43163,1,8,0:0:0:0:
272,176,43291,6,0,L|304:128,4,40,2|0|0|0|8,0:0|0:0|0:0|0:0|0:0,0:0:0:0:
224,176,43611,1,0,0:0:0:0:
176,176,43676,1,8,0:0:0:0:
368,96,43803,6,0,L|384:224,1,120,2|4,0:0|0:2,0:0:0:0:
256,272,44188,1,2,0:0:0:0:
64,96,44316,2,0,L|48:224,1,120,2|4,0:0|0:2,0:0:0:0:
176,272,44701,1,2,0:0:0:0:
384,320,44829,5,4,0:2:0:0:
422,309,44893,1,0,0:0:0:0:
454,285,44957,1,0,0:0:0:0:
475,252,45021,1,4,0:2:0:0:
484,213,45085,1,0,0:0:0:0:
368,208,45214,5,4,0:2:0:0:
329,197,45278,1,0,0:0:0:0:
297,173,45342,1,0,0:0:0:0:
276,140,45406,1,4,0:2:0:0:
267,101,45470,1,0,0:0:0:0:
384,96,45598,5,4,0:2:0:0:
422,103,45662,1,0,0:0:0:0:
440,137,45726,1,0,0:0:0:0:
426,173,45790,1,0,0:0:0:0:
288,208,45855,5,4,0:3:0:0:
256,192,45983,12,4,47906,0:2:0:0:
256,192,48034,12,0,48803,0:0:0:0:
208,192,49017,5,0,0:0:0:0:
384,192,49444,1,0,0:0:0:0:
128,288,49957,6,0,L|112:240,4,40,4|0|0|0|0,0:0|0:0|0:0|0:0|0:0,0:0:0:0:
32,256,50342,2,0,L|16:208,4,40,2|0|0|0|0,0:1|0:0|0:0|0:0|0:0,0:0:0:0:
128,224,50726,6,0,L|144:160,1,40,2|0,0:1|0:0,0:0:0:0:
32,176,50919,2,0,L|16:64,1,80,2|2,0:1|0:1,0:0:0:0:
144,80,51175,2,0,L|208:80,1,40,2|0,0:1|0:0,0:0:0:0:
96,160,51368,2,0,L|32:160,1,40,2|0,0:1|0:0,0:0:0:0:
180,225,51560,5,2,0:1:0:0:
196,189,51624,1,0,0:0:0:0:
183,152,51688,1,0,0:0:0:0:
148,134,51752,1,2,0:1:0:0:
64,128,51880,1,0,0:0:0:0:
304,224,52009,6,0,L|320:176,4,40,4|0|0|0|0,0:0|0:0|0:0|0:0|0:0,0:0:0:0:
208,224,52394,2,0,L|192:176,4,40,2|0|0|0|0,0:1|0:0|0:0|0:0|0:0,0:0:0:0:
304,224,52778,6,0,L|320:176,1,40,0|0,0:1|0:0,0:0:0:0:
240,144,52971,1,2,0:1:0:0:
320,112,53098,2,0,L|336:64,1,40,2|0,0:1|0:0,0:0:0:0:
224,64,53291,6,0,L|144:64,1,80,2|0,0:1|0:0,0:0:0:0:
224,64,53547,2,0,L|304:64,1,80,2|0,0:1|0:0,0:0:0:0:
208,208,53803,1,2,0:1:0:0:
183,178,53867,1,0,0:0:0:0:
194,141,53931,1,0,0:0:0:0:
231,130,53995,1,0,0:0:0:0:
384,288,54060,6,0,L|400:240,4,40,4|0|0|0|0,0:0|0:0|0:0|0:0|0:0,0:0:0:0:
480,256,54445,2,0,L|496:208,4,40,2|0|0|0|0,0:1|0:0|0:0|0:0|0:0,0:0:0:0:
384,224,54829,6,0,L|368:160,1,40,2|0,0:1|0:0,0:0:0:0:
480,176,55022,2,0,L|496:64,1,80,2|2,0:1|0:1,0:0:0:0:
368,80,55278,2,0,L|304:80,1,40,2|0,0:1|0:0,0:0:0:0:
416,112,55470,2,0,L|480:112,1,40,2|0,0:1|0:0,0:0:0:0:
336,144,55662,1,2,0:1:0:0:
319,179,55726,1,0,0:0:0:0:
331,216,55790,1,0,0:0:0:0:
366,233,55854,1,0,0:0:0:0:
160,320,55983,6,0,L|144:272,1,40,2|0,0:1|0:0,0:0:0:0:
64,256,56175,2,0,L|80:192,1,40,2|0,0:1|0:0,0:0:0:0:
160,176,56368,1,2,0:1:0:0:
288,128,56496,2,0,L|304:64,1,40,2|0,0:1|0:0,0:0:0:0:
208,80,56688,2,0,L|192:16,1,40,2|0,0:1|0:0,0:0:0:0:
448,256,56880,6,0,L|512:256,1,40,0|0,0:0|0:0,0:0:0:0:
496,208,57009,1,0,0:0:0:0:
488,256,57073,2,0,L|448:256,1,40,0|0,0:0|0:0,0:0:0:0:
336,256,57265,2,0,L|240:256,2,80,0|0|0,0:0|0:0|0:0,0:0:0:0:
112,256,57650,5,0,0:0:0:0:
75,241,57714,1,0,0:0:0:0:
60,205,57778,1,0,0:0:0:0:
73,168,57842,1,0,2:0:0:0:
107,151,57906,1,0,0:0:0:0:
208,144,58034,1,0,0:0:0:0:
416,80,58162,5,4,0:0:0:0:
496,128,58291,2,0,L|480:240,1,80,0|0,0:0|0:0,0:0:0:0:
400,224,58547,1,2,0:0:0:0:
224,208,58803,1,0,0:0:0:0:
144,256,58932,2,0,L|160:368,1,80,2|0,0:0|0:0,0:0:0:0:
320,192,59316,5,2,0:0:0:0:
400,240,59444,2,0,L|384:352,1,80,0|0,0:0|0:0,0:0:0:0:
208,272,59829,2,0,L|192:384,2,80,2|0|0,0:0|0:0|0:0,0:0:0:0:
416,256,60342,6,0,L|224:256,1,160,2|0,0:0|0:0,0:0:0:0:
96,256,60983,2,0,L|288:256,1,160,2|0,0:0|0:0,0:0:0:0:
272,288,61752,2,0,P|80:288|80:288,1,160,0|0,0:0|0:0,0:0:0:0:
112,288,62073,1,0,0:0:0:0:
112,288,62137,1,0,0:0:0:0:
224,240,62265,6,0,L|224:144,2,80,4|0|0,0:0|0:0|0:0,0:0:0:0:
144,240,62650,1,0,0:0:0:0:
256,128,62778,2,0,L|272:80,2,40,2|0|0,0:0|0:0|0:0,0:0:0:0:
176,112,63034,2,0,L|160:64,2,40,0|0|0,0:0|0:0|0:0,0:0:0:0:
368,160,63291,6,0,L|448:160,2,80,2|0|0,0:0|0:0|0:0,0:0:0:0:
272,176,63675,2,0,P|240:208|289:311,1,160,0|0,0:0|0:0,0:0:0:0:
368,320,64060,2,0,L|448:320,1,80,0|0,0:0|0:0,0:0:0:0:
240,208,64316,6,0,L|240:48,1,160,4|0,0:0|2:0,0:0:0:0:
368,208,64701,2,0,L|368:48,1,160,0|0,0:0|2:0,0:0:0:0:
240,208,65085,2,0,L|192:208,2,40,0|0|0,0:0|0:0|0:0,0:0:0:0:
448,288,65342,6,0,L|448:112,1,160,4|0,0:0|2:0,0:0:0:0:
320,224,65726,2,0,L|320:48,1,160,0|0,0:0|0:0,0:0:0:0:
448,64,66175,1,0,0:0:0:0:
128,224,66368,6,0,L|128:48,1,160,4|0,0:0|2:0,0:0:0:0:
256,288,66753,2,0,L|256:96,1,160,0|0,0:0|2:0,0:0:0:0:
128,256,67137,2,0,L|80:256,2,40,0|0|0,0:0|0:0|0:0,0:0:0:0:
336,256,67393,6,0,L|448:256,2,106.666666666667,4|0|0,0:0|0:0|0:0,0:0:0:0:
176,256,67906,2,0,L|64:256,2,106.666666666667,2|0|0,0:1|0:0|0:0,0:0:0:0:
416,128,68419,6,0,L|416:320,1,160,4|0,0:0|0:0,0:0:0:0:
320,320,68803,1,0,0:0:0:0:
224,320,68932,2,0,L|224:80,1,240,0|0,0:0|0:0,0:0:0:0:
320,80,69444,5,0,0:0:0:0:
224,80,69573,2,0,L|48:80,1,160,4|0,0:0|0:0,0:0:0:0:
176,128,69957,6,0,L|16:128,1,160,4|0,0:0|0:0,0:0:0:0:
256,192,70470,12,0,71239,0:0:0:0:
176,256,71496,5,0,0:0:0:0:
336,256,71752,1,0,0:0:0:0:
96,192,72009,1,0,0:0:0:0:
416,192,72265,2,0,L|496:192,1,80,0|0,0:0|0:0,0:0:0:0:
304,240,72521,6,0,L|208:240,2,80,2|0|8,0:0|0:0|0:0,0:0:0:0:
128,192,73034,2,0,L|32:192,3,80,0|2|8|0,0:0|0:0|0:0|0:0,0:0:0:0:
240,144,73547,6,0,L|336:144,1,80,2|0,0:0|0:0,0:0:0:0:
240,144,73803,2,0,L|144:144,1,80,8|0,0:0|0:0,0:0:0:0:
256,288,74060,1,2,0:0:0:0:
292,273,74124,1,0,0:0:0:0:
306,237,74188,1,2,0:0:0:0:
290,202,74252,1,0,0:0:0:0:
254,189,74316,1,8,0:0:0:0:
176,192,74444,1,0,0:0:0:0:
384,176,74573,6,0,L|464:176,2,80,2|2|8,0:0|0:0|0:0,0:0:0:0:
208,128,75085,2,0,L|288:128,1,80,0|2,0:0|0:0,0:0:0:0:
368,128,75342,2,0,L|272:128,1,80,8|0,0:0|0:0,0:0:0:0:
64,256,75598,6,0,L|48:160,1,80,4|0,0:0|0:0,0:0:0:0:
128,144,75855,1,8,0:0:0:0:
320,192,75983,1,0,0:0:0:0:
400,176,76111,2,0,L|320:176,1,80,0|2,0:0|0:0,0:0:0:0:
208,112,76368,2,0,L|288:112,1,80,8|0,0:0|0:0,0:0:0:0:
96,224,76624,5,4,0:2:0:0:
16,272,76752,1,0,0:0:0:0:
96,304,76880,1,8,0:0:0:0:
336,256,77137,2,0,L|496:256,1,160,2|8,0:0|0:0,0:0:0:0:
400,256,77521,1,0,0:0:0:0:
160,240,77650,6,0,L|64:240,2,80,2|0|8,0:0|0:0|0:0,0:0:0:0:
255,191,78162,2,0,L|159:191,1,80,2|2,0:0|0:0,0:0:0:0:
147,163,78355,2,0,L|179:195,1,40,0|8,0:0|0:0,0:0:0:0:
255,191,78547,1,0,0:0:0:0:
480,272,78675,6,0,L|400:272,1,80,4|0,0:2|0:0,0:0:0:0:
288,320,78932,2,0,L|432:320,3,120,8|0|8|8,0:0|0:0|0:0|0:0,0:0:0:0:
102,303,79701,6,0,P|36:253|128:58,1,320,4|2,0:2|0:0,0:0:0:0:
146,62,80278,2,0,L|194:62,1,40,0|0,0:0|0:0,0:0:0:0:
96,128,80470,1,2,0:0:0:0:
56,128,80534,1,0,0:0:0:0:
16,128,80598,1,2,0:0:0:0:
208,240,80726,6,0,L|304:240,2,80,4|0|8,0:0|0:0|0:0,0:0:0:0:
384,192,81239,2,0,L|480:192,3,80,0|2|8|0,0:0|0:0|0:0|0:0,0:0:0:0:
272,144,81752,6,0,L|176:144,1,80,2|0,0:0|0:0,0:0:0:0:
272,144,82008,2,0,L|368:144,1,80,8|0,0:0|0:0,0:0:0:0:
256,288,82265,1,0,0:0:0:0:
220,273,82329,1,0,0:0:0:0:
206,237,82393,1,2,0:0:0:0:
222,202,82457,1,0,0:0:0:0:
258,189,82521,1,8,0:0:0:0:
336,192,82649,1,0,0:0:0:0:
128,176,82778,6,0,L|48:176,2,80,2|2|8,0:0|0:0|0:0,0:0:0:0:
304,128,83290,2,0,L|224:128,1,80,2|2,0:0|0:0,0:0:0:0:
144,128,83547,2,0,L|240:128,1,80,8|0,0:0|0:0,0:0:0:0:
448,256,83803,6,0,L|464:160,1,80,4|0,0:0|0:0,0:0:0:0:
368,144,84060,1,8,0:0:0:0:
160,224,84188,1,0,0:0:0:0:
80,160,84316,2,0,L|160:160,1,80,0|2,0:0|0:0,0:0:0:0:
272,160,84573,2,0,L|352:160,1,80,8|0,0:0|0:0,0:0:0:0:
160,208,84829,6,0,P|87:233|63:307,1,160,0|8,0:0|0:0,0:0:0:0:
144,320,85214,1,0,0:0:0:0:
256,304,85342,2,0,P|320:288|352:192,1,160,0|8,0:0|0:0,0:0:0:0:
272,192,85727,1,0,0:0:0:0:
80,192,85855,6,0,L|176:192,1,80,2|0,0:0|0:0,0:0:0:0:
240,192,86111,1,8,0:0:0:0:
464,160,86368,2,0,L|304:160,1,160,0|8,0:0|0:0,0:0:0:0:
208,160,86752,1,0,0:0:0:0:
448,288,86880,6,0,L|464:192,1,80,4|0,0:0|0:0,0:0:0:0:
456,247,87073,2,0,L|447:292,1,40
320,288,87393,5,0,0:0:0:0:
256,192,87906,12,0,88675,0:0:0:0:
320,304,88932,6,0,L|320:112,1,160,2|0,0:1|0:0,0:0:0:0:
256,208,89274,1,0,0:0:0:0:
207,191,89359,1,0,0:0:0:0:
186,143,89444,1,0,0:0:0:0:
207,96,89530,1,0,0:0:0:0:
256,80,89615,1,0,0:0:0:0:
320,64,89701,1,0,0:0:0:0:
128,336,89957,6,0,L|128:144,1,160,2|0,0:1|0:0,0:0:0:0:
192,240,90299,1,0,0:0:0:0:
240,223,90384,1,0,0:0:0:0:
261,175,90469,1,0,0:0:0:0:
240,128,90555,1,0,0:0:0:0:
191,112,90640,1,0,0:0:0:0:
128,96,90726,1,0,0:0:0:0:
480,336,90983,6,0,L|480:160,1,160,2|0,0:1|0:0,0:0:0:0:
416,176,91325,1,0,0:0:0:0:
374,175,91410,1,0,0:0:0:0:
361,145,91495,1,0,0:0:0:0:
374,175,91581,1,0,0:0:0:0:
416,176,91666,1,0,0:0:0:0:
480,176,91752,1,0,0:0:0:0:
288,112,92009,6,0,L|96:112,1,160,2|0,0:1|0:0,0:0:0:0:
75,112,92350,2,0,L|155:112,1,53.3333333333333,0|0,0:0|0:0,0:0:0:0:
152,176,92521,1,0,0:0:0:0:
128,112,92607,2,0,L|75:112,1,53.3333333333333,0|0,0:0|0:0,0:0:0:0:
16,224,92778,2,0,L|128:224,2,80,0|0|0,0:0|0:0|0:0,0:0:0:0:
256,240,93162,6,0,L|352:240,2,80,2|2|0,0:0|0:0|0:0,0:0:0:0:
352,192,93547,2,0,L|448:192,2,80,2|2|0,0:0|0:0|0:0,0:0:0:0:
144,240,93932,6,0,L|48:240,2,80,2|2|0,0:0|0:0|0:0,0:0:0:0:
352,240,94317,2,0,L|448:240,2,80,2|2|0,0:0|0:0|0:0,0:0:0:0:
144,320,94701,5,2,0:0:0:0:
224,320,94829,1,2,0:0:0:0:
256,240,95214,6,0,L|160:240,2,80,2|2|0,0:0|0:0|0:0,0:0:0:0:
160,192,95599,2,0,L|64:192,2,80,2|0|0,0:0|0:0|0:0,0:0:0:0:
368,240,95984,6,0,L|464:240,2,80,2|0|0,0:0|0:0|0:0,0:0:0:0:
160,240,96369,2,0,L|64:240,2,80,2|0|0,0:0|0:0|0:0,0:0:0:0:
368,320,96752,6,0,L|448:320,2,80,2|2|0,0:0|0:0|0:0,0:0:0:0:
144,304,97137,5,2,0:1:0:0:
224,160,97650,1,0,0:0:0:0:
384,224,98162,5,0,0:0:0:0:
192,144,98675,1,0,0:0:0:0:
416,112,99188,5,0,0:0:0:0:
256,192,99316,12,0,99957,0:0:0:0:
448,336,100214,5,0,0:0:0:0:
336,304,100470,1,0,0:0:0:0:
224,272,100726,1,0,0:0:0:0:
336,224,100855,1,0,0:1:0:0:
128,176,100983,2,0,L|48:176,1,80,8|0,0:1|0:0,0:0:0:0:
256,304,101239,6,0,L|336:304,3,80,4|0|8|0,0:0|0:0|0:0|0:0,0:0:0:0:
224,272,101752,1,0,0:0:0:0:
191,202,101880,1,2,0:0:0:0:
220,130,102008,1,8,0:0:0:0:
293,104,102136,1,0,0:0:0:0:
496,224,102265,6,0,L|400:224,1,80,2|0,0:0|0:0,0:0:0:0:
384,192,102457,1,0,0:0:0:0:
416,160,102521,2,0,L|496:160,1,80,8|0,0:0|0:0,0:0:0:0:
400,96,102778,2,0,L|384:208,1,80,0|2,0:0|0:0,0:0:0:0:
480,224,103034,1,8,0:0:0:0:
96,160,103290,6,0,L|16:160,3,80,2|0|8|0,0:0|0:0|0:0|0:0,0:0:0:0:
128,336,103803,1,0,0:0:0:0:
161,266,103931,1,2,0:0:0:0:
132,194,104059,1,8,0:0:0:0:
59,168,104187,1,0,0:0:0:0:
320,144,104316,6,0,L|368:144,2,40,2|0|0,0:0|0:0|0:0,0:0:0:0:
224,144,104573,2,0,L|176:144,2,40,2|0|0,0:0|0:0|0:0,0:0:0:0:
320,208,104829,2,0,L|512:208,1,160,2|0,0:0|0:0,0:0:0:0:
240,336,105214,6,0,P|192:273|240:224,1,160,4|0,0:0|0:0,0:0:0:0:
320,224,105598,1,8,0:0:0:0:
240,176,105726,1,0,0:0:0:0:
352,240,105855,2,0,L|432:240,3,80,0|2|8|0,0:0|0:0|0:0|0:0,0:0:0:0:
208,208,106367,6,0,L|208:128,1,80,2|0,0:0|0:0,0:0:0:0:
249,160,106560,1,0,0:0:0:0:
288,160,106624,2,0,L|288:64,1,80,8|0,0:0|0:0,0:0:0:0:
144,80,106880,1,0,0:0:0:0:
64,80,107008,1,2,0:0:0:0:
64,160,107137,1,8,0:0:0:0:
90,159,107179,1,0,0:0:0:0:
117,159,107222,1,0,0:0:0:0:
144,160,107265,1,0,0:0:0:0:
352,208,107393,6,0,L|400:208,2,40,4|0|0,0:2|0:0|0:0,0:0:0:0:
256,208,107649,1,4,0:2:0:0:
296,208,107713,1,0,0:0:0:0:
336,208,107777,1,0,0:0:0:0:
432,208,107906,2,0,P|480:160|425:95,1,160,0|8,0:0|0:0,0:0:0:0:
393,92,108226,2,0,L|345:92,1,40,0|0,0:0|0:0,0:0:0:0:
112,208,108419,6,0,L|96:288,2,53.3333333333333,2|2|0,0:0|0:0|0:0,0:0:0:0:
192,208,108675,2,0,L|272:208,2,53.3333333333333,2|2|0,0:0|0:0|0:0,0:0:0:0:
112,128,108931,5,2,2:0:0:0:
74,137,108995,1,0,2:0:0:0:
46,164,109059,1,0,2:0:0:0:
35,202,109123,1,0,2:0:0:0:
45,240,109187,1,2,2:0:0:0:
73,268,109251,1,0,2:0:0:0:
111,278,109315,1,0,2:0:0:0:
320,288,109444,6,0,L|480:288,1,160,0|8,0:0|0:0,0:0:0:0:
288,240,109829,2,0,L|272:144,1,80,0|0,0:0|0:0,0:0:0:0:
352,160,110085,2,0,L|368:64,1,80,2|8,0:0|0:0,0:0:0:0:
160,80,110342,2,0,L|80:80,1,80,0|2,0:0|0:0,0:0:0:0:
57,46,110534,6,0,L|89:94,1,40,0|0,0:0|0:0,0:0:0:0:
176,96,110726,2,0,L|208:144,2,40,8|0|0,0:0|0:0|0:0,0:0:0:0:
32,128,110983,2,0,L|16:208,1,80,4|2,0:2|0:0,0:0:0:0:
96,224,111207,2,0,L|112:336,1,100,0|0,0:0|0:0,0:0:0:0:
336,336,111496,6,0,L|512:336,1,160,0|8,0:0|0:0,0:0:0:0:
288,272,111880,2,0,L|192:272,3,80,0|0|2|8,0:0|0:0|0:0|0:0,0:0:0:0:
432,208,112393,2,0,L|448:96,1,80,0|2,0:0|0:0,0:0:0:0:
384,96,112607,1,0,0:0:0:0:
334,110,112692,1,0,0:0:0:0:
311,157,112777,1,8,0:0:0:0:
331,205,112863,1,0,0:0:0:0:
380,223,112948,1,0,0:0:0:0:
176,272,113034,6,0,B|-48:272|192:48,1,335.999989746094,4|0,0:0|0:0,0:0:0:0:
448,16,113547,6,0,L|448:336,1,320,4|0,3:0|3:0,0:0:0:0:
328,336,114188,2,0,L|472:336,1,120,2|2,3:1|3:1,0:0:0:0:
176,16,114573,6,0,L|176:336,1,320,4|2,3:0|3:1,0:0:0:0:
256,336,115171,1,0,3:0:0:0:
304,315,115256,1,0,3:0:0:0:
324,266,115341,1,2,3:1:0:0:
304,218,115427,1,0,3:0:0:0:
256,198,115512,1,0,3:0:0:0:
48,240,115598,6,0,L|32:160,1,53.3333333333333,2|4,3:1|3:2,0:0:0:0:
192,144,115855,1,0,3:0:0:0:
48,112,116026,2,0,L|33:217,1,106.666666666667,4|0,3:2|3:0,0:0:0:0:
112,240,116282,1,0,3:0:0:0:
256,256,116367,2,0,L|272:144,1,106.666666666667,4|0,3:2|3:0,0:0:0:0:
96,128,116624,5,4,0:0:0:0:
48,192,116752,1,0,0:0:0:0:
96,272,116880,2,0,L|288:272,1,160,0|2,0:0|0:0,0:0:0:0:
368,272,117265,2,0,L|464:272,2,80,0|4|0,0:0|0:0|0:0,0:0:0:0:
96,224,117649,6,0,L|272:224,1,160,2|0,0:0|0:0,0:0:0:0:
176,224,118034,1,0,0:0:0:0:
96,320,118162,2,0,L|272:320,1,160,0|0,0:0|0:0,0:0:0:0:
96,320,118675,6,0,L|256:320,1,160,2|0,0:0|0:0,0:0:0:0:
96,320,119188,2,0,L|176:320,1,80,0|0,0:0|0:0,0:0:0:0:
256,304,119444,2,0,L|336:304,1,80,0|0,0:0|0:0,0:0:0:0:
416,192,119701,6,0,L|288:192,1,106.666666666667,2|0,0:0|0:0,0:0:0:0:
256,192,119957,1,0,0:0:0:0:
310,192,120043,1,0,0:0:0:0:
416,240,120214,2,0,L|256:240,1,160,0|0,0:0|0:0,0:0:0:0:
416,320,120727,6,0,L|256:320,1,160,2|0,0:0|0:0,0:0:0:0:
336,320,121111,1,0,0:0:0:0:
416,320,121240,2,0,L|320:320,1,80,0|0,0:0|0:0,0:0:0:0:
256,304,121496,2,0,L|176:304,1,80,0|0,0:0|0:0,0:0:0:0:
96,160,121752,6,0,L|192:160,1,80,2|0,0:0|0:0,0:0:0:0:
256,224,122008,1,0,0:0:0:0:
202,205,122094,1,0,0:0:0:0:
96,272,122265,2,0,L|272:272,1,160,0|0,0:0|0:0,0:0:0:0:
96,336,122778,6,0,L|288:336,1,160,2|0,0:0|0:0,0:0:0:0:
96,304,123291,2,0,L|192:304,1,80,0|2,0:0|0:0,0:0:0:0:
256,304,123547,2,0,L|144:304,1,80,8|0,0:0|0:0,0:0:0:0:
416,320,123803,6,0,L|480:240,2,80,4|0|0,0:3|0:0|0:0,0:0:0:0:
304,192,124188,1,2,0:0:0:0:
384,192,124316,1,0,0:0:0:0:
464,192,124444,1,0,0:0:0:0:
352,240,124573,6,0,L|288:160,2,80,2|0|0,0:0|0:0|0:0,0:0:0:0:
464,112,124957,1,2,0:0:0:0:
384,112,125085,1,0,0:0:0:0:
304,112,125213,1,0,0:0:0:0:
416,176,125342,6,0,L|496:176,3,80,2|0|8|0,0:0|0:0|0:0|0:0,0:0:0:0:
256,192,125855,6,0,L|80:192,1,160,4|8,0:0|0:0,0:0:0:0:
176,192,126239,1,0,0:0:0:0:
288,224,126367,2,0,P|336:272|270:324,1,160,0|8,0:0|0:0,0:0:0:0:
192,320,126752,1,0,0:0:0:0:
400,320,126880,6,0,L|416:240,1,80,2|0,0:0|0:0,0:0:0:0:
320,240,127137,2,0,L|304:160,1,80,8|0,0:0|0:0,0:0:0:0:
416,128,127393,2,0,L|496:128,3,80,0|2|8|0,0:0|0:0|0:0|0:0,0:0:0:0:
256,128,127906,6,0,L|112:128,2,120,4|0|0,0:0|0:0|0:0,0:0:0:0:
352,160,128419,2,0,L|368:304,1,120,2|2,0:0|0:0,0:0:0:0:
304,256,128675,2,0,L|288:336,1,80,8|0,0:0|0:0,0:0:0:0:
480,272,128931,6,0,L|496:176,1,80,2|0,0:0|0:0,0:0:0:0:
416,160,129188,2,0,L|512:160,1,80,8|0,0:0|0:0,0:0:0:0:
304,144,129444,2,0,L|160:144,2,120,0|0|0,0:0|0:0|0:0,0:0:0:0:
112,256,129957,5,2,0:0:0:0:
75,246,130021,1,0,0:0:0:0:
57,211,130085,1,0,0:0:0:0:
72,175,130149,1,0,0:0:0:0:
109,163,130213,1,0,0:0:0:0:
192,160,130342,1,8,0:0:0:0:
304,160,130470,6,0,L|336:112,4,40,2|0|0|0|0,0:0|0:0|0:0|0:0|0:0,0:0:0:0:
192,160,130855,1,8,0:0:0:0:
400,272,130983,5,2,0:0:0:0:
438,262,131047,1,0,0:0:0:0:
456,227,131111,1,0,0:0:0:0:
441,191,131175,1,0,0:0:0:0:
404,179,131239,1,0,0:0:0:0:
320,176,131368,1,8,0:0:0:0:
208,176,131496,6,0,L|176:128,4,40,2|0|0|0|8,0:0|0:0|0:0|0:0|0:0,0:0:0:0:
256,176,131816,1,0,0:0:0:0:
304,176,131881,1,8,0:0:0:0:
64,96,132008,6,0,L|48:224,1,120,2|4,0:0|0:2,0:0:0:0:
168,271,132393,1,2,0:0:0:0:
360,144,132521,6,0,L|344:272,1,106.666666666667,2|4,0:0|0:2,0:0:0:0:
213,319,132906,1,2,0:0:0:0:
416,336,133034,5,4,0:2:0:0:
452,321,133098,1,0,0:0:0:0:
466,285,133162,1,0,0:0:0:0:
451,250,133226,1,4,0:2:0:0:
414,237,133290,1,0,0:0:0:0:
288,192,133419,1,4,0:2:0:0:
328,192,133483,1,0,0:0:0:0:
368,192,133547,1,0,0:0:0:0:
408,192,133611,1,4,0:2:0:0:
448,192,133675,1,0,0:0:0:0:
336,336,133803,5,4,0:2:0:0:
299,321,133867,1,0,0:0:0:0:
285,285,133931,1,0,0:0:0:0:
300,250,133995,1,0,0:0:0:0:
480,176,134060,6,0,P|473:243|368:272,1,160,4|8,0:0|0:0,0:0:0:0:
304,272,134444,1,0,0:0:0:0:
80,208,134573,2,0,L|208:208,2,120,2|0|0,0:0|0:0|0:0,0:0:0:0:
176,144,135085,6,0,L|272:144,2,80,2|0|8,0:0|0:0|0:0,0:0:0:0:
384,144,135470,2,0,P|426:178|352:256,1,160,0|2,0:0|0:0,0:0:0:0:
288,288,135855,1,8,0:0:0:0:
328,288,135919,1,0,0:0:0:0:
368,288,135983,1,0,0:0:0:0:
160,320,136111,6,0,P|108:269|159:217,1,160,2|8,0:0|0:0,0:0:0:0:
240,208,136496,1,0,0:0:0:0:
448,160,136624,2,0,L|304:160,2,120,2|0|0,0:0|0:0|0:0,0:0:0:0:
368,256,137137,6,0,L|352:208,4,40,4|0|0|0|8,0:2|0:0|0:0|0:0|0:0,0:0:0:0:
144,256,137650,2,0,L|160:208,4,40,0|0|2|0|8,0:0|0:0|0:0|0:0|0:0,0:0:0:0:
64,256,138034,1,0,0:0:0:0:
256,240,138162,6,0,L|416:240,1,160,4|8,0:0|0:0,0:0:0:0:
256,240,138675,2,0,L|96:240,1,160,2|8,0:2|0:0,0:0:0:0:
176,240,139060,1,0,0:0:0:0:
416,240,139188,6,0,L|256:240,1,160,4|8,0:0|0:0,0:0:0:0:
96,240,139701,2,0,L|256:240,1,160,2|8,0:0|0:0,0:0:0:0:
176,240,140085,1,0,0:0:0:0:
368,128,140214,6,0,P|420:176|352:224,1,160,4|0,0:0|0:0,0:0:0:0:
256,224,140598,1,0,0:0:0:0:
64,288,140726,2,0,L|160:288,1,80,8|2,0:0|0:0,0:0:0:0:
192,272,140919,2,0,L|48:272,1,120,2|8,0:0|0:0,0:0:0:0:
304,256,141239,6,0,L|320:176,1,80,4|0,0:2|0:0,0:0:0:0:
272,160,141432,1,0,0:0:0:0:
224,144,141496,1,8,0:0:0:0:
352,80,141624,1,0,0:0:0:0:
388,93,141688,1,0,0:0:0:0:
402,129,141752,1,0,0:0:0:0:
385,164,141816,1,0,0:0:0:0:
347,174,141880,1,2,0:0:0:0:
240,176,142009,2,0,L|144:176,1,80,8|0,0:0|0:0,0:0:0:0:
416,336,142265,5,4,0:1:0:0:
288,320,142778,1,8,0:0:0:0:
384,288,142906,1,0,0:0:0:0:
416,192,143034,1,0,0:0:0:0:
384,288,143162,1,0,0:0:0:0:
288,320,143290,5,0,0:0:0:0:
208,320,143419,1,0,0:0:0:0:
288,320,143547,1,0,0:0:0:0:
368,320,143676,1,0,0:0:0:0:
288,320,143803,5,8,0:0:0:0:
208,320,143932,1,0,0:0:0:0:
288,320,144060,1,0,0:0:0:0:
384,320,144189,1,0,0:0:0:0:
160,192,144316,5,4,0:2:0:0:
224,320,144829,1,8,0:0:0:0:
144,208,145000,1,0,0:0:0:0:
224,112,145171,1,0,0:0:0:0:
336,224,145342,6,0,L|368:144,1,80,2|0,0:0|0:0,0:0:0:0:
336,224,145598,2,0,L|256:224,1,80,0|0,0:0|0:0,0:0:0:0:
144,224,145855,2,0,L|96:224,1,40,8|0,0:0|0:0,0:0:0:0:
78,200,145983,2,0,L|57:144,1,40,0|0,0:0|0:0,0:0:0:0:
78,200,146111,2,0,L|190:200,1,80,0|0,0:0|0:0,0:0:0:0:
384,160,146368,6,0,L|480:160,2,80,4|0|8,0:0|0:0|0:0,0:0:0:0:
176,160,146752,1,2,0:0:0:0:
368,240,147009,2,0,L|192:240,1,160,2|8,0:0|0:0,0:0:0:0:
16,304,147393,6,0,L|96:304,2,80,4|0|8,0:0|0:0|0:0,0:0:0:0:
224,272,147778,1,2,0:0:0:0:
432,224,148034,2,0,L|256:224,1,160,2|8,0:0|0:0,0:0:0:0:
80,288,148419,6,0,L|64:160,1,120,4|2,0:0|0:0,0:0:0:0:
192,144,148803,1,8,0:0:0:0:
384,192,148932,2,0,L|400:64,1,120,4|2,0:0|0:0,0:0:0:0:
272,48,149316,1,2,0:0:0:0:
464,144,149444,6,0,L|336:144,2,120,4|2|8,0:0|0:0|0:0,0:0:0:0:
256,224,149957,2,0,L|400:224,2,120,4|2|2,0:0|0:0|0:0,0:0:0:0:
16,288,150470,5,4,0:0:0:0:
112,288,150598,2,0,L|256:208,2,160,4|0|4,0:2|0:0|0:2,0:0:0:0:
192,240,151239,1,0,0:0:0:0:
224,176,151368,1,0,0:0:0:0:
192,112,151496,1,4,0:2:0:0:
112,96,151624,2,0,L|16:96,1,80,0|4,0:0|0:0,0:0:0:0:
240,96,151880,6,0,L|384:-16,2,160,4|0|4,0:2|0:0|0:2,0:0:0:0:
336,160,152521,2,0,L|208:256,2,160,0|4|4,0:0|0:2|0:0,0:0:0:0:
112,320,153162,6,0,L|96:160,1,160,4|0,0:2|0:0,0:0:0:0:
256,176,153675,2,0,L|272:80,1,80,4|0,0:2|0:0,0:0:0:0:
176,112,153932,2,0,L|160:16,1,80,0|4,0:0|0:2,0:0:0:0:
256,176,154188,2,0,L|272:80,1,80,0|4,0:0|0:0,0:0:0:0:
16,272,154444,6,0,L|160:160,2,160,4|0|4,0:2|0:0|0:2,0:0:0:0:
208,224,155085,2,0,L|304:224,1,80,0|0,0:0|0:0,0:0:0:0:
368,240,155342,2,0,L|448:240,1,80,4|0,0:2|0:0,0:0:0:0:
176,336,155598,5,0,0:0:0:0:
137,333,155662,1,0,0:0:0:0:
103,312,155726,1,0,0:0:0:0:
84,277,155790,1,0,0:0:0:0:
83,238,155854,1,0,0:0:0:0:
101,203,155918,1,0,0:0:0:0:
134,180,155982,1,0,0:0:0:0:
336,336,156111,5,0,0:0:0:0:
376,333,156175,1,0,0:0:0:0:
410,312,156239,1,0,0:0:0:0:
429,277,156303,1,0,0:0:0:0:
430,238,156367,1,0,0:0:0:0:
412,203,156431,1,0,0:0:0:0:
379,180,156495,1,0,0:0:0:0:
160,240,156624,6,0,L|112:240,2,40,0|0|0,0:0|0:0|0:0,0:0:0:0:
352,240,156880,2,0,L|400:240,2,40,0|0|0,0:0|0:0|0:0,0:0:0:0:
160,96,157137,5,0,3:0:0:0:
115,123,157222,1,0,3:0:0:0:
99,173,157307,1,0,3:0:0:0:
120,220,157393,1,4,3:1:0:0:
167,243,157478,1,0,3:0:0:0:
224,96,157564,1,0,3:0:0:0:
384,288,157650,6,0,L|400:240,4,40,4|0|0|0|0,0:0|0:0|0:0|0:0|0:0,0:0:0:0:
480,256,158035,2,0,L|496:208,4,40,2|0|0|0|0,0:1|0:0|0:0|0:0|0:0,0:0:0:0:
384,224,158419,6,0,L|368:160,1,40,2|0,0:1|0:0,0:0:0:0:
480,176,158612,2,0,L|496:64,1,80,2|2,0:1|0:1,0:0:0:0:
368,80,158868,2,0,L|304:80,1,40,2|0,0:1|0:0,0:0:0:0:
416,160,159061,6,0,L|480:160,1,40,2|0,0:1|0:0,0:0:0:0:
332,225,159253,1,2,0:1:0:0:
316,189,159317,1,0,0:0:0:0:
329,152,159381,1,0,0:0:0:0:
364,134,159445,1,2,0:1:0:0:
448,128,159573,1,0,0:0:0:0:
208,224,159702,6,0,L|192:176,4,40,4|0|0|0|0,0:0|0:0|0:0|0:0|0:0,0:0:0:0:
304,224,160085,2,0,L|320:176,4,40,0|0|0|0|0,0:0|0:0|0:0|0:0|0:0,0:0:0:0:
208,224,160471,6,0,L|192:176,1,40,0|0,0:1|0:0,0:0:0:0:
272,144,160662,1,0,0:0:0:0:
192,112,160791,2,0,L|176:64,1,40,2|0,0:1|0:0,0:0:0:0:
288,64,160984,6,0,L|368:64,1,80,2|0,0:1|0:0,0:0:0:0:
288,64,161240,2,0,L|208:64,1,80,2|0,0:1|0:0,0:0:0:0:
304,208,161496,1,2,0:1:0:0:
329,178,161560,1,0,0:0:0:0:
318,141,161624,1,0,0:0:0:0:
281,130,161688,1,0,0:0:0:0:
128,288,161753,6,0,L|112:240,4,40,4|0|0|0|0,0:0|0:0|0:0|0:0|0:0,0:0:0:0:
32,256,162138,2,0,L|16:208,4,40,2|0|0|0|0,0:1|0:0|0:0|0:0|0:0,0:0:0:0:
128,224,162522,6,0,L|144:160,1,40,2|0,0:1|0:0,0:0:0:0:
32,176,162715,2,0,L|16:64,1,80,2|2,0:1|0:1,0:0:0:0:
144,80,162971,2,0,L|208:80,1,40,2|0,0:1|0:0,0:0:0:0:
96,112,163163,2,0,L|32:112,1,40,2|0,0:1|0:0,0:0:0:0:
176,144,163355,1,2,0:1:0:0:
193,179,163419,1,0,0:0:0:0:
181,216,163483,1,0,0:0:0:0:
146,233,163547,1,0,0:0:0:0:
48,256,163675,1,0,0:0:0:0:
256,288,163803,5,4,0:0:0:0:
298,257,163868,2,0,L|321:190,2,40,0|0|0,0:0|0:0|0:0,0:0:0:0:
256,176,164061,1,2,0:1:0:0:
144,128,164189,2,0,L|128:64,1,40,2|0,0:1|0:0,0:0:0:0:
256,80,164381,2,0,L|272:16,1,40,2|0,0:1|0:0,0:0:0:0:
64,256,164573,6,0,L|0:256,1,40,0|0,0:0|0:0,0:0:0:0:
9,207,164702,1,0,0:0:0:0:
24,256,164766,2,0,L|64:256,1,40,0|0,0:0|0:0,0:0:0:0:
176,256,164958,1,0,0:0:0:0:
216,256,165022,1,0,0:0:0:0:
256,256,165086,1,0,0:0:0:0:
216,256,165150,1,0,0:0:0:0:
176,256,165214,1,0,0:0:0:0:
400,256,165343,5,0,0:0:0:0:
437,241,165407,1,0,0:0:0:0:
452,205,165471,1,0,0:0:0:0:
439,168,165535,1,0,0:0:0:0:
405,151,165599,1,0,0:0:0:0:
304,144,165727,1,0,0:0:0:0:
112,112,165855,5,4,0:1:0:0:
73,117,165919,1,0,0:0:0:0:
40,138,165983,1,0,0:0:0:0:
19,172,166047,1,0,0:0:0:0:
16,212,166111,1,8,0:1:0:0:
112,240,166239,5,0,0:0:0:0:
151,245,166303,1,0,0:0:0:0:
184,266,166367,1,0,0:0:0:0:
205,300,166431,1,0,0:0:0:0:
208,340,166495,1,8,0:1:0:0:
96,352,166624,6,0,L|80:288,1,40,0|0,0:0|0:0,0:0:0:0:
160,272,166816,2,0,L|176:208,2,40,8|0|0,0:1|0:0|0:0,0:0:0:0:
272,240,167073,2,0,L|288:176,1,40,0|0,0:0|0:0,0:0:0:0:
208,160,167265,6,0,L|192:96,2,40,0|0|0,0:0|0:0|0:0,0:0:0:0:
336,160,167457,2,0,P|320:224|256:240,1,120,0|0,0:0|0:0,0:0:0:0:
176,240,167778,1,0,0:0:0:0:
400,112,167906,5,4,0:1:0:0:
439,117,167970,1,0,0:0:0:0:
472,138,168034,1,0,0:0:0:0:
493,172,168098,1,0,0:0:0:0:
496,212,168162,1,8,0:1:0:0:
400,240,168290,5,0,0:0:0:0:
361,245,168354,1,0,0:0:0:0:
328,266,168418,1,0,0:0:0:0:
307,300,168482,1,0,0:0:0:0:
304,340,168546,1,8,0:1:0:0:
416,352,168675,6,0,L|464:352,1,40,0|0,0:0|0:0,0:0:0:0:
368,288,168868,2,0,L|320:288,1,40,8|0,0:1|0:0,0:0:0:0:
368,288,168996,2,0,L|416:288,1,40,0|0,0:0|0:0,0:0:0:0:
288,240,169188,6,0,L|192:240,3,80,0|0|0|0,0:0|0:0|0:0|0:0,0:0:0:0:
288,176,169701,2,0,L|336:176,2,40,0|0|0,0:0|0:0|0:0,0:0:0:0:
64,208,169957,5,4,0:1:0:0:
67,247,170021,1,0,0:0:0:0:
87,281,170085,1,0,0:0:0:0:
120,304,170149,1,0,0:0:0:0:
159,311,170213,1,8,0:1:0:0:
272,240,170342,5,0,0:0:0:0:
268,279,170406,1,0,0:0:0:0:
248,313,170470,1,0,0:0:0:0:
215,336,170534,1,0,0:0:0:0:
176,343,170598,1,8,0:1:0:0:
64,336,170726,6,0,L|48:288,1,40,0|0,0:0|0:0,0:0:0:0:
128,272,170919,2,0,L|144:224,2,40,8|0|0,0:1|0:0|0:0,0:0:0:0:
16,272,171175,2,0,L|0:224,1,40,0|0,0:0|0:0,0:0:0:0:
112,128,171368,5,0,0:0:0:0:
150,137,171432,1,0,0:0:0:0:
178,164,171496,1,0,0:0:0:0:
189,202,171560,1,0,0:0:0:0:
179,241,171624,1,0,0:0:0:0:
151,269,171688,1,0,0:0:0:0:
113,278,171752,1,0,0:0:0:0:
304,320,171880,6,0,L|400:320,2,80,4|0|8,0:1|0:0|0:1,0:0:0:0:
112,320,172265,2,0,L|16:320,2,80,0|0|8,0:0|0:0|0:1,0:0:0:0:
208,320,172650,1,0,0:0:0:0:
400,304,172778,6,0,L|448:304,2,40,0|0|8,0:0|0:0|0:1,0:0:0:0:
304,256,173034,1,0,0:0:0:0:
344,256,173098,1,0,0:0:0:0:
384,256,173162,1,0,0:0:0:0:
160,240,173291,5,0,0:0:0:0:
126,220,173355,1,0,0:0:0:0:
112,183,173419,1,0,0:0:0:0:
125,146,173483,1,0,0:0:0:0:
158,125,173547,1,0,0:0:0:0:
256,176,173675,5,0,0:0:0:0:
289,156,173739,1,0,0:0:0:0:
303,119,173803,1,0,0:0:0:0:
290,82,173867,1,0,0:0:0:0:
257,61,173931,1,0,0:0:0:0:
64,304,174060,5,4,0:1:0:0:
64,304,174573,1,8,0:0:0:0:
64,304,175085,1,0,0:0:0:0:
64,304,175598,1,8,0:0:0:0:
64,304,176111,1,0,0:0:0:0:
64,304,176624,1,8,0:0:0:0:
64,304,177137,1,0,0:0:0:0:
64,304,177650,1,8,0:0:0:0:
64,368,178162,6,0,L|64:32,3,320,4|8|0|8,0:1|0:0|0:0|0:0,0:0:0:0:
112,336,180214,6,0,P|160:304|96:176,1,213.333333333333,4|0,0:0|0:0,0:0:0:0:
240,256,180726,2,0,P|288:224|224:96,1,213.333333333333,2|0,0:0|0:0,0:0:0:0:
112,96,181239,6,0,P|135:185|265:223,1,213.333333333333,2|0,0:0|0:0,0:0:0:0:
352,224,181752,2,0,P|329:313|199:351,1,213.333333333333,2|0,0:0|0:0,0:0:0:0:
480,320,182265,6,0,P|464:256|352:208,1,160,4|0,0:0|0:0,0:0:0:0:
256,208,182778,2,0,P|188:246|164:321,1,160,0|0,0:0|0:0,0:0:0:0:
32,320,183291,6,0,P|48:256|160:208,1,160,0|0,0:0|0:0,0:0:0:0:
256,208,183804,2,0,P|323:246|347:321,1,160,0|0,0:0|0:0,0:0:0:0:
480,320,184316,6,0,P|464:256|352:208,1,160,0|0,0:0|0:0,0:0:0:0:
256,208,184829,2,0,P|188:246|164:321,1,160,0|0,0:0|0:0,0:0:0:0:
32,320,185342,6,0,P|48:256|160:208,1,160,0|0,0:0|0:0,0:0:0:0:
240,224,185855,2,0,L|336:224,1,80,0|2,0:0|0:1,0:0:0:0:
176,160,186175,1,2,0:1:0:0:
480,320,186368,6,0,P|464:256|352:208,1,160,2|0,0:1|0:0,0:0:0:0:
256,208,186881,2,0,P|188:246|164:321,1,160,0|0,0:0|0:0,0:0:0:0:
347,321,187393,6,0,P|331:257|219:209,1,160,0|0,0:0|0:0,0:0:0:0:
123,209,187906,2,0,P|55:247|31:322,1,160,0|0,0:0|0:0,0:0:0:0:
384,336,188419,6,0,P|432:304|382:157,1,240,2|2,0:1|0:1,0:0:0:0:
128,336,189188,2,0,P|80:304|130:157,1,240,2|2,0:1|0:1,0:0:0:0:
336,160,189957,1,0,0:0:0:0:
416,160,190085,1,0,0:0:0:0:
496,160,190213,1,0,0:0:0:0:
240,352,190470,6,0,P|142:321|250:60,1,480,4|0,0:3|0:0,0:0:0:0:
336,112,191368,2,0,P|352:176|224:288,1,240
16,320,191880,6,0,L|256:320,1,240,0|0,3:0|3:0,0:0:0:0:
416,272,192521,6,0,L|336:272,2,80,4|0|0,0:0|0:0|0:0,0:0:0:0:
256,224,193034,1,2,0:0:0:0:
432,256,193419,6,0,P|400:320|288:352,2,160,4|0|2,0:0|0:0|0:0,0:0:0:0:
336,224,194060,2,0,L|288:224,2,40,0|0|0,0:0|0:0|0:0,0:0:0:0:
432,224,194316,1,0,0:0:0:0:
32,336,194572,6,0,L|32:144,1,160,4|0,0:0|0:0,0:0:0:0:
144,176,194957,2,0,L|192:176,1,40,0|0,0:0|0:0,0:0:0:0:
224,176,195085,2,0,L|80:176,2,120,2|0|2,0:0|0:0|0:0,0:0:0:0:
432,320,195598,6,0,P|483:269|401:231,1,160,4|0,0:0|0:0,0:0:0:0:
304,192,195983,2,0,L|240:192,1,40,0|0,0:0|0:0,0:0:0:0:
304,192,196111,2,0,L|384:192,1,80,2|0,0:0|0:0,0:0:0:0:
425,110,196303,1,0,0:0:0:0:
439,146,196367,1,0,0:0:0:0:
422,181,196431,1,0,0:0:0:0:
385,192,196495,1,2,0:0:0:0:
192,240,196624,6,0,L|64:240,2,120,2|0|2,0:0|0:0|0:0,0:0:0:0:
320,240,197136,2,0,L|448:240,2,120,2|0|2,0:0|0:0|0:0,0:0:0:0:
112,320,197649,6,0,L|80:192,2,120,2|0|2,0:0|0:0|0:0,0:0:0:0:
240,320,198162,2,0,L|272:192,1,120,2|0,0:0|0:0,0:0:0:0:
208,176,198418,6,0,L|192:112,3,40,2|0|0|0,0:0|0:0|0:0|0:0,0:0:0:0:
256,192,199957,12,0,202521,0:0:0:0:
320,304,202778,6,0,P|393:261|295:113,1,287.999991210938,8|0,0:0|0:0,0:0:0:0:
192,96,203291,1,0,0:0:0:0:
320,96,203547,1,0,0:0:0:0:
192,304,203803,6,0,P|119:261|217:113,1,287.999991210938,8|0,0:0|0:0,0:0:0:0:
320,304,204316,2,0,P|393:261|295:113,1,287.999991210938,0|0,0:0|0:0,0:0:0:0:
192,304,204829,6,0,P|119:261|217:113,1,287.999991210938,8|0,0:0|0:0,0:0:0:0:
320,96,205342,1,0,0:0:0:0:
192,96,205598,1,0,0:0:0:0:
320,304,205855,6,0,P|393:261|295:113,1,287.999991210938,8|0,0:0|0:0,0:0:0:0:
192,304,206368,2,0,P|114:265|124:158,1,191.999994140625,0|0,0:0|0:0,0:0:0:0:
176,95,206753,1,0,0:0:0:0:
256,96,206881,5,8,0:0:0:0:
256,224,207394,1,0,0:0:0:0:
256,96,207522,2,0,L|256:304,1,191.999994140625,0|0,0:0|0:0,0:0:0:0:
256,96,207906,5,8,0:0:0:0:
256,176,208162,1,0,0:0:0:0:
256,240,208291,1,0,0:0:0:0:
256,96,208419,2,0,L|256:304,1,191.999994140625,0|0,0:0|0:0,0:0:0:0:
256,176,208804,1,0,0:0:0:0:
256,272,208932,5,8,0:0:0:0:
256,240,209060,1,0,0:0:0:0:
256,96,209188,2,0,L|256:288,1,191.999994140625,0|0,0:0|0:0,0:0:0:0:
320,272,209637,1,0,0:0:0:0:
368,256,209701,1,0,0:0:0:0:
382,217,209765,1,0,0:0:0:0:
368,176,209829,1,0,0:0:0:0:
96,288,209957,5,0,0:0:0:0:
192,288,210214,1,0,0:0:0:0:
96,272,210342,1,0,0:0:0:0:
52,254,210406,1,0,0:0:0:0:
34,211,210470,1,0,0:0:0:0:
52,168,210534,1,0,0:0:0:0:
96,151,210598,1,2,0:1:0:0:
208,192,210726,1,8,0:1:0:0:
251,174,210790,1,0,0:0:0:0:
269,131,210854,1,0,0:0:0:0:
251,88,210918,1,0,0:0:0:0:
96,80,210983,6,0,L|16:80,2,80,4|0|8,0:0|0:0|0:0,0:0:0:0:
208,80,211368,2,0,L|288:80,2,80,2|0|2,0:0|0:0|0:0,0:0:0:0:
96,128,211752,2,0,L|48:128,2,40,8|0|0,0:0|0:0|0:0,0:0:0:0:
288,224,212009,6,0,L|400:224,1,80,2|0,0:0|0:0,0:0:0:0:
288,224,212265,2,0,L|176:224,1,80,8|0,0:0|0:0,0:0:0:0:
320,192,212521,1,0,0:0:0:0:
358,125,212649,1,2,0:0:0:0:
324,55,212777,1,8,0:0:0:0:
248,44,212905,1,0,0:0:0:0:
464,208,213034,6,0,L|480:304,1,80,2|0,0:0|0:0,0:0:0:0:
400,304,213291,1,8,0:0:0:0:
288,272,213419,2,0,L|272:368,1,80,2|0,0:0|0:0,0:0:0:0:
352,368,213676,1,2,0:0:0:0:
464,304,213803,1,8,0:0:0:0:
480,272,213867,1,0,0:0:0:0:
448,256,213931,1,0,0:0:0:0:
240,256,214060,6,0,L|224:160,1,80,4|0,0:2|0:0,0:0:0:0:
336,176,214316,2,0,L|352:80,1,80,4|0,0:2|0:0,0:0:0:0:
128,96,214573,1,0,0:0:0:0:
32,128,214701,2,0,L|48:224,1,80,2|8,0:0|0:0,0:0:0:0:
144,208,214957,1,0,0:0:0:0:
352,320,215085,5,4,0:0:0:0:
384,249,215213,1,0,0:0:0:0:
350,179,215341,1,8,0:0:0:0:
274,161,215469,1,2,0:0:0:0:
160,160,215598,2,0,L|112:160,2,40,0|0|2,0:0|0:0|0:0,0:0:0:0:
256,160,215855,2,0,L|336:160,1,80,8|0,0:0|0:0,0:0:0:0:
112,256,216111,6,0,L|16:256,3,80,4|0|8|0,0:0|0:0|0:0|0:0,0:0:0:0:
128,224,216624,1,4,0:2:0:0:
164,209,216688,1,0,0:0:0:0:
179,173,216752,1,4,0:2:0:0:
166,136,216816,1,0,0:0:0:0:
131,119,216880,1,8,0:0:0:0:
48,112,217009,1,0,0:0:0:0:
272,112,217137,6,0,L|368:112,1,80,4|2,0:0|0:0,0:0:0:0:
240,112,217393,2,0,L|144:112,1,80,2|2,0:0|0:0,0:0:0:0:
352,224,217650,2,0,L|432:224,1,80,8|0,0:0|0:0,0:0:0:0:
472,224,217842,2,0,L|424:224,1,40,0|0,0:0|0:0,0:0:0:0:
395,109,217970,1,0,0:0:0:0:
380,145,218034,1,0,0:0:0:0:
395,180,218098,1,0,0:0:0:0:
432,194,218162,1,0,0:0:0:0:
432,304,218291,5,2,0:0:0:0:
352,304,218419,1,8,0:0:0:0:
272,304,218547,1,0,0:0:0:0:
384,240,218675,2,0,L|432:160,1,80,4|2,0:2|0:0,0:0:0:0:
384,240,218932,2,0,L|304:240,1,80,8|0,0:0|0:0,0:0:0:0:
112,240,219188,6,0,L|16:240,2,80,4|0|8,0:0|0:0|0:0,0:0:0:0:
224,176,219573,2,0,L|128:176,2,80,2|0|2,0:0|0:0|0:0,0:0:0:0:
336,128,219957,2,0,L|400:128,2,40,8|0|0,0:0|0:0|0:0,0:0:0:0:
128,304,220214,6,0,B|336:160,2,240.000009155274,4|2|4,0:3|0:0|0:2,0:0:0:0:
32,256,220855,2,0,L|16:160,1,80,2|8,0:0|0:0,0:0:0:0:
208,240,221111,6,0,P|272:208|304:112,1,160,4|2,0:0|0:0,0:0:0:0:
224,112,221496,1,8,0:0:0:0:
336,96,221624,2,0,L|416:96,2,80,2|0|2,0:0|0:0|0:0,0:0:0:0:
224,176,222009,1,8,0:0:0:0:
184,176,222073,1,0,0:0:0:0:
144,176,222137,1,0,0:0:0:0:
336,224,222265,6,0,L|432:224,1,80,4|0,0:2|0:0,0:0:0:0:
320,304,222521,2,0,L|416:304,1,80,4|0,0:2|0:0,0:0:0:0:
176,352,222778,2,0,L|80:352,2,80,4|2|8,0:2|0:0|0:0,0:0:0:0:
272,352,223162,6,0,P|319:283|262:236,1,160,4|2,0:0|0:0,0:0:0:0:
192,240,223547,1,8,0:0:0:0:
80,208,223675,2,0,L|176:208,2,80,2|8|0,0:0|0:0|0:0,0:0:0:0:
192,160,224060,1,2,0:0:0:0:
232,160,224124,1,0,0:0:0:0:
272,160,224188,1,0,0:0:0:0:
496,144,224316,6,0,L|400:144,2,80,4|0|8,0:0|0:0|0:0,0:0:0:0:
384,208,224701,2,0,L|304:208,2,80,2|0|2,0:0|0:0|0:0,0:0:0:0:
496,256,225085,2,0,L|384:256,1,80,8|0,0:0|0:0,0:0:0:0:
192,256,225342,5,4,0:0:0:0:
96,256,225470,2,0,L|48:256,2,40,0|0|8,0:0|0:0|0:0,0:0:0:0:
208,240,225726,1,4,0:0:0:0:
304,240,225854,2,0,L|352:240,2,40,0|0|2,0:0|0:0|0:0,0:0:0:0:
96,176,226111,2,0,L|0:176,1,80,8|0,0:0|0:0,0:0:0:0:
224,128,226368,6,0,L|304:128,2,80,4|0|0,0:0|0:0|0:0,0:0:0:0:
112,176,226752,2,0,P|64:224|139:274,1,160,4|2,0:2|0:0,0:0:0:0:
192,304,227137,2,0,L|112:304,1,80,8|0,0:0|0:0,0:0:0:0:
336,288,227393,6,0,P|384:240|327:174,1,160,2|8,0:0|0:0,0:0:0:0:
256,176,227778,1,0,0:0:0:0:
144,160,227906,2,0,L|64:160,3,80,0|2|8|0,0:0|0:0|0:0|0:0,0:0:0:0:
288,128,228419,6,0,P|368:144|416:240,1,160,2|8,0:0|0:0,0:0:0:0:
288,272,228932,2,0,L|208:272,1,80,0|8,0:0|0:0,0:0:0:0:
288,272,229188,2,0,L|368:272,1,80,8|0,0:0|0:0,0:0:0:0:
176,224,229444,6,0,P|112:208|80:96,1,160,2|8,0:0|0:0,0:0:0:0:
160,96,229829,1,0,0:0:0:0:
272,112,229957,2,0,L|192:112,1,80,0|2,0:0|0:0,0:0:0:0:
112,128,230214,2,0,L|192:128,1,80,8|0,0:0|0:0,0:0:0:0:
416,144,230470,6,0,P|459:163|416:240,1,160,2|8,0:0|0:0,0:0:0:0:
336,240,230855,1,0,0:0:0:0:
224,272,230983,2,0,L|368:272,2,120,0|2|8,0:0|0:0|0:0,0:0:0:0:
448,352,231496,6,0,L|448:176,1,160,2|8,0:0|0:0,0:0:0:0:
368,176,231880,1,0,0:0:0:0:
176,160,232009,2,0,L|32:160,2,120,4|0|0,0:0|0:0|0:0,0:0:0:0:
288,288,232521,6,0,L|288:112,1,160,2|8,0:0|0:0,0:0:0:0:
208,112,232905,1,0,0:0:0:0:
16,304,233034,2,0,L|144:304,1,120,0|8,0:0|0:0,0:0:0:0:
288,304,233419,1,8,0:0:0:0:
96,240,233547,5,2,0:0:0:0:
16,192,233675,1,8,0:0:0:0:
56,192,233739,1,0,0:0:0:0:
96,192,233803,1,0,0:0:0:0:
192,192,233932,1,8,0:0:0:0:
384,192,234060,5,8,0:0:0:0:
433,206,234145,1,8,0:0:0:0:
455,253,234230,1,8,0:0:0:0:
434,300,234316,1,8,0:0:0:0:
384,314,234401,1,8,0:0:0:0:
320,320,234487,1,8,0:0:0:0:
128,320,234573,5,2,0:0:0:0:
256,272,234744,2,0,L|272:144,1,106.666666666667,8|8,0:0|0:0,0:0:0:0:
16,192,235085,2,0,L|32:64,1,106.666666666667,0|8,0:0|0:0,0:0:0:0:
288,64,235427,1,8,0:0:0:0:
160,96,235598,2,0,L|96:96,2,40,0|0|0,0:0|0:0|0:0,0:0:0:0:
352,96,235855,6,0,L|448:96,1,80,4|0,0:0|0:0,0:0:0:0:
336,160,236111,1,0,0:0:0:0:
259,159,236239,1,2,0:0:0:0:
222,225,236367,1,8,0:0:0:0:
261,291,236495,1,0,0:0:0:0:
480,304,236624,6,0,L|320:304,1,160,2|8,0:0|0:0,0:0:0:0:
240,304,237009,1,0,0:0:0:0:
352,224,237137,2,0,L|464:224,3,80,0|8|8|0,0:0|0:0|0:0|0:0,0:0:0:0:
224,208,237650,6,0,P|144:192|112:112,1,160,2|8,0:0|0:0,0:0:0:0:
256,80,238162,2,0,L|336:80,1,80,0|2,0:0|0:0,0:0:0:0:
256,80,238419,2,0,L|160:80,1,80,8|0,0:0|0:0,0:0:0:0:
368,160,238675,6,0,P|448:192|464:256,2,120,2|8|8,0:0|0:0|0:0,0:0:0:0:
256,160,239188,2,0,P|176:192|160:256,2,120,2|8|8,0:0|0:0|0:0,0:0:0:0:
448,224,239701,6,0,L|464:304,1,80,4|2,0:0|0:0,0:0:0:0:
384,336,239957,1,2,0:0:0:0:
272,240,240085,2,0,L|256:320,1,80,0|2,0:0|0:0,0:0:0:0:
336,352,240341,1,2,0:0:0:0:
448,224,240470,2,0,L|352:224,1,80,2|8,0:0|0:0,0:0:0:0:
176,224,240726,6,0,L|272:224,1,80,4|8,0:0|0:0,0:0:0:0:
352,224,240983,2,0,L|272:224,1,80,0|2,0:0|0:0,0:0:0:0:
176,224,241239,2,0,L|272:224,1,80,8|0,0:0|0:0,0:0:0:0:
32,224,241495,6,0,P|48:288|160:320,1,160,2|8,0:0|0:0,0:0:0:0:
208,320,241880,1,0,0:0:0:0:
320,288,242008,2,0,L|416:288,3,80,0|2|8|0,0:0|0:0|0:0|0:0,0:0:0:0:
176,256,242521,6,0,L|160:176,1,80,2|0,0:0|0:0,0:0:0:0:
240,160,242777,1,8,0:0:0:0:
128,144,242906,2,0,L|32:144,2,80,4|8|0,0:2|0:0|0:0,0:0:0:0:
352,144,243290,6,0,L|432:144,2,80,4|2|2,0:0|0:0|0:0,0:0:0:0:
240,144,243675,2,0,L|160:144,2,80,0|2|2,0:0|0:0|0:0,0:0:0:0:
352,224,244059,2,0,L|256:224,3,80,2|8|0|4,0:0|0:0|0:0|0:2,0:0:0:0:
80,256,244572,6,0,L|160:256,1,80,2|2,0:0|0:0,0:0:0:0:
240,256,244829,2,0,L|160:256,1,80,8|0,0:0|0:0,0:0:0:0:
384,240,245085,6,0,P|428:176|352:112,1,160,2|8,0:0|0:0,0:0:0:0:
304,112,245470,1,2,0:0:0:0:
192,112,245598,2,0,L|176:208,1,80,0|2,0:0|0:0,0:0:0:0:
256,208,245854,2,0,L|272:304,1,80,8|0,0:0|0:0,0:0:0:0:
80,320,246111,6,0,L|64:224,1,80,2|2,0:0|0:0,0:0:0:0:
144,208,246367,1,2,0:0:0:0:
48,176,246495,1,2,0:0:0:0:
256,128,246624,2,0,L|352:128,1,80,8|0,0:0|0:0,0:0:0:0:
96,240,246880,6,0,L|0:240,2,80,4|2|2,0:0|0:0|0:0,0:0:0:0:
208,192,247265,2,0,L|112:192,2,80,0|2|2,0:0|0:0|0:0,0:0:0:0:
416,240,247649,2,0,L|512:240,2,80,0|2|2,0:0|0:0|0:0,0:0:0:0:
304,192,248034,1,0,0:0:0:0:
96,176,248162,2,0,P|67:272|119:297,1,160,2|0,0:0|0:0,0:0:0:0:
192,304,248547,1,0,0:0:0:0:
432,288,248675,5,4,0:0:0:0:
352,288,248803,1,2,0:0:0:0:
272,288,248931,1,2,0:0:0:0:
384,208,249059,1,0,0:0:0:0:
464,208,249187,1,2,0:0:0:0:
384,208,249315,1,0,0:0:0:0:
176,272,249444,5,0,0:0:0:0:
256,272,249572,1,2,0:0:0:0:
336,272,249700,1,2,0:0:0:0:
224,224,249828,1,0,0:0:0:0:
336,192,249957,2,0,L|144:192,1,160,2|0,0:0|0:0,0:0:0:0:
96,192,250342,1,0,0:0:0:0:
304,256,250470,6,0,L|400:256,2,80,4|2|2,0:2|0:0|0:0,0:0:0:0:
192,208,250855,2,0,L|288:208,1,80,0|2,0:0|0:0,0:0:0:0:
352,208,251111,1,2,0:0:0:0:
144,288,251239,6,0,L|48:288,2,80,0|2|2,0:0|0:0|0:0,0:0:0:0:
256,240,251624,1,0,0:0:0:0:
176,240,251752,2,0,P|128:192|184:123,1,160,2|0,0:0|0:0,0:0:0:0:
256,128,252137,1,0,0:0:0:0:
496,272,252265,5,4,0:2:0:0:
416,272,252393,1,2,0:0:0:0:
336,272,252521,1,2,0:0:0:0:
224,224,252649,2,0,L|304:224,2,80,0|2|2,0:0|0:0|0:0,0:0:0:0:
16,272,253034,5,0,0:0:0:0:
96,272,253162,1,2,0:0:0:0:
176,272,253290,1,2,0:0:0:0:
288,192,253418,1,0,0:0:0:0:
208,160,253547,2,0,L|208:64,1,80,2|0,0:0|0:0,0:0:0:0:
416,144,253803,2,0,L|416:48,1,80,4|0,0:2|0:0,0:0:0:0:
208,288,254059,5,4,0:0:0:0:
304,272,254251,1,0,0:0:0:0:
416,304,254443,2,0,P|464:224|416:80,1,240,2|0,0:0|0:0,0:0:0:0:
384,48,254892,1,0,0:0:0:0:
343,49,254956,1,0,0:0:0:0:
240,320,255084,5,2,0:0:0:0:
112,272,255276,1,0,0:0:0:0:
240,224,255468,2,0,P|278:145|224:80,1,160,2|0,0:0|0:0,0:0:0:0:
160,128,255853,1,0,0:0:0:0:
240,144,255982,1,0,0:0:0:0:
448,288,256110,6,0,L|448:176,1,80,0|0,0:0|0:0,0:0:0:0:
448,160,256302,2,0,L|448:112,1,40,0|0,0:0|0:0,0:0:0:0:
368,240,256494,2,0,L|368:128,1,80,0|0,0:0|0:0,0:0:0:0:
368,112,256686,2,0,L|368:64,1,40,0|0,0:0|0:0,0:0:0:0:
288,288,256879,2,0,L|288:240,2,40,0|0|0,0:0|0:0|0:0,0:0:0:0:
96,288,257135,5,4,0:2:0:0:
61,268,257199,1,0,0:0:0:0:
47,231,257263,1,0,0:0:0:0:
59,194,257327,1,0,0:0:0:0:
92,173,257391,1,0,0:0:0:0:
176,176,257520,1,0,0:0:0:0:
288,192,257648,5,4,0:2:0:0:
322,172,257712,1,0,0:0:0:0:
336,135,257776,1,0,0:0:0:0:
324,98,257840,1,0,0:0:0:0:
291,77,257904,1,4,0:2:0:0:
208,80,258033,1,4,0:2:0:0:
432,176,258161,6,0,L|448:256,1,80,4|2,0:0|0:0,0:0:0:0:
368,272,258417,1,0,0:0:0:0:
176,240,258546,2,0,L|160:320,1,80,2|2,0:0|0:0,0:0:0:0:
240,336,258802,1,0,0:0:0:0:
352,350,258930,2,0,L|272:352,1,80,2|2,0:0|0:0,0:0:0:0:
80,176,259187,6,0,L|64:256,1,80,4|2,0:2|0:0,0:0:0:0:
144,272,259443,1,0,0:0:0:0:
336,240,259572,2,0,L|352:320,1,80,2|2,0:0|0:0,0:0:0:0:
272,336,259828,1,0,0:0:0:0:
80,320,259956,2,0,L|176:320,1,80,2|2,0:0|0:0,0:0:0:0:
368,304,260212,5,4,0:0:0:0:
480,272,260341,1,0,0:0:0:0:
440,272,260405,1,0,0:0:0:0:
400,272,260469,1,2,0:0:0:0:
288,256,260597,1,4,0:0:0:0:
176,224,260726,1,0,0:0:0:0:
216,224,260790,1,0,0:0:0:0:
256,224,260854,1,2,0:0:0:0:
64,192,260982,2,0,L|48:80,1,80,4|0,0:0|0:0,0:0:0:0:
272,160,261238,6,0,L|304:16,1,120,4|2,0:0|0:0,0:0:0:0:
176,32,261623,1,2,0:0:0:0:
400,288,261751,2,0,L|432:144,1,120,4|2,0:2|0:0,0:0:0:0:
304,144,262136,1,2,0:0:0:0:
96,224,262264,6,0,B|16:224|16:224|128:224,1,160,4|0,0:0|0:0,0:0:0:0:
192,224,262649,2,0,B|272:224|272:224|192:224|192:224|91:216|128:96|76:89|176:64,1,400,2|0,0:0|0:0,0:0:0:0:
352,144,263545,1,0,0:0:0:0:
192,96,263802,2,0,L|112:96,1,80,0|2,0:0|0:1,0:0:0:0:
304,64,264059,2,0,L|384:64,1,80,8|0,0:1|0:0,0:0:0:0:
160,256,264315,5,4,0:0:0:0:
112,240,264379,1,0,0:0:0:0:
96,208,264443,1,0,0:0:0:0:
112,160,264507,1,0,0:0:0:0:
160,144,264571,1,0,0:0:0:0:
352,256,264700,1,2,0:1:0:0:
400,240,264764,1,0,0:0:0:0:
416,208,264828,1,0,0:0:0:0:
400,160,264892,1,0,0:0:0:0:
352,144,264956,1,0,0:0:0:0:
272,160,265084,2,0,L|352:160,1,80,2|2,0:1|0:1,0:0:0:0:
128,304,265341,6,0,L|32:304,2,80,0|0|0,0:1|0:0|0:0,0:0:0:0:
240,304,265725,2,0,L|304:304,2,40,0|0|2,0:0|0:0|0:1,0:0:0:0:
160,304,265982,2,0,L|80:304,2,80,0|0|0,0:0|0:0|0:0,0:0:0:0:
368,256,266366,6,0,L|448:256,2,53.3333333333333,2|2|2,0:1|0:1|0:1,0:0:0:0:
288,224,266623,2,0,L|272:368,1,106.666666666667,2|0,0:1|0:0,0:0:0:0:
352,352,266879,2,0,L|464:352,2,106.666666666667,2|2|2,0:1|0:1|0:1,0:0:0:0:
112,288,267392,6,0,L|96:192,1,80,2|0,0:1|0:0,0:0:0:0:
176,176,267648,2,0,L|192:80,1,80,0|0,0:0|0:0,0:0:0:0:
80,64,267905,2,0,L|176:64,3,80,0|0|0|0,0:0|0:0|0:0|0:0,0:0:0:0:
256,112,268417,1,2,0:1:0:0:
216,112,268481,1,0,0:0:0:0:
176,112,268545,1,0,0:0:0:0:
400,208,268674,6,0,L|496:208,2,80,4|0|0,0:0|0:0|0:0,0:0:0:0:
288,192,269059,2,0,L|272:304,1,80,2|0,0:1|0:0,0:0:0:0:
352,272,269315,2,0,L|368:384,1,80,2|0,0:1|0:0,0:0:0:0:
144,352,269571,6,0,L|128:304,2,40,2|0|0,0:1|0:0|0:0,0:0:0:0:
224,352,269828,2,0,L|240:304,2,40,2|0|0,0:1|0:0|0:0,0:0:0:0:
144,352,270084,1,2,0:1:0:0:
32,352,270212,2,0,L|16:304,2,40,0|0|0,0:0|0:0|0:0,0:0:0:0:
240,288,270469,5,2,0:1:0:0:
280,288,270533,1,0,0:0:0:0:
320,288,270597,1,0,0:0:0:0:
240,256,270725,1,2,0:1:0:0:
200,256,270789,1,0,0:0:0:0:
160,256,270853,1,0,0:0:0:0:
272,224,270982,5,0,0:0:0:0:
311,225,271046,1,0,0:0:0:0:
350,215,271110,1,0,0:0:0:0:
385,196,271174,1,0,0:0:0:0:
414,169,271238,1,0,0:0:0:0:
435,135,271302,1,0,0:0:0:0:
446,96,271366,1,0,0:0:0:0:
256,64,271494,2,0,L|192:64,2,53.3333333333333,2|2|2,0:1|0:1|0:1,0:0:0:0:
432,64,271751,2,0,L|496:64,2,53.3333333333333,2|2|2,0:1|0:1|0:1,0:0:0:0:
256,80,272007,6,0,L|256:128,6,40,0|0|0|0|0|0|0,2:0|2:0|2:0|2:0|2:0|2:0|2:0,0:0:0:0:
192,320,272520,5,4,0:1:0:0:
152,315,272584,1,0,0:0:0:0:
118,294,272648,1,0,0:0:0:0:
95,262,272712,1,0,0:0:0:0:
88,223,272776,1,0,0:0:0:0:
98,184,272840,1,0,0:0:0:0:
122,153,272904,1,0,0:0:0:0:
157,134,272968,1,0,0:0:0:0:
320,320,273033,5,0,0:0:0:0:
360,315,273097,1,0,0:0:0:0:
394,294,273161,1,0,0:0:0:0:
417,262,273225,1,0,0:0:0:0:
424,223,273289,1,0,0:0:0:0:
414,184,273353,1,0,0:0:0:0:
390,153,273417,1,0,0:0:0:0:
355,134,273481,1,0,0:0:0:0:
176,320,273546,5,0,0:0:0:0:
136,315,273610,1,0,0:0:0:0:
102,294,273674,1,0,0:0:0:0:
79,262,273738,1,0,0:0:0:0:
72,223,273802,1,0,0:0:0:0:
82,184,273866,1,0,0:0:0:0:
106,153,273930,1,0,0:0:0:0:
141,134,273994,1,0,0:0:0:0:
336,320,274058,5,0,0:0:0:0:
376,315,274122,1,0,0:0:0:0:
410,294,274186,1,0,0:0:0:0:
433,262,274250,1,0,0:0:0:0:
440,223,274314,1,0,0:0:0:0:
430,184,274378,1,0,0:0:0:0:
406,153,274442,1,0,0:0:0:0:
371,134,274506,1,0,0:0:0:0:
192,320,274571,5,0,0:0:0:0:
152,315,274635,1,0,0:0:0:0:
118,294,274699,1,0,0:0:0:0:
95,262,274763,1,0,0:0:0:0:
88,223,274827,1,0,0:0:0:0:
98,184,274891,1,0,0:0:0:0:
122,153,274955,1,0,0:0:0:0:
157,134,275019,1,0,0:0:0:0:
320,320,275084,5,0,0:0:0:0:
360,315,275148,1,0,0:0:0:0:
394,294,275212,1,0,0:0:0:0:
417,262,275276,1,0,0:0:0:0:
424,223,275340,1,0,0:0:0:0:
414,184,275404,1,0,0:0:0:0:
390,153,275468,1,0,0:0:0:0:
355,134,275532,1,0,0:0:0:0:
208,320,275597,6,0,L|160:320,1,40,0|0,0:0|0:0,0:0:0:0:
153,273,275725,1,0,0:0:0:0:
168,320,275789,2,0,L|216:320,1,40,0|0,0:0|0:0,0:0:0:0:
304,320,275982,6,0,L|352:320,1,40,0|0,0:0|0:0,0:0:0:0:
359,273,276110,1,4,0:2:0:0:
344,320,276174,2,0,L|296:320,1,40,0|0,0:0|0:0,0:0:0:0:
176,320,276302,6,0,L|128:320,1,40,4|0,0:2|0:0,0:0:0:0:
121,273,276430,1,0,0:0:0:0:
136,320,276494,2,0,L|184:320,1,40,4|0,0:2|0:0,0:0:0:0:
352,304,276623,6,0,P|423:274|352:96,1,320,4|0,0:0|0:0,0:0:0:0:
272,144,277264,2,0,L|416:144,1,120,2|2,1:0|1:0,0:0:0:0:
112,320,277648,6,0,P|41:290|112:112,1,320,2|2,1:0|1:0,0:0:0:0:
176,288,278247,1,2,1:0:0:0:
223,266,278332,1,2,1:0:0:0:
243,218,278417,1,2,1:0:0:0:
225,169,278503,1,2,1:0:0:0:
179,146,278588,1,2,1:0:0:0:
368,112,278674,5,4,0:2:0:0:
448,160,278759,2,0,L|304:160,2,106.666666666667,2|0|2,0:0|0:0|0:0,0:0:0:0:
320,208,279272,2,0,L|256:208,1,53.3333333333333,2|2,0:0|0:0,0:0:0:0:
320,224,279443,2,0,L|448:224,1,106.666666666667,2|0,0:0|0:0,0:0:0:0:
256,368,279700,5,4,0:2:0:0:
199,342,279785,1,0,0:0:0:0:
176,285,279870,1,0,0:0:0:0:
200,227,279956,1,0,0:0:0:0:
258,203,280041,1,0,0:0:0:0:
320,192,280127,1,0,0:0:0:0:
256,144,280212,2,0,P|225:95|268:67,1,106.666666666667,0|0,0:0|0:0,0:0:0:0:
416,48,280469,2,0,L|416:128,1,80,4|0,0:2|0:0,0:0:0:0:
128,208,280725,6,0,L|96:160,4,40,4|0|0|0|0,0:0|0:0|0:0|0:0|0:0,0:0:0:0:
384,208,281110,2,0,L|416:160,4,40,2|0|0|0|0,1:0|0:0|0:0|0:0|0:0,0:0:0:0:
272,224,281494,5,2,1:0:0:0:
224,224,281559,1,0,0:0:0:0:
144,176,281687,1,2,1:0:0:0:
105,95,281815,1,2,1:0:0:0:
144,16,281943,2,0,L|192:16,1,40,2|0,1:0|0:0,0:0:0:0:
263,128,282135,6,0,L|215:128,1,40,2|0,1:0|0:0,0:0:0:0:
112,176,282328,1,2,1:0:0:0:
74,187,282392,1,0,0:0:0:0:
58,222,282456,1,0,0:0:0:0:
74,258,282520,1,0,0:0:0:0:
160,288,282648,1,0,0:0:0:0:
352,208,282776,6,0,L|384:160,4,40,4|0|0|0|0,0:2|0:0|0:0|0:0|0:0,0:0:0:0:
160,208,283161,2,0,L|128:160,4,40,2|0|0|0|0,1:0|0:0|0:0|0:0|0:0,0:0:0:0:
368,320,283546,6,0,L|416:320,1,40,2|0,1:0|0:0,0:0:0:0:
432,224,283739,1,2,1:0:0:0:
408,320,283866,2,0,L|360:320,1,40,2|0,1:0|0:0,0:0:0:0:
256,304,284058,2,0,L|160:304,2,80,2|0|2,1:0|0:0|1:0,0:0:0:0:
336,304,284443,1,0,0:0:0:0:
448,288,284571,2,0,L|480:240,2,40,2|0|0,1:0|0:0|0:0,0:0:0:0:
208,208,284828,6,0,L|196:156,4,40,2|0|0|0|0,1:0|0:0|0:0|0:0|0:0,0:0:0:0:
304,208,285212,2,0,L|316:156,4,40,2|0|0|0|0,1:0|0:0|0:0|0:0|0:0,0:0:0:0:
96,304,285597,5,2,1:0:0:0:
96,272,285661,1,0,0:0:0:0:
160,240,285789,1,2,1:0:0:0:
272,208,285918,1,2,1:0:0:0:
208,160,286046,1,2,1:0:0:0:
208,128,286110,1,0,0:0:0:0:
272,112,286238,5,2,1:0:0:0:
272,144,286302,1,0,0:0:0:0:
160,192,286430,1,2,1:0:0:0:
160,240,286494,1,0,0:0:0:0:
160,288,286559,1,0,0:0:0:0:
160,336,286623,1,0,0:0:0:0:
272,352,286751,1,2,1:0:0:0:
272,304,286815,1,0,0:0:0:0:
80,144,286943,6,0,L|32:144,1,40,2|0,1:0|0:0,0:0:0:0:
128,96,287136,1,2,1:0:0:0:
240,112,287264,2,0,L|288:112,1,40,2|0,1:0|0:0,0:0:0:0:
192,192,287456,2,0,L|144:192,1,40,2|0,1:0|0:0,0:0:0:0:
128,288,287648,1,2,1:0:0:0:
152,192,287776,2,0,L|192:192,1,40,2|0,1:0|0:0,0:0:0:0:
352,224,287905,5,2,1:0:0:0:
388,211,287969,1,0,0:0:0:0:
404,175,288033,1,0,0:0:0:0:
388,140,288097,1,0,0:0:0:0:
351,127,288161,1,0,0:0:0:0:
256,128,288289,2,0,L|208:128,2,40
352,224,288546,5,0,0:0:0:0:
388,211,288610,1,0,0:0:0:0:
404,175,288674,1,0,0:0:0:0:
388,140,288738,1,0,0:0:0:0:
351,127,288802,1,0,0:0:0:0:
112,288,288930,6,0,B|208:32|208:32|320:288|320:288|416:32|416:32|464:180,1,960,4|0,0:0|0:0,0:0:0:0:
416,320,290982,1,0,0:0:0:0:
288,352,291494,1,0,0:0:0:0:
64,336,292007,1,0,0:0:0:0:
320,256,292520,1,0,0:0:0:0:
256,192,293033,5,8,0:0:0:0:
256,128,293161,1,0,0:0:0:0:
256,192,293289,1,0,0:0:0:0:
256,144,293417,1,0,0:0:0:0:
256,80,293674,2,0,L|256:272,1,160,0|0,0:0|0:0,0:0:0:0:
256,256,294058,5,8,0:0:0:0:
256,320,294315,1,0,0:0:0:0:
256,240,294443,1,0,0:0:0:0:
256,192,294571,1,0,0:0:0:0:
256,80,294699,2,0,L|256:272,1,160,0|0,0:0|0:0,0:0:0:0:
256,112,295084,6,0,L|256:304,1,160,8|0,0:0|0:0,0:0:0:0:
256,256,295469,1,0,0:0:0:0:
256,112,295597,6,0,L|256:304,1,160,0|0,0:0|0:0,0:0:0:0:
256,192,296110,12,0,297905,0:0:0:0:
304,288,298161,6,0,B|224:288|224:288|336:288,1,160,4|0,0:0|0:0,0:0:0:0:
208,224,298546,2,0,B|288:224|288:224|112:224,1,240,2|0,0:0|0:0,0:0:0:0:
