osu file format v14

[General]
AudioFilename: audio.mp3
AudioLeadIn: 0
PreviewTime: 202690
Countdown: 0
SampleSet: Normal
StackLeniency: 0.7
Mode: 2
LetterboxInBreaks: 0
WidescreenStoryboard: 1

[Editor]
DistanceSpacing: 0.1
BeatDivisor: 4
GridSize: 16
TimelineZoom: 4.499999

[Metadata]
Title:Xronier ("geneXe" Long ver.)
TitleUnicode:Xronièr ("genèXe" Long ver.)
Artist:Camellia as "fluX Xroise"
ArtistUnicode:かめりあ as "fluX Xroisé"
Creator:x_angelkawaii_x
Version:Cup
Source:SOUND VOLTEX IV HEAVENLY HAVEN
Tags:rocma version sdvx Xroniàl Xéro cametek xronial xero omega dimension 5+ electronic instrumental video rhythm game konami
BeatmapID:3111364
BeatmapSetID:1506066

[Difficulty]
HPDrainRate:4.5
CircleSize:2.5
OverallDifficulty:6
ApproachRate:6
SliderMultiplier:1.28
SliderTickRate:0.5

[Events]
//Background and Video events
0,0,"bg.jpg",0,0
//Break Periods
//Storyboard Layer 0 (Background)
//Storyboard Layer 1 (Fail)
//Storyboard Layer 2 (Pass)
//Storyboard Layer 3 (Foreground)
//Storyboard Layer 4 (Overlay)
//Storyboard Sound Samples

[TimingPoints]
727,256.410256410256,4,3,2,80,1,0
2778,-100,4,2,2,50,0,0
6880,-100,4,1,2,70,0,0
10983,-100,4,2,2,50,0,0
13034,-100,4,1,2,70,0,0
28419,-100,4,2,2,50,0,0
29444,-100,4,1,2,60,0,0
37650,-100,4,1,2,70,0,0
45983,-100,4,1,2,50,0,0
49957,-100,4,3,2,70,0,0
58162,-100,4,2,2,50,0,0
64316,-100,4,3,2,70,0,0
68419,-100,4,2,2,50,0,0
70470,-100,4,3,2,80,0,0
72521,-100,4,1,2,70,0,0
86880,-100,4,2,2,50,0,0
93162,-100,4,1,2,70,0,0
97137,-100,4,2,2,50,0,0
101239,-100,4,1,2,70,0,0
116624,-100,4,2,2,50,0,0
117650,-100,4,1,2,60,0,0
123803,-100,4,1,2,70,0,0
142265,-100,4,2,2,50,0,0
146368,-100,4,1,2,70,0,0
157650,-100,4,3,2,70,0,0
174060,-100,4,2,2,50,0,0
182265,-100,4,2,2,60,0,0
194573,-100,4,1,2,70,0,0
199957,-100,4,2,2,50,0,0
202778,-80,4,2,2,70,0,0
210983,-100,4,1,2,70,0,1
220214,-80,4,1,2,70,0,1
220726,-100,4,1,2,70,0,1
227393,-100,4,3,3,70,0,0
239701,256.410256410256,7,1,2,70,1,1
254059,256.410256410256,4,2,2,60,1,0
256110,-100,4,3,2,60,0,0
258161,-100,4,1,2,70,0,0
262264,-100,4,2,2,60,0,0
264315,-100,4,3,2,70,0,0
272520,-100,4,3,2,70,0,1
276623,-100,4,3,2,70,0,0
278674,-100,4,1,2,70,0,0
280725,-100,4,3,2,70,0,0
288930,-100,4,2,2,60,0,0
296110,-100,4,3,2,80,0,0
298161,-100,4,2,2,60,0,0

[Colours]
Combo1 : 239,205,44
Combo2 : 0,230,230
Combo3 : 253,32,104
Combo4 : 224,136,3

[HitObjects]
256,192,727,12,4,2778,0:3:0:0:
256,304,4188,6,0,L|256:96,1,192,0|0,3:0|3:0,0:0:0:0:
112,288,4829,5,4,0:0:0:0:
256,128,5726,1,4,0:0:0:0:
256,240,5983,1,0,0:0:0:0:
448,336,6880,6,0,L|448:80,1,256,4|2,0:0|0:0,0:0:0:0:
256,352,7906,6,0,L|256:96,1,256,4|2,0:0|0:0,0:0:0:0:
48,128,8932,6,0,P|64:208|224:288,2,256,2|2|2,0:0|0:0|0:0,0:0:0:0:
256,96,10470,1,2,0:0:0:0:
464,128,10983,5,4,0:0:0:0:
256,336,12009,5,4,0:0:0:0:
128,304,12521,2,0,L|128:176,1,128,2|8,0:0|0:1,0:0:0:0:
256,208,13034,5,4,0:0:0:0:
448,208,13547,1,0,0:0:0:0:
256,144,14060,6,0,P|141:189|110:309,1,256,2|0,0:0|0:0,0:0:0:0:
208,320,14829,1,8,0:0:0:0:
304,336,15085,5,2,0:0:0:0:
128,272,15598,1,0,0:0:0:0:
304,160,16368,1,2,0:0:0:0:
400,128,16624,1,2,0:0:0:0:
256,144,17009,5,4,0:0:0:0:
48,144,17650,1,0,0:0:0:0:
256,336,18162,6,0,L|256:64,1,256,2|0,0:0|0:0,0:0:0:0:
144,80,18932,1,8,0:0:0:0:
32,96,19188,6,0,P|48:176|192:272,1,256,4|0,0:2|0:0,0:0:0:0:
384,272,20214,2,0,P|455:234|384:112,1,256,2|2,0:0|2:0,0:0:0:0:
160,208,21239,5,4,0:0:0:0:
352,208,21752,1,0,0:0:0:0:
352,336,22137,1,0,0:0:0:0:
256,336,22393,6,0,P|192:320|144:208,1,192,0|2,0:0|0:0,0:0:0:0:
144,144,23162,1,4,0:2:0:0:
256,336,23419,6,0,P|320:320|368:208,1,192,2|0,0:0|0:0,0:0:0:0:
256,192,24188,2,0,L|128:192,1,128,4|4,0:2|0:2,0:0:0:0:
256,192,24829,1,8,0:0:0:0:
480,192,25342,5,4,3:0:0:0:
272,256,25983,2,0,L|272:48,1,192,0|4,3:0|3:0,0:0:0:0:
48,240,26880,6,0,L|48:112,1,128,2|2,3:1|3:1,0:0:0:0:
256,192,27393,12,4,28419,0:0:0:0:
256,80,29444,6,0,L|256:336,1,256,2|0,0:0|0:0,0:0:0:0:
416,80,30470,6,0,L|416:336,1,256,2|0,0:0|0:0,0:0:0:0:
304,336,31239,1,0,0:0:0:0:
192,336,31496,6,0,P|128:320|48:160,1,256,2|0,0:0|0:0,0:0:0:0:
48,0,32265,6,0,P|108:215|256:258,1,384
464,320,33547,6,0,L|464:64,1,256,2|0,0:0|0:0,0:0:0:0:
336,320,34316,6,0,P|276:305|352:80,1,384
448,96,35342,1,8,0:0:0:0:
337,78,35598,5,4,0:3:0:0:
160,112,35983,1,2,0:0:0:0:
336,208,36367,5,2,0:0:0:0:
448,224,36752,1,2,0:0:0:0:
336,272,37137,1,2,0:0:0:0:
128,336,37650,6,0,L|128:64,1,256,4|0,0:0|0:0,0:0:0:0:
240,224,38419,2,0,P|304:192|219:62,1,256,8|8,0:0|0:0,0:0:0:0:
128,64,39188,1,0,0:0:0:0:
352,96,39701,6,0,P|400:112|336:256,1,256,4|2,0:0|0:0,0:0:0:0:
160,256,40726,6,0,P|86:210|168:95,1,256,2|0,0:0|0:0,0:0:0:0:
256,96,41496,1,8,0:0:0:0:
368,320,41752,6,0,P|425:288|448:208,2,128,4|0|2,0:3|0:0|0:0,0:0:0:0:
256,320,42521,1,0,0:0:0:0:
144,320,42778,6,0,P|75:276|64:224,2,128,2|0|2,0:0|0:0|0:0,0:0:0:0:
256,320,43547,1,0,0:0:0:0:
352,304,43803,6,0,P|416:229|338:92,1,256,2|2,0:0|0:0,0:0:0:0:
192,320,44829,6,0,P|40:197|224:0,1,512,4|4,0:2|0:3,0:0:0:0:
256,192,46111,12,0,48932,0:0:0:0:
96,352,49957,6,0,P|42:319|96:224,1,192,4|2,0:0|0:1,0:0:0:0:
224,240,50726,1,2,0:1:0:0:
336,176,51175,5,2,0:1:0:0:
224,112,51560,2,0,L|224:0,1,96,2|2,0:1|0:1,0:0:0:0:
352,224,52009,6,0,P|406:191|352:96,1,192,4|2,0:0|0:1,0:0:0:0:
224,96,52778,1,0,0:1:0:0:
96,256,53162,6,0,P|35:207|108:133,1,192,0|2,0:0|0:1,0:0:0:0:
192,112,53803,1,2,0:1:0:0:
304,112,54060,6,0,P|368:128|432:246,1,192,4|0,0:0|0:0,0:0:0:0:
293,336,54829,1,2,0:1:0:0:
115,328,55278,6,0,P|47:285|109:171,1,224,2|2,0:1|0:1,0:0:0:0:
208,144,55983,1,2,0:1:0:0:
299,161,56175,2,0,P|356:252|299:305,1,192,2|2,0:1|0:1,0:0:0:0:
246,312,56688,1,0,0:0:0:0:
144,336,56880,6,0,L|144:192,1,128,0|0,0:0|0:0,0:0:0:0:
256,192,57393,1,0,0:0:0:0:
368,336,57650,2,0,L|368:192,1,128,0|0,0:0|0:0,0:0:0:0:
240,192,58162,5,4,0:0:0:0:
96,192,58547,2,0,P|41:142|112:64,1,192,2|2,0:0|0:0,0:0:0:0:
256,64,59573,1,0,0:0:0:0:
464,144,60214,5,0,0:0:0:0:
192,192,60983,1,2,0:0:0:0:
416,256,61752,1,0,0:0:0:0:
192,336,62265,6,0,P|96:304|48:160,1,256,4|2,0:0|0:0,0:0:0:0:
256,256,63291,2,0,P|352:224|400:80,1,256,2|2,0:0|0:0,0:0:0:0:
480,320,64316,6,0,L|480:112,1,192,4|0,0:0|0:0,0:0:0:0:
304,112,65085,1,0,0:0:0:0:
192,304,65342,6,0,L|192:96,1,192,4|0,0:0|0:0,0:0:0:0:
320,128,65983,2,0,L|320:224,1,96,0|0,0:0|0:0,0:0:0:0:
224,320,66368,6,0,L|224:128,1,192,4|0,0:0|0:0,0:0:0:0:
416,112,67137,1,0,0:0:0:0:
288,112,67393,2,0,P|224:112|128:272,1,256,4|2,0:0|0:1,0:0:0:0:
352,48,68419,6,0,L|352:304,1,256,4|0,0:0|0:0,0:0:0:0:
208,304,69444,1,0,0:0:0:0:
160,128,69573,2,0,L|160:272,1,128,4|0,0:0|0:0,0:0:0:0:
208,240,69957,6,0,L|208:96,1,128,4|0,0:0|0:0,0:0:0:0:
256,192,70470,12,2,72521,0:0:0:0:
256,112,73034,6,0,P|221:172|268:209,1,128,0|8,0:0|0:0,0:0:0:0:
368,208,73547,1,2,0:0:0:0:
176,288,74060,1,2,0:0:0:0:
416,368,74573,6,0,L|448:224,2,128,2|8|0,0:0|0:0|0:0,0:0:0:0:
209,59,75598,6,0,P|158:75|64:256,1,256,4|8,0:0|0:0,0:0:0:0:
160,256,76368,1,0,0:0:0:0:
288,320,76624,5,4,0:2:0:0:
176,320,76880,1,0,0:0:0:0:
64,320,77137,2,0,L|64:176,1,128,2|8,0:0|0:0,0:0:0:0:
192,256,77650,6,0,P|254:227|176:96,1,256,2|2,0:0|0:0,0:0:0:0:
96,96,78419,1,0,0:0:0:0:
192,80,78675,1,4,0:2:0:0:
320,64,78932,6,0,P|381:124|320:185,1,192,8|8,0:0|0:0,0:0:0:0:
144,176,79701,6,0,P|240:192|288:352,1,256,4|2,0:2|0:0,0:0:0:0:
48,320,80726,5,4,0:0:0:0:
240,192,81239,2,0,P|275:252|240:272,1,128,0|8,0:0|0:0,0:0:0:0:
128,256,81752,6,0,L|128:128,2,128,2|8|0,0:0|0:0|0:0,0:0:0:0:
352,304,82778,6,0,L|368:160,1,128,2|8,0:0|0:0,0:0:0:0:
288,192,83290,2,0,L|272:48,1,128,2|8,0:0|0:0,0:0:0:0:
368,64,83803,6,0,P|419:80|354:224,1,256,4|0,0:0|0:0,0:0:0:0:
256,224,84573,1,8,0:0:0:0:
96,256,85085,5,8,0:0:0:0:
192,224,85342,2,0,L|192:96,1,128,0|8,0:0|0:0,0:0:0:0:
96,80,85855,1,2,0:0:0:0:
256,80,86368,5,0,0:0:0:0:
256,192,86880,12,2,88932,0:1:0:0:
384,288,89701,5,0,0:0:0:0:
272,288,89957,5,2,0:1:0:0:
64,192,90726,1,0,0:0:0:0:
176,192,90982,5,2,0:1:0:0:
416,144,91752,1,0,0:0:0:0:
304,128,92009,6,0,L|304:-16,2,128,2|0|0,0:1|0:0|0:0,0:0:0:0:
480,208,93162,5,2,0:0:0:0:
480,336,93547,1,2,0:0:0:0:
336,208,93932,1,2,0:0:0:0:
336,320,94316,1,2,0:0:0:0:
192,320,94701,1,2,0:0:0:0:
32,208,95214,5,2,0:0:0:0:
32,336,95599,1,2,0:0:0:0:
176,208,95984,1,2,0:0:0:0:
176,320,96368,1,2,0:0:0:0:
32,320,96753,1,2,0:0:0:0:
224,320,97137,5,2,0:1:0:0:
304,208,97650,1,0,0:0:0:0:
224,112,98162,1,0,0:0:0:0:
48,96,98675,1,0,0:0:0:0:
224,80,99188,5,0,0:0:0:0:
256,336,100214,5,0,0:0:0:0:
384,304,100726,2,0,L|384:176,1,128,0|8,0:0|0:1,0:0:0:0:
256,208,101239,5,4,0:0:0:0:
64,208,101752,1,0,0:0:0:0:
256,144,102265,6,0,P|371:189|402:309,1,256,2|0,0:0|0:0,0:0:0:0:
304,320,103034,1,8,0:0:0:0:
208,336,103290,5,2,0:0:0:0:
384,272,103803,1,0,0:0:0:0:
208,208,104316,1,2,0:0:0:0:
128,192,104573,1,2,0:0:0:0:
96,112,104829,1,2,0:0:0:0:
272,112,105214,5,4,0:0:0:0:
464,144,105855,1,0,0:0:0:0:
256,336,106367,6,0,L|256:64,1,256,2|0,0:0|0:0,0:0:0:0:
368,80,107137,1,8,0:0:0:0:
480,96,107393,6,0,P|464:176|320:272,1,256,4|0,0:2|0:0,0:0:0:0:
128,272,108419,6,0,P|57:234|128:112,1,256,2|2,0:0|2:0,0:0:0:0:
320,288,109444,6,0,P|362:251|320:208,1,128,0|8,0:0|0:0,0:0:0:0:
208,208,109957,1,0,0:0:0:0:
96,208,110214,6,0,P|14:142|102:54,1,256,8|8,0:0|0:0,0:0:0:0:
224,64,110983,1,4,0:2:0:0:
208,256,111496,6,0,L|80:256,1,128,0|8,0:0|0:0,0:0:0:0:
64,144,112009,1,0,0:0:0:0:
176,176,112266,6,0,P|288:128|352:0,1,256,8|8,0:0|0:0,0:0:0:0:
240,144,113034,1,4,0:0:0:0:
32,192,113547,5,4,3:0:0:0:
240,256,114188,2,0,L|240:48,1,192,0|4,3:0|3:0,0:0:0:0:
464,240,115085,6,0,L|464:112,1,128,2|2,3:1|3:1,0:0:0:0:
256,192,115598,12,4,116624,0:0:0:0:
256,80,117649,6,0,L|256:336,1,256,2|0,0:0|0:0,0:0:0:0:
96,80,118675,6,0,L|96:336,1,256,2|0,0:0|0:0,0:0:0:0:
208,336,119444,1,0,0:0:0:0:
320,336,119701,6,0,P|384:320|464:160,1,256,2|0,0:0|0:0,0:0:0:0:
464,0,120470,6,0,P|404:215|256:258,1,384
48,320,121752,6,0,L|48:64,1,256,2|0,0:0|0:0,0:0:0:0:
176,304,122521,6,0,P|236:289|160:64,1,384
80,80,123547,1,8,0:0:0:0:
176,64,123803,5,4,0:3:0:0:
320,112,124188,1,2,0:0:0:0:
176,176,124572,1,2,0:0:0:0:
32,224,124957,1,2,0:0:0:0:
176,272,125342,1,2,0:0:0:0:
384,336,125855,6,0,L|384:64,1,256,4|0,0:0|0:0,0:0:0:0:
272,224,126624,2,0,P|208:192|293:62,1,256,8|8,0:0|0:0,0:0:0:0:
384,64,127393,1,0,0:0:0:0:
160,96,127906,6,0,P|112:112|176:256,1,256,4|2,0:0|0:0,0:0:0:0:
352,256,128931,6,0,P|426:210|344:95,1,256,2|0,0:0|0:0,0:0:0:0:
256,96,129701,1,8,0:0:0:0:
144,320,129957,6,0,L|48:224,2,128,2|0|2,0:0|0:0|0:0,0:0:0:0:
256,320,130726,1,0,0:0:0:0:
368,320,130983,6,0,L|480:224,2,128,2|0|2,0:0|0:0|0:0,0:0:0:0:
256,320,131752,1,0,0:0:0:0:
160,304,132008,6,0,P|96:229|174:92,1,256,2|2,0:0|0:0,0:0:0:0:
288,272,133034,6,0,P|371:199|271:117,1,256,4|0,0:2|0:0,0:0:0:0:
48,96,134060,6,0,L|48:224,1,128,4|8,0:0|0:0,0:0:0:0:
176,208,134573,2,0,P|274:255|304:352,1,192,2|0,0:0|0:0,0:0:0:0:
224,240,135085,6,0,P|144:272|128:320,2,128,2|8|0,0:0|0:0|0:0,0:0:0:0:
416,272,136111,6,0,P|456:224|402:194,1,128,2|8,0:0|0:0,0:0:0:0:
288,192,136624,2,0,P|224:138|288:80,1,192,2|0,0:0|0:0,0:0:0:0:
368,80,137137,6,0,L|368:224,1,128,4|8,0:2|0:0,0:0:0:0:
256,256,137650,2,0,L|256:128,1,128,0|8,0:0|0:0,0:0:0:0:
384,80,138162,5,4,0:0:0:0:
192,144,138675,1,2,0:2:0:0:
416,224,139188,5,4,0:0:0:0:
224,272,139701,1,2,0:0:0:0:
464,144,140214,6,0,L|464:288,1,128,4|0,0:0|0:0,0:0:0:0:
320,304,140726,2,0,P|249:265|324:141,1,256,8|4,0:0|0:2,0:0:0:0:
176,192,141752,2,0,L|176:48,1,128,0|8,0:0|0:0,0:0:0:0:
64,320,142265,5,4,0:1:0:0:
80,192,142778,1,8,0:0:0:0:
176,160,143290,1,0,0:0:0:0:
320,208,143803,1,8,0:0:0:0:
192,320,144316,5,4,0:2:0:0:
352,320,145000,2,0,L|368:224,1,85.3333333333333,0|0,0:0|0:0,0:0:0:0:
288,224,145342,6,0,P|224:192|304:48,1,256,2|8,0:0|0:0,0:0:0:0:
80,224,146368,6,0,B|80:96|80:96|144:96,1,192,4|2,0:0|0:0,0:0:0:0:
256,112,147009,1,2,0:0:0:0:
432,224,147393,6,0,B|432:96|432:96|368:96,1,192,4|2,0:0|0:0,0:0:0:0:
256,112,148034,1,2,0:0:0:0:
80,272,148419,6,0,P|13:158|88:68,1,256,4|4,0:0|0:0,0:0:0:0:
208,48,149124,1,2,0:0:0:0:
352,272,149444,6,0,P|419:158|344:68,1,256,4|4,0:0|0:0,0:0:0:0:
224,48,150149,1,2,0:0:0:0:
256,192,150470,12,4,151752,0:0:0:0:
256,192,151880,12,4,153034,0:0:0:0:
256,192,153162,12,4,154316,0:0:0:0:
256,192,154444,12,0,155470,0:0:0:0:
256,192,155598,12,0,157137,3:0:0:0:
416,352,157650,6,0,P|470:319|416:224,1,192,4|2,0:0|0:1,0:0:0:0:
288,240,158419,1,2,0:1:0:0:
176,176,158868,5,2,0:1:0:0:
288,112,159253,2,0,L|288:0,1,96,2|2,0:1|0:1,0:0:0:0:
160,224,159702,6,0,P|106:191|160:96,1,192,4|2,0:0|0:1,0:0:0:0:
288,96,160471,1,0,0:1:0:0:
416,256,160855,6,0,P|477:207|404:133,1,192,0|2,0:0|0:1,0:0:0:0:
320,112,161496,1,2,0:1:0:0:
208,112,161753,6,0,P|144:128|73:243,1,192,4|0,0:0|0:0,0:0:0:0:
201,304,162522,1,2,0:1:0:0:
362,303,162971,6,0,P|433:267|356:184,1,224,2|2,0:1|0:1,0:0:0:0:
224,160,163803,6,0,L|224:352,1,192,4|2,0:0|0:1,0:0:0:0:
368,336,164573,2,0,L|368:192,1,128
256,192,165086,5,0,0:0:0:0:
144,336,165343,2,0,L|144:192,1,128,0|0,0:0|0:0,0:0:0:0:
272,144,165855,6,0,P|336:160|400:288,1,192,4|0,0:1|0:0,0:0:0:0:
256,304,166624,5,0,0:0:0:0:
176,288,166816,2,0,L|160:193,1,96,8|0,0:1|0:0,0:0:0:0:
256,288,167265,6,0,L|272:192,2,96
144,144,167906,6,0,P|80:160|16:288,1,192,4|0,0:1|0:0,0:0:0:0:
160,304,168675,5,0,0:0:0:0:
240,288,168867,2,0,L|256:193,1,96,8|0,0:1|0:0,0:0:0:0:
160,288,169316,6,0,L|144:192,2,96
272,256,169957,6,0,P|404:218|448:96,1,256,4|0,0:1|0:0,0:0:0:0:
336,64,170726,5,0,0:0:0:0:
240,64,170919,1,8,0:1:0:0:
416,272,171368,6,0,L|416:144,1,128
288,208,171880,6,0,P|231:182|288:96,1,192,4|0,0:1|0:0,0:0:0:0:
416,96,172778,1,0,0:0:0:0:
304,208,173034,6,0,L|290:80,1,128,0|0,0:0|0:0,0:0:0:0:
400,160,173547,2,0,L|416:288,1,128,0|0,0:0|0:0,0:0:0:0:
288,304,174060,5,4,0:1:0:0:
288,304,174573,1,8,0:0:0:0:
288,304,175085,1,0,0:0:0:0:
288,304,175598,1,8,0:0:0:0:
288,304,176111,1,0,0:0:0:0:
288,304,176624,1,8,0:0:0:0:
288,304,177137,1,0,0:0:0:0:
288,304,177650,1,8,0:0:0:0:
288,368,178162,6,0,L|288:96,3,256,4|8|0|8,0:1|0:0|0:0|0:0,0:0:0:0:
144,336,180214,6,0,P|112:272|160:80,1,256,4|2,0:0|0:0,0:0:0:0:
144,97,181239,6,0,P|184:216|144:335,1,256,2|2,0:0|0:0,0:0:0:0:
368,112,182265,5,4,0:0:0:0:
304,320,184316,6,0,L|400:224,2,128,0|0|0,0:0|0:0|0:0,0:0:0:0:
144,304,185342,1,0,0:0:0:0:
304,320,185983,6,0,P|336:304|288:176,1,192,2|2,0:1|0:1,0:0:0:0:
112,336,188419,6,0,P|64:304|114:202,1,192,2|2,0:1|0:1,0:0:0:0:
304,320,189188,2,0,P|352:288|302:186,1,192,2|2,0:1|0:1,0:0:0:0:
128,224,189957,5,0,0:0:0:0:
224,192,190213,1,0,0:0:0:0:
320,176,190470,5,4,0:3:0:0:
256,304,191880,6,0,L|256:96,1,192,0|0,3:0|3:0,0:0:0:0:
400,288,192521,5,4,0:0:0:0:
256,128,193418,1,4,0:0:0:0:
256,240,193675,1,0,0:0:0:0:
64,336,194572,6,0,L|64:80,1,256,4|2,0:0|0:0,0:0:0:0:
256,352,195598,6,0,L|256:96,1,256,4|2,0:0|0:0,0:0:0:0:
464,128,196624,6,0,P|448:208|288:288,2,256,2|2|2,0:0|0:0|0:0,0:0:0:0:
256,96,198162,1,2,0:0:0:0:
384,96,198419,5,2,0:0:0:0:
256,192,199957,12,0,202265,0:0:0:0:
272,304,202778,6,0,L|272:64,1,240,8|0,0:0|0:0,0:0:0:0:
272,48,203291,1,0,0:0:0:0:
240,48,203547,1,0,0:0:0:0:
272,304,203803,6,0,L|272:64,1,240,8|0,0:0|0:0,0:0:0:0:
240,304,204316,2,0,L|240:64,1,240
272,304,204829,6,0,L|272:64,1,240,8|0,0:0|0:0,0:0:0:0:
272,64,205342,1,0,0:0:0:0:
240,64,205598,1,0,0:0:0:0:
272,304,205855,6,0,L|272:64,1,240,8|0,0:0|0:0,0:0:0:0:
240,304,206368,2,0,L|240:144,1,160
240,96,206753,1,0,0:0:0:0:
256,96,206881,5,8,0:0:0:0:
256,224,207394,1,0,0:0:0:0:
256,96,207522,2,0,L|256:288,1,160,0|0,0:0|0:0,0:0:0:0:
256,96,207906,5,8,0:0:0:0:
256,176,208162,1,0,0:0:0:0:
256,240,208291,1,0,0:0:0:0:
256,96,208419,2,0,L|256:288,1,160,0|0,0:0|0:0,0:0:0:0:
256,176,208804,1,0,0:0:0:0:
256,272,208932,5,8,0:0:0:0:
256,240,209060,1,0,0:0:0:0:
256,96,209188,2,0,L|256:272,1,160,0|0,0:0|0:0,0:0:0:0:
368,272,209701,1,0,0:0:0:0:
256,320,209957,5,0,0:0:0:0:
112,320,210342,2,0,P|52:280|128:160,1,240,0|8,0:0|0:1,0:0:0:0:
256,112,210983,6,0,P|352:144|400:240,2,192,4|2|8,0:0|0:0|0:0,0:0:0:0:
128,288,212009,6,0,L|128:160,1,128,2|8,0:0|0:0,0:0:0:0:
256,160,212521,2,0,L|320:112,1,64,0|2,0:0|0:0,0:0:0:0:
400,224,212906,6,0,L|400:304,1,64,0|2,0:0|0:0,0:0:0:0:
304,336,213291,1,8,0:0:0:0:
208,336,213547,2,0,L|144:288,1,64,0|2,0:0|0:0,0:0:0:0:
256,288,213932,1,0,0:0:0:0:
304,256,214060,6,0,L|304:112,1,128,4|4,0:2|0:2,0:0:0:0:
208,160,214573,2,0,L|144:112,1,64,0|2,0:0|0:0,0:0:0:0:
64,240,214957,6,0,L|64:304,1,64,0|4,0:0|0:0,0:0:0:0:
160,320,215342,1,8,0:0:0:0:
256,272,215598,2,0,L|256:192,1,64,0|2,0:0|0:0,0:0:0:0:
160,160,215983,6,0,L|96:112,1,64,0|4,0:0|0:0,0:0:0:0:
208,80,216368,1,8,0:0:0:0:
320,96,216624,2,0,P|368:128|384:208,1,128,4|8,0:2|0:0,0:0:0:0:
272,320,217137,6,0,P|192:304|128:144,1,256,4|8,0:0|0:0,0:0:0:0:
352,128,218291,1,2,0:0:0:0:
192,144,218675,2,0,L|192:272,1,128,4|8,0:2|0:0,0:0:0:0:
320,288,219188,6,0,L|320:144,1,128,4|8,0:0|0:0,0:0:0:0:
224,160,219701,2,0,L|160:112,1,64,0|2,0:0|0:0,0:0:0:0:
80,128,220085,6,0,L|80:48,1,64,0|4,0:0|0:3,0:0:0:0:
192,48,220470,1,2,0:0:0:0:
288,48,220726,2,0,L|352:48,1,64,4|2,0:2|0:0,0:0:0:0:
256,320,221111,6,0,P|166:293|129:207,1,192,4|8,0:0|0:0,0:0:0:0:
240,192,221752,2,0,L|304:144,1,64,0|2,0:0|0:0,0:0:0:0:
192,144,222137,6,0,L|128:96,1,64,0|4,0:0|0:2,0:0:0:0:
240,48,222521,1,4,0:2:0:0:
352,112,222778,2,0,L|352:32,1,64,4|2,0:2|0:0,0:0:0:0:
224,320,223162,6,0,P|163:258|224:192,1,192,4|8,0:0|0:0,0:0:0:0:
336,192,223803,2,0,L|336:112,1,64,8|0,0:0|0:0,0:0:0:0:
240,48,224188,1,0,0:0:0:0:
192,48,224316,6,0,P|149:72|207:185,1,192,4|2,0:0|0:0,0:0:0:0:
336,208,225085,1,8,0:0:0:0:
224,224,225342,6,0,P|160:208|96:96,2,192,4|4|8,0:0|0:0|0:0,0:0:0:0:
336,208,226368,5,4,0:0:0:0:
192,208,226752,2,0,P|144:192|208:96,1,192,4|8,0:2|0:0,0:0:0:0:
304,288,227393,6,0,P|344:238|281:206,1,128,2|8,0:0|0:0,0:0:0:0:
208,192,227906,1,0,0:0:0:0:
208,288,228162,1,8,0:0:0:0:
112,288,228419,6,0,P|72:238|135:206,1,128,2|8,0:0|0:0,0:0:0:0:
208,192,228932,1,0,0:0:0:0:
208,288,229188,1,8,0:0:0:0:
320,288,229444,6,0,P|370:277|400:208,1,128,2|8,0:0|0:0,0:0:0:0:
304,192,229957,2,0,P|254:181|224:112,1,128,0|8,0:0|0:0,0:0:0:0:
336,112,230470,6,0,P|384:144|322:307,1,256,2|0,0:0|0:0,0:0:0:0:
144,304,231496,6,0,P|97:190|149:69,1,256,2|4,0:0|0:0,0:0:0:0:
240,64,232201,1,0,0:0:0:0:
368,304,232521,6,0,P|415:190|363:69,1,256,2|0,0:0|0:0,0:0:0:0:
272,64,233226,1,8,0:0:0:0:
128,128,233547,6,0,L|128:256,1,128,2|0,0:0|0:0,0:0:0:0:
224,176,234060,2,0,L|224:304,1,128,8|8,0:0|0:0,0:0:0:0:
336,320,234573,5,2,0:0:0:0:
416,304,234744,2,0,L|432:112,1,170.666666666667,8|0,0:0|0:0,0:0:0:0:
288,112,235427,1,8,0:0:0:0:
96,176,235855,6,0,P|120:118|178:94,1,128,4|0,0:0|0:0,0:0:0:0:
272,96,236368,1,8,0:0:0:0:
384,112,236624,6,0,L|384:240,1,128,2|8,0:0|0:0,0:0:0:0:
288,256,237137,1,0,0:0:0:0:
64,80,237650,6,0,L|64:336,1,256,2|0,0:0|0:0,0:0:0:0:
256,336,238675,6,0,P|336:304|240:208,1,256,2|2,0:0|0:0,0:0:0:0:
176,208,239380,1,8,0:0:0:0:
320,160,239701,6,0,P|433:211|480:327,1,256,4|2,0:0|0:0,0:0:0:0:
400,336,240470,1,2,0:0:0:0:
480,327,240726,2,0,P|433:210|320:159,1,256,4|8,0:0|0:0,0:0:0:0:
208,160,241495,6,0,P|144:208|222:336,1,256,2|0,0:0|0:0,0:0:0:0:
336,320,242264,1,8,0:0:0:0:
432,288,242521,2,0,P|411:163|281:120,1,256,2|8,0:0|0:0,0:0:0:0:
192,160,243290,6,0,P|128:176|32:336,1,256,4|2,0:0|0:0,0:0:0:0:
128,320,244059,1,2,0:0:0:0:
31,327,244316,2,0,P|77:210|190:159,1,256,4|10,0:0|0:0,0:0:0:0:
304,160,245085,6,0,P|368:208|290:336,1,256,2|0,0:0|0:0,0:0:0:0:
176,320,245853,1,8,0:0:0:0:
304,352,246111,2,0,P|368:336|464:160,1,256,2|8,0:0|0:0,0:0:0:0:
344,319,246880,6,0,L|344:127,1,192,4|0,0:0|0:0,0:0:0:0:
168,319,247649,2,0,L|168:127,1,192,0|0,0:0|0:0,0:0:0:0:
272,128,248418,1,0,0:0:0:0:
168,319,248675,6,0,L|168:127,1,192,4|0,0:0|0:0,0:0:0:0:
344,319,249444,2,0,L|344:127,1,192,0|0,0:0|0:0,0:0:0:0:
240,128,250213,1,0,0:0:0:0:
128,128,250470,6,0,P|64:160|16:272,1,192,4|0,0:2|0:0,0:0:0:0:
15,265,251239,2,0,P|47:177|128:128,1,192,0|0,0:0|0:0,0:0:0:0:
272,112,252008,1,0,0:0:0:0:
384,128,252265,6,0,P|448:160|496:272,1,192,4|0,0:2|0:0,0:0:0:0:
496,265,253034,2,0,P|464:177|384:128,1,192,0|0,0:0|0:0,0:0:0:0:
240,112,253803,1,4,0:2:0:0:
368,160,254059,6,0,P|400:208|351:328,1,192,4|2,0:0|0:0,0:0:0:0:
144,160,255084,6,0,P|112:208|161:328,1,192,2|2,0:0|0:0,0:0:0:0:
416,320,256110,6,0,L|288:160,2,192,0|0|0,0:0|0:0|0:0,0:0:0:0:
304,336,257135,6,0,P|244:285|330:143,1,256,4|4,0:2|0:2,0:0:0:0:
464,96,258161,6,0,P|428:248|321:289,1,256,4|2,0:0|0:0,0:0:0:0:
164,287,259187,2,0,P|61:219|48:96,1,256,4|2,0:2|0:0,0:0:0:0:
256,128,260212,6,0,P|345:146|384:240,2,192,4|4|4,0:0|0:0|0:0,0:0:0:0:
160,128,261238,6,0,P|102:157|177:303,1,256,4|4,0:0|0:2,0:0:0:0:
240,288,261943,1,2,0:0:0:0:
272,208,262135,1,2,0:0:0:0:
280,128,262264,5,4,0:0:0:0:
256,336,263289,5,0,0:0:0:0:
384,304,263802,1,0,0:0:0:0:
384,240,263930,1,0,0:0:0:0:
384,176,264058,1,8,0:1:0:0:
384,16,264315,6,0,P|288:48|224:192,1,256,4|0,0:0|0:0,0:0:0:0:
432,256,265341,6,0,P|386:140|271:91,1,256,0|2,0:1|0:1,0:0:0:0:
176,96,266110,1,0,0:0:0:0:
46,190,266366,6,0,P|58:260|208:324,1,213.333333333333,2|0,0:1|0:0,0:0:0:0:
304,320,267050,2,0,L|320:208,2,85.3333333333333,2|2|2,0:1|0:1|0:1,0:0:0:0:
224,320,267648,5,0,0:0:0:0:
128,288,267905,2,0,L|128:144,1,128,0|0,0:0|0:0,0:0:0:0:
240,112,268417,1,2,0:1:0:0:
368,96,268674,6,0,P|432:160|344:285,1,256,4|0,0:0|0:0,0:0:0:0:
256,320,269443,2,0,L|256:128,1,192,0|2,0:0|0:1,0:0:0:0:
352,160,270084,1,2,0:1:0:0:
224,192,270469,6,0,L|160:80,2,128,2|2|0,0:1|0:1|0:0,0:0:0:0:
96,272,271494,2,0,P|37:242|112:192,1,170.666666666667,2|2,0:1|0:1,0:0:0:0:
160,176,272007,5,0,2:0:0:0:
256,192,272520,12,4,276623,0:0:0:0:
256,304,277264,5,2,1:0:0:0:
400,304,277648,6,0,P|453:272|396:113,1,256,2|2,1:0|1:0,0:0:0:0:
352,112,278333,1,2,1:0:0:0:
288,112,278503,1,2,1:0:0:0:
192,304,278759,5,2,0:0:0:0:
128,288,278930,2,0,L|112:112,1,170.666666666667,4|2,0:2|0:0,0:0:0:0:
202,111,279443,1,2,0:0:0:0:
320,224,279700,6,0,P|372:203|314:56,1,256,4|0,0:2|0:0,0:0:0:0:
208,64,280469,1,4,0:2:0:0:
80,112,280725,6,0,L|80:320,1,192,4|2,0:0|1:0,0:0:0:0:
192,304,281494,2,0,L|256:224,1,96,2|2,1:0|1:0,0:0:0:0:
144,96,281943,6,0,P|80:112|32:224,1,192,2|2,1:0|1:0,0:0:0:0:
112,256,282520,1,0,0:0:0:0:
240,176,282776,6,0,P|304:192|352:304,1,192,4|2,0:2|1:0,0:0:0:0:
208,240,283546,2,0,L|208:352,1,96,2|2,1:0|1:0,0:0:0:0:
320,336,284058,6,0,P|368:320|302:175,1,256,2|2,1:0|1:0,0:0:0:0:
192,256,284828,6,0,P|147:232|192:128,1,192,2|2,1:0|1:0,0:0:0:0:
336,80,285597,2,0,P|400:145|336:192,1,192,2|0,1:0|0:0,0:0:0:0:
256,256,286238,5,2,1:0:0:0:
176,224,286494,1,0,0:0:0:0:
288,160,286751,5,2,1:0:0:0:
416,192,287135,2,0,L|448:304,2,96,2|0|0,1:0|0:0|0:0,0:0:0:0:
256,320,287905,6,0,L|144:240,2,128,2|0|0,1:0|0:0|0:0,0:0:0:0:
368,320,288674,1,0,0:0:0:0:
256,320,288930,5,4,0:0:0:0:
256,304,290469,1,0,0:0:0:0:
128,256,290982,1,0,0:0:0:0:
96,144,291494,1,0,0:0:0:0:
128,48,292007,1,0,0:0:0:0:
256,64,292520,1,0,0:0:0:0:
256,192,293033,5,8,0:0:0:0:
256,128,293161,1,0,0:0:0:0:
256,192,293289,1,0,0:0:0:0:
256,144,293417,1,0,0:0:0:0:
256,80,293674,2,0,L|256:224,1,128,0|0,0:0|0:0,0:0:0:0:
256,256,294058,5,8,0:0:0:0:
256,320,294315,1,0,0:0:0:0:
256,240,294443,1,0,0:0:0:0:
256,192,294571,1,0,0:0:0:0:
256,80,294699,2,0,L|256:224,1,128,0|0,0:0|0:0,0:0:0:0:
256,112,295084,6,0,L|256:256,1,128,8|0,0:0|0:0,0:0:0:0:
256,256,295469,1,0,0:0:0:0:
256,112,295597,2,0,L|256:256,1,128,0|0,0:0|0:0,0:0:0:0:
256,192,296110,12,4,298161,0:0:0:0:
