osu file format v14

[General]
AudioFilename: audio.mp3
AudioLeadIn: 0
PreviewTime: 74280
Countdown: 0
SampleSet: Soft
StackLeniency: 0.2
Mode: 0
LetterboxInBreaks: 0
EpilepsyWarning: 1
WidescreenStoryboard: 1

[Editor]
DistanceSpacing: 0.9
BeatDivisor: 4
GridSize: 32
TimelineZoom: 2.099999

[Metadata]
Title:Xronier
TitleUnicode:Xronièr
Artist:Camellia as "fluX Xroise"
ArtistUnicode:かめりあ as "fluX Xroisé"
Creator:Regou
Version:CHRONOSTASIS
Source:SOUND VOLTEX IV HEAVENLY HAVEN
Tags:SDVX corsace open 2020 finals nm5 ponbot -_Pon_- Cubby Cubbby Electronic Instrumental cametek kamelcamellia xroniàl xéro xronial xero かめるかめりあ
BeatmapID:2643109
BeatmapSetID:1271930

[Difficulty]
HPDrainRate:6
CircleSize:4.2
OverallDifficulty:9
ApproachRate:9.5
SliderMultiplier:1.8
SliderTickRate:1

[Events]
//Background and Video events
0,0,"X.jpg",0,0
//Break Periods
//Storyboard Layer 0 (Background)
//Storyboard Layer 1 (Fail)
//Storyboard Layer 2 (Pass)
//Storyboard Layer 3 (Foreground)
//Storyboard Layer 4 (Overlay)
//Storyboard Sound Samples

[TimingPoints]
1075,256.410256410256,4,2,2,75,1,0
1075,-66.6666666666667,4,2,2,75,0,0
4536,-83.3333333333333,4,2,2,75,0,0
12998,-133.333333333333,4,2,2,75,0,0
13382,-66.6666666666667,4,2,2,75,0,0
13895,-57.1428571428571,4,2,2,75,0,0
15690,-80,4,2,2,75,0,0
17100,-57.1428571428571,4,2,2,75,0,0
19151,-80,4,2,2,75,0,0
19664,-50,4,2,2,75,0,0
20433,-80,4,2,2,75,0,0
21587,-57.1428571428571,4,2,2,75,0,0
22485,-80,4,2,2,75,0,0
22869,-57.1428571428571,4,2,2,75,0,0
25305,-44.4444444444445,4,2,2,75,0,0
27827,-57.1428571428571,4,2,2,75,0,0
29536,-133.333333333333,4,2,2,75,0,0
29921,-100,4,2,2,65,0,0
34408,-80,4,2,2,65,0,0
36203,-66.6666666666667,4,2,2,65,0,0
37485,-133.333333333333,4,2,2,65,0,0
38254,-57.1428571428571,4,2,2,75,0,0
41074,-80,4,2,2,75,0,0
42357,-66.6666666666667,4,2,2,75,0,0
46203,-100,4,2,2,75,0,0
46235,-100,4,2,1,30,0,0
49151,-100,4,2,2,30,0,0
49344,-400,4,2,2,75,0,0
51844,-80,4,2,2,75,0,0
59921,-83.3333333333333,4,2,2,75,0,0
66716,-83.3333333333333,4,2,2,60,0,0
74921,-83.3333333333333,4,2,2,85,0,1
75177,-66.6666666666667,4,2,2,85,0,1
95433,-66.6666666666667,4,2,2,75,0,0
97100,-133.333333333333,4,2,2,75,0,0
97485,-66.6666666666667,4,2,2,80,0,0

[Colours]
Combo1 : 212,212,212
Combo2 : 0,255,128
Combo3 : 255,64,64

[HitObjects]
256,192,1075,6,0,L|254:264,23,45.0000017166138,0|0|0|0|0|0|0|0|0|0|0|0|0|0|0|0|0|0|0|0|0|0|0|0,1:0|1:0|1:0|1:0|1:0|1:0|1:0|1:0|1:0|1:0|1:0|1:0|1:0|1:0|1:0|1:0|1:0|1:0|1:0|1:0|1:0|1:0|1:0|1:0,1:0:0:0:
161,275,2100,5,0,1:0:0:0:
144,246,2164,1,0,1:0:0:0:
136,213,2228,1,0,1:0:0:0:
138,179,2292,1,0,1:0:0:0:
148,147,2356,1,0,1:0:0:0:
167,120,2420,1,0,1:0:0:0:
193,98,2484,1,0,1:0:0:0:
224,85,2548,1,0,1:0:0:0:
257,81,2612,1,0,1:0:0:0:
291,86,2676,1,0,1:0:0:0:
321,100,2741,1,0,1:0:0:0:
347,122,2805,1,0,1:0:0:0:
365,150,2869,1,0,1:0:0:0:
375,182,2933,1,0,1:0:0:0:
376,216,2997,1,0,1:0:0:0:
367,248,3061,1,0,1:0:0:0:
349,277,3125,1,2,1:3:0:0:
52,112,4536,6,0,B|30:244|30:244|104:199,1,215.999993408203,4|0,1:2|2:0,2:0:0:0:
350,240,4921,2,0,L|179:211,1,161.999995056153,2|0,1:2|2:0,2:0:0:0:
159,130,5177,6,0,L|168:71,2,53.9999983520508,4|0|0,1:2|2:0|2:0,2:0:0:0:
136,289,5433,1,2,2:0:0:0:
136,289,5562,1,0,2:0:0:0:
334,358,5690,2,0,P|407:369|441:248,1,215.999993408203,2|0,2:0|2:0,2:0:0:0:
386,142,6074,6,0,B|403:26|403:26|345:73,1,161.999995056153,4|0,1:2|2:0,2:0:0:0:
301,188,6331,2,0,L|243:193,2,53.9999983520508,4|0|0,1:2|2:0|2:0,2:0:0:0:
473,99,6587,1,2,2:0:0:0:
473,99,6716,1,0,2:0:0:0:
379,292,6844,6,0,B|312:276|312:276|292:212|292:212|209:195,1,215.999993408203,2|0,2:0|2:0,2:0:0:0:
204,282,7228,6,0,P|137:384|58:339,1,215.999993408203,4|0,1:0|2:0,2:0:0:0:
144,95,7613,1,0,1:0:0:0:
144,95,7677,1,0,1:0:0:0:
144,95,7741,2,0,P|179:63|242:70,1,107.999996704102,8|0,1:0|2:0,2:0:0:0:
61,118,7933,2,0,P|50:71|88:20,1,107.999996704102,2|0,1:2|2:0,2:0:0:0:
136,201,8126,6,0,L|127:273,1,53.9999983520508,0|0,1:0|2:0,2:0:0:0:
28,208,8254,2,0,P|-12:299|69:356,1,215.999993408203,4|0,1:2|1:0,2:0:0:0:
301,351,8639,5,0,1:0:0:0:
301,351,8703,1,0,1:0:0:0:
301,351,8767,2,0,L|295:289,1,53.9999983520508,8|0,1:0|2:0,1:0:0:0:
381,194,8895,1,0,1:0:0:0:
381,194,8959,2,0,L|375:256,1,53.9999983520508,8|0,1:0|2:0,1:0:0:0:
431,369,9087,5,0,1:0:0:0:
446,365,9151,1,8,1:0:0:0:
462,361,9216,1,8,1:0:0:0:
504,383,9280,6,0,P|541:317|476:246,1,161.999995056153,2|8,1:0|1:0,2:0:0:0:
292,211,9664,2,0,L|206:194,1,53.9999983520508,8|0,1:0|2:0,2:0:0:0:
220,213,9792,2,0,P|183:147|248:76,1,161.999995056153,2|8,1:0|1:0,2:0:0:0:
418,129,10177,2,0,L|504:112,1,53.9999983520508,8|0,1:0|2:0,2:0:0:0:
490,131,10305,2,0,P|527:65|462:-6,1,161.999995056153,2|8,1:0|1:0,2:0:0:0:
382,247,10690,5,0,1:0:0:0:
382,247,10754,1,0,1:0:0:0:
382,247,10818,2,0,L|390:314,1,53.9999983520508,8|0,1:0|1:0,1:0:0:0:
323,354,10946,5,0,1:0:0:0:
274,349,11010,1,0,1:0:0:0:
225,342,11074,1,0,1:0:0:0:
176,335,11139,1,0,1:0:0:0:
127,329,11203,1,0,1:0:0:0:
78,323,11267,1,0,1:0:0:0:
29,317,11331,1,4,1:0:0:0:
127,329,12998,6,0,L|119:258,1,67.5000025749208,2|4,0:0|0:0,0:0:0:0:
0,137,13382,6,0,B|-16:189|-16:189|33:220|92:196|103:144,1,202.500007724762,0|0,1:0|2:0,2:0:0:0:
106,124,13639,1,8,1:0:0:0:
228,22,13767,1,0,2:0:0:0:
228,22,13831,1,0,2:0:0:0:
228,22,13895,6,0,B|292:0|333:52|333:52|378:106|439:78,1,236.250002253056,2|0,1:2|2:0,2:0:0:0:
488,139,14151,6,0,P|509:110|511:61,1,78.7500007510185,8|0,1:0|2:0,2:0:0:0:
448,0,14280,2,0,L|435:111,1,78.7500007510185,2|0,2:0|2:0,2:0:0:0:
436,205,14408,5,0,1:0:0:0:
249,148,14536,1,2,2:0:0:0:
250,138,14600,1,0,2:0:0:0:
253,129,14664,2,0,B|260:88|260:88|223:66|223:66|241:241,1,236.250002253056,8|0,1:0|2:0,2:0:0:0:
319,195,14921,2,0,B|335:346|335:346|298:324|298:324|305:283,1,236.250002253056,2|0,1:0|2:0,2:0:0:0:
238,216,15177,6,0,L|184:221,6,39.3750003755093,8|0|0|0|0|0|0,1:0|2:0|2:0|2:0|2:0|2:0|2:0,2:0:0:0:
120,224,15433,2,0,P|20:212|48:328,1,236.250002253056,2|0,1:0|2:0,2:0:0:0:
47,337,15690,6,0,L|127:328,1,56.25,8|0,1:0|2:0,2:0:0:0:
196,289,15818,1,2,2:0:0:0:
196,289,15882,1,0,2:0:0:0:
196,289,15946,2,0,B|218:234|218:234|194:182,1,112.5,0|2,1:0|2:0,2:0:0:0:
132,126,16203,2,0,B|110:78|110:78|132:23,1,112.5,0|2,1:0|2:0,2:0:0:0:
212,79,16459,6,0,L|332:69,1,112.5,2|0,1:3|2:0,2:0:0:0:
383,361,16716,6,0,L|263:351,1,112.5,2|0,1:3|2:0,2:0:0:0:
419,67,16972,5,0,1:0:0:0:
419,67,17036,1,0,1:0:0:0:
419,67,17100,2,0,B|451:51|474:9|474:9|453:181,1,236.250002253056,0|0,1:0|2:0,1:0:0:0:
387,224,17357,6,0,B|236:247|236:247|205:209|205:209|283:219,1,236.250002253056,4|0,1:2|2:0,2:0:0:0:
309,211,17613,6,0,L|417:228,1,78.7500007510185,2|0,1:2|2:0,2:0:0:0:
469,241,17741,1,0,2:0:0:0:
480,250,17805,1,0,2:0:0:0:
490,261,17869,6,0,P|476:361|368:327,1,236.250002253056,0|0,1:0|2:0,2:0:0:0:
315,384,18126,6,0,P|294:355|292:306,1,78.7500007510185,8|0,1:0|2:0,2:0:0:0:
361,256,18255,2,0,L|374:367,1,78.7500007510185,2|0,2:0|2:0,2:0:0:0:
351,167,18382,5,2,1:0:0:0:
229,120,18510,1,2,2:0:0:0:
250,29,18639,5,8,1:0:0:0:
260,26,18703,1,0,2:0:0:0:
269,23,18767,1,2,2:0:0:0:
237,216,18895,5,0,1:0:0:0:
227,213,18959,1,0,2:0:0:0:
218,210,19023,1,2,2:0:0:0:
342,81,19151,5,8,1:0:0:0:
136,192,19280,2,0,L|131:154,2,28.125,0|0|0,0:0|2:0|2:0,2:0:0:0:
70,93,19408,5,2,1:3:0:0:
70,93,19472,2,0,L|77:26,2,56.25,2|0|0,2:0|2:0|2:0,2:0:0:0:
0,182,19664,6,0,P|7:262|98:258,1,180,8|0,1:0|2:0,2:0:0:0:
136,192,19857,1,0,2:0:0:0:
140,215,19921,2,0,L|156:330,1,90,0|0,1:2|2:0,2:0:0:0:
372,215,20049,2,0,L|356:330,1,90,2|0,2:0|2:0,2:0:0:0:
357,321,20177,6,0,B|262:359|262:359|285:188,1,270,8|0,1:0|2:0,2:0:0:0:
297,113,20433,2,0,L|304:45,1,56.25,0|0,1:0|1:0,2:0:0:0:
460,178,20562,5,2,1:0:0:0:
463,188,20647,1,0,1:0:0:0:
466,198,20733,1,0,1:0:0:0:
478,249,20818,5,2,1:0:0:0:
481,259,20903,1,0,1:0:0:0:
484,269,20989,1,0,1:0:0:0:
495,321,21074,5,2,2:0:0:0:
353,343,21587,6,0,B|202:320|202:320|171:358|171:358|249:348,1,236.250002253056,4|0,1:2|2:0,2:0:0:0:
205,353,21844,2,8,P|280:378|264:245,1,236.250002253056,10|0,1:0|2:0,1:0:0:0:
192,161,22100,6,0,L|217:246,1,78.7500007510185,2|0,1:2|2:0,2:0:0:0:
267,138,22228,2,0,L|182:162,1,78.7500007510185,0|0,1:2|2:0,2:0:0:0:
244,62,22357,2,0,L|269:147,1,78.7500007510185,8|0,1:2|2:0,2:0:0:0:
76,41,22485,6,0,L|248:62,1,168.75,2|0,1:0|2:0,2:0:0:0:
311,17,22741,5,2,1:2:0:0:
311,17,22805,1,0,2:0:0:0:
311,17,22869,2,0,L|337:93,1,78.7500007510185,2|0,2:0|2:0,2:0:0:0:
107,134,22998,5,10,1:2:0:0:
107,134,23062,1,0,2:0:0:0:
107,134,23126,2,0,L|81:210,1,78.7500007510185,2|0,2:0|2:0,2:0:0:0:
369,176,23254,5,2,1:2:0:0:
369,176,23318,1,0,2:0:0:0:
369,176,23382,2,0,L|395:252,1,78.7500007510185,2|0,2:0|2:0,2:0:0:0:
498,213,23510,6,0,P|494:344|412:335,1,236.250002253056,8|0,1:0|2:0,2:0:0:0:
409,334,23767,5,2,1:0:0:0:
454,135,23895,1,0,1:0:0:0:
456,124,23959,1,0,1:0:0:0:
459,114,24023,1,8,1:0:0:0:
193,276,24151,5,0,1:0:0:0:
394,250,24280,1,2,1:0:0:0:
168,31,24408,5,0,1:0:0:0:
270,217,24536,1,8,1:0:0:0:
279,126,24664,1,2,2:0:0:0:
0,77,24792,6,0,B|66:53|112:100|80:132|140:181|198:163,1,236.250002253056,2|0,1:3|2:0,2:0:0:0:
421,60,25049,2,0,B|391:16|391:16|281:37,1,157.500001502037,0|0,1:0|2:0,2:0:0:0:
288,35,25305,6,0,L|334:243,1,202.500007724762,8|0,1:0|2:0,2:0:0:0:
425,159,25498,2,0,L|405:374,1,202.500007724762,8|0,1:0|2:0,2:0:0:0:
406,375,25690,5,2,1:0:0:0:
288,35,26331,6,0,L|334:243,1,202.500007724762,8|0,1:0|2:0,2:0:0:0:
425,159,26524,2,0,L|405:374,1,202.500007724762,8|0,1:0|2:0,2:0:0:0:
406,375,26716,5,2,1:0:0:0:
321,338,27228,5,2,1:2:0:0:
311,334,27314,1,0,1:0:0:0:
302,330,27399,1,0,1:0:0:0:
240,280,27485,5,2,1:2:0:0:
230,284,27571,1,0,1:0:0:0:
221,288,27656,1,0,1:0:0:0:
155,329,27741,5,0,1:0:0:0:
145,332,27827,2,0,L|122:106,2,210.000002002716,2|0|0,1:0|1:0|1:0,1:0:0:0:
180,49,28339,5,2,1:0:0:0:
192,43,28425,1,0,1:0:0:0:
205,37,28510,1,2,1:0:0:0:
284,59,28596,1,0,1:0:0:0:
364,83,28681,1,0,1:0:0:0:
345,180,29408,5,0,2:0:0:0:
340,248,29536,2,0,L|347:154,1,67.5000025749208,2|0,2:0|2:0,2:0:0:0:
426,148,29792,5,2,1:0:0:0:
422,282,29921,2,0,P|427:340|447:371,1,90,2|8,2:0|2:0,2:0:0:0:
187,286,30177,2,0,B|100:267|109:348|17:326,1,180,2|0,2:0|2:0,2:0:0:0:
44,248,30562,6,0,B|24:134|24:134|42:144|42:144|48:201,2,180,8|0|8,2:0|2:0|2:0,2:0:0:0:
83,64,31331,5,2,2:0:0:0:
172,53,31459,2,0,L|65:65,1,90,0|8,2:0|2:0,2:0:0:0:
156,261,31716,1,2,2:0:0:0:
218,130,31844,6,0,P|232:167|223:233,1,90,2|0,2:1|2:0,2:0:0:0:
151,182,32036,1,0,2:0:0:0:
151,182,32100,1,8,2:0:0:0:
337,18,32228,2,0,B|428:45|428:45|435:143,1,180,2|0,2:1|2:0,2:0:0:0:
342,107,32613,6,0,B|322:221|322:221|340:211|340:211|346:154,2,180,8|0|8,2:0|2:0|2:0,2:0:0:0:
428,215,33382,5,2,2:1:0:0:
449,370,33510,1,8,2:0:0:0:
459,360,33574,2,0,P|434:302|359:313,1,135,8|2,2:0|2:0,2:0:0:0:
315,132,33895,5,2,2:1:0:0:
323,221,34023,2,0,L|314:131,1,90,2|8,2:0|2:0,2:0:0:0:
305,46,34280,1,2,2:0:0:0:
162,120,34408,6,0,B|51:138|51:138|0:107|0:107|83:113,1,225,2|8,2:1|2:1,2:0:0:0:
171,10,34792,2,0,B|189:121|189:121|158:172|158:172|164:89,1,225,2|0,2:1|2:1,2:0:0:0:
241,232,35177,6,0,B|245:180|245:180|214:231|214:231|232:342,1,225,8|0,2:1|2:1,2:0:0:0:
232,342,35562,2,0,L|168:333,1,56.25,2|0,2:0|2:0,2:0:0:0:
102,374,35690,5,8,2:0:0:0:
102,374,35754,1,0,2:0:0:0:
102,374,35818,2,0,L|85:307,1,56.25,0|0,2:0|2:0,2:0:0:0:
59,187,35946,5,2,2:0:0:0:
46,322,36203,6,0,L|60:179,1,135.000005149842,2|4,2:0|2:0,2:0:0:0:
465,62,36587,6,0,L|451:205,1,135.000005149842,2|4,2:0|2:0,2:0:0:0:
46,322,36972,6,0,L|60:179,1,135.000005149842,2|4,2:0|2:0,2:0:0:0:
9,38,37357,1,2,2:0:0:0:
9,38,37485,6,0,B|143:10|143:10|128:55|128:55|64:43,1,236.250009012223,2|0,2:3|2:0,2:0:0:0:
227,90,37998,5,2,1:2:0:0:
284,293,38126,1,0,1:0:0:0:
274,299,38190,1,0,1:0:0:0:
266,303,38254,6,0,L|278:220,1,78.7500007510185,8|0,1:0|2:0,2:0:0:0:
340,166,38382,2,0,L|352:83,1,78.7500007510185,2|0,1:2|2:0,2:0:0:0:
112,154,38510,5,2,1:0:0:0:
112,154,38574,1,0,1:0:0:0:
112,154,38639,2,0,P|102:199|119:245,1,78.7500007510185,0|0,1:0|2:0,1:0:0:0:
402,303,38767,2,0,P|412:258|395:212,1,78.7500007510185,8|0,1:0|2:0,1:0:0:0:
37,301,38895,5,0,1:0:0:0:
41,311,38959,1,0,1:0:0:0:
45,321,39023,2,0,L|128:309,1,78.7500007510185,2|0,1:0|2:0,1:0:0:0:
217,212,39151,2,0,L|134:200,1,78.7500007510185,0|0,1:0|2:0,1:0:0:0:
122,309,39280,2,0,L|205:297,1,78.7500007510185,2|0,1:0|2:0,1:0:0:0:
294,223,39408,2,0,L|211:211,1,78.7500007510185,0|0,1:0|2:0,1:0:0:0:
201,369,39536,6,0,L|219:202,1,157.500001502037,0|0,1:0|1:0,2:0:0:0:
229,131,39792,5,0,1:0:0:0:
229,131,39857,1,0,1:0:0:0:
229,131,39921,2,0,L|238:36,1,78.7500007510185,2|0,1:0|1:0,1:0:0:0:
392,14,40049,6,0,P|487:16|472:130,1,236.250002253056,2|0,1:3|2:0,2:0:0:0:
377,240,40305,2,0,B|355:89|355:89|384:100|384:100|381:167,1,236.250002253056,8|0,1:0|2:0,2:0:0:0:
380,174,40562,1,2,1:0:0:0:
454,343,40690,5,2,2:0:0:0:
461,335,40754,1,2,2:0:0:0:
469,325,40818,2,0,L|383:318,1,78.7500007510185,8|0,1:0|2:0,2:0:0:0:
315,313,40946,2,0,L|236:306,1,78.7500007510185,2|0,2:0|2:0,2:0:0:0:
121,209,41074,6,0,P|33:223|42:347,1,225,2|8,1:0|1:0,2:0:0:0:
133,296,41459,1,2,2:0:0:0:
133,296,41523,1,0,2:0:0:0:
133,296,41587,1,2,1:0:0:0:
85,82,41716,5,2,2:0:0:0:
258,58,41844,1,8,1:0:0:0:
184,217,41972,1,2,2:0:0:0:
162,10,42100,5,2,1:0:0:0:
164,35,42164,1,2,2:0:0:0:
167,60,42228,1,2,2:0:0:0:
169,85,42292,1,2,2:0:0:0:
172,111,42357,2,0,L|179:186,3,67.5000025749208,8|0|0|0,1:0|2:0|2:0|2:0,2:0:0:0:
193,296,42613,1,2,1:0:0:0:
59,218,42741,5,0,2:0:0:0:
59,218,42805,1,0,2:0:0:0:
59,218,42869,2,0,L|-21:207,2,67.5000025749208,8|0|0,2:0|2:0|2:0,2:0:0:0:
271,241,43126,1,2,1:0:0:0:
231,316,43254,5,0,2:0:0:0:
268,329,43318,1,0,2:0:0:0:
308,324,43382,1,8,2:0:0:0:
340,300,43446,1,2,2:0:0:0:
358,264,43510,1,2,2:0:0:0:
356,224,43574,1,2,2:0:0:0:
334,185,43639,1,0,2:0:0:0:
106,230,43767,6,0,P|130:287|119:368,1,135.000005149842,2|8,2:0|2:0,2:0:0:0:
25,311,44023,1,2,2:0:0:0:
228,222,44151,6,0,P|207:135|95:144,2,202.500007724762,2|2|0,1:0|1:0|1:0,1:0:0:0:
1,96,44664,6,0,P|86:121|135:19,2,202.500007724762,2|2|0,1:0|1:0|1:0,1:0:0:0:
72,36,45177,6,0,B|49:38|49:38|47:20|47:20|166:42,1,135.000005149842,2|0,1:0|2:0,2:0:0:0:
199,59,45369,2,0,B|176:61|176:61|174:43|174:43|293:65,1,135.000005149842,0|0,1:0|2:0,2:0:0:0:
326,83,45562,2,0,B|303:85|303:85|301:67|301:67|420:89,1,135.000005149842,0|0,1:0|2:0,2:0:0:0:
409,87,45754,1,0,1:0:0:0:
501,255,45946,5,0,1:0:0:0:
501,255,46010,1,0,1:0:0:0:
501,255,46074,1,0,1:0:0:0:
501,255,46139,1,0,1:0:0:0:
501,255,46203,6,0,B|432:214|342:250|404:317|318:380|216:340|216:340|293:339|336:290|338:223|338:223|298:278|227:294|227:294|269:260|284:209|284:209|250:243|219:249|219:249|239:215|238:178|238:178|222:207|201:216|201:216|211:183|177:54|34:52|-43:144|-35:226|-19:311|100:344|166:313|188:217|156:137|57:74|-91:177|-68:318|40:343|40:343|122:330|122:330|35:361|35:361|229:378,1,2070,4|0,1:0|2:0,2:0:0:0:
211,377,49344,2,0,L|296:382,1,78.75,2|2,2:0|2:0,2:0:0:0:
13,28,50305,5,0,1:0:0:0:
17,55,50369,1,0,1:0:0:0:
20,82,50433,1,0,1:0:0:0:
24,109,50497,1,0,1:0:0:0:
27,136,50561,1,8,1:0:0:0:
94,44,50690,5,0,1:0:0:0:
98,71,50754,1,0,1:0:0:0:
101,98,50818,1,0,1:0:0:0:
105,125,50882,1,0,1:0:0:0:
108,152,50946,1,8,1:0:0:0:
63,228,51074,5,0,1:0:0:0:
63,228,51139,1,0,1:0:0:0:
146,254,51267,1,0,1:0:0:0:
231,226,51395,1,0,1:0:0:0:
263,144,51523,1,0,1:0:0:0:
263,144,51587,1,0,1:0:0:0:
344,98,51716,1,0,1:0:0:0:
344,98,51780,1,0,1:0:0:0:
344,98,51844,2,0,L|339:35,2,56.25,0|0|0,1:0|1:0|1:0,1:0:0:0:
426,130,52100,1,8,1:0:0:0:
507,114,52357,5,0,1:0:0:0:
503,141,52421,1,0,1:0:0:0:
500,168,52485,1,0,1:0:0:0:
496,195,52549,1,0,1:0:0:0:
493,222,52613,1,8,1:0:0:0:
426,130,52742,5,0,1:0:0:0:
422,157,52806,1,0,1:0:0:0:
419,184,52870,1,0,1:0:0:0:
415,211,52934,1,0,1:0:0:0:
412,238,52998,1,8,1:0:0:0:
457,314,53126,5,0,1:0:0:0:
457,314,53191,1,0,1:0:0:0:
374,340,53319,1,0,1:0:0:0:
289,312,53447,1,0,1:0:0:0:
252,227,53574,1,0,1:0:0:0:
252,227,53639,6,0,L|267:175,4,28.125,8|0|0|0|0,1:0|1:0|1:0|1:0|1:0,1:0:0:0:
173,176,53895,2,0,L|172:129,4,28.125,0|0|0|0|0,1:0|1:0|1:0|1:0|1:0,1:0:0:0:
86,186,54151,2,0,L|77:154,4,28.125,8|0|0|0|0,1:0|1:0|1:0|1:0|1:0,1:0:0:0:
7,250,54408,5,0,1:0:0:0:
11,277,54472,1,0,1:0:0:0:
14,304,54536,1,0,1:0:0:0:
18,331,54600,1,0,1:0:0:0:
21,358,54664,1,8,1:0:0:0:
88,266,54793,5,0,1:0:0:0:
92,293,54857,1,0,1:0:0:0:
95,320,54921,1,0,1:0:0:0:
99,347,54985,1,0,1:0:0:0:
102,374,55049,1,8,1:0:0:0:
194,340,55177,5,0,1:0:0:0:
194,340,55241,2,0,L|316:323,2,112.5,8|8|8,1:0|1:0|1:0,1:0:0:0:
426,308,55626,5,0,1:0:0:0:
426,308,55690,1,0,1:0:0:0:
512,297,55818,1,0,1:0:0:0:
512,297,55882,1,0,1:0:0:0:
512,297,55946,2,0,L|503:232,2,56.25,0|0|0,1:0|1:0|1:0,1:0:0:0:
341,321,56203,1,8,1:0:0:0:
416,143,56331,1,0,1:0:0:0:
416,143,56395,1,0,1:0:0:0:
416,143,56459,2,0,L|425:208,2,56.25,0|0|0,1:0|1:0|1:0,1:0:0:0:
499,123,56716,5,8,1:0:0:0:
329,151,56844,1,0,1:0:0:0:
329,151,56908,1,0,1:0:0:0:
160,173,57036,1,0,1:0:0:0:
160,173,57100,1,0,1:0:0:0:
242,160,57228,5,8,1:0:0:0:
238,133,57292,1,0,1:0:0:0:
235,106,57356,1,0,1:0:0:0:
231,79,57420,1,0,1:0:0:0:
228,52,57484,1,4,1:2:0:0:
142,24,57613,6,0,L|96:20,12,28.125,2|2|2|2|8|2|2|2|2|2|2|0|4,2:0|2:0|2:0|2:0|2:0|2:0|2:0|2:0|2:0|2:0|2:0|2:0|1:0,2:0:0:0:
66,110,58126,6,2,L|20:114,10,28.125,2|2|2|2|2|2|2|2|2|2|2,2:0|2:0|2:0|2:0|2:0|2:0|2:0|2:0|2:0|2:0|2:0,2:0:0:0:
71,223,58510,5,4,1:0:0:0:
469,184,59921,6,0,B|394:262|394:262|286:204,1,215.999993408203,0|0,1:0|2:0,2:0:0:0:
350,0,60305,2,0,L|372:160,1,161.999995056153,0|0,1:0|2:0,2:0:0:0:
394,293,60562,6,0,L|401:350,2,53.9999983520508,4|0|0,1:0|2:0|2:0,2:0:0:0:
164,194,60818,1,2,2:0:0:0:
164,194,60946,1,0,2:0:0:0:
106,112,61074,2,0,P|37:99|18:233,1,215.999993408203,2|0,2:0|2:0,2:0:0:0:
116,270,61459,6,0,B|130:381|130:381|162:329,1,161.999995056153,4|0,1:2|2:0,2:0:0:0:
230,264,61716,2,0,L|294:255,2,53.9999983520508,4|0|0,1:2|2:0|2:0,2:0:0:0:
249,138,61972,5,0,1:0:0:0:
245,111,62036,1,0,1:0:0:0:
242,84,62100,1,0,1:0:0:0:
238,57,62164,1,0,1:0:0:0:
235,30,62228,1,0,1:0:0:0:
317,23,62357,5,0,1:0:0:0:
321,50,62421,1,0,1:0:0:0:
324,77,62485,1,0,1:0:0:0:
328,104,62549,1,0,1:0:0:0:
333,138,62613,6,0,P|341:237|471:230,1,215.999993408203,2|0,1:0|1:0,2:0:0:0:
492,156,62998,5,0,1:0:0:0:
492,156,63062,1,0,1:0:0:0:
492,156,63126,2,0,P|515:110|496:58,1,107.999996704102,8|0,1:0|2:0,1:0:0:0:
510,27,63318,2,0,L|398:18,1,107.999996704102,8|0,1:0|2:0,2:0:0:0:
386,143,63510,2,0,L|322:136,1,53.9999983520508,2|0,1:0|2:0,2:0:0:0:
283,245,63639,6,0,P|275:344|145:337,1,215.999993408203,2|8,1:0|1:0,2:0:0:0:
132,266,64023,5,0,1:0:0:0:
132,266,64087,1,0,1:0:0:0:
132,266,64151,2,0,L|126:204,1,53.9999983520508,8|0,1:0|2:0,1:0:0:0:
165,127,64280,1,0,1:0:0:0:
150,124,64344,1,8,1:0:0:0:
134,120,64408,1,0,1:0:0:0:
118,117,64472,1,0,1:0:0:0:
102,113,64536,1,0,1:0:0:0:
86,110,64600,1,0,1:0:0:0:
70,106,64664,6,0,P|12:99|3:198,1,161.999995056153,2|0,1:0|1:0,2:0:0:0:
225,228,65049,2,0,L|231:288,1,53.9999983520508,0|0,1:0|2:0,2:0:0:0:
213,343,65177,2,0,P|155:350|146:251,1,161.999995056153,2|0,1:0|1:0,2:0:0:0:
410,148,65562,2,0,L|416:88,1,53.9999983520508,0|0,1:0|2:0,2:0:0:0:
398,33,65690,2,0,P|340:26|331:125,1,161.999995056153,2|0,1:0|1:0,2:0:0:0:
507,246,66074,5,0,1:0:0:0:
487,233,66139,1,0,1:0:0:0:
469,221,66203,2,0,L|475:281,1,53.9999983520508,0|0,1:0|1:0,2:0:0:0:
437,347,66331,5,0,1:0:0:0:
385,342,66395,1,0,1:0:0:0:
339,359,66459,1,0,1:0:0:0:
287,356,66524,1,0,1:0:0:0:
241,372,66588,1,0,1:0:0:0:
189,368,66652,1,0,1:0:0:0:
139,384,66716,1,2,2:0:0:0:
256,192,67741,5,2,2:0:0:0:
256,192,68767,5,2,2:0:0:0:
256,192,69792,5,2,2:0:0:0:
256,192,70305,5,2,2:0:0:0:
256,192,70818,5,2,2:0:0:0:
256,192,71331,5,2,2:0:0:0:
256,192,71459,1,2,2:0:0:0:
256,192,71716,5,2,2:0:0:0:
256,192,71844,1,2,2:0:0:0:
256,192,71973,1,2,2:0:0:0:
256,192,72228,5,2,2:0:0:0:
256,192,72356,1,2,2:0:0:0:
256,192,72613,5,2,2:0:0:0:
256,192,72741,1,2,2:0:0:0:
256,192,72870,1,2,2:0:0:0:
256,192,72933,12,4,73895,2:0:0:0:
122,85,74280,5,2,2:0:0:0:
147,102,74344,1,2,2:0:0:0:
126,118,74408,5,2,2:0:0:0:
151,135,74472,1,2,2:0:0:0:
129,151,74536,5,2,2:0:0:0:
154,168,74600,1,2,2:0:0:0:
133,184,74664,5,2,2:0:0:0:
158,201,74728,1,2,2:0:0:0:
136,224,74792,5,2,2:0:0:0:
161,241,74856,1,2,2:0:0:0:
138,265,74921,5,4,1:0:0:0:
281,194,75049,1,0,2:0:0:0:
281,194,75113,1,0,2:0:0:0:
281,194,75177,2,0,P|337:199|348:69,1,202.500007724762,8|0,1:0|2:0,2:0:0:0:
321,90,75433,5,2,1:0:0:0:
321,90,75498,1,2,2:0:0:0:
321,90,75562,2,0,L|309:11,1,67.5000025749208,0|0,2:0|2:0,2:0:0:0:
356,293,75690,1,8,1:0:0:0:
356,293,75754,1,0,2:0:0:0:
356,293,75818,2,0,L|366:373,1,67.5000025749208,0|0,2:0|2:0,2:0:0:0:
512,310,75946,6,0,P|485:218|373:217,1,202.500007724762,2|0,1:0|2:0,2:0:0:0:
281,194,76203,2,0,P|186:181|159:89,1,202.500007724762,8|0,1:0|2:0,2:0:0:0:
253,0,76459,2,0,P|274:46|234:119,2,135.000005149842,2|2|8,1:0|2:0|1:0,2:0:0:0:
328,270,76844,1,2,2:0:0:0:
172,314,76972,6,0,P|121:361|58:350,1,135.000005149842,4|0,1:2|2:0,2:0:0:0:
49,340,77164,1,0,2:0:0:0:
40,328,77228,2,0,P|22:254|136:212,1,202.500007724762,8|0,1:0|2:0,2:0:0:0:
195,227,77485,5,2,1:0:0:0:
195,227,77549,1,2,2:0:0:0:
195,227,77613,2,0,L|206:139,1,67.5000025749208,2|0,2:0|2:0,2:0:0:0:
53,51,77741,2,0,L|42:139,3,67.5000025749208,10|0|0|0,1:0|2:0|2:0|2:0,2:0:0:0:
115,0,77998,6,0,P|199:-5|228:95,1,202.500007724762,4|0,1:2|2:0,2:0:0:0:
283,198,78254,2,0,P|302:289|396:291,1,202.500007724762,8|0,1:2|2:0,2:0:0:0:
442,224,78510,2,0,P|480:278|466:343,2,135.000005149842,2|2|8,1:0|2:0|1:0,2:0:0:0:
442,224,78895,1,2,2:1:0:0:
315,96,79023,6,0,P|283:199|187:191,1,202.500007724762,4|0,1:2|2:0,2:0:0:0:
238,127,79280,2,0,P|202:81|217:5,1,135.000005149842,8|0,1:0|2:0,2:0:0:0:
0,186,79536,5,0,1:0:0:0:
0,186,79600,1,0,2:0:0:0:
0,186,79664,2,0,L|140:142,1,135.000005149842,2|8,2:0|1:0,2:0:0:0:
284,353,79921,1,0,2:0:0:0:
284,353,79985,1,0,2:0:0:0:
284,353,80049,2,0,P|184:339|209:197,1,270.000010299683,2|8,1:0|1:0,2:0:0:0:
300,230,80369,1,0,2:0:0:0:
300,230,80433,2,0,L|317:72,1,135.000005149842,2|0,2:0|1:0,2:0:0:0:
370,36,80626,5,2,2:0:0:0:
390,27,80690,1,2,2:0:0:0:
410,17,80754,1,2,2:0:0:0:
431,8,80818,2,0,L|506:15,3,67.5000025749208,8|0|0|0,1:0|2:0|2:0|2:0,2:0:0:0:
466,108,81074,6,0,B|485:176|485:176|451:239,1,135.000005149842,2|0,1:2|2:0,2:0:0:0:
202,289,81331,2,0,B|183:221|183:221|217:158,1,135.000005149842,10|0,1:2|2:0,2:0:0:0:
382,140,81587,6,0,L|370:234,1,67.5000025749208,2|0,1:0|2:0,2:0:0:0:
431,296,81716,2,0,L|337:284,1,67.5000025749208,2|0,1:0|1:0,1:0:0:0:
279,346,81844,2,0,L|291:252,1,67.5000025749208,10|0,1:0|1:0,1:0:0:0:
230,190,81973,2,0,L|324:202,1,67.5000025749208,2|0,1:0|1:0,1:0:0:0:
472,110,82228,5,0,2:0:0:0:
472,110,82357,2,0,L|462:196,2,67.5000025749208,8|0|0,1:0|1:0|1:0,1:0:0:0:
225,23,82613,6,0,L|319:35,1,67.5000025749208,2|0,1:2|1:0,1:0:0:0:
230,190,82741,2,0,L|324:202,1,67.5000025749208,2|0,1:2|1:0,1:0:0:0:
196,48,82869,6,0,L|290:60,1,67.5000025749208,8|0,1:2|1:0,1:0:0:0:
201,215,82997,2,0,L|295:227,1,67.5000025749208,2|0,1:2|1:0,1:0:0:0:
0,149,83126,5,2,1:0:0:0:
0,149,83190,1,0,2:0:0:0:
0,149,83254,1,0,2:0:0:0:
0,149,83318,1,0,2:0:0:0:
0,149,83382,2,0,P|-13:252|133:259,1,270.000010299683,8|0,1:0|1:0,2:0:0:0:
114,183,83703,1,0,2:0:0:0:
114,183,83767,2,0,L|102:96,1,67.5000025749208,2|0,2:0|2:0,2:0:0:0:
179,39,83895,5,8,1:0:0:0:
179,39,83959,1,0,2:0:0:0:
179,39,84023,1,0,2:0:0:0:
179,39,84087,1,0,2:0:0:0:
179,39,84151,2,0,L|209:263,1,202.500007724762,4|0,1:2|2:0,2:0:0:0:
381,260,84408,2,0,L|354:59,1,202.500007724762,10|0,1:0|2:0,2:0:0:0:
275,108,84664,6,0,L|287:197,1,67.5000025749208,2|0,1:0|2:0,2:0:0:0:
400,229,84792,2,0,L|373:28,1,202.500007724762,10|0,1:0|2:0,2:0:0:0:
481,250,85049,6,0,P|474:362|337:345,1,270.000010299683,2|0,1:0|2:0,2:0:0:0:
175,277,85369,1,0,1:0:0:0:
174,276,85433,2,0,B|236:250|236:250|297:281,2,135.000005149842,8|0|0,1:0|1:0|1:0,1:0:0:0:
70,335,85818,6,0,L|62:260,1,67.5000025749208,0|0,1:0|1:0,2:0:0:0:
136,174,85946,1,8,1:0:0:0:
136,174,86010,1,0,1:0:0:0:
136,174,86074,1,0,1:0:0:0:
136,174,86139,1,0,1:0:0:0:
136,174,86203,6,0,L|160:381,1,202.500007724762,2|0,1:0|2:0,2:0:0:0:
228,118,86459,2,0,L|21:142,1,202.500007724762,2|0,1:0|2:0,2:0:0:0:
96,47,86716,6,0,L|166:39,1,67.5000025749208,0|0,1:0|2:0,2:0:0:0:
284,194,86844,2,0,L|77:218,1,202.500007724762,2|0,1:0|2:0,2:0:0:0:
260,25,87100,6,0,B|340:47|340:47|354:126|354:126|459:155,1,270.000010299683,0|0,1:0|1:0,1:0:0:0:
450,244,87421,1,0,1:0:0:0:
450,244,87485,6,0,B|370:266|370:266|356:345|356:345|251:374,1,270.000010299683,2|8,1:0|1:0,1:0:0:0:
189,305,87805,1,0,2:0:0:0:
189,305,87869,2,0,B|149:247|149:247|177:175,1,135.000005149842,2|0,2:1|1:0,2:0:0:0:
341,173,88126,5,2,2:0:0:0:
341,173,88190,1,2,2:0:0:0:
341,173,88254,2,0,P|380:65|251:30,1,270.000010299683,8|2,1:0|1:0,2:0:0:0:
232,107,88574,1,0,2:0:0:0:
232,107,88639,2,0,P|182:65|192:-20,1,135.000005149842,0|0,2:0|1:0,2:0:0:0:
66,236,88895,5,0,2:0:0:0:
66,236,88959,1,0,2:0:0:0:
66,236,89023,2,0,L|-22:251,3,67.5000025749208,10|0|0|0,1:0|2:0|2:0|2:0,2:0:0:0:
144,295,89280,5,2,1:0:0:0:
122,143,89408,2,0,L|111:67,2,67.5000025749208,2|0|8,2:0|2:0|1:0,2:0:0:0:
381,156,89664,5,2,2:0:0:0:
359,308,89792,2,0,L|348:384,2,67.5000025749208,2|0|0,1:0|2:0|2:0,2:0:0:0:
396,60,90049,5,8,1:0:0:0:
504,259,90177,2,0,L|432:242,1,67.5000025749208,2|0,1:0|2:0,2:0:0:0:
479,5,90305,5,4,1:2:0:0:
305,35,90433,1,2,1:2:0:0:
231,367,90690,5,2,1:0:0:0:
57,329,90946,1,2,1:0:0:0:
170,153,91203,5,2,1:0:0:0:
170,153,91267,1,0,1:0:0:0:
170,153,91331,6,0,B|195:89|195:89|169:26,2,135.000005149842,0|0|8,1:0|1:0|1:0,1:0:0:0:
94,89,91716,2,0,L|22:81,2,67.5000025749208,0|0|0,1:0|1:0|1:0,1:0:0:0:
256,222,91972,5,0,1:0:0:0:
116,240,92100,1,8,1:0:0:0:
256,222,92228,2,0,L|341:209,1,67.5000025749208,0|0,1:0|1:0,1:0:0:0:
325,318,92357,5,2,1:0:0:0:
293,124,92485,1,0,1:0:0:0:
432,183,92613,6,0,L|423:266,1,67.5000025749208,8|0,1:0|2:0,2:0:0:0:
277,30,92741,1,0,1:0:0:0:
277,30,92805,1,0,1:0:0:0:
277,30,92869,1,0,1:0:0:0:
486,95,92998,5,0,1:0:0:0:
486,95,93062,1,0,1:0:0:0:
486,95,93126,2,0,L|397:85,1,67.5000025749208,8|0,1:0|1:0,1:0:0:0:
480,334,93254,2,0,L|391:344,1,67.5000025749208,0|0,1:0|1:0,1:0:0:0:
325,318,93382,6,0,B|352:255|352:255|322:188,1,135.000005149842,2|0,1:0|1:0,1:0:0:0:
189,250,93574,2,0,L|271:256,1,67.5000025749208,0|8,1:0|1:0,1:0:0:0:
16,240,93767,6,0,B|-11:177|-11:177|19:110,1,135.000005149842,2|0,1:0|1:0,1:0:0:0:
152,172,93959,2,0,L|70:178,2,67.5000025749208,0|8|0,1:0|1:0|1:0,1:0:0:0:
187,94,94151,6,0,L|195:15,1,67.5000025749208,2|0,1:0|1:0,1:0:0:0:
121,314,94280,2,0,L|113:393,1,67.5000025749208,8|0,1:0|1:0,1:0:0:0:
189,250,94408,6,0,L|327:237,1,135.000005149842,2|0,1:0|2:0,2:0:0:0:
473,217,94600,1,0,1:0:0:0:
473,217,94664,2,0,L|386:227,1,67.5000025749208,8|0,1:0|1:0,1:0:0:0:
420,309,94792,2,0,L|507:299,1,67.5000025749208,2|0,1:0|1:0,1:0:0:0:
321,107,94921,6,0,L|176:92,1,135.000005149842,2|0,1:0|2:0,2:0:0:0:
102,84,95113,2,0,L|34:76,1,67.5000025749208,0|8,1:0|1:0,1:0:0:0:
16,240,95305,1,0,1:0:0:0:
16,240,95369,1,0,1:0:0:0:
16,240,95433,1,0,1:0:0:0:
491,197,97485,6,0,P|508:111|359:74,1,270.000010299683,2|0,1:0|1:0,2:0:0:0:
400,235,97869,1,0,1:0:0:0:
400,235,97933,1,0,1:0:0:0:
400,235,97998,6,0,L|420:389,1,135.000005149842,0|0,1:0|1:0,1:0:0:0:
181,189,98254,2,0,L|161:38,1,135.000005149842,8|0,1:0|1:0,1:0:0:0:
241,10,98510,1,2,1:0:0:0:
75,128,98639,5,0,1:0:0:0:
75,128,98703,1,0,1:0:0:0:
75,128,98767,2,0,L|-14:142,2,67.5000025749208,8|0|0,1:0|1:0|1:0,1:0:0:0:
272,124,99023,5,0,1:0:0:0:
272,124,99087,1,0,1:0:0:0:
272,124,99151,2,0,L|286:207,1,67.5000025749208,0|0,1:0|1:0,1:0:0:0:
104,284,99280,5,0,1:0:0:0:
104,284,99344,1,0,1:0:0:0:
104,284,99408,2,0,L|90:201,1,67.5000025749208,0|0,1:0|1:0,1:0:0:0:
191,287,99536,5,0,1:0:0:0:
195,291,99622,2,0,P|150:373|65:362,1,180.000006866455,2|0,1:2|1:0,1:0:0:0:
290,384,99963,1,0,1:0:0:0:
290,384,100049,2,0,P|335:302|420:313,2,180.000006866455,2|0|0,1:2|1:0|1:0,1:0:0:0:
480,231,100562,5,0,1:0:0:0:
378,199,100690,1,0,1:0:0:0:
378,199,100754,1,0,1:0:0:0:
378,199,100818,2,0,P|348:129|372:63,1,135.000005149842,8|0,1:0|1:0,1:0:0:0:
507,120,101074,6,0,L|425:130,3,67.5000025749208,2|0|0|0,1:2|1:0|1:0|1:0,1:0:0:0:
411,306,101331,2,0,L|329:296,3,67.5000025749208,2|2|0|2,1:2|1:0|1:0|1:0,1:0:0:0:
253,288,101587,1,0,1:0:0:0:
156,355,101716,5,0,1:0:0:0:
156,355,101780,1,0,1:0:0:0:
156,355,101844,2,0,L|144:265,1,67.5000025749208,0|0,1:0|1:0,1:0:0:0:
137,204,101972,2,0,L|127:124,2,67.5000025749208,0|0|8,1:0|1:0|1:0,1:0:0:0:
253,288,102228,1,2,1:2:0:0:
305,155,102357,6,0,P|285:72|177:69,1,202.500007724762,0|0,1:0|2:0,2:0:0:0:
128,137,102613,2,0,P|89:83|101:19,1,135.000005149842,8|0,1:0|1:0,2:0:0:0:
234,221,102805,1,0,1:0:0:0:
234,221,102869,6,0,L|225:304,3,67.5000025749208,0|0|0|0,1:0|1:0|1:0|1:0,1:0:0:0:
213,371,103126,1,2,1:2:0:0:
324,246,103254,1,0,1:0:0:0:
495,243,103382,2,0,L|486:326,3,67.5000025749208,0|0|0|0,1:0|1:0|1:0|1:0,1:0:0:0:
416,140,103639,5,0,1:0:0:0:
416,140,103703,1,0,1:0:0:0:
416,140,103767,2,0,L|407:217,1,67.5000025749208,2|0,1:0|1:0,1:0:0:0:
142,262,103895,5,0,1:0:0:0:
142,262,103959,1,0,1:0:0:0:
142,262,104023,2,0,L|133:185,1,67.5000025749208,2|0,1:0|1:0,1:0:0:0:
397,295,104152,5,0,1:0:0:0:
397,295,104216,1,0,1:0:0:0:
397,295,104280,2,0,L|388:372,1,67.5000025749208,2|0,1:0|1:0,1:0:0:0:
122,112,104408,6,0,L|113:35,2,67.5000025749208,2|0|0,1:0|1:0|1:0,1:0:0:0:
86,343,104664,5,0,1:0:0:0:
86,343,104750,2,0,P|32:332|-33:321,1,90.0000034332277,0|0,1:0|1:0,1:0:0:0:
215,160,104921,5,0,1:0:0:0:
215,160,105007,2,0,P|269:149|334:138,1,90.0000034332277,0|0,1:0|1:0,1:0:0:0:
356,11,105177,5,2,2:0:0:0:
89,29,105690,5,0,1:0:0:0:
68,53,105754,1,0,1:0:0:0:
54,80,105818,1,0,1:0:0:0:
45,111,105882,1,0,1:0:0:0:
43,142,105946,1,0,1:0:0:0:
47,173,106010,1,0,1:0:0:0:
57,203,106074,1,0,1:0:0:0:
74,229,106138,1,0,1:0:0:0:
96,252,106202,1,0,1:0:0:0:
122,270,106266,1,0,1:0:0:0:
151,282,106331,1,0,1:0:0:0:
182,288,106395,1,0,1:0:0:0:
213,287,106459,1,0,1:0:0:0:
244,280,106523,1,0,1:0:0:0:
272,266,106587,1,0,1:0:0:0:
297,247,106651,1,0,1:0:0:0:
312,225,106716,6,0,L|324:295,3,67.5000025749208,0|0|0|0,1:0|1:0|1:0|1:0,1:0:0:0:
293,132,106972,2,0,L|223:144,3,67.5000025749208,0|0|0|0,1:0|1:0|1:0|1:0,1:0:0:0:
387,110,107228,2,0,L|375:40,3,67.5000025749208,0|0|0|0,1:0|1:0|1:0|1:0,1:0:0:0:
406,203,107484,2,0,L|476:191,3,67.5000025749208,0|0|0|0,1:0|1:0|1:0|1:0,1:0:0:0:
248,366,107741,5,0,1:0:0:0:
269,342,107805,1,0,1:0:0:0:
283,315,107869,1,0,1:0:0:0:
292,284,107933,1,0,1:0:0:0:
294,253,107997,1,0,1:0:0:0:
290,222,108061,1,0,1:0:0:0:
280,192,108125,1,0,1:0:0:0:
263,166,108189,1,0,1:0:0:0:
241,143,108253,1,0,1:0:0:0:
215,125,108317,1,0,1:0:0:0:
186,113,108382,1,0,1:0:0:0:
155,107,108446,1,0,1:0:0:0:
124,108,108510,1,0,1:0:0:0:
93,115,108574,1,0,1:0:0:0:
65,129,108638,1,0,1:0:0:0:
40,148,108702,1,0,1:0:0:0:
20,174,108767,6,0,L|30:247,3,67.5000025749208,0|0|0|0,1:0|1:0|1:0|1:0,1:0:0:0:
38,329,109023,2,0,L|111:319,3,67.5000025749208,0|0|0|0,1:0|1:0|1:0|1:0,1:0:0:0:
192,310,109280,5,0,1:0:0:0:
192,310,109408,2,0,P|210:241|174:176,1,135.000005149842,4|0,1:2|2:0,1:0:0:0:
184,185,109600,2,0,L|337:167,1,135.000005149842,4|0,1:2|2:0,2:0:0:0:
348,247,109792,1,8,1:0:0:0:
489,151,110433,6,0,P|471:82|507:17,1,135.000005149842,4|0,1:2|2:0,1:0:0:0:
497,26,110625,2,0,L|344:8,1,135.000005149842,4|0,1:2|2:0,2:0:0:0:
333,88,110817,1,8,1:0:0:0:
325,339,111074,6,2,L|417:351,2,90.0000034332277,2|2|2,2:0|2:0|2:0,2:0:0:0:
237,266,111331,5,0,1:0:0:0:
236,281,111416,2,0,L|226:390,1,90.0000034332277,0|0,1:0|1:0,1:0:0:0:
409,263,111588,5,0,1:0:0:0:
408,248,111673,2,0,L|398:139,1,90.0000034332277,0|0,1:0|1:0,1:0:0:0:
387,75,111844,5,0,1:0:0:0:
385,60,111929,2,0,L|476:73,1,90.0000034332277,2|0,1:0|2:0,2:0:0:0:
310,100,112100,2,0,L|221:88,1,90.0000034332277,2|0,1:0|2:0,2:0:0:0:
138,125,112271,2,0,L|49:113,1,90.0000034332277,2|0,1:0|2:0,2:0:0:0:
156,205,112442,5,0,1:0:0:0:
155,220,112527,2,0,L|145:329,2,90.0000034332277,0|0|0,1:0|1:0|1:0,1:0:0:0:
16,344,112784,5,0,1:0:0:0:
3,348,112869,1,0,1:0:0:0:
11,40,113382,6,0,L|6:-1,8,33.7500012874604,0|0|0|0|0|0|0|0|4,2:0|2:0|2:0|2:0|2:0|2:0|2:0|2:0|2:0,2:0:0:0:
416,361,113895,5,0,1:0:0:0:
416,361,113959,1,0,1:0:0:0:
416,361,114023,2,0,L|425:277,2,67.5000025749208,0|0|8,1:0|1:0|1:0,1:0:0:0:
417,141,114280,5,0,1:0:0:0:
417,141,114344,1,0,1:0:0:0:
417,141,114408,2,0,L|426:225,2,67.5000025749208,0|0|8,1:0|1:0|1:0,1:0:0:0:
403,22,114664,5,8,3:2:0:0:
403,22,114728,1,0,1:0:0:0:
288,43,114857,1,0,1:0:0:0:
242,149,114985,1,0,1:2:0:0:
259,263,115113,1,0,1:0:0:0:
259,263,115177,1,0,1:0:0:0:
180,366,115305,1,0,1:0:0:0:
180,366,115369,1,0,1:0:0:0:
180,366,115433,2,0,L|160:291,2,67.5000025749208,0|0|0,1:0|1:0|1:0,1:0:0:0:
68,360,115690,1,8,3:2:0:0:
55,21,115946,5,0,1:0:0:0:
55,21,116010,1,0,1:0:0:0:
55,21,116074,2,0,L|46:105,2,67.5000025749208,0|0|8,1:0|1:0|1:0,1:0:0:0:
54,241,116331,5,0,1:0:0:0:
54,241,116395,1,0,1:0:0:0:
54,241,116459,2,0,L|45:157,2,67.5000025749208,0|0|8,1:0|1:0|1:0,1:0:0:0:
65,355,116716,5,8,3:2:0:0:
65,355,116780,1,0,1:0:0:0:
180,366,116908,1,0,1:2:0:0:
292,302,117036,1,0,1:0:0:0:
292,302,117100,1,0,1:0:0:0:
299,179,117228,6,0,L|335:170,4,33.7500012874604,8|8|8|8|8,3:2|2:3|2:3|2:3|2:3,2:0:0:0:
313,44,117485,2,8,L|335:81,4,33.7500012874604,2|8|8|8|8,3:2|2:3|2:3|2:3|2:3,2:3:0:0:
439,23,117741,2,8,L|430:61,4,33.7500012874604,8|8|8|8|8,3:2|2:3|2:3|2:3|2:3,2:3:0:0:
476,217,117998,5,0,1:0:0:0:
476,217,118062,1,0,1:0:0:0:
476,217,118126,2,0,L|490:303,2,67.5000025749208,0|0|8,1:0|1:0|1:0,1:0:0:0:
449,89,118382,5,0,1:0:0:0:
449,89,118446,1,0,1:0:0:0:
449,89,118510,2,0,L|435:3,2,67.5000025749208,0|0|8,1:0|1:0|1:0,1:0:0:0:
377,159,118767,5,0,1:0:0:0:
377,159,118831,1,0,1:0:0:0:
192,142,118959,1,0,1:0:0:0:
283,151,119087,1,0,1:0:0:0:
102,133,119216,1,0,1:0:0:0:
102,133,119280,1,0,1:0:0:0:
14,126,119408,1,0,1:0:0:0:
14,126,119472,1,0,1:0:0:0:
14,126,119536,2,0,L|1:51,2,67.5000025749208,0|0|0,1:0|1:0|1:0,1:0:0:0:
192,142,119792,1,8,1:0:0:0:
117,242,119921,5,0,1:0:0:0:
117,242,119985,1,0,1:0:0:0:
117,242,120049,2,0,L|130:317,2,67.5000025749208,0|0|0,1:0|1:0|1:0,1:0:0:0:
27,289,120305,5,8,1:0:0:0:
218,269,120433,1,0,1:0:0:0:
218,269,120498,1,0,1:0:0:0:
393,247,120626,1,0,1:0:0:0:
393,247,120690,1,0,1:0:0:0:
305,257,120818,1,8,1:0:0:0:
483,237,120946,1,0,1:0:0:0:
483,237,121010,1,0,1:0:0:0:
483,237,121074,1,2,1:0:0:0:
377,155,121203,5,0,1:0:0:0:
377,155,121267,1,0,1:0:0:0:
377,155,121331,2,0,L|367:105,8,33.7500012874604,8|0|0|0|0|0|0|0|2,1:0|2:0|2:0|2:0|2:0|2:0|2:0|2:0|1:0,2:0:0:0:
406,333,121716,2,0,L|416:383,8,33.7500012874604,2|2|2|2|2|2|2|2|2,2:0|2:0|2:0|2:0|2:0|2:0|2:0|2:0|2:0,2:0:0:0:
393,247,122100,5,4,1:0:0:0:
256,60,125177,6,0,L|256:-10,23,45.0000017166138,2|0|0|0|0|0|0|0|0|0|0|0|0|0|0|0|0|0|0|0|0|0|0|0,1:0|1:0|1:0|1:0|1:0|1:0|1:0|1:0|1:0|1:0|1:0|1:0|1:0|1:0|1:0|1:0|1:0|1:0|1:0|1:0|1:0|1:0|1:0|1:0,2:0:0:0:
215,121,126203,5,0,1:0:0:0:
218,143,126267,1,0,1:0:0:0:
221,165,126331,1,0,1:0:0:0:
224,187,126395,1,0,1:0:0:0:
276,185,126459,5,0,1:0:0:0:
273,207,126523,1,0,1:0:0:0:
270,229,126587,1,0,1:0:0:0:
267,251,126651,1,0,1:0:0:0:
238,265,126716,5,0,1:0:0:0:
241,287,126780,1,0,1:0:0:0:
244,309,126844,1,0,1:0:0:0:
247,331,126908,1,0,1:0:0:0:
256,351,126972,6,0,L|256:399,8,33.7500012874604,0|0|0|0|0|0|0|0|4,1:0|1:0|1:0|1:0|1:0|1:0|1:0|1:0|1:0,2:0:0:0:
