osu file format v14

[General]
AudioFilename: audio.mp3
AudioLeadIn: 0
PreviewTime: 74280
Countdown: 0
SampleSet: Soft
StackLeniency: 0.2
Mode: 0
LetterboxInBreaks: 0
EpilepsyWarning: 1
WidescreenStoryboard: 1

[Editor]
DistanceSpacing: 1.1
BeatDivisor: 6
GridSize: 32
TimelineZoom: 2.099999

[Metadata]
Title:Xronier
TitleUnicode:Xronièr
Artist:Camellia as "fluX Xroise"
ArtistUnicode:かめりあ as "fluX Xroisé"
Creator:Regou
Version:ADVANCED
Source:SOUND VOLTEX IV HEAVENLY HAVEN
Tags:SDVX corsace open 2020 finals nm5 ponbot -_Pon_- Cubby Cubbby Electronic Instrumental cametek kamelcamellia xroniàl xéro xronial xero かめるかめりあ
BeatmapID:2643107
BeatmapSetID:1271930

[Difficulty]
HPDrainRate:5
CircleSize:4.2
OverallDifficulty:6.3
ApproachRate:8
SliderMultiplier:1.5
SliderTickRate:1

[Events]
//Background and Video events
0,0,"X.jpg",0,0
//Break Periods
//Storyboard Layer 0 (Background)
//Storyboard Layer 1 (Fail)
//Storyboard Layer 2 (Pass)
//Storyboard Layer 3 (Foreground)
//Storyboard Layer 4 (Overlay)
//Storyboard Sound Samples

[TimingPoints]
1075,256.410256410256,4,2,2,75,1,0
29792,-111.111111111111,4,2,2,75,0,0
29921,-111.111111111111,4,2,2,65,0,0
37998,-100,4,2,2,65,0,0
38254,-100,4,2,2,75,0,0
46235,-100,4,2,2,30,0,0
49344,-500,4,2,2,75,0,0
50305,-100,4,2,2,75,0,0
66716,-100,4,2,2,60,0,0
70562,-133.333333333333,4,2,2,60,0,0
72869,-333.333333333333,4,2,2,60,0,0
74280,-100,4,2,2,60,0,0
74921,-100,4,2,2,85,0,1
95433,-100,4,2,2,80,0,0

[Colours]
Combo1 : 212,212,212
Combo2 : 0,255,128
Combo3 : 255,64,64

[HitObjects]
256,192,1075,12,2,3126,1:3:0:0:
412,336,4536,6,0,B|426:240|426:240|369:254,1,150,4|0,1:2|2:0,2:0:0:0:
290,263,4921,2,0,P|248:248|254:152,1,150,2|4,1:2|1:2,2:0:0:0:
383,35,6074,6,0,L|436:43,1,37.5,4|0,1:2|0:0,2:0:0:0:
394,122,6331,2,0,L|447:130,1,37.5,4|0,1:2|2:0,2:0:0:0:
149,102,7228,6,0,B|172:50|172:50|66:76,1,150,4|0,1:0|2:0,2:0:0:0:
45,162,7613,1,0,1:0:0:0:
45,162,7677,1,0,1:0:0:0:
45,162,7741,2,0,P|0:149|13:80,2,112.5,8|2|0,1:0|1:2|1:0,2:0:0:0:
66,250,8254,6,0,P|122:245|143:336,1,150,4|0,1:2|1:0,2:0:0:0:
234,240,8639,2,0,L|278:246,2,37.5,0|0|8,1:0|1:0|1:0,0:0:0:0:
274,329,8895,2,0,L|318:335,2,37.5,0|8|0,1:0|1:0|2:0,0:0:0:0:
403,347,9151,5,8,1:0:0:0:
403,347,9216,1,8,1:0:0:0:
403,347,9280,2,0,B|438:330|438:330|426:257,2,112.5,2|8|8,1:0|1:0|1:0,2:0:0:0:
456,180,9792,2,0,P|432:216|359:208,2,112.5,2|8|8,1:0|1:0|1:0,2:0:0:0:
337,130,10305,2,0,P|361:94|434:102,2,112.5,2|8|0,1:0|1:0|1:0,2:0:0:0:
278,205,10818,6,0,B|227:219|188:188|188:188|137:152|87:191|87:191|107:286,1,300,8|4,1:0|1:0,1:0:0:0:
449,348,13382,6,0,B|416:334|416:334|424:216,1,150,0|8,1:0|1:0,2:0:0:0:
363,127,13767,1,0,2:0:0:0:
363,127,13895,2,0,P|322:191|257:164,2,150,2|8|0,1:2|1:0|1:0,2:0:0:0:
167,84,14664,6,0,B|112:32|112:32|81:111,1,150,8|2,1:0|1:0,2:0:0:0:
35,172,15049,1,0,0:0:0:0:
35,172,15177,2,0,P|66:187|80:229,1,75,8|0,1:0|2:0,2:0:0:0:
110,314,15433,6,0,P|112:245|180:181,1,150,2|8,1:0|1:0,2:0:0:0:
242,144,15818,2,0,L|321:152,2,75,2|0|2,2:0|1:0|2:0,0:0:0:0:
243,233,16203,2,0,L|325:241,1,75,0|2,1:0|2:0,2:0:0:0:
367,321,16459,6,0,B|414:337|414:337|404:232,2,150,2|2|0,1:3|1:3|1:0,2:0:0:0:
470,54,17357,6,0,B|442:125|442:125|387:75,1,150,4|2,1:2|1:2,2:0:0:0:
300,128,17741,1,0,2:0:0:0:
300,128,17869,2,0,P|297:79|214:30,2,150,0|8|2,1:0|1:0|1:0,2:0:0:0:
372,203,18510,5,2,2:0:0:0:
372,203,18639,2,0,L|462:196,1,75,8|2,1:0|2:0,0:0:0:0:
472,317,18895,2,0,B|431:287|431:287|340:349,1,150,0|8,1:0|1:0,0:0:0:0:
271,292,19280,1,0,2:0:0:0:
271,292,19344,1,0,2:0:0:0:
271,292,19408,6,0,P|214:282|235:197,1,150,2|8,1:3|1:0,0:0:0:0:
163,135,19792,1,0,2:0:0:0:
163,135,19921,2,0,B|174:27|174:27|143:67,2,150,0|8|0,1:2|1:0|1:0,2:0:0:0:
70,145,20562,6,0,L|76:215,6,50,2|0|0|2|0|0|2,1:0|1:0|1:0|1:0|1:0|1:0|2:0,0:0:0:0:
31,368,21587,6,0,P|66:316|141:338,1,150,4|10,1:2|1:0,2:0:0:0:
190,261,21972,1,0,0:0:0:0:
190,261,22036,1,0,2:0:0:0:
190,261,22100,2,0,L|272:257,1,75,2|0,1:2|1:2,2:0:0:0:
244,346,22357,2,0,L|326:342,1,75,8|2,1:2|1:0,2:0:0:0:
483,283,22741,6,0,P|496:247|490:204,1,75,2|2,1:2|2:0,0:0:0:0:
408,228,22998,2,0,L|394:64,1,150,10|2,1:2|1:2,0:0:0:0:
453,17,23382,2,0,L|495:5,2,37.5,2|0|8,2:0|2:0|1:0,2:0:0:0:
285,84,23767,6,0,L|203:72,1,75,2|0,1:0|1:0,0:0:0:0:
264,163,24023,2,0,L|182:151,1,75,8|0,1:0|1:0,0:0:0:0:
242,241,24280,2,0,L|160:229,1,75,2|0,1:0|1:0,0:0:0:0:
100,286,24536,1,8,1:0:0:0:
7,40,24792,6,0,B|63:92|63:92|89:20,2,150,2|0|8,1:3|1:0|1:0,2:0:0:0:
7,171,25498,5,8,1:0:0:0:
137,148,25690,5,2,1:0:0:0:
328,354,26331,5,8,1:0:0:0:
197,337,26523,5,8,1:0:0:0:
278,233,26716,5,2,1:0:0:0:
451,267,27228,6,0,L|458:320,7,50,2|0|0|2|0|0|0|2,1:2|1:0|1:0|1:2|1:0|1:0|1:0|1:0,0:0:0:0:
359,245,27998,6,0,L|373:143,1,100,0|0,1:0|1:0,0:0:0:0:
426,74,28339,6,0,L|419:21,4,50,0|0|0|0|2,1:0|1:0|1:0|1:0|1:0,1:0:0:0:
465,366,29536,5,2,2:0:0:0:
465,366,29792,6,0,L|472:285,2,67.4999979400635,2|2|8,1:0|2:0|2:0,0:0:0:0:
381,271,30177,2,0,B|340:218|340:218|285:263,1,134.999995880127,2|0,2:0|2:0,2:0:0:0:
255,340,30562,2,0,B|200:369|141:327|159:305|147:274|87:232|19:273,1,269.999991760254,8|8,2:0|2:0,2:0:0:0:
9,114,31331,6,0,L|80:106,1,67.4999979400635,2|0,2:0|2:0,0:0:0:0:
160,97,31587,2,0,L|231:89,1,67.4999979400635,8|2,2:0|2:0,0:0:0:0:
277,12,31844,6,0,B|322:35|322:35|308:140,1,134.999995880127,2|8,2:1|2:0,2:0:0:0:
237,177,32228,2,0,L|253:262,2,67.4999979400635,2|0|0,2:1|0:0|2:0,2:0:0:0:
340,208,32613,2,0,B|405:220|405:220|395:341|395:341|483:356,1,269.999991760254,8|8,2:0|2:0,2:0:0:0:
480,87,33382,6,0,L|404:101,1,67.4999979400635,2|0,2:1|2:0,0:0:0:0:
454,7,33639,2,0,L|378:21,1,67.4999979400635,8|2,0:0|2:0,0:0:0:0:
328,95,33895,6,0,P|312:133|340:184,2,101.249996910095,2|0|2,2:1|0:0|2:0,0:0:0:0:
223,15,34408,6,0,B|242:67|242:67|151:54,1,134.999995880127,2|8,2:1|2:1,2:0:0:0:
203,150,34792,2,0,B|149:131|104:167|106:223|115:217|124:212|117:274|60:306|4:275,1,269.999991760254,2|0,2:1|0:0,2:0:0:0:
11,278,35433,6,0,L|30:354,1,67.4999979400635,0|2,2:1|2:0,0:0:0:0:
123,357,35690,2,0,L|164:360,4,33.7499989700318,8|0|0|0|2,2:0|2:0|2:0|2:0|2:0,0:0:0:0:
249,263,36203,5,2,2:0:0:0:
249,263,36331,2,0,P|271:215|347:234,1,134.999995880127,4|2,2:0|2:0,0:0:0:0:
424,255,36716,2,0,B|503:242|503:242|464:168,1,134.999995880127,4|2,2:0|2:0,0:0:0:0:
458,87,37100,2,0,B|379:100|379:100|418:174,1,134.999995880127,4|2,2:0|2:0,0:0:0:0:
404,148,37485,1,2,2:3:0:0:
136,32,37998,6,0,L|59:27,1,75,2|0,1:2|1:0,0:0:0:0:
126,112,38254,2,0,L|49:107,1,75,8|2,1:0|1:2,2:0:0:0:
17,263,38510,2,0,P|56:205|137:229,1,150,2|8,1:0|1:0,0:0:0:0:
204,176,38895,1,0,1:0:0:0:
204,176,38959,1,0,1:0:0:0:
204,176,39023,6,0,P|215:213|199:257,1,75,2|0,1:0|1:0,1:0:0:0:
293,337,39280,2,0,P|282:300|298:256,1,75,2|0,1:0|1:0,1:0:0:0:
370,178,39536,2,0,P|381:215|365:259,1,75,0|0,1:0|1:0,2:0:0:0:
490,283,39792,6,0,L|497:334,3,37.5,0|0|2|0,1:0|1:0|1:0|1:0,0:0:0:0:
501,346,40049,2,0,L|513:202,1,112.5,2|0,1:3|2:0,2:0:0:0:
481,168,40305,2,0,P|468:133|479:89,1,75,8|0,1:0|0:0,2:0:0:0:
370,178,40562,6,0,L|323:172,7,37.5,2|0|2|2|8|0|2|0,1:0|0:0|2:0|2:0|1:0|2:0|2:0|2:0,0:0:0:0:
313,171,41074,2,0,P|279:232|210:211,1,150,2|8,1:0|1:0,2:0:0:0:
180,123,41459,6,0,L|94:114,1,75,2|2,2:0|1:0,0:0:0:0:
114,29,41716,2,0,L|200:38,2,75,2|8|2,2:0|1:0|2:0,0:0:0:0:
24,111,42100,6,0,L|-15:117,6,37.5,2|2|2|2|8|0|0,1:0|2:0|2:0|2:0|1:0|2:0|2:0,0:0:0:0:
36,190,42613,2,0,L|-4:196,6,37.5,2|0|0|0|8|0|0,1:0|0:0|2:0|2:0|2:0|2:0|2:0,0:0:0:0:
102,248,43126,6,0,L|141:254,6,37.5,2|0|0|0|8|2|2,1:0|0:0|2:0|2:0|2:0|2:0|2:0,0:0:0:0:
90,327,43639,2,0,L|130:333,6,37.5,0|0|2|0|8|0|2,2:0|0:0|2:0|0:0|2:0|0:0|2:0,0:0:0:0:
218,370,44151,6,0,P|241:330|303:336,2,112.5,2|2|0,1:0|1:0|1:0,1:0:0:0:
265,233,44664,2,0,B|271:159|271:159|247:191,2,112.5,2|2|0,1:0|1:0|1:0,1:0:0:0:
371,263,45177,5,2,1:0:0:0:
506,244,45369,1,0,1:0:0:0:
484,111,45562,1,0,1:0:0:0:
349,130,45754,1,0,1:0:0:0:
428,208,45946,6,0,L|422:165,4,37.5,0|0|0|0|4,1:0|1:0|1:0|1:0|1:0,0:0:0:0:
60,206,49344,6,0,L|65:262,1,52.5,2|2,2:0|2:0,2:0:0:0:
496,337,50305,6,0,B|457:271|457:271|404:329,1,150,0|8,1:0|1:0,0:0:0:0:
318,359,50690,1,0,1:0:0:0:
318,359,50754,1,0,1:0:0:0:
318,359,50818,2,0,P|263:329|288:253,1,150,0|0,1:0|1:0,0:0:0:0:
362,224,51203,2,0,L|367:148,1,75,0|0,0:0|1:0,0:0:0:0:
512,24,51587,6,0,B|463:79|463:79|424:13,2,150,0|0|8,1:0|1:0|1:0,0:0:0:0:
366,149,52357,6,0,B|324:137|297:162|303:173|269:197|217:178,1,150,0|8,1:0|1:0,0:0:0:0:
129,201,52741,1,0,1:0:0:0:
129,201,52805,1,0,1:0:0:0:
129,201,52869,2,0,P|112:164|119:128,1,75,0|0,1:0|1:0,0:0:0:0:
146,48,53126,2,0,L|68:39,1,75,8|0,1:0|1:0,0:0:0:0:
20,118,53382,5,0,1:0:0:0:
40,286,53639,1,8,1:0:0:0:
212,266,53895,1,0,1:0:0:0:
392,315,54151,6,0,L|390:358,3,37.5,8|0|0|0,1:0|1:0|1:0|0:0,1:0:0:0:
388,375,54408,6,0,P|334:329|368:247,1,150,0|8,1:0|1:0,0:0:0:0:
448,240,54792,1,0,1:0:0:0:
448,240,54857,1,0,1:0:0:0:
448,240,54921,2,0,B|471:209|471:209|443:173,1,75,0|0,1:0|1:0,0:0:0:0:
358,163,55177,2,0,L|351:81,1,75,8|0,1:0|1:0,0:0:0:0:
343,4,55433,5,0,1:0:0:0:
266,138,55690,2,0,P|236:83|145:96,2,150,0|0|8,1:0|1:0|1:0,0:0:0:0:
84,12,56459,6,0,B|11:29|11:29|53:96,1,150,0|8,1:0|1:0,1:0:0:0:
115,171,56844,1,0,1:0:0:0:
115,171,56908,1,0,1:0:0:0:
115,171,56972,2,0,L|109:257,1,75,0|0,0:0|1:0,0:0:0:0:
33,293,57228,6,0,L|-26:298,4,37.5,8|0|0|0|4,1:0|1:0|1:0|1:0|1:2,0:0:0:0:
203,229,57741,6,0,L|198:280,3,37.5,8|2|2|2,2:0|2:0|2:0|2:0,0:0:0:0:
206,209,57998,6,0,B|281:223|281:223|271:357|271:357|370:374,1,300,4|4,1:0|1:0,0:0:0:0:
456,63,59921,6,0,B|418:28|418:28|440:156,1,150,0|0,1:0|2:0,2:0:0:0:
500,180,60305,2,0,P|510:246|429:255,1,150,0|4,1:0|1:0,2:0:0:0:
264,124,61459,5,4,1:2:0:0:
253,211,61716,1,4,1:2:0:0:
106,162,61972,6,0,L|53:170,4,37.5,0|0|0|0|0,1:0|1:0|1:0|1:0|1:0,0:0:0:0:
95,249,62357,2,0,L|42:257,3,37.5,0|0|0|0,1:0|1:0|1:0|1:0,0:0:0:0:
39,261,62613,6,0,P|19:312|99:341,1,150,2|0,1:0|1:0,2:0:0:0:
185,371,62998,1,0,1:0:0:0:
185,371,63062,1,0,1:0:0:0:
185,371,63126,2,0,B|216:327|216:327|275:348,2,112.5,8|8|2,1:0|1:0|1:0,1:0:0:0:
209,233,63639,6,0,B|212:177|212:177|206:162|206:162|212:80,1,150,2|8,1:0|1:0,2:0:0:0:
308,154,64023,2,0,L|314:206,2,37.5,0|0|8,1:0|1:0|1:0,0:0:0:0:
390,141,64280,2,0,L|396:193,2,37.5,0|8|0,1:0|1:0|1:0,0:0:0:0:
459,71,64536,5,0,1:0:0:0:
459,71,64600,1,0,1:0:0:0:
459,71,64664,2,0,B|494:88|494:88|482:161,2,112.5,2|0|0,1:0|1:0|1:0,2:0:0:0:
512,238,65177,2,0,P|488:202|415:210,2,112.5,2|0|0,1:0|1:0|1:0,2:0:0:0:
393,288,65690,2,0,P|417:324|490:316,2,112.5,2|0|0,1:0|1:0|1:0,2:0:0:0:
313,239,66203,6,0,B|262:257|221:216|230:205|237:194|199:148|129:150|91:219|115:265|169:284|189:260,1,300,0|2,1:0|2:0,2:0:0:0:
330,362,67228,5,2,0:0:0:0:
413,376,67485,1,0,0:0:0:0:
487,331,67741,5,2,2:0:0:0:
371,189,68254,1,0,0:0:0:0:
507,76,68767,5,2,2:0:0:0:
450,221,69151,1,0,0:0:0:0:
288,202,69536,1,0,0:0:0:0:
236,274,69792,5,2,2:0:0:0:
37,349,70305,1,2,2:0:0:0:
146,246,70562,2,0,L|125:180,1,56.2500021457673,2|0,0:0|0:0,0:0:0:0:
129,193,70818,5,2,2:0:0:0:
291,357,71844,1,2,2:0:0:0:
500,149,72869,6,0,B|497:107|497:107|408:83|408:83|375:127,1,179.999994506836,2|0,0:0|0:0,0:0:0:0:
325,256,74280,6,0,L|315:298,6,37.5,2|2|2|2|2|2|2,2:0|2:0|2:0|2:0|2:0|2:0|2:0,0:0:0:0:
142,361,74921,6,0,P|122:287|49:293,2,150,4|8|2,1:0|1:0|1:0,0:0:0:0:
233,318,75562,2,0,L|320:328,1,75,0|8,2:0|1:0,2:0:0:0:
234,233,75818,1,0,2:0:0:0:
234,233,75882,1,0,2:0:0:0:
234,233,75946,6,0,B|326:245|326:245|312:180,2,150,2|8|2,1:0|1:0|1:0,2:0:0:0:
152,174,76587,2,0,P|137:139|144:97,1,75,2|8,2:0|1:0,0:0:0:0:
200,34,76844,1,2,2:0:0:0:
200,34,76972,6,0,L|351:50,1,150,4|8,1:2|1:0,2:0:0:0:
460,241,77485,1,2,1:0:0:0:
460,241,77549,1,2,2:0:0:0:
460,241,77613,2,0,B|482:272|482:272|450:309,1,75,2|10,2:0|1:0,2:0:0:0:
373,348,77869,5,0,2:0:0:0:
373,348,77933,1,0,2:0:0:0:
373,348,77998,2,0,B|362:306|362:306|239:321,2,150,4|8|2,1:2|1:2|1:0,2:0:0:0:
332,223,78639,2,0,P|314:187|331:142,2,75,2|8|2,2:0|1:0|2:1,0:0:0:0:
221,206,79023,6,0,L|139:199,1,75,4|0,1:2|0:0,2:0:0:0:
213,123,79280,2,0,L|131:116,1,75,8|0,1:0|2:0,2:0:0:0:
39,92,79536,6,0,L|34:42,2,37.5,0|0|2,1:0|2:0|2:0,0:0:0:0:
23,166,79792,2,0,L|18:116,2,37.5,8|0|0,1:0|0:0|2:0,0:0:0:0:
58,240,80049,2,0,P|104:231|138:325,1,150,2|8,1:0|1:0,2:0:0:0:
308,150,80562,6,0,L|311:104,7,37.5,0|2|2|2|8|0|0|0,1:0|2:0|2:0|2:0|1:0|2:0|2:0|2:0,0:0:0:0:
306,175,81074,6,0,B|297:273|297:273|344:244,1,150,2|10,1:2|1:2,2:0:0:0:
403,318,81459,1,0,2:0:0:0:
467,256,81587,2,0,B|490:285|490:285|493:324,1,75,2|2,1:0|1:0,2:0:0:0:
412,182,81844,2,0,L|417:95,1,75,10|2,1:0|1:0,1:0:0:0:
190,73,82228,5,0,2:0:0:0:
190,73,82357,2,0,B|148:11|148:11|70:47,1,150,8|2,1:0|1:2,1:0:0:0:
45,127,82741,2,0,P|1:117|-43:107,2,75,2|8|2,1:2|1:2|1:2,1:0:0:0:
108,198,83126,5,2,1:0:0:0:
45,253,83254,1,0,2:0:0:0:
45,253,83318,1,0,2:0:0:0:
45,253,83382,2,0,L|211:234,1,150,8|0,1:0|1:0,2:0:0:0:
242,313,83767,2,0,L|331:326,1,75,2|8,2:0|1:0,2:0:0:0:
407,337,84023,6,0,L|457:344,2,37.5,0|0|4,2:0|2:0|1:2,0:0:0:0:
497,100,84408,5,10,1:0:0:0:
265,137,84664,5,2,1:0:0:0:
265,137,84792,1,10,1:0:0:0:
407,250,85049,6,0,B|370:230|370:230|384:117,1,150,2|0,1:0|2:0,2:0:0:0:
411,82,85369,1,0,1:0:0:0:
411,82,85433,2,0,P|408:38|332:24,1,112.5,8|0,1:0|0:0,1:0:0:0:
275,63,85690,6,0,L|224:54,3,37.5,0|0|0|0,1:0|0:0|1:0|1:0,0:0:0:0:
265,137,85946,2,0,L|214:128,3,37.5,8|0|0|0,1:0|1:0|1:0|1:0,0:0:0:0:
252,212,86203,5,2,1:0:0:0:
131,326,86459,1,2,1:0:0:0:
2,218,86716,1,0,1:0:0:0:
2,218,86844,2,0,B|-12:161|-12:161|87:183,1,150,2|0,1:0|1:0,2:0:0:0:
235,306,87357,5,0,1:0:0:0:
235,306,87421,1,0,1:0:0:0:
235,306,87485,2,0,P|261:248|348:283,1,150,2|8,1:0|1:0,1:0:0:0:
394,190,87869,2,0,L|484:203,1,75,2|0,2:1|1:0,2:0:0:0:
471,81,88126,5,2,2:0:0:0:
471,81,88190,1,2,2:0:0:0:
471,81,88254,2,0,B|491:121|491:121|375:105,1,150,8|2,1:0|1:0,2:0:0:0:
212,23,88767,2,0,P|136:6|134:130,1,225,0|0,1:0|2:0,0:0:0:0:
202,104,89280,6,0,L|283:113,2,75,2|2|8,1:0|2:0|1:0,0:0:0:0:
187,181,89664,2,0,L|268:190,2,75,2|2|0,2:0|1:0|2:0,0:0:0:0:
104,217,90049,6,0,L|116:301,1,75,8|2,1:0|1:0,0:0:0:0:
132,384,90305,1,4,1:2:0:0:
132,384,90433,1,2,1:2:0:0:
361,333,90690,5,2,1:0:0:0:
386,73,90946,5,2,1:0:0:0:
512,248,91203,5,2,1:0:0:0:
512,248,91331,2,0,B|472:183|472:183|418:242,1,150,0|8,1:0|1:0,1:0:0:0:
345,197,91716,1,0,1:0:0:0:
345,197,91844,2,0,L|265:186,1,75,0|0,1:0|1:0,0:0:0:0:
193,223,92100,2,0,P|178:189|187:152,1,75,8|0,1:0|1:0,0:0:0:0:
167,59,92357,6,0,B|108:51|108:51|77:141|77:141|-3:130,1,225,2|0,1:0|1:0,0:0:0:0:
0,282,92869,2,0,P|19:238|114:258,1,150,0|8,1:0|1:0,0:0:0:0:
185,307,93254,5,0,1:0:0:0:
185,307,93318,1,0,1:0:0:0:
185,307,93382,2,0,L|269:314,2,75,2|0|8,1:0|1:0|1:0,1:0:0:0:
193,223,93767,2,0,L|277:230,2,75,2|0|8,1:0|1:0|1:0,1:0:0:0:
248,87,94151,5,2,1:0:0:0:
315,151,94280,1,8,1:0:0:0:
390,103,94408,6,0,P|416:64|393:-16,2,112.5,2|0|2,1:0|1:0|1:0,2:0:0:0:
248,87,94921,2,0,P|224:34|256:-22,2,112.5,2|0|0,1:0|1:0|1:0,2:0:0:0:
325,40,95433,5,4,1:2:0:0:
492,300,97485,6,0,B|431:290|431:290|417:201|417:201|338:189,1,225,2|0,1:0|1:0,2:0:0:0:
265,227,97998,2,0,B|250:257|250:257|254:298,1,75,0|0,1:0|1:0,1:0:0:0:
332,352,98254,2,0,L|337:270,1,75,8|0,1:0|1:0,1:0:0:0:
265,227,98510,6,0,L|258:165,2,37.5,2|0|0,1:0|0:0|1:0,0:0:0:0:
183,238,98767,2,0,L|176:176,2,37.5,8|0|0,1:0|1:0|1:0,1:0:0:0:
174,118,99023,6,0,L|167:56,2,37.5,0|0|0,1:0|1:0|1:0,0:0:0:0:
92,129,99280,2,0,L|85:67,2,37.5,0|0|0,1:0|1:0|1:0,0:0:0:0:
5,218,99536,6,0,B|57:228|57:228|49:291,1,100,0|0,1:0|0:0,0:0:0:0:
122,288,99792,2,0,B|174:298|174:298|166:361,1,100,0|0,1:0|1:0,0:0:0:0:
256,274,100049,2,0,L|246:374,2,100,2|0|0,1:2|1:0|1:0,1:0:0:0:
336,321,100562,6,0,B|344:235|344:235|426:244,1,150,0|8,1:0|1:0,0:0:0:0:
455,172,100946,1,0,1:0:0:0:
455,172,101010,1,0,0:0:0:0:
455,172,101074,2,0,L|400:164,3,37.5,2|0|0|0,1:2|1:0|1:0|1:0,1:0:0:0:
381,127,101331,2,0,L|326:119,3,37.5,2|2|0|2,1:2|1:0|1:0|1:0,1:0:0:0:
198,29,101716,5,0,1:0:0:0:
198,29,101780,1,0,1:0:0:0:
198,29,101844,2,0,P|191:89|103:90,1,150,0|8,1:0|1:0,1:0:0:0:
21,206,102228,1,2,1:2:0:0:
21,206,102357,2,0,L|32:290,1,75,0|0,1:0|1:0,1:0:0:0:
102,194,102613,2,0,L|113:278,1,75,8|0,1:0|1:0,2:0:0:0:
205,332,102869,2,0,B|195:252|195:252|275:244,2,150,0|2|0,1:0|1:2|1:0,1:0:0:0:
428,251,103639,6,0,B|353:259|353:259|343:170,2,150,0|0|0,1:0|1:0|1:0,0:0:0:0:
437,167,104280,1,2,1:0:0:0:
437,167,104344,1,0,1:0:0:0:
437,167,104408,2,0,P|457:123|423:66,1,112.5,2|0,1:0|0:0,1:0:0:0:
394,64,104664,6,0,L|399:2,6,50,0|0|0|0|0|0|2,1:0|1:0|1:0|1:0|1:0|1:0|2:0,0:0:0:0:
512,320,105690,6,0,L|517:383,64,37.5,0|0|0|0|0|0|0|0|0|0|0|0|0|0|0|0|0|0|0|0|0|0|0|0|0|0|0|0|0|0|0|0|0|0|0|0|0|0|0|0|0|0|0|0|0|0|0|0|0|0|0|0|0|0|0|0|0|0|4|0|0|4|0|0|8,1:0|1:0|1:0|1:0|1:0|1:0|1:0|1:0|1:0|1:0|1:0|1:0|1:0|1:0|1:0|1:0|1:0|1:0|1:0|1:0|1:0|1:0|1:0|1:0|1:0|1:0|1:0|1:0|1:0|1:0|1:0|1:0|1:0|1:0|1:0|1:0|1:0|1:0|1:0|1:0|1:0|1:0|1:0|1:0|1:0|1:0|1:0|1:0|1:0|1:0|1:0|1:0|1:0|1:0|1:0|1:0|1:0|0:0|1:2|0:0|2:0|1:2|0:0|2:0|1:0,0:0:0:0:
67,90,110433,5,6,1:2:0:0:
15,262,110626,5,4,1:2:0:0:
189,228,110818,5,12,1:2:0:0:
389,80,111331,6,0,L|394:27,7,50,2|0|0|0|0|0|0|2,1:2|1:0|1:0|1:0|1:0|1:0|1:1|1:1,1:0:0:0:
416,161,112100,2,0,B|379:195|379:195|340:136,1,100,0|0,1:0|1:0,1:0:0:0:
370,280,112442,2,0,L|365:333,4,50,0|0|0|0|2,1:0|1:0|1:0|1:0|1:1,1:0:0:0:
24,47,113895,6,0,B|83:99|83:99|116:25,1,150,0|8,1:0|1:0,0:0:0:0:
183,107,114280,1,0,1:0:0:0:
183,107,114344,1,0,1:0:0:0:
183,107,114408,2,0,L|263:117,1,75,0|0,1:0|1:0,1:0:0:0:
248,197,114664,2,0,L|168:187,1,75,8|0,3:2|1:0,0:0:0:0:
109,250,114921,1,0,1:0:0:0:
288,317,115177,6,0,P|232:299|185:376,2,150,0|0|8,1:0|1:0|3:2,0:0:0:0:
482,290,115946,6,0,B|449:270|449:270|457:154,1,150,0|8,1:0|1:0,0:0:0:0:
512,76,116331,1,0,1:0:0:0:
512,76,116395,1,0,1:0:0:0:
512,76,116459,2,0,L|353:59,1,150,0|8,1:0|3:2,1:0:0:0:
294,122,116844,1,0,0:0:0:0:
331,205,116972,5,0,1:0:0:0:
165,302,117228,1,8,3:2:0:0:
354,353,117485,5,2,3:2:0:0:
146,162,117741,1,8,3:2:0:0:
0,313,117998,6,0,P|6:256|100:251,1,150,0|8,1:0|1:0,0:0:0:0:
54,130,118382,1,0,1:0:0:0:
54,130,118446,1,0,1:0:0:0:
54,130,118510,2,0,L|40:44,1,75,0|0,1:0|1:0,1:0:0:0:
117,1,118767,2,0,L|130:76,1,75,8|0,1:0|0:0,0:0:0:0:
146,162,119023,5,0,1:0:0:0:
330,238,119280,2,0,B|295:170|295:170|239:227,2,150,0|0|8,1:0|1:0|1:0,0:0:0:0:
473,21,120049,6,0,L|321:41,1,150,0|8,1:0|1:0,1:0:0:0:
407,128,120433,1,0,1:0:0:0:
407,128,120498,1,0,1:0:0:0:
407,128,120562,2,0,L|488:141,1,75,0|0,1:0|1:0,0:0:0:0:
447,236,120818,6,0,L|453:283,4,37.5,8|0|0|0|2,1:0|0:0|1:0|1:0|1:0,0:0:0:0:
274,300,121331,6,0,L|279:350,3,37.5,8|0|0|0,1:0|2:0|2:0|2:0,2:0:0:0:
279,360,121587,6,0,B|203:348|203:348|220:210|220:210|133:198,1,300,2|4,1:0|1:0,0:0:0:0:
255,35,125177,6,0,L|255:-9,48,25,2|0|0|0|0|0|0|0|0|0|0|0|0|0|0|0|0|0|0|0|0|0|0|0|0|0|0|0|0|0|0|0|0|0|0|0|0|0|0|0|0|0|0|0|0|0|0|0|4,1:0|1:0|1:0|1:0|1:0|1:0|1:0|1:0|1:0|1:0|1:0|1:0|1:0|1:0|1:0|1:0|1:0|1:0|1:0|1:0|1:0|1:0|1:0|1:0|1:0|1:0|1:0|1:0|1:0|1:0|1:0|1:0|1:0|1:0|1:0|1:0|1:0|1:0|1:0|1:0|1:0|1:0|1:0|1:0|1:0|1:0|1:0|1:0|1:0,1:0:0:0:
