osu file format v14

[General]
AudioFilename: audio.mp3
AudioLeadIn: 0
PreviewTime: 74202
Countdown: 0
SampleSet: Normal
StackLeniency: 0.7
Mode: 1
LetterboxInBreaks: 0
WidescreenStoryboard: 1

[Editor]
DistanceSpacing: 0.9
BeatDivisor: 4
GridSize: 32
TimelineZoom: 3.399999

[Metadata]
Title:Xronier
TitleUnicode:Xronièr
Artist:Camellia as "fluX Xroise"
ArtistUnicode:かめりあ as "fluX Xroisé"
Creator:Dusk-
Version:BASIC
Source:SOUND VOLTEX IV HEAVENLY HAVEN
Tags:cametek kamelcamellia xroniàl xéro xronial xero かめるかめりあ electronic instrumental shima rin tofu1222 hivie murumoo uone video game SDVX Ω omega dimension KONAMI BEMANI
BeatmapID:3642912
BeatmapSetID:1480868

[Difficulty]
HPDrainRate:8
CircleSize:5
OverallDifficulty:3
ApproachRate:9
SliderMultiplier:1.2
SliderTickRate:1

[Events]
//Background and Video events
0,0,"xronier.jpg",0,-80
//Break Periods
//Storyboard Layer 0 (Background)
//Storyboard Layer 1 (Fail)
//Storyboard Layer 2 (Pass)
//Storyboard Layer 3 (Foreground)
//Storyboard Layer 4 (Overlay)
//Storyboard Sound Samples

[TimingPoints]
35,256.410256410256,4,1,0,100,1,0
1060,-100,4,1,0,100,0,1
3111,-100,4,1,0,100,0,0
66686,-100,4,1,0,40,0,0
66958,-100,4,1,0,40,0,0
70801,-100,4,1,0,60,0,0
71827,-100,4,1,0,70,0,0
72852,-100,4,1,0,80,0,0
74906,-100,4,1,0,100,0,1
84137,-100,4,1,0,100,0,0
85034,-100,4,1,0,100,0,1
86188,-100,4,1,0,100,0,0
87086,-100,4,1,0,100,0,0
87470,-100,4,1,0,100,0,1
95419,-100,4,1,0,100,0,0
95484,-100,4,1,0,70,0,0
97022,-100,4,1,0,100,0,0
105676,-100,4,1,0,100,0,1
109778,-100,4,1,0,100,0,0
122118,-100,4,1,0,70,0,0
125163,-100,4,1,0,100,0,1
127214,-100,4,1,0,100,0,0

[Colours]
Combo1 : 212,212,212
Combo2 : 0,255,128
Combo3 : 255,64,64

[HitObjects]
256,192,1060,12,0,3111,0:0:0:0:
256,192,5163,5,0,0:0:0:0:
256,192,6060,1,0,0:0:0:0:
256,192,7214,1,8,0:0:0:0:
256,192,8240,1,0,0:0:0:0:
256,192,9265,1,0,0:0:0:0:
256,192,10291,1,8,0:0:0:0:
256,192,10804,1,8,0:0:0:0:
256,192,11317,1,0,0:0:0:0:
256,192,13368,1,4,0:0:0:0:
256,192,13881,1,0,0:0:0:0:
256,192,14393,1,0,0:0:0:0:
256,192,15419,1,0,0:0:0:0:
256,192,15932,1,8,0:0:0:0:
256,192,16445,1,0,0:0:0:0:
256,192,17342,1,12,0:0:0:0:
256,192,17983,1,0,0:0:0:0:
256,192,18496,1,0,0:0:0:0:
256,192,19522,1,0,0:0:0:0:
256,192,20034,1,0,0:0:0:0:
256,192,20547,1,8,0:0:0:0:
256,192,21573,1,4,0:0:0:0:
256,192,22086,1,0,0:0:0:0:
256,192,22727,1,8,0:0:0:0:
256,192,23111,1,0,0:0:0:0:
256,192,23752,1,8,0:0:0:0:
256,192,24137,1,0,0:0:0:0:
256,192,24778,1,8,0:0:0:0:
256,192,25163,1,0,0:0:0:0:
256,192,25676,1,12,0:0:0:0:
256,192,26701,1,12,0:0:0:0:
256,192,27727,1,0,0:0:0:0:
256,192,28240,1,0,0:0:0:0:
256,192,28752,1,8,0:0:0:0:
256,192,29778,1,4,0:0:0:0:
256,192,31829,1,8,0:0:0:0:
256,192,33881,1,0,0:0:0:0:
256,192,35932,1,8,0:0:0:0:
256,192,36701,1,8,0:0:0:0:
256,192,37470,1,8,0:0:0:0:
256,192,37983,1,0,0:0:0:0:
256,192,38496,1,0,0:0:0:0:
256,192,39009,1,0,0:0:0:0:
256,192,40034,1,8,0:0:0:0:
256,192,40547,1,0,0:0:0:0:
256,192,41060,1,8,0:0:0:0:
256,192,42086,1,8,0:0:0:0:
256,192,42599,1,0,0:0:0:0:
256,192,43111,1,8,0:0:0:0:
256,192,43624,1,0,0:0:0:0:
256,192,44137,1,8,0:0:0:0:
256,192,44650,1,8,0:0:0:0:
256,192,45163,1,8,0:0:0:0:
256,192,46188,12,0,49265,0:0:0:0:
256,192,50291,5,0,0:0:0:0:
256,192,51060,1,0,0:0:0:0:
256,192,51829,1,8,0:0:0:0:
256,192,52342,1,0,0:0:0:0:
256,192,53111,1,0,0:0:0:0:
256,192,53881,1,8,0:0:0:0:
256,192,54137,1,8,0:0:0:0:
256,192,54393,1,0,0:0:0:0:
256,192,55163,1,0,0:0:0:0:
256,192,55932,1,8,0:0:0:0:
256,192,56445,1,0,0:0:0:0:
256,192,57214,1,0,0:0:0:0:
256,192,57983,1,8,0:0:0:0:
256,192,58240,1,8,0:0:0:0:
256,192,58496,1,0,0:0:0:0:
256,192,60547,1,0,0:0:0:0:
256,192,61445,1,0,0:0:0:0:
256,192,62599,1,8,0:0:0:0:
256,192,63624,1,8,0:0:0:0:
256,192,64650,1,8,0:0:0:0:
256,192,65163,1,0,0:0:0:0:
256,192,65676,1,8,0:0:0:0:
256,192,66188,1,0,0:0:0:0:
256,192,66701,1,8,0:0:0:0:
256,192,67727,1,8,0:0:0:0:
256,192,68752,1,8,0:0:0:0:
256,192,69778,1,8,0:0:0:0:
256,192,70804,1,8,0:0:0:0:
256,192,71829,1,8,0:0:0:0:
256,192,72855,1,8,0:0:0:0:
256,192,73881,1,0,0:0:0:0:
256,192,74906,1,4,0:0:0:0:
256,192,75419,1,8,0:0:0:0:
256,192,75932,1,0,0:0:0:0:
256,192,76188,1,0,0:0:0:0:
256,192,76445,1,8,0:0:0:0:
256,192,76958,1,8,0:0:0:0:
256,192,77470,1,0,0:0:0:0:
256,192,77983,1,8,0:0:0:0:
256,192,78240,1,8,0:0:0:0:
256,192,78496,1,0,0:0:0:0:
256,192,78752,1,0,0:0:0:0:
256,192,79009,1,8,0:0:0:0:
256,192,79522,1,0,0:0:0:0:
256,192,80034,1,8,0:0:0:0:
256,192,80291,1,0,0:0:0:0:
256,192,80547,1,8,0:0:0:0:
256,192,81060,1,0,0:0:0:0:
256,192,81573,1,8,0:0:0:0:
256,192,83111,1,4,0:0:0:0:
256,192,83624,1,0,0:0:0:0:
256,192,84137,1,8,0:0:0:0:
256,192,85034,1,12,0:0:0:0:
256,192,85419,1,0,0:0:0:0:
256,192,85804,1,0,0:0:0:0:
256,192,86188,1,8,0:0:0:0:
256,192,87086,1,0,0:0:0:0:
256,192,87470,1,12,0:0:0:0:
256,192,87855,1,0,0:0:0:0:
256,192,88240,1,8,0:0:0:0:
256,192,89265,1,8,0:0:0:0:
256,192,89650,1,8,0:0:0:0:
256,192,90034,1,8,0:0:0:0:
256,192,90291,1,0,0:0:0:0:
256,192,90804,1,8,0:0:0:0:
256,192,91317,1,0,0:0:0:0:
256,192,91573,1,0,0:0:0:0:
256,192,91829,1,0,0:0:0:0:
256,192,92342,1,0,0:0:0:0:
256,192,92599,1,8,0:0:0:0:
256,192,92855,1,0,0:0:0:0:
256,192,93368,1,8,0:0:0:0:
256,192,93752,1,8,0:0:0:0:
256,192,94137,1,8,0:0:0:0:
256,192,94393,1,8,0:0:0:0:
256,192,94906,1,0,0:0:0:0:
256,192,95419,1,12,0:0:0:0:
256,192,97470,1,4,0:0:0:0:
256,192,97983,1,0,0:0:0:0:
256,192,98496,1,0,0:0:0:0:
256,192,98752,1,0,0:0:0:0:
256,192,99009,1,8,0:0:0:0:
256,192,99522,1,8,0:0:0:0:
256,192,99778,1,0,0:0:0:0:
256,192,100034,1,8,0:0:0:0:
256,192,100547,1,8,0:0:0:0:
256,192,101060,1,0,0:0:0:0:
256,192,101317,1,8,0:0:0:0:
256,192,101829,1,12,0:0:0:0:
256,192,102599,1,0,0:0:0:0:
256,192,102855,1,0,0:0:0:0:
256,192,103111,1,8,0:0:0:0:
256,192,103624,1,0,0:0:0:0:
256,192,104137,1,8,0:0:0:0:
256,192,104650,1,8,0:0:0:0:
256,192,105676,1,0,0:0:0:0:
256,192,105932,1,0,0:0:0:0:
256,192,106188,1,8,0:0:0:0:
256,192,106445,1,8,0:0:0:0:
256,192,106701,1,0,0:0:0:0:
256,192,107214,1,8,0:0:0:0:
256,192,107727,1,8,0:0:0:0:
256,192,107983,1,8,0:0:0:0:
256,192,108240,1,0,0:0:0:0:
256,192,108496,1,0,0:0:0:0:
256,192,108752,1,8,0:0:0:0:
256,192,109265,1,8,0:0:0:0:
256,192,109522,1,8,0:0:0:0:
256,192,109778,1,0,0:0:0:0:
256,192,110804,1,0,0:0:0:0:
256,192,111829,1,0,0:0:0:0:
256,192,112342,1,0,0:0:0:0:
256,192,112855,1,8,0:0:0:0:
256,192,113881,1,0,0:0:0:0:
256,192,114650,1,0,0:0:0:0:
256,192,115419,1,8,0:0:0:0:
256,192,115932,1,0,0:0:0:0:
256,192,116701,1,0,0:0:0:0:
256,192,117470,1,8,0:0:0:0:
256,192,117727,1,8,0:0:0:0:
256,192,117983,1,0,0:0:0:0:
256,192,118752,1,0,0:0:0:0:
256,192,119522,1,8,0:0:0:0:
256,192,120034,1,0,0:0:0:0:
256,192,120804,1,8,0:0:0:0:
256,192,121573,1,8,0:0:0:0:
256,192,121829,1,8,0:0:0:0:
256,192,122086,1,4,0:0:0:0:
256,192,125163,12,0,127214,0:0:0:0:
