osu file format v14

[General]
AudioFilename: audio.mp3
AudioLeadIn: 0
PreviewTime: 74202
Countdown: 0
SampleSet: Normal
StackLeniency: 0.7
Mode: 1
LetterboxInBreaks: 0
WidescreenStoryboard: 1

[Editor]
DistanceSpacing: 0.9
BeatDivisor: 16
GridSize: 32
TimelineZoom: 3.399999

[Metadata]
Title:Xronier
TitleUnicode:Xronièr
Artist:Camellia as "fluX Xroise"
ArtistUnicode:かめりあ as "fluX Xroisé"
Creator:Dusk-
Version:ADVANCED
Source:SOUND VOLTEX IV HEAVENLY HAVEN
Tags:cametek kamelcamellia xroniàl xéro xronial xero かめるかめりあ electronic instrumental shima rin tofu1222 hivie murumoo uone video game SDVX Ω omega dimension KONAMI BEMANI
BeatmapID:3645261
BeatmapSetID:1480868

[Difficulty]
HPDrainRate:6
CircleSize:5
OverallDifficulty:5
ApproachRate:9
SliderMultiplier:1.3
SliderTickRate:1

[Events]
//Background and Video events
0,0,"xronier.jpg",0,-80
//Break Periods
//Storyboard Layer 0 (Background)
//Storyboard Layer 1 (Fail)
//Storyboard Layer 2 (Pass)
//Storyboard Layer 3 (Foreground)
//Storyboard Layer 4 (Overlay)
//Storyboard Sound Samples

[TimingPoints]
35,256.410256410256,4,1,0,100,1,0
35,-125,4,1,0,100,0,0
1060,-125,4,1,0,100,0,1
1061,-33.3333333333333,4,1,0,100,0,1
3047,-100,4,1,0,100,0,1
3111,-100,4,1,0,100,0,0
7596,-99.070385126162,4,1,0,100,0,0
7724,-98.7651349204439,4,1,0,100,0,0
7916,-98.3107703366479,4,1,0,100,0,0
8108,-97.8605671762826,4,1,0,100,0,0
8237,-97.5603956629256,4,1,0,100,0,0
8621,-96.6776625824694,4,1,0,100,0,0
8749,-96.3869573388461,4,1,0,100,0,0
8942,-95.9519188045181,4,1,0,100,0,0
9134,-95.5230135264126,4,1,0,100,0,0
9262,-95.2392005756598,4,1,0,100,0,0
9455,-94.8144382308083,4,1,0,100,0,0
9647,-94.3956195647173,4,1,0,100,0,0
9775,-94.1184566683489,4,1,0,100,0,0
9967,-93.7057506965697,4,1,0,100,0,0
10160,-93.2945269333091,4,1,0,100,0,0
10288,-93.0237830729816,4,1,0,100,0,0
10480,-92.6206009164992,4,1,0,100,0,0
10673,-92.2188258563337,4,1,0,100,0,0
10801,-91.9542805916629,4,1,0,100,0,0
10929,-91.6912487708948,4,1,0,100,0,0
11057,-91.4297174436224,4,1,0,100,0,0
11121,-91.299510458389,4,1,0,100,0,0
11185,-91.1696738067727,4,1,0,100,0,0
11314,-90.9090909090909,4,1,0,100,0,0
12342,-100,4,1,0,100,0,0
12979,-83.3333333333333,4,1,0,100,0,0
13363,-100,4,1,0,100,0,0
21568,-97.0873786407767,4,1,0,100,0,0
29389,-83.3333333333333,4,1,0,100,0,0
29770,-100,4,1,0,100,0,0
30027,-100.457678129396,4,1,0,100,0,0
30283,-100.917759450418,4,1,0,100,0,0
30540,-101.383896477354,4,1,0,100,0,0
30796,-101.852520583562,4,1,0,100,0,0
31052,-102.325497025105,4,1,0,100,0,0
31309,-102.804760255873,4,1,0,100,0,0
31565,-103.286642863682,4,1,0,100,0,0
31822,-103.774973324994,4,1,0,100,0,0
32078,-104.266016043769,4,1,0,100,0,0
32335,-104.763673507289,4,1,0,100,0,0
32591,-105.264140028737,4,1,0,100,0,0
32847,-105.769411058819,4,1,0,100,0,0
33104,-106.281558519858,4,1,0,100,0,0
33360,-106.796667928815,4,1,0,100,0,0
33552,-107.186288667629,4,1,0,100,0,0
33745,-107.580814341566,4,1,0,100,0,0
33873,-107.844074406867,4,1,0,100,0,0
34129,-108.374478876487,4,1,0,100,0,0
34386,-108.912229215739,4,1,0,100,0,0
34642,-109.453218984051,4,1,0,100,0,0
34899,-110.001755035978,4,1,0,100,0,0
35155,-110.553650171485,4,1,0,100,0,0
35411,-111.111111111111,4,1,0,100,0,0
37335,-107.686772994364,4,1,0,100,0,0
37463,-106.058816582024,4,1,0,100,0,0
37591,-104.479348458406,4,1,0,100,0,0
37655,-103.707125534126,4,1,0,100,0,0
37719,-102.946234093775,4,1,0,100,0,0
37783,-102.196426539206,4,1,0,100,0,0
37847,-101.457462433623,4,1,0,100,0,0
37976,-100,4,1,0,100,0,0
42275,-99.5341162768126,4,1,0,100,0,0
42339,-99.3797848628743,4,1,0,100,0,0
42467,-99.0725533764854,4,1,0,100,0,0
42596,-98.7648375990177,4,1,0,100,0,0
42788,-98.3103654883164,4,1,0,100,0,0
42980,-97.8600567788725,4,1,0,100,0,0
43108,-97.5621358068736,4,1,0,100,0,0
43301,-97.1163407358303,4,1,0,100,0,0
43365,-96.9694104297669,4,1,0,100,0,0
43493,-96.6768795663446,4,1,0,100,0,0
43621,-96.3861083697542,4,1,0,100,0,0
43814,-95.9509719070899,4,1,0,100,0,0
44006,-95.5219709847938,4,1,0,100,0,0
44134,-95.2380952380952,4,1,0,100,0,0
44326,-94.8154311998706,4,1,0,100,0,0
44519,-94.3943298969072,4,1,0,100,0,0
44647,-94.117107195301,4,1,0,100,0,0
45031,-93.2951237263464,4,1,0,100,0,0
45160,-93.0222010567612,4,1,0,100,0,0
45352,-92.6189347241979,4,1,0,100,0,0
45544,-92.2191497493312,4,1,0,100,0,0
45737,-91.8207458476966,4,1,0,100,0,0
45929,-91.4278072482503,4,1,0,100,0,0
45993,-91.2975740040062,4,1,0,100,0,0
46057,-91.1677112503889,4,1,0,100,0,0
46185,-90.9090909090909,4,1,0,100,0,0
46440,-125,4,1,0,100,0,0
48171,-83.3333333333333,4,1,0,100,0,0
49261,-25,4,1,0,100,0,0
50286,-100,4,1,0,100,0,0
50288,-90.9090909090909,4,1,0,100,0,0
50352,-91.0566631157104,4,1,0,100,0,0
50416,-91.2047152075606,4,1,0,100,0,0
50544,-91.5022684406382,4,1,0,100,0,0
50673,-91.8041171205728,4,1,0,100,0,0
51057,-92.7145476614757,4,1,0,100,0,0
51121,-92.8680445973562,4,1,0,100,0,0
51185,-93.0220506309434,4,1,0,100,0,0
51314,-93.3340266222962,4,1,0,100,0,0
51442,-93.6456594323873,4,1,0,100,0,0
51826,-94.5931703204047,4,1,0,100,0,0
51955,-94.9157919784258,4,1,0,100,0,0
52083,-95.2380952380952,4,1,0,100,0,0
52339,-95.8893132829403,4,1,0,100,0,0
52403,-96.0535117056856,4,1,0,100,0,0
52467,-96.2182734314277,4,1,0,100,0,0
52596,-96.5520950997795,4,1,0,100,0,0
52724,-96.8856263831165,4,1,0,100,0,0
53108,-97.9001908917371,4,1,0,100,0,0
53173,-98.0740336019669,4,1,0,100,0,0
53237,-98.2458060808407,4,1,0,100,0,0
53365,-98.5911624969104,4,1,0,100,0,0
53493,-98.9389554912498,4,1,0,100,0,0
53621,-99.2892109411732,4,1,0,100,0,0
53685,-99.4652702740143,4,1,0,100,0,0
53749,-99.6419550917317,4,1,0,100,0,0
53878,-100,4,1,0,100,0,0
54390,-90.9090909090909,4,1,0,100,0,0
54455,-91.0402059110677,4,1,0,100,0,0
54519,-91.1696738067727,4,1,0,100,0,0
54647,-91.4297174436224,4,1,0,100,0,0
54775,-91.6912487708948,4,1,0,100,0,0
55160,-92.4869823952393,4,1,0,100,0,0
55224,-92.6206009164992,4,1,0,100,0,0
55288,-92.7546060811574,4,1,0,100,0,0
55416,-93.0237830729816,4,1,0,100,0,0
55544,-93.2945269333091,4,1,0,100,0,0
55801,-93.8429166094872,4,1,0,100,0,0
55929,-94.1184566683489,4,1,0,100,0,0
55993,-94.2568343671031,4,1,0,100,0,0
56057,-94.3956195647173,4,1,0,100,0,0
56185,-94.6744196778808,4,1,0,100,0,0
56314,-94.9570691291166,4,1,0,100,0,0
56570,-95.5230135264126,4,1,0,100,0,0
56698,-95.8085230589609,4,1,0,100,0,0
56826,-96.0957444316931,4,1,0,100,0,0
56955,-96.3869573388461,4,1,0,100,0,0
57211,-96.970126678011,4,1,0,100,0,0
57275,-97.1170232910434,4,1,0,100,0,0
57339,-97.2643656362602,4,1,0,100,0,0
57467,-97.5603956629256,4,1,0,100,0,0
57596,-97.8605671762826,4,1,0,100,0,0
57724,-98.160243068016,4,1,0,100,0,0
57852,-98.4617599769624,4,1,0,100,0,0
57916,-98.6132141226236,4,1,0,100,0,0
57980,-98.7651349204439,4,1,0,100,0,0
58108,-99.070385126162,4,1,0,100,0,0
58237,-99.3799350869544,4,1,0,100,0,0
58365,-99.6890033529326,4,1,0,100,0,0
58493,-100,4,1,0,100,0,0
62980,-99.0725533764854,4,1,0,100,0,0
63108,-98.7672156409515,4,1,0,100,0,0
63301,-98.3103654883164,4,1,0,100,0,0
63493,-97.8600567788725,4,1,0,100,0,0
63621,-97.5621358068736,4,1,0,100,0,0
64006,-96.6768795663446,4,1,0,100,0,0
64134,-96.3861083697542,4,1,0,100,0,0
64326,-95.953216374269,4,1,0,100,0,0
64519,-95.5219709847938,4,1,0,100,0,0
64647,-95.2380952380952,4,1,0,100,0,0
64839,-94.8154311998706,4,1,0,100,0,0
65031,-94.3965021286388,4,1,0,100,0,0
65160,-94.117107195301,4,1,0,100,0,0
65352,-93.7043128654971,4,1,0,100,0,0
65544,-93.2951237263464,4,1,0,100,0,0
65673,-93.0222010567612,4,1,0,100,0,0
65865,-92.6189347241979,4,1,0,100,0,0
66057,-92.2191497493312,4,1,0,100,0,0
66185,-91.9545383218633,4,1,0,100,0,0
66314,-91.6893915686888,4,1,0,100,0,0
66442,-91.4278072482503,4,1,0,100,0,0
66506,-91.2975740040062,4,1,0,100,0,0
66570,-91.1677112503889,4,1,0,100,0,0
66698,-90.9090909090909,4,1,0,100,0,0
66953,-166.666666666667,4,1,0,40,0,0
70796,-144.504924831519,4,1,0,60,0,0
71822,-127.545184168383,4,1,0,70,0,0
72847,-114.159926282379,4,1,0,80,0,0
73617,-105.817595140932,4,1,0,80,0,0
74642,-103.092783505155,4,1,0,80,0,0
74899,-100,4,1,0,80,0,0
74906,-100,4,1,0,100,0,1
84137,-100,4,1,0,100,0,0
85034,-100,4,1,0,100,0,1
86188,-100,4,1,0,100,0,0
87086,-100,4,1,0,100,0,0
87470,-100,4,1,0,100,0,1
95419,-100,4,1,0,100,0,0
95479,-125,4,1,0,70,0,0
97017,-103.092783505155,4,1,0,100,0,0
97402,-100,4,1,0,100,0,0
105676,-90.9090909090909,4,1,0,100,0,1
105737,-91.0382174086732,4,1,0,100,0,1
105801,-91.1677112503889,4,1,0,100,0,1
105929,-91.4278072482503,4,1,0,100,0,1
106057,-91.6893915686888,4,1,0,100,0,1
106185,-91.952477023089,4,1,0,100,0,1
106314,-92.2191497493312,4,1,0,100,0,1
106442,-92.4852884810498,4,1,0,100,0,1
106570,-92.7529677784059,4,1,0,100,0,1
106698,-93.0222010567612,4,1,0,100,0,1
106762,-93.1574046737674,4,1,0,100,0,1
106826,-93.2930018876936,4,1,0,100,0,1
106955,-93.5675182481752,4,1,0,100,0,1
107083,-93.8415080527086,4,1,0,100,0,1
107211,-94.117107195301,4,1,0,100,0,1
107339,-94.3943298969072,4,1,0,100,0,1
107467,-94.6731905465288,4,1,0,100,0,1
107724,-95.2380952380952,4,1,0,100,0,1
107788,-95.3798218894598,4,1,0,100,0,1
107852,-95.5219709847938,4,1,0,100,0,1
107980,-95.8075440850169,4,1,0,100,0,1
108108,-96.0948298076698,4,1,0,100,0,1
108237,-96.3861083697542,4,1,0,100,0,1
108365,-96.6768795663446,4,1,0,100,0,1
108493,-96.9694104297669,4,1,0,100,0,1
108621,-97.2637169820269,4,1,0,100,0,1
108749,-97.5598154402321,4,1,0,100,0,1
108814,-97.7108692027346,4,1,0,100,0,1
108878,-97.8600567788725,4,1,0,100,0,1
109006,-98.1598028189236,4,1,0,100,0,1
109134,-98.4613907491419,4,1,0,100,0,1
109262,-98.7648375990177,4,1,0,100,0,1
109455,-99.225931301403,4,1,0,100,0,1
109647,-99.6889277729173,4,1,0,100,0,1
109778,-100,4,1,0,100,0,0
113878,-90.9090909090909,4,1,0,100,0,0
113942,-91.0566631157104,4,1,0,100,0,0
114006,-91.2047152075606,4,1,0,100,0,0
114134,-91.5022684406382,4,1,0,100,0,0
114263,-91.8041171205728,4,1,0,100,0,0
114647,-92.7145476614757,4,1,0,100,0,0
114711,-92.8680445973562,4,1,0,100,0,0
114775,-93.0220506309434,4,1,0,100,0,0
114904,-93.3340266222962,4,1,0,100,0,0
115032,-93.6456594323873,4,1,0,100,0,0
115416,-94.5931703204047,4,1,0,100,0,0
115545,-94.9157919784258,4,1,0,100,0,0
115673,-95.2380952380952,4,1,0,100,0,0
115929,-95.8893132829403,4,1,0,100,0,0
115993,-96.0535117056856,4,1,0,100,0,0
116057,-96.2182734314277,4,1,0,100,0,0
116186,-96.5520950997795,4,1,0,100,0,0
116314,-96.8856263831165,4,1,0,100,0,0
116698,-97.9001908917371,4,1,0,100,0,0
116763,-98.0740336019669,4,1,0,100,0,0
116827,-98.2458060808407,4,1,0,100,0,0
116955,-98.5911624969104,4,1,0,100,0,0
117083,-98.9389554912498,4,1,0,100,0,0
117211,-99.2892109411732,4,1,0,100,0,0
117275,-99.4652702740143,4,1,0,100,0,0
117339,-99.6419550917317,4,1,0,100,0,0
117468,-100,4,1,0,100,0,0
117967,-90.9090909090909,4,1,0,100,0,0
118031,-91.0566631157104,4,1,0,100,0,0
118095,-91.2047152075606,4,1,0,100,0,0
118223,-91.5022684406382,4,1,0,100,0,0
118352,-91.8041171205728,4,1,0,100,0,0
118736,-92.7145476614757,4,1,0,100,0,0
118800,-92.8680445973562,4,1,0,100,0,0
118864,-93.0220506309434,4,1,0,100,0,0
118993,-93.3340266222962,4,1,0,100,0,0
119121,-93.6456594323873,4,1,0,100,0,0
119505,-94.5931703204047,4,1,0,100,0,0
119634,-94.9157919784258,4,1,0,100,0,0
119762,-95.2380952380952,4,1,0,100,0,0
120018,-95.8893132829403,4,1,0,100,0,0
120082,-96.0535117056856,4,1,0,100,0,0
120146,-96.2182734314277,4,1,0,100,0,0
120275,-96.5520950997795,4,1,0,100,0,0
120403,-96.8856263831165,4,1,0,100,0,0
120787,-97.9001908917371,4,1,0,100,0,0
120852,-98.0740336019669,4,1,0,100,0,0
120916,-98.2458060808407,4,1,0,100,0,0
121044,-98.5911624969104,4,1,0,100,0,0
121172,-98.9389554912498,4,1,0,100,0,0
121300,-99.2892109411732,4,1,0,100,0,0
121364,-99.4652702740143,4,1,0,100,0,0
121428,-99.6419550917317,4,1,0,100,0,0
121557,-100,4,1,0,100,0,0
122113,-125,4,1,0,70,0,0
125163,-125,4,1,0,100,0,1
125164,-33.3333333333333,4,1,0,100,0,1
127214,-125,4,1,0,100,0,0

[Colours]
Combo1 : 212,212,212
Combo2 : 0,255,128
Combo3 : 255,64,64

[HitObjects]
256,192,1061,6,0,L|288:288,32,97.50000371933
256,192,4522,1,4,0:0:0:0:
256,192,4906,1,4,0:0:0:0:
256,192,5163,1,12,0:0:0:0:
256,192,6060,1,4,0:0:0:0:
256,192,6317,1,4,0:0:0:0:
256,192,7214,1,12,0:0:0:0:
256,192,7599,1,0,0:0:0:0:
256,192,7727,1,8,0:0:0:0:
256,192,7919,1,8,0:0:0:0:
256,192,8111,1,8,0:0:0:0:
256,192,8240,1,0,0:0:0:0:
256,192,8624,1,8,0:0:0:0:
256,192,8752,1,0,0:0:0:0:
256,192,8945,1,0,0:0:0:0:
256,192,9137,1,0,0:0:0:0:
256,192,9265,1,8,0:0:0:0:
256,192,9458,1,0,0:0:0:0:
256,192,9650,1,8,0:0:0:0:
256,192,9778,1,0,0:0:0:0:
256,192,9970,1,0,0:0:0:0:
256,192,10163,1,8,0:0:0:0:
256,192,10291,1,0,0:0:0:0:
256,192,10483,1,8,0:0:0:0:
256,192,10676,1,0,0:0:0:0:
256,192,10804,1,8,0:0:0:0:
256,192,10932,1,0,0:0:0:0:
256,192,11060,1,8,0:0:0:0:
256,192,11124,1,8,0:0:0:0:
256,192,11188,1,8,0:0:0:0:
256,192,11317,1,0,0:0:0:0:
256,192,12342,1,8,0:0:0:0:
256,192,12599,1,8,0:0:0:0:
256,192,12855,1,8,0:0:0:0:
256,192,13368,1,4,0:0:0:0:
256,192,13496,1,8,0:0:0:0:
256,192,13624,1,0,0:0:0:0:
256,192,13752,1,0,0:0:0:0:
256,192,13817,1,0,0:0:0:0:
256,192,13881,1,0,0:0:0:0:
256,192,14009,1,0,0:0:0:0:
256,192,14137,1,8,0:0:0:0:
256,192,14393,1,0,0:0:0:0:
256,192,14522,1,0,0:0:0:0:
256,192,14650,1,8,0:0:0:0:
256,192,14714,1,8,0:0:0:0:
256,192,14778,1,8,0:0:0:0:
256,192,14906,1,0,0:0:0:0:
256,192,15034,1,8,0:0:0:0:
256,192,15163,1,8,0:0:0:0:
256,192,15419,1,0,0:0:0:0:
256,192,15547,1,8,0:0:0:0:
256,192,15676,1,0,0:0:0:0:
256,192,15804,1,0,0:0:0:0:
256,192,15868,1,0,0:0:0:0:
256,192,15932,1,0,0:0:0:0:
256,192,16060,1,0,0:0:0:0:
256,192,16188,1,8,0:0:0:0:
256,192,16445,1,8,0:0:0:0:
256,192,16573,1,0,0:0:0:0:
256,192,16701,1,8,0:0:0:0:
256,192,16829,1,8,0:0:0:0:
256,192,16958,1,0,0:0:0:0:
256,192,17086,1,0,0:0:0:0:
256,192,17342,1,12,0:0:0:0:
256,192,17727,1,8,0:0:0:0:
256,192,17855,1,0,0:0:0:0:
256,192,17919,1,0,0:0:0:0:
256,192,17983,1,0,0:0:0:0:
256,192,18111,1,0,0:0:0:0:
256,192,18240,1,8,0:0:0:0:
256,192,18496,1,0,0:0:0:0:
256,192,18624,1,0,0:0:0:0:
256,192,18752,1,8,0:0:0:0:
256,192,18881,1,0,0:0:0:0:
256,192,18945,1,0,0:0:0:0:
256,192,19009,1,0,0:0:0:0:
256,192,19137,1,0,0:0:0:0:
256,192,19265,1,8,0:0:0:0:
256,192,19522,1,8,0:0:0:0:
256,192,19586,1,8,0:0:0:0:
256,192,19650,1,8,0:0:0:0:
256,192,19778,1,8,0:0:0:0:
256,192,20034,1,0,0:0:0:0:
256,192,20099,1,0,0:0:0:0:
256,192,20163,1,0,0:0:0:0:
256,192,20291,1,0,0:0:0:0:
256,192,20547,1,8,0:0:0:0:
256,192,20718,1,8,0:0:0:0:
256,192,20804,1,8,0:0:0:0:
256,192,20975,1,8,0:0:0:0:
256,192,21060,1,8,0:0:0:0:
256,192,21573,1,4,0:0:0:0:
256,192,21829,1,8,0:0:0:0:
256,192,21958,1,8,0:0:0:0:
256,192,22086,1,0,0:0:0:0:
256,192,22214,1,0,0:0:0:0:
256,192,22342,1,0,0:0:0:0:
256,192,22470,1,8,0:0:0:0:
256,192,22727,1,8,0:0:0:0:
256,192,22855,1,0,0:0:0:0:
256,192,22919,1,0,0:0:0:0:
256,192,22983,1,0,0:0:0:0:
256,192,23111,1,0,0:0:0:0:
256,192,23240,1,0,0:0:0:0:
256,192,23368,1,8,0:0:0:0:
256,192,23496,1,0,0:0:0:0:
256,192,23752,1,12,0:0:0:0:
256,192,24009,1,0,0:0:0:0:
256,192,24137,1,8,0:0:0:0:
256,192,24265,1,8,0:0:0:0:
256,192,24393,1,0,0:0:0:0:
256,192,24522,1,8,0:0:0:0:
256,192,24650,1,0,0:0:0:0:
256,192,24778,1,8,0:0:0:0:
256,192,24842,1,8,0:0:0:0:
256,192,24906,1,8,0:0:0:0:
256,192,25034,1,8,0:0:0:0:
256,192,25163,1,0,0:0:0:0:
256,192,25355,1,0,0:0:0:0:
256,192,25419,1,0,0:0:0:0:
256,192,25547,1,0,0:0:0:0:
256,192,25676,1,12,0:0:0:0:
256,192,26317,1,0,0:0:0:0:
256,192,26509,1,0,0:0:0:0:
256,192,26701,1,12,0:0:0:0:
256,192,27214,1,0,0:0:0:0:
256,192,27470,1,0,0:0:0:0:
256,192,27727,1,0,0:0:0:0:
256,192,27812,1,8,0:0:0:0:
256,192,27983,1,8,0:0:0:0:
256,192,28325,1,8,0:0:0:0:
256,192,28411,1,8,0:0:0:0:
256,192,28496,1,8,0:0:0:0:
256,192,28752,1,0,0:0:0:0:
256,192,29778,1,4,0:0:0:0:
256,192,30034,1,0,0:0:0:0:
256,192,30291,1,0,0:0:0:0:
256,192,30547,1,0,0:0:0:0:
256,192,30804,1,0,0:0:0:0:
256,192,31060,1,0,0:0:0:0:
256,192,31317,1,0,0:0:0:0:
256,192,31573,1,0,0:0:0:0:
256,192,31829,1,8,0:0:0:0:
256,192,32086,1,0,0:0:0:0:
256,192,32342,1,0,0:0:0:0:
256,192,32599,1,0,0:0:0:0:
256,192,32855,1,0,0:0:0:0:
256,192,33111,1,0,0:0:0:0:
256,192,33368,1,0,0:0:0:0:
256,192,33560,1,0,0:0:0:0:
256,192,33752,1,0,0:0:0:0:
256,192,33881,1,8,0:0:0:0:
256,192,34137,1,0,0:0:0:0:
256,192,34393,1,0,0:0:0:0:
256,192,34650,1,0,0:0:0:0:
256,192,34906,1,0,0:0:0:0:
256,192,35163,1,0,0:0:0:0:
256,192,35419,1,0,0:0:0:0:
256,192,35547,1,0,0:0:0:0:
256,192,35676,1,0,0:0:0:0:
256,192,35740,1,0,0:0:0:0:
256,192,35804,1,0,0:0:0:0:
256,192,35932,1,8,0:0:0:0:
256,192,36188,1,0,0:0:0:0:
256,192,36317,1,8,0:0:0:0:
256,192,36701,1,8,0:0:0:0:
256,192,36958,1,0,0:0:0:0:
256,192,37086,1,8,0:0:0:0:
256,192,37342,1,0,0:0:0:0:
256,192,37470,1,8,0:0:0:0:
256,192,37599,1,0,0:0:0:0:
256,192,37727,1,8,0:0:0:0:
256,192,37791,1,8,0:0:0:0:
256,192,37855,1,8,0:0:0:0:
256,192,37983,1,4,0:0:0:0:
256,192,38240,1,8,0:0:0:0:
256,192,38368,1,8,0:0:0:0:
256,192,38496,1,0,0:0:0:0:
256,192,38624,1,0,0:0:0:0:
256,192,38752,1,8,0:0:0:0:
256,192,39009,1,0,0:0:0:0:
256,192,39137,1,0,0:0:0:0:
256,192,39265,1,8,0:0:0:0:
256,192,39393,1,8,0:0:0:0:
256,192,39522,1,0,0:0:0:0:
256,192,39586,1,0,0:0:0:0:
256,192,39650,1,0,0:0:0:0:
256,192,39778,1,8,0:0:0:0:
256,192,39906,1,0,0:0:0:0:
256,192,40034,1,8,0:0:0:0:
256,192,40419,1,8,0:0:0:0:
256,192,40547,1,0,0:0:0:0:
256,192,40676,1,0,0:0:0:0:
256,192,40804,1,8,0:0:0:0:
256,192,40932,1,0,0:0:0:0:
256,192,41060,1,8,0:0:0:0:
256,192,41188,1,8,0:0:0:0:
256,192,41317,1,0,0:0:0:0:
256,192,41573,1,8,0:0:0:0:
256,192,41701,1,0,0:0:0:0:
256,192,41829,1,8,0:0:0:0:
256,192,41958,1,0,0:0:0:0:
256,192,42086,1,12,0:0:0:0:
256,192,42278,1,0,0:0:0:0:
256,192,42342,1,0,0:0:0:0:
256,192,42470,1,0,0:0:0:0:
256,192,42599,1,8,0:0:0:0:
256,192,42791,1,0,0:0:0:0:
256,192,42983,1,0,0:0:0:0:
256,192,43111,1,12,0:0:0:0:
256,192,43304,1,0,0:0:0:0:
256,192,43368,1,0,0:0:0:0:
256,192,43496,1,0,0:0:0:0:
256,192,43624,1,8,0:0:0:0:
256,192,43817,1,0,0:0:0:0:
256,192,44009,1,0,0:0:0:0:
256,192,44137,1,12,0:0:0:0:
256,192,44329,1,8,0:0:0:0:
256,192,44522,1,0,0:0:0:0:
256,192,44650,1,8,0:0:0:0:
256,192,45034,1,0,0:0:0:0:
256,192,45163,1,8,0:0:0:0:
256,192,45355,1,8,0:0:0:0:
256,192,45547,1,0,0:0:0:0:
256,192,45740,1,0,0:0:0:0:
256,192,45932,1,8,0:0:0:0:
256,192,45996,1,8,0:0:0:0:
256,192,46060,1,8,0:0:0:0:
256,192,46188,1,0,0:0:0:0:
256,192,48240,12,0,49265,0:0:0:0:
256,192,50291,5,0,0:0:0:0:
256,192,50355,1,0,0:0:0:0:
256,192,50419,1,0,0:0:0:0:
256,192,50547,1,8,0:0:0:0:
256,192,50676,1,0,0:0:0:0:
256,192,51060,1,0,0:0:0:0:
256,192,51124,1,0,0:0:0:0:
256,192,51188,1,0,0:0:0:0:
256,192,51317,1,8,0:0:0:0:
256,192,51445,1,0,0:0:0:0:
256,192,51829,1,8,0:0:0:0:
256,192,51958,1,0,0:0:0:0:
256,192,52086,1,8,0:0:0:0:
256,192,52342,1,0,0:0:0:0:
256,192,52406,1,0,0:0:0:0:
256,192,52470,1,0,0:0:0:0:
256,192,52599,1,8,0:0:0:0:
256,192,52727,1,0,0:0:0:0:
256,192,53111,1,0,0:0:0:0:
256,192,53176,1,0,0:0:0:0:
256,192,53240,1,0,0:0:0:0:
256,192,53368,1,8,0:0:0:0:
256,192,53496,1,0,0:0:0:0:
256,192,53624,1,0,0:0:0:0:
256,192,53688,1,0,0:0:0:0:
256,192,53752,1,0,0:0:0:0:
256,192,53881,1,8,0:0:0:0:
256,192,54393,1,0,0:0:0:0:
256,192,54458,1,0,0:0:0:0:
256,192,54522,1,0,0:0:0:0:
256,192,54650,1,8,0:0:0:0:
256,192,54778,1,0,0:0:0:0:
256,192,55163,1,0,0:0:0:0:
256,192,55227,1,0,0:0:0:0:
256,192,55291,1,0,0:0:0:0:
256,192,55419,1,8,0:0:0:0:
256,192,55547,1,0,0:0:0:0:
256,192,55804,1,0,0:0:0:0:
256,192,55932,1,8,0:0:0:0:
256,192,55996,1,8,0:0:0:0:
256,192,56060,1,8,0:0:0:0:
256,192,56188,1,0,0:0:0:0:
256,192,56317,1,8,0:0:0:0:
256,192,56573,1,0,0:0:0:0:
256,192,56701,1,8,0:0:0:0:
256,192,56829,1,8,0:0:0:0:
256,192,56958,1,0,0:0:0:0:
256,192,57214,1,0,0:0:0:0:
256,192,57278,1,0,0:0:0:0:
256,192,57342,1,0,0:0:0:0:
256,192,57470,1,8,0:0:0:0:
256,192,57599,1,0,0:0:0:0:
256,192,57727,1,0,0:0:0:0:
256,192,57855,1,8,0:0:0:0:
256,192,57919,1,8,0:0:0:0:
256,192,57983,1,8,0:0:0:0:
256,192,58111,1,0,0:0:0:0:
256,192,58240,1,8,0:0:0:0:
256,192,58368,1,8,0:0:0:0:
256,192,58496,1,4,0:0:0:0:
256,192,59906,1,4,0:0:0:0:
256,192,60291,1,4,0:0:0:0:
256,192,60547,1,12,0:0:0:0:
256,192,61445,1,4,0:0:0:0:
256,192,61701,1,4,0:0:0:0:
256,192,61958,1,0,0:0:0:0:
256,192,62086,1,8,0:0:0:0:
256,192,62214,1,8,0:0:0:0:
256,192,62342,1,0,0:0:0:0:
256,192,62470,1,0,0:0:0:0:
256,192,62599,1,12,0:0:0:0:
256,192,62983,1,0,0:0:0:0:
256,192,63111,1,8,0:0:0:0:
256,192,63304,1,0,0:0:0:0:
256,192,63496,1,8,0:0:0:0:
256,192,63624,1,4,0:0:0:0:
256,192,64009,1,0,0:0:0:0:
256,192,64137,1,8,0:0:0:0:
256,192,64329,1,0,0:0:0:0:
256,192,64522,1,0,0:0:0:0:
256,192,64650,1,8,0:0:0:0:
256,192,64842,1,8,0:0:0:0:
256,192,65034,1,8,0:0:0:0:
256,192,65163,1,0,0:0:0:0:
256,192,65355,1,0,0:0:0:0:
256,192,65547,1,0,0:0:0:0:
256,192,65676,1,8,0:0:0:0:
256,192,65868,1,0,0:0:0:0:
256,192,66060,1,8,0:0:0:0:
256,192,66188,1,0,0:0:0:0:
256,192,66317,1,8,0:0:0:0:
256,192,66445,1,0,0:0:0:0:
256,192,66509,1,0,0:0:0:0:
256,192,66573,1,0,0:0:0:0:
256,192,66701,1,8,0:0:0:0:
256,192,67727,1,8,0:0:0:0:
256,192,68752,1,8,0:0:0:0:
256,192,69778,1,8,0:0:0:0:
256,192,70291,1,0,0:0:0:0:
256,192,70804,1,8,0:0:0:0:
256,192,71829,1,8,0:0:0:0:
256,192,72855,1,8,0:0:0:0:
256,192,73881,1,0,0:0:0:0:
256,192,74650,1,8,0:0:0:0:
256,192,74906,1,4,0:0:0:0:
256,192,75163,1,8,0:0:0:0:
256,192,75291,1,0,0:0:0:0:
256,192,75419,1,8,0:0:0:0:
256,192,75483,1,8,0:0:0:0:
256,192,75547,1,8,0:0:0:0:
256,192,75676,1,0,0:0:0:0:
256,192,75804,1,0,0:0:0:0:
256,192,75932,1,8,0:0:0:0:
256,192,76188,1,8,0:0:0:0:
256,192,76317,1,0,0:0:0:0:
256,192,76445,1,8,0:0:0:0:
256,192,76573,1,8,0:0:0:0:
256,192,76701,1,0,0:0:0:0:
256,192,76765,1,0,0:0:0:0:
256,192,76829,1,0,0:0:0:0:
256,192,76958,1,8,0:0:0:0:
256,192,77086,1,8,0:0:0:0:
256,192,77214,1,0,0:0:0:0:
256,192,77599,1,8,0:0:0:0:
256,192,77727,1,0,0:0:0:0:
256,192,77791,1,0,0:0:0:0:
256,192,77855,1,0,0:0:0:0:
256,192,77983,1,8,0:0:0:0:
256,192,78111,1,0,0:0:0:0:
256,192,78240,1,8,0:0:0:0:
256,192,78496,1,8,0:0:0:0:
256,192,78624,1,8,0:0:0:0:
256,192,78752,1,0,0:0:0:0:
256,192,78881,1,0,0:0:0:0:
256,192,79009,1,8,0:0:0:0:
256,192,79265,1,8,0:0:0:0:
256,192,79393,1,0,0:0:0:0:
256,192,79522,1,0,0:0:0:0:
256,192,79586,1,0,0:0:0:0:
256,192,79650,1,0,0:0:0:0:
256,192,79778,1,8,0:0:0:0:
256,192,79906,1,8,0:0:0:0:
256,192,80034,1,0,0:0:0:0:
256,192,80291,1,8,0:0:0:0:
256,192,80419,1,0,0:0:0:0:
256,192,80547,1,8,0:0:0:0:
256,192,80611,1,8,0:0:0:0:
256,192,80676,1,8,0:0:0:0:
256,192,80804,1,0,0:0:0:0:
256,192,80932,1,0,0:0:0:0:
256,192,81060,1,8,0:0:0:0:
256,192,81445,1,8,0:0:0:0:
256,192,81573,1,8,0:0:0:0:
256,192,81829,1,0,0:0:0:0:
256,192,81958,1,8,0:0:0:0:
256,192,82214,1,8,0:0:0:0:
256,192,82342,1,0,0:0:0:0:
256,192,82406,1,0,0:0:0:0:
256,192,82470,1,0,0:0:0:0:
256,192,82599,1,8,0:0:0:0:
256,192,82727,1,0,0:0:0:0:
256,192,82855,1,8,0:0:0:0:
256,192,83111,1,4,0:0:0:0:
256,192,83368,1,8,0:0:0:0:
256,192,83496,1,8,0:0:0:0:
256,192,83624,1,0,0:0:0:0:
256,192,83752,1,8,0:0:0:0:
256,192,83881,1,0,0:0:0:0:
256,192,83945,1,0,0:0:0:0:
256,192,84009,1,0,0:0:0:0:
256,192,84137,1,8,0:0:0:0:
256,192,84393,1,8,0:0:0:0:
256,192,84650,1,8,0:0:0:0:
256,192,84778,1,0,0:0:0:0:
256,192,84906,1,0,0:0:0:0:
256,192,85034,1,12,0:0:0:0:
256,192,85419,1,8,0:0:0:0:
256,192,85547,1,8,0:0:0:0:
256,192,85676,1,0,0:0:0:0:
256,192,85804,1,8,0:0:0:0:
256,192,85932,1,0,0:0:0:0:
256,192,85996,1,0,0:0:0:0:
256,192,86060,1,0,0:0:0:0:
256,192,86188,1,8,0:0:0:0:
256,192,86445,1,8,0:0:0:0:
256,192,86701,1,8,0:0:0:0:
256,192,86829,1,0,0:0:0:0:
256,192,86958,1,8,0:0:0:0:
256,192,87086,1,0,0:0:0:0:
256,192,87470,1,12,0:0:0:0:
256,192,87727,1,0,0:0:0:0:
256,192,87855,1,8,0:0:0:0:
256,192,87983,1,0,0:0:0:0:
256,192,88047,1,0,0:0:0:0:
256,192,88111,1,0,0:0:0:0:
256,192,88240,1,8,0:0:0:0:
256,192,88368,1,0,0:0:0:0:
256,192,88496,1,0,0:0:0:0:
256,192,88624,1,8,0:0:0:0:
256,192,88881,1,0,0:0:0:0:
256,192,89009,1,8,0:0:0:0:
256,192,89137,1,8,0:0:0:0:
256,192,89265,1,0,0:0:0:0:
256,192,89393,1,8,0:0:0:0:
256,192,89458,1,8,0:0:0:0:
256,192,89522,1,8,0:0:0:0:
256,192,89650,1,0,0:0:0:0:
256,192,89906,1,8,0:0:0:0:
256,192,90034,1,0,0:0:0:0:
256,192,90163,1,0,0:0:0:0:
256,192,90291,1,8,0:0:0:0:
256,192,90419,1,0,0:0:0:0:
256,192,90676,1,8,0:0:0:0:
256,192,90932,1,0,0:0:0:0:
256,192,91317,1,0,0:0:0:0:
256,192,91445,1,0,0:0:0:0:
256,192,91573,1,8,0:0:0:0:
256,192,91701,1,8,0:0:0:0:
256,192,91829,1,0,0:0:0:0:
256,192,91893,1,0,0:0:0:0:
256,192,91958,1,0,0:0:0:0:
256,192,92086,1,0,0:0:0:0:
256,192,92214,1,8,0:0:0:0:
256,192,92342,1,0,0:0:0:0:
256,192,92599,1,8,0:0:0:0:
256,192,92727,1,8,0:0:0:0:
256,192,92855,1,0,0:0:0:0:
256,192,92983,1,8,0:0:0:0:
256,192,93047,1,8,0:0:0:0:
256,192,93111,1,8,0:0:0:0:
256,192,93240,1,0,0:0:0:0:
256,192,93368,1,8,0:0:0:0:
256,192,93496,1,0,0:0:0:0:
256,192,93560,1,0,0:0:0:0:
256,192,93624,1,0,0:0:0:0:
256,192,93752,1,8,0:0:0:0:
256,192,94009,1,0,0:0:0:0:
256,192,94137,1,8,0:0:0:0:
256,192,94265,1,0,0:0:0:0:
256,192,94393,1,8,0:0:0:0:
256,192,94586,1,8,0:0:0:0:
256,192,94778,1,8,0:0:0:0:
256,192,94906,1,0,0:0:0:0:
256,192,95099,1,0,0:0:0:0:
256,192,95291,1,0,0:0:0:0:
256,192,95419,5,12,0:0:0:0:
256,192,97214,1,8,0:0:0:0:
256,192,97470,1,4,0:0:0:0:
256,192,97599,1,0,0:0:0:0:
256,192,97663,1,0,0:0:0:0:
256,192,97727,1,0,0:0:0:0:
256,192,97855,1,0,0:0:0:0:
256,192,97983,1,8,0:0:0:0:
256,192,98111,1,0,0:0:0:0:
256,192,98240,1,8,0:0:0:0:
256,192,98368,1,8,0:0:0:0:
256,192,98624,1,0,0:0:0:0:
256,192,98688,1,0,0:0:0:0:
256,192,98752,1,0,0:0:0:0:
256,192,98881,1,0,0:0:0:0:
256,192,99009,1,8,0:0:0:0:
256,192,99137,1,8,0:0:0:0:
256,192,99265,1,0,0:0:0:0:
256,192,99522,1,8,0:0:0:0:
256,192,99693,1,8,0:0:0:0:
256,192,99778,1,8,0:0:0:0:
256,192,100034,1,8,0:0:0:0:
256,192,100205,1,8,0:0:0:0:
256,192,100376,1,8,0:0:0:0:
256,192,100547,1,0,0:0:0:0:
256,192,100932,1,8,0:0:0:0:
256,192,101060,1,0,0:0:0:0:
256,192,101124,1,0,0:0:0:0:
256,192,101188,1,0,0:0:0:0:
256,192,101317,1,8,0:0:0:0:
256,192,101445,1,8,0:0:0:0:
256,192,101829,1,12,0:0:0:0:
256,192,102086,1,8,0:0:0:0:
256,192,102214,1,0,0:0:0:0:
256,192,102342,1,8,0:0:0:0:
256,192,102406,1,8,0:0:0:0:
256,192,102470,1,8,0:0:0:0:
256,192,102599,1,0,0:0:0:0:
256,192,102727,1,0,0:0:0:0:
256,192,102855,1,8,0:0:0:0:
256,192,102983,1,8,0:0:0:0:
256,192,103111,1,0,0:0:0:0:
256,192,103240,1,0,0:0:0:0:
256,192,103368,1,8,0:0:0:0:
256,192,103624,1,0,0:0:0:0:
256,192,103688,1,0,0:0:0:0:
256,192,103752,1,0,0:0:0:0:
256,192,103881,1,8,0:0:0:0:
256,192,104009,1,0,0:0:0:0:
256,192,104137,1,8,0:0:0:0:
256,192,104201,1,8,0:0:0:0:
256,192,104265,1,8,0:0:0:0:
256,192,104393,1,8,0:0:0:0:
256,192,104650,1,0,0:0:0:0:
256,192,104821,1,0,0:0:0:0:
256,192,104906,1,0,0:0:0:0:
256,192,105163,1,8,0:0:0:0:
256,192,105676,1,0,0:0:0:0:
256,192,105740,1,0,0:0:0:0:
256,192,105804,1,0,0:0:0:0:
256,192,105932,1,0,0:0:0:0:
256,192,106060,1,0,0:0:0:0:
256,192,106188,1,8,0:0:0:0:
256,192,106317,1,0,0:0:0:0:
256,192,106445,1,8,0:0:0:0:
256,192,106573,1,8,0:0:0:0:
256,192,106701,1,0,0:0:0:0:
256,192,106765,1,0,0:0:0:0:
256,192,106829,1,0,0:0:0:0:
256,192,106958,1,8,0:0:0:0:
256,192,107086,1,0,0:0:0:0:
256,192,107214,1,8,0:0:0:0:
256,192,107342,1,8,0:0:0:0:
256,192,107470,1,0,0:0:0:0:
256,192,107727,1,8,0:0:0:0:
256,192,107791,1,8,0:0:0:0:
256,192,107855,1,8,0:0:0:0:
256,192,107983,1,0,0:0:0:0:
256,192,108111,1,8,0:0:0:0:
256,192,108240,1,0,0:0:0:0:
256,192,108368,1,0,0:0:0:0:
256,192,108496,1,8,0:0:0:0:
256,192,108624,1,0,0:0:0:0:
256,192,108752,1,8,0:0:0:0:
256,192,108817,1,8,0:0:0:0:
256,192,108881,1,8,0:0:0:0:
256,192,109009,1,0,0:0:0:0:
256,192,109137,1,0,0:0:0:0:
256,192,109265,1,8,0:0:0:0:
256,192,109458,1,8,0:0:0:0:
256,192,109650,1,8,0:0:0:0:
256,192,109778,1,4,0:0:0:0:
256,192,110419,1,0,0:0:0:0:
256,192,110611,1,0,0:0:0:0:
256,192,110804,1,12,0:0:0:0:
256,192,111317,1,0,0:0:0:0:
256,192,111573,1,0,0:0:0:0:
256,192,111830,1,0,0:0:0:0:
256,192,111915,1,8,0:0:0:0:
256,192,112086,1,8,0:0:0:0:
256,192,112428,1,8,0:0:0:0:
256,192,112514,1,8,0:0:0:0:
256,192,112599,1,8,0:0:0:0:
256,192,112855,1,0,0:0:0:0:
256,192,113881,5,0,0:0:0:0:
256,192,113945,1,0,0:0:0:0:
256,192,114009,1,0,0:0:0:0:
256,192,114137,1,8,0:0:0:0:
256,192,114266,1,0,0:0:0:0:
256,192,114650,1,0,0:0:0:0:
256,192,114714,1,0,0:0:0:0:
256,192,114778,1,0,0:0:0:0:
256,192,114907,1,8,0:0:0:0:
256,192,115035,1,0,0:0:0:0:
256,192,115419,1,8,0:0:0:0:
256,192,115548,1,0,0:0:0:0:
256,192,115676,1,8,0:0:0:0:
256,192,115932,1,0,0:0:0:0:
256,192,115996,1,0,0:0:0:0:
256,192,116060,1,0,0:0:0:0:
256,192,116189,1,8,0:0:0:0:
256,192,116317,1,0,0:0:0:0:
256,192,116701,1,0,0:0:0:0:
256,192,116766,1,0,0:0:0:0:
256,192,116830,1,0,0:0:0:0:
256,192,116958,1,8,0:0:0:0:
256,192,117086,1,0,0:0:0:0:
256,192,117214,1,0,0:0:0:0:
256,192,117278,1,0,0:0:0:0:
256,192,117342,1,0,0:0:0:0:
256,192,117471,1,8,0:0:0:0:
256,192,117983,1,0,0:0:0:0:
256,192,118048,1,0,0:0:0:0:
256,192,118112,1,0,0:0:0:0:
256,192,118240,1,8,0:0:0:0:
256,192,118368,1,0,0:0:0:0:
256,192,118753,1,0,0:0:0:0:
256,192,118817,1,0,0:0:0:0:
256,192,118881,1,0,0:0:0:0:
256,192,119009,1,8,0:0:0:0:
256,192,119137,1,0,0:0:0:0:
256,192,119393,1,0,0:0:0:0:
256,192,119522,1,8,0:0:0:0:
256,192,119650,1,8,0:0:0:0:
256,192,119778,1,0,0:0:0:0:
256,192,119907,1,8,0:0:0:0:
256,192,120163,1,0,0:0:0:0:
256,192,120291,1,8,0:0:0:0:
256,192,120419,1,8,0:0:0:0:
256,192,120548,1,0,0:0:0:0:
256,192,120804,1,0,0:0:0:0:
256,192,120932,1,8,0:0:0:0:
256,192,121060,1,8,0:0:0:0:
256,192,121189,1,0,0:0:0:0:
256,192,121317,1,0,0:0:0:0:
256,192,121445,1,8,0:0:0:0:
256,192,121509,1,8,0:0:0:0:
256,192,121573,1,8,0:0:0:0:
256,192,121701,1,0,0:0:0:0:
256,192,121830,1,8,0:0:0:0:
256,192,121958,1,8,0:0:0:0:
256,192,122086,1,4,0:0:0:0:
256,192,125164,6,0,L|256:320,32,97.50000371933
