osu file format v14

[General]
AudioFilename: audio.ogg
AudioLeadIn: 0
PreviewTime: 98337
Countdown: 0
SampleSet: Soft
StackLeniency: 0.7
Mode: 3
LetterboxInBreaks: 0
SpecialStyle: 0
WidescreenStoryboard: 1

[Editor]
Bookmarks: 606,10502,21636,41430,51327,66173,85966,98337
DistanceSpacing: 0.8
BeatDivisor: 4
GridSize: 4
TimelineZoom: 2.8

[Metadata]
Title:Completeness Under Incompleteness
TitleUnicode:Completeness Under Incompleteness
Artist:Camellia as "Reverse of Riot"
ArtistUnicode:かめりあ as "Reverse of Riot"
Creator:XDerbyX
Version:GRAVITY
Source:SOUND VOLTEX III GRAVITY WARS
Tags:featured artist fa kamelcamellia The 5th KAC Konami Arcade Championship original soundtrack ost Cametek Masaya Oya SDVX Artcore 大箭将也 Blastix Riotz Video Game Electronic Instrumental FAMoss
BeatmapID:2922079
BeatmapSetID:1159481

[Difficulty]
HPDrainRate:8.3
CircleSize:10
OverallDifficulty:8.3
ApproachRate:5
SliderMultiplier:1.4
SliderTickRate:1

[Events]
//Background and Video events
0,0,"Completeness Under Incompleteness.jpg",0,0
//Break Periods
//Storyboard Layer 0 (Background)
//Storyboard Layer 1 (Fail)
//Storyboard Layer 2 (Pass)
//Storyboard Layer 3 (Foreground)
//Storyboard Layer 4 (Overlay)
//Storyboard Sound Samples

[TimingPoints]
589,309.278350515464,4,2,1,40,1,0
10485,-100,4,2,1,50,0,0
15434,-100,4,2,1,60,0,0
20382,-142.857142857143,4,2,1,60,0,0
21310,-100,4,2,1,60,0,0
21619,-100,4,2,1,70,0,0
41413,-100,4,2,1,40,0,0
51310,-100,4,2,1,50,0,0
58733,-100,4,2,1,60,0,0
61207,-100,4,2,1,40,0,0
63681,-100,4,2,1,50,0,0
64300,-100,4,2,1,60,0,0
64918,-142.857142857143,4,2,1,60,0,0
65846,-100,4,2,1,60,0,0
66156,-100,4,2,1,70,0,1
85949,-100,4,2,1,50,0,0
90898,-100,4,2,1,60,0,0
98320,-100,4,2,1,70,0,1
115331,-100,4,2,1,40,0,0

[HitObjects]
25,192,589,5,0,0:0:0:100:D#7S_Eb7S_s.wav
230,192,589,1,0,0:0:0:70:FX_IntroKick.wav
281,192,589,1,0,0:0:0:0:
435,192,589,1,0,0:0:0:0:
486,192,589,1,0,0:0:0:0:
128,192,743,1,0,0:0:0:100:G#7S_Ab7S_s.wav
332,192,898,1,0,0:0:0:100:C#7S_Db7S_s.wav
179,192,1052,1,0,0:0:0:100:D#7S_Eb7S_s.wav
486,192,1207,1,0,0:0:0:100:D#7S_Eb7S_s.wav
384,192,1362,1,0,0:0:0:100:G#7S_Ab7S_s.wav
179,192,1516,1,0,0:0:0:100:C#7S_Db7S_s.wav
332,192,1671,1,0,0:0:0:100:D#7S_Eb7S_s.wav
25,192,1826,1,0,0:0:0:100:D#7S_Eb7S_s.wav
128,192,1826,1,0,0:0:0:0:
230,192,1826,1,0,0:0:0:0:
486,192,1826,1,0,0:0:0:0:
332,192,1980,1,0,0:0:0:100:G#7S_Ab7S_s.wav
179,192,2135,1,0,0:0:0:100:C#7S_Db7S_s.wav
384,192,2290,1,0,0:0:0:100:D#7S_Eb7S_s.wav
25,192,2444,1,0,0:0:0:100:D#7S_Eb7S_s.wav
179,192,2599,1,0,0:0:0:100:A#7S_Bb7S_s.wav
332,192,2753,1,0,0:0:0:100:C#7S_Db7S_s.wav
128,192,2908,1,0,0:0:0:100:D#7S_Eb7S_s.wav
25,192,3063,1,0,0:0:0:100:D#7S_Eb7S_s.wav
281,192,3063,1,0,0:0:0:0:
435,192,3063,1,0,0:0:0:0:
486,192,3063,1,0,0:0:0:0:
179,192,3217,1,0,0:0:0:100:G#7S_Ab7S_s.wav
384,192,3372,1,0,0:0:0:100:C#7S_Db7S_s.wav
128,192,3527,1,0,0:0:0:100:D#7S_Eb7S_s.wav
486,192,3681,1,0,0:0:0:100:D#7S_Eb7S_s.wav
332,192,3836,1,0,0:0:0:100:G#7S_Ab7S_s.wav
128,192,3991,1,0,0:0:0:100:C#7S_Db7S_s.wav
384,192,4145,1,0,0:0:0:100:D#7S_Eb7S_s.wav
25,192,4300,1,0,0:0:0:100:D#7S_Eb7S_s.wav
128,192,4300,1,0,0:0:0:0:
230,192,4300,1,0,0:0:0:0:
486,192,4300,1,0,0:0:0:0:
332,192,4454,1,0,0:0:0:100:G#7S_Ab7S_s.wav
179,192,4609,1,0,0:0:0:100:C#7S_Db7S_s.wav
384,192,4764,1,0,0:0:0:100:D#7S_Eb7S_s.wav
128,192,4918,1,0,0:0:0:100:D#7S_Eb7S_s.wav
230,192,5073,1,0,0:0:0:100:C#8S_Db8S_s.wav
486,192,5073,1,0,0:0:0:0:
179,192,5228,1,0,0:0:0:100:A#7S_Bb7S_s.wav
435,192,5228,1,0,0:0:0:0:
128,192,5382,1,0,0:0:0:100:B7S_s.wav
384,192,5382,1,0,0:0:0:0:
25,192,5537,1,0,0:0:0:100:D#7S_Eb7S_s.wav
76,192,5537,1,0,0:0:0:0:
230,192,5537,1,0,0:0:0:0:
486,192,5537,1,0,0:0:0:0:
384,192,5692,1,0,0:0:0:100:G#7S_Ab7S_s.wav
179,192,5846,1,0,0:0:0:100:C#7S_Db7S_s.wav
332,192,6001,1,0,0:0:0:100:D#7S_Eb7S_s.wav
25,192,6156,1,0,0:0:0:100:D#7S_Eb7S_s.wav
128,192,6310,1,0,0:0:0:100:G#7S_Ab7S_s.wav
332,192,6465,1,0,0:0:0:100:C#7S_Db7S_s.wav
179,192,6619,1,0,0:0:0:100:D#7S_Eb7S_s.wav
25,192,6774,1,0,0:0:0:100:D#7S_Eb7S_s.wav
281,192,6774,1,0,0:0:0:0:
384,192,6774,1,0,0:0:0:0:
486,192,6774,1,0,0:0:0:0:
179,192,6929,1,0,0:0:0:100:G#7S_Ab7S_s.wav
332,192,7083,1,0,0:0:0:100:C#7S_Db7S_s.wav
128,192,7238,1,0,0:0:0:100:D#7S_Eb7S_s.wav
486,192,7393,1,0,0:0:0:100:D#7S_Eb7S_s.wav
332,192,7547,1,0,0:0:0:100:A#7S_Bb7S_s.wav
179,192,7702,1,0,0:0:0:100:C#7S_Db7S_s.wav
384,192,7857,1,0,0:0:0:100:D#7S_Eb7S_s.wav
25,192,8011,1,0,0:0:0:100:G#7S_Ab7S_s.wav
76,192,8011,1,0,0:0:0:0:
230,192,8011,1,0,0:0:0:0:
486,192,8011,1,0,0:0:0:0:
332,192,8166,1,0,0:0:0:100:C#8S_Db8S_s.wav
179,192,8320,1,0,0:0:0:100:F#7S_Gb7S_s.wav
384,192,8475,1,0,0:0:0:100:G#7S_Ab7S_s.wav
179,192,8630,1,0,0:0:0:100:G#7S_Ab7S_s.wav
332,192,8784,1,0,0:0:0:100:C#8S_Db8S_s.wav
76,192,8939,1,0,0:0:0:100:F#7S_Gb7S_s.wav
486,192,8939,1,0,0:0:0:0:
435,192,8991,1,0,0:0:0:0:
384,192,9042,1,0,0:0:0:0:
128,192,9094,1,0,0:0:0:100:G#7S_Ab7S_s.wav
332,192,9094,1,0,0:0:0:0:
281,192,9145,1,0,0:0:0:0:
230,192,9197,1,0,0:0:0:0:
25,192,9248,1,0,0:0:0:100:G#7S_Ab7S_s.wav
179,192,9248,1,0,0:0:0:0:
435,192,9248,1,0,0:0:0:0:
486,192,9248,1,0,0:0:0:0:
230,192,9403,1,0,0:0:0:100:D#8S_Eb8S_s.wav
281,192,9403,1,0,0:0:0:0:
76,192,9480,1,0,0:0:0:0:
435,192,9480,1,0,0:0:0:0:
128,192,9558,1,4,0:0:0:100:F#7S_Gb7S_s.wav
384,192,9558,1,0,0:0:0:0:
179,192,9635,1,0,0:0:0:0:
332,192,9635,1,0,0:0:0:0:
25,192,9712,1,0,0:0:0:100:G#7S_Ab7S_s.wav
230,192,9712,1,0,0:0:0:0:
281,192,9712,1,0,0:0:0:0:
486,192,9712,1,0,0:0:0:0:
128,192,9867,1,0,0:0:0:100:G#7S_Ab7S_s.wav
384,192,9867,1,0,0:0:0:0:
76,192,9944,1,0,0:0:0:0:
435,192,9944,1,0,0:0:0:0:
179,192,10021,1,0,0:0:0:100:D#8S_Eb8S_s.wav
332,192,10021,1,0,0:0:0:0:
128,192,10099,1,0,0:0:0:0:
384,192,10099,1,0,0:0:0:0:
230,192,10176,1,0,0:0:0:100:B7S_s.wav
281,192,10176,1,0,0:0:0:0:
128,192,10253,1,0,0:0:0:0:
384,192,10253,1,0,0:0:0:0:
76,192,10331,1,0,0:0:0:100:A#7S_Bb7S_s.wav
435,192,10331,1,0,0:0:0:0:
179,192,10408,1,0,0:0:0:0:
332,192,10408,1,0,0:0:0:0:
25,192,10485,1,0,0:0:0:70:FX_IntroKick.wav
76,192,10485,1,0,0:0:0:0:
230,192,10485,1,0,0:0:0:0:
281,192,10485,1,0,0:0:0:0:
435,192,10485,1,0,0:0:0:0:
486,192,10485,1,0,0:0:0:0:
179,192,10640,1,0,0:0:0:0:
281,192,10640,1,0,0:0:0:0:
76,192,10795,1,2,0:0:0:0:
384,192,10795,1,0,0:0:0:0:
486,192,10795,1,0,0:0:0:0:
230,192,10949,1,0,0:0:0:0:
76,192,11104,1,2,0:0:0:0:
281,192,11104,1,0,0:0:0:0:
486,192,11104,1,0,0:0:0:0:
179,192,11259,1,0,0:0:0:0:
281,192,11259,1,0,0:0:0:0:
76,192,11413,1,2,0:0:0:0:
384,192,11413,1,0,0:0:0:0:
128,192,11568,1,0,0:0:0:0:
384,192,11568,1,0,0:0:0:0:
25,192,11723,1,2,0:0:0:0:
230,192,11723,1,0,0:0:0:0:
435,192,11723,1,0,0:0:0:0:
486,192,11723,1,0,0:0:0:0:
230,192,11877,1,0,0:0:0:0:
332,192,11877,1,0,0:0:0:0:
25,192,12032,1,2,0:0:0:0:
128,192,12032,1,0,0:0:0:0:
435,192,12032,1,0,0:0:0:0:
281,192,12186,1,0,0:0:0:0:
25,192,12341,1,2,0:0:0:0:
230,192,12341,1,0,0:0:0:0:
435,192,12341,1,0,0:0:0:0:
230,192,12496,1,0,0:0:0:0:
332,192,12496,1,0,0:0:0:0:
128,192,12650,1,2,0:0:0:0:
435,192,12650,1,0,0:0:0:0:
128,192,12805,1,0,0:0:0:0:
384,192,12805,1,0,0:0:0:0:
25,192,12960,1,2,0:0:0:0:
230,192,12960,1,0,0:0:0:0:
281,192,12960,1,0,0:0:0:0:
486,192,12960,1,0,0:0:0:0:
76,192,13114,1,0,0:0:0:0:
281,192,13114,1,0,0:0:0:0:
179,192,13269,1,2,0:0:0:0:
384,192,13269,1,0,0:0:0:0:
486,192,13269,1,0,0:0:0:0:
76,192,13424,1,0,0:0:0:0:
384,192,13424,1,0,0:0:0:0:
332,192,13501,1,0,0:0:0:0:
25,192,13578,1,2,0:0:0:0:
230,192,13578,1,0,0:0:0:0:
435,192,13578,1,0,0:0:0:0:
486,192,13578,1,0,0:0:0:0:
76,192,13733,1,0,0:0:0:0:
332,192,13733,1,0,0:0:0:0:
281,192,13810,1,0,0:0:0:0:
179,192,13887,1,2,0:0:0:0:
435,192,13887,1,0,0:0:0:0:
76,192,14042,1,0,0:0:0:0:
332,192,14042,1,0,0:0:0:0:
25,192,14197,1,2,0:0:0:0:
76,192,14197,1,0,0:0:0:0:
230,192,14197,1,0,0:0:0:0:
435,192,14197,1,0,0:0:0:0:
486,192,14197,1,0,0:0:0:0:
128,192,14351,1,0,0:0:0:0:
332,192,14351,1,0,0:0:0:0:
179,192,14429,1,0,0:0:0:0:
76,192,14506,1,2,0:0:0:0:
281,192,14506,1,0,0:0:0:0:
435,192,14506,1,0,0:0:0:0:
179,192,14583,1,0,0:0:0:0:
230,192,14661,1,0,0:0:0:0:
332,192,14661,1,0,0:0:0:0:
128,192,14815,1,2,0:0:0:0:
435,192,14815,1,0,0:0:0:0:
486,192,14815,1,0,0:0:0:0:
179,192,14893,1,0,0:0:0:0:
25,192,14970,1,0,0:0:0:0:
281,192,14970,1,0,0:0:0:0:
179,192,15047,1,0,0:0:0:0:
76,192,15125,1,2,0:0:0:0:
281,192,15125,1,0,0:0:0:0:
435,192,15125,1,0,0:0:0:0:
128,192,15279,1,0,0:0:0:0:
332,192,15279,1,0,0:0:0:0:
384,192,15357,1,0,0:0:0:0:
25,192,15434,1,2,0:0:0:0:
179,192,15434,1,0,0:0:0:0:
332,192,15434,1,0,0:0:0:0:
486,192,15434,1,0,0:0:0:0:
25,192,15589,1,2,0:0:0:0:
179,192,15589,1,0,0:0:0:0:
435,192,15589,1,0,0:0:0:0:
76,192,15743,1,2,0:0:0:0:
230,192,15743,1,0,0:0:0:0:
384,192,15743,1,0,0:0:0:0:
76,192,15898,1,2,0:0:0:0:
230,192,15898,1,0,0:0:0:0:
332,192,15898,1,0,0:0:0:0:
25,192,16052,1,2,0:0:0:0:
179,192,16052,1,0,0:0:0:0:
281,192,16052,1,0,0:0:0:0:
435,192,16052,1,0,0:0:0:0:
25,192,16207,1,2,0:0:0:0:
179,192,16207,1,0,0:0:0:0:
384,192,16207,1,0,0:0:0:0:
76,192,16362,1,2,0:0:0:0:
230,192,16362,1,0,0:0:0:0:
332,192,16362,1,0,0:0:0:0:
76,192,16516,1,2,0:0:0:0:
230,192,16516,1,0,0:0:0:0:
384,192,16516,1,0,0:0:0:0:
25,192,16671,1,2,0:0:0:0:
179,192,16671,1,0,0:0:0:0:
332,192,16671,1,0,0:0:0:0:
486,192,16671,1,0,0:0:0:0:
76,192,16826,1,2,0:0:0:0:
332,192,16826,1,0,0:0:0:0:
486,192,16826,1,0,0:0:0:0:
128,192,16980,1,2,0:0:0:0:
281,192,16980,1,0,0:0:0:0:
435,192,16980,1,0,0:0:0:0:
179,192,17135,1,2,0:0:0:0:
281,192,17135,1,0,0:0:0:0:
435,192,17135,1,0,0:0:0:0:
76,192,17290,1,2,0:0:0:0:
230,192,17290,1,0,0:0:0:0:
332,192,17290,1,0,0:0:0:0:
486,192,17290,1,0,0:0:0:0:
128,192,17444,1,2,0:0:0:0:
332,192,17444,1,0,0:0:0:0:
486,192,17444,1,0,0:0:0:0:
179,192,17599,1,2,0:0:0:0:
281,192,17599,1,0,0:0:0:0:
435,192,17599,1,0,0:0:0:0:
128,192,17753,1,2,0:0:0:0:
281,192,17753,1,0,0:0:0:0:
435,192,17753,1,0,0:0:0:0:
25,192,17908,1,2,0:0:0:0:
76,192,17908,1,0,0:0:0:0:
435,192,17908,1,0,0:0:0:0:
486,192,17908,1,0,0:0:0:0:
281,192,17985,1,2,0:0:0:0:
332,192,17985,1,0,0:0:0:0:
25,192,18063,1,2,0:0:0:0:
76,192,18063,1,0,0:0:0:0:
281,192,18140,1,2,0:0:0:0:
332,192,18140,1,0,0:0:0:0:
76,192,18217,1,2,0:0:0:0:
435,192,18217,1,0,0:0:0:0:
486,192,18217,1,0,0:0:0:0:
179,192,18295,1,2,0:0:0:0:
230,192,18295,1,0,0:0:0:0:
435,192,18372,1,2,0:0:0:0:
486,192,18372,1,0,0:0:0:0:
179,192,18449,1,2,0:0:0:0:
230,192,18449,1,0,0:0:0:0:
25,192,18527,1,2,0:0:0:0:
76,192,18527,1,0,0:0:0:0:
435,192,18527,1,0,0:0:0:0:
281,192,18604,1,2,0:0:0:0:
332,192,18604,1,0,0:0:0:0:
25,192,18681,1,2,0:0:0:0:
76,192,18681,1,0,0:0:0:0:
281,192,18759,1,2,0:0:0:0:
332,192,18759,1,0,0:0:0:0:
76,192,18836,1,2,0:0:0:0:
435,192,18836,1,0,0:0:0:0:
486,192,18836,1,0,0:0:0:0:
179,192,18913,1,2,0:0:0:0:
230,192,18913,1,0,0:0:0:0:
435,192,18991,1,2,0:0:0:0:
486,192,18991,1,0,0:0:0:0:
179,192,19068,1,2,0:0:0:0:
230,192,19068,1,0,0:0:0:0:
25,192,19145,1,2,0:0:0:0:
76,192,19145,1,0,0:0:0:0:
486,192,19145,1,0,0:0:0:0:
435,192,19197,1,2,0:0:0:0:
384,192,19248,1,2,0:0:0:0:
76,192,19300,1,2,0:0:0:0:
332,192,19300,1,0,0:0:0:0:
128,192,19351,1,2,0:0:0:0:
179,192,19403,1,2,0:0:0:0:
230,192,19454,1,2,0:0:0:0:
281,192,19454,1,0,0:0:0:0:
332,192,19506,1,2,0:0:0:0:
384,192,19558,1,2,0:0:0:0:
179,192,19609,1,2,0:0:0:0:
435,192,19609,1,0,0:0:0:0:
128,192,19661,1,2,0:0:0:0:
332,192,19686,1,0,0:0:0:0:
76,192,19712,1,2,0:0:0:0:
25,192,19764,1,0,0:0:0:0:
486,192,19764,1,0,0:0:0:0:
281,192,19841,1,0,0:0:0:0:
332,192,19841,1,0,0:0:0:0:
76,192,19918,1,0,0:0:0:0:
128,192,19918,1,0,0:0:0:0:
332,192,19996,1,0,0:0:0:0:
384,192,19996,1,0,0:0:0:0:
128,192,20073,1,0,0:0:0:0:
179,192,20073,1,0,0:0:0:0:
384,192,20150,1,0,0:0:0:0:
435,192,20150,1,0,0:0:0:0:
179,192,20228,1,0,0:0:0:0:
230,192,20228,1,0,0:0:0:0:
435,192,20305,1,0,0:0:0:0:
486,192,20305,1,0,0:0:0:0:
25,192,20382,1,0,0:0:0:0:
76,192,20382,1,0,0:0:0:0:
128,192,20382,1,0,0:0:0:0:
281,192,20382,1,0,0:0:0:0:
76,192,21310,1,0,0:0:0:70:LR_Clap Air Dart Snare.wav
230,192,21310,1,0,0:0:0:0:
281,192,21310,1,0,0:0:0:0:
435,192,21310,1,0,0:0:0:0:
25,192,21619,1,2,0:0:0:0:
76,192,21619,1,4,0:0:0:0:
179,192,21619,1,0,0:0:0:0:
332,192,21619,1,0,0:0:0:0:
486,192,21619,1,0,0:0:0:0:
179,192,21774,1,2,0:0:0:0:
332,192,21774,1,0,0:0:0:0:
486,192,21774,1,0,0:0:0:0:
25,192,21929,1,8,0:0:0:0:
76,192,21929,1,0,0:0:0:0:
230,192,21929,1,0,0:0:0:0:
281,192,21929,1,0,0:0:0:0:
128,192,22083,1,0,0:0:0:0:
384,192,22083,1,0,0:0:0:0:
179,192,22238,1,0,0:0:0:0:
332,192,22238,1,0,0:0:0:0:
25,192,22393,1,2,0:0:0:0:
230,192,22393,1,0,0:0:0:0:
435,192,22393,1,0,0:0:0:0:
76,192,22547,1,8,0:0:0:0:
128,192,22547,1,0,0:0:0:0:
281,192,22547,1,0,0:0:0:0:
486,192,22547,1,0,0:0:0:0:
332,192,22625,1,0,0:0:0:0:
384,192,22702,1,0,0:0:0:0:
435,192,22779,1,0,0:0:0:0:
25,192,22857,1,2,0:0:0:0:
179,192,22857,1,0,0:0:0:0:
332,192,22857,1,0,0:0:0:0:
486,192,22857,1,0,0:0:0:0:
25,192,23011,1,2,0:0:0:0:
179,192,23011,1,0,0:0:0:0:
332,192,23011,1,0,0:0:0:0:
230,192,23166,1,8,0:0:0:0:
281,192,23166,1,0,0:0:0:0:
435,192,23166,1,0,0:0:0:0:
486,192,23166,1,0,0:0:0:0:
76,192,23320,1,0,0:0:0:0:
332,192,23320,1,0,0:0:0:0:
179,192,23398,1,0,0:0:0:0:
384,192,23398,1,0,0:0:0:0:
76,192,23475,1,0,0:0:0:0:
486,192,23475,1,0,0:0:0:0:
179,192,23552,1,0,0:0:0:0:
25,192,23630,1,2,0:0:0:0:
230,192,23630,1,0,0:0:0:0:
384,192,23630,1,0,0:0:0:0:
179,192,23784,1,8,0:0:0:0:
281,192,23784,1,0,0:0:0:0:
435,192,23784,1,0,0:0:0:0:
486,192,23784,1,0,0:0:0:0:
25,192,23862,1,0,0:0:0:0:
179,192,23939,1,2,0:0:0:0:
332,192,23939,1,0,0:0:0:0:
25,192,24016,1,0,0:0:0:0:
128,192,24094,1,2,0:0:0:0:
230,192,24094,1,0,0:0:0:0:
281,192,24094,1,0,0:0:0:0:
435,192,24094,1,0,0:0:0:0:
230,192,24248,1,2,0:0:0:0:
281,192,24248,1,0,0:0:0:0:
435,192,24248,1,0,0:0:0:0:
25,192,24403,1,8,0:0:0:0:
179,192,24403,1,0,0:0:0:0:
332,192,24403,1,0,0:0:0:0:
486,192,24403,1,0,0:0:0:0:
384,192,24558,1,0,0:0:0:0:
435,192,24558,1,0,0:0:0:0:
281,192,24635,1,0,0:0:0:0:
76,192,24712,1,0,0:0:0:0:
128,192,24712,1,0,0:0:0:0:
230,192,24790,1,0,0:0:0:0:
25,192,24867,1,2,0:0:0:0:
332,192,24867,1,0,0:0:0:0:
435,192,24867,1,0,0:0:0:0:
128,192,25021,1,8,0:0:0:0:
179,192,25021,1,0,0:0:0:0:
281,192,25021,1,0,0:0:0:0:
486,192,25021,1,0,0:0:0:0:
332,192,25099,1,0,0:0:0:0:
384,192,25176,1,0,0:0:0:0:
435,192,25253,1,0,0:0:0:0:
76,192,25331,1,2,0:0:0:0:
230,192,25331,1,0,0:0:0:0:
281,192,25331,1,0,0:0:0:0:
486,192,25331,1,0,0:0:0:0:
76,192,25485,1,2,0:0:0:0:
230,192,25485,1,0,0:0:0:0:
281,192,25485,1,0,0:0:0:0:
25,192,25640,1,8,0:0:0:0:
179,192,25640,1,0,0:0:0:0:
332,192,25640,1,0,0:0:0:0:
486,192,25640,1,0,0:0:0:0:
332,192,25795,1,0,0:0:0:0:
76,192,25872,1,2,0:0:0:0:
179,192,25872,1,0,0:0:0:0:
230,192,25872,1,0,0:0:0:0:
435,192,25949,1,0,0:0:0:0:
332,192,26027,1,0,0:0:0:0:
76,192,26104,1,2,0:0:0:0:
179,192,26104,1,0,0:0:0:0:
230,192,26104,1,0,0:0:0:0:
25,192,26259,1,8,0:0:0:0:
281,192,26259,1,0,0:0:0:0:
435,192,26259,1,0,0:0:0:0:
486,192,26259,1,0,0:0:0:0:
76,192,26413,1,2,0:0:0:0:
384,192,26413,1,0,0:0:0:0:
128,192,26491,1,0,0:0:0:0:
25,192,26568,1,2,0:0:0:0:
179,192,26568,1,0,0:0:0:0:
332,192,26568,1,0,0:0:0:0:
486,192,26568,1,0,0:0:0:0:
179,192,26723,1,2,0:0:0:0:
332,192,26723,1,0,0:0:0:0:
486,192,26723,1,0,0:0:0:0:
25,192,26877,1,8,0:0:0:0:
76,192,26877,1,0,0:0:0:0:
230,192,26877,1,0,0:0:0:0:
281,192,26877,1,0,0:0:0:0:
384,192,27032,1,0,0:0:0:0:
435,192,27032,1,0,0:0:0:0:
281,192,27109,1,0,0:0:0:0:
76,192,27186,1,0,0:0:0:0:
128,192,27186,1,0,0:0:0:0:
230,192,27264,1,0,0:0:0:0:
25,192,27341,1,2,0:0:0:0:
332,192,27341,1,0,0:0:0:0:
435,192,27341,1,0,0:0:0:0:
128,192,27496,1,8,0:0:0:0:
230,192,27496,1,0,0:0:0:0:
281,192,27496,1,0,0:0:0:0:
486,192,27496,1,0,0:0:0:0:
332,192,27573,1,0,0:0:0:0:
384,192,27650,1,0,0:0:0:0:
435,192,27728,1,0,0:0:0:0:
25,192,27805,1,2,0:0:0:0:
179,192,27805,1,0,0:0:0:0:
332,192,27805,1,0,0:0:0:0:
486,192,27805,1,0,0:0:0:0:
25,192,27960,1,2,0:0:0:0:
179,192,27960,1,0,0:0:0:0:
332,192,27960,1,0,0:0:0:0:
230,192,28114,1,8,0:0:0:0:
281,192,28114,1,0,0:0:0:0:
435,192,28114,1,0,0:0:0:0:
486,192,28114,1,0,0:0:0:0:
76,192,28269,1,0,0:0:0:0:
332,192,28269,1,0,0:0:0:0:
179,192,28346,1,0,0:0:0:0:
384,192,28346,1,0,0:0:0:0:
76,192,28424,1,0,0:0:0:0:
486,192,28424,1,0,0:0:0:0:
179,192,28501,1,0,0:0:0:0:
25,192,28578,1,2,0:0:0:0:
230,192,28578,1,0,0:0:0:0:
281,192,28578,1,0,0:0:0:0:
179,192,28733,1,8,0:0:0:0:
332,192,28733,1,0,0:0:0:0:
435,192,28733,1,0,0:0:0:0:
486,192,28733,1,0,0:0:0:0:
25,192,28810,1,0,0:0:0:0:
179,192,28887,1,2,0:0:0:0:
384,192,28887,1,0,0:0:0:0:
25,192,28965,1,0,0:0:0:0:
128,192,29042,1,2,0:0:0:0:
230,192,29042,1,0,0:0:0:0:
435,192,29042,1,0,0:0:0:0:
486,192,29042,1,0,0:0:0:0:
281,192,29197,1,2,0:0:0:0:
384,192,29197,1,0,0:0:0:0:
76,192,29235,1,0,0:0:0:0:
179,192,29235,1,0,0:0:0:0:
332,192,29351,1,8,0:0:0:0:
486,192,29351,1,0,0:0:0:0:
25,192,29429,1,0,0:0:0:0:
128,192,29429,1,0,0:0:0:0:
384,192,29506,1,0,0:0:0:0:
435,192,29506,1,0,0:0:0:0:
281,192,29583,1,0,0:0:0:0:
76,192,29661,1,0,0:0:0:0:
128,192,29661,1,0,0:0:0:0:
230,192,29738,1,0,0:0:0:0:
281,192,29815,1,2,0:0:0:0:
384,192,29815,1,0,0:0:0:0:
486,192,29815,1,0,0:0:0:0:
25,192,29970,1,8,0:0:0:0:
76,192,29970,1,0,0:0:0:0:
230,192,29970,1,0,0:0:0:0:
435,192,29970,1,0,0:0:0:0:
384,192,30047,1,0,0:0:0:0:
128,192,30125,1,0,0:0:0:0:
332,192,30125,1,0,0:0:0:0:
281,192,30202,1,0,0:0:0:0:
25,192,30279,1,2,0:0:0:0:
179,192,30279,1,0,0:0:0:0:
384,192,30279,1,0,0:0:0:0:
486,192,30279,1,0,0:0:0:0:
76,192,30434,1,2,0:0:0:0:
128,192,30434,1,0,0:0:0:0:
332,192,30473,1,0,0:0:0:0:
435,192,30473,1,0,0:0:0:0:
25,192,30589,1,8,0:0:0:0:
179,192,30589,1,2,0:0:0:0:
281,192,30666,1,0,0:0:0:0:
384,192,30666,1,0,0:0:0:0:
128,192,30743,1,8,0:0:0:0:
179,192,30820,1,0,0:0:0:0:
25,192,30898,1,2,0:0:0:0:
76,192,30898,1,0,0:0:0:0:
230,192,30898,1,0,0:0:0:0:
435,192,30898,1,0,0:0:0:0:
486,192,30898,1,0,0:0:0:0:
332,192,30975,1,0,0:0:0:0:
384,192,31104,1,0,0:0:0:0:
25,192,31130,1,8,0:0:0:0:
76,192,31130,1,0,0:0:0:0:
179,192,31207,1,2,0:0:0:0:
230,192,31207,1,8,0:0:0:0:
435,192,31207,1,0,0:0:0:0:
332,192,31310,1,0,0:0:0:0:
384,192,31413,1,0,0:0:0:0:
179,192,31439,1,8,0:0:0:0:
230,192,31439,1,0,0:0:0:0:
25,192,31516,1,2,0:0:0:0:
128,192,31516,1,4,0:0:0:0:
281,192,31516,1,0,0:0:0:0:
435,192,31516,1,0,0:0:0:0:
486,192,31516,1,0,0:0:0:0:
25,192,31671,1,2,0:0:0:0:
128,192,31671,1,0,0:0:0:0:
281,192,31671,1,0,0:0:0:0:
179,192,31826,1,8,0:0:0:0:
230,192,31826,1,0,0:0:0:0:
435,192,31826,1,0,0:0:0:0:
486,192,31826,1,0,0:0:0:0:
128,192,31980,1,0,0:0:0:0:
384,192,31980,1,0,0:0:0:0:
179,192,32135,1,0,0:0:0:0:
332,192,32135,1,0,0:0:0:0:
76,192,32290,1,2,0:0:0:0:
281,192,32290,1,0,0:0:0:0:
486,192,32290,1,0,0:0:0:0:
25,192,32444,1,8,0:0:0:0:
230,192,32444,1,0,0:0:0:0:
384,192,32444,1,0,0:0:0:0:
435,192,32444,1,0,0:0:0:0:
179,192,32521,1,0,0:0:0:0:
128,192,32599,1,0,0:0:0:0:
76,192,32676,1,0,0:0:0:0:
25,192,32753,1,2,0:0:0:0:
230,192,32753,1,0,0:0:0:0:
384,192,32753,1,0,0:0:0:0:
486,192,32753,1,0,0:0:0:0:
230,192,32908,1,2,0:0:0:0:
384,192,32908,1,0,0:0:0:0:
486,192,32908,1,0,0:0:0:0:
25,192,33063,1,8,0:0:0:0:
76,192,33063,1,0,0:0:0:0:
281,192,33063,1,0,0:0:0:0:
332,192,33063,1,0,0:0:0:0:
179,192,33217,1,0,0:0:0:0:
435,192,33217,1,0,0:0:0:0:
128,192,33295,1,0,0:0:0:0:
332,192,33295,1,0,0:0:0:0:
25,192,33372,1,0,0:0:0:0:
435,192,33372,1,0,0:0:0:0:
332,192,33449,1,0,0:0:0:0:
128,192,33527,1,2,0:0:0:0:
281,192,33527,1,0,0:0:0:0:
486,192,33527,1,0,0:0:0:0:
25,192,33681,1,8,0:0:0:0:
76,192,33681,1,0,0:0:0:0:
230,192,33681,1,0,0:0:0:0:
332,192,33681,1,0,0:0:0:0:
486,192,33759,1,0,0:0:0:0:
179,192,33836,1,2,0:0:0:0:
332,192,33836,1,0,0:0:0:0:
486,192,33913,1,0,0:0:0:0:
76,192,33991,1,2,0:0:0:0:
230,192,33991,1,0,0:0:0:0:
281,192,33991,1,0,0:0:0:0:
384,192,33991,1,0,0:0:0:0:
76,192,34145,1,2,0:0:0:0:
230,192,34145,1,0,0:0:0:0:
281,192,34145,1,0,0:0:0:0:
25,192,34300,1,8,0:0:0:0:
179,192,34300,1,0,0:0:0:0:
332,192,34300,1,0,0:0:0:0:
486,192,34300,1,0,0:0:0:0:
76,192,34454,1,0,0:0:0:0:
128,192,34454,1,0,0:0:0:0:
230,192,34532,1,0,0:0:0:0:
384,192,34609,1,0,0:0:0:0:
435,192,34609,1,0,0:0:0:0:
281,192,34686,1,0,0:0:0:0:
76,192,34764,1,2,0:0:0:0:
179,192,34764,1,0,0:0:0:0:
486,192,34764,1,0,0:0:0:0:
25,192,34918,1,8,0:0:0:0:
230,192,34918,1,0,0:0:0:0:
332,192,34918,1,0,0:0:0:0:
384,192,34918,1,0,0:0:0:0:
76,192,34996,1,0,0:0:0:0:
128,192,35073,1,0,0:0:0:0:
179,192,35150,1,0,0:0:0:0:
25,192,35228,1,2,0:0:0:0:
230,192,35228,1,0,0:0:0:0:
281,192,35228,1,0,0:0:0:0:
435,192,35228,1,0,0:0:0:0:
230,192,35382,1,2,0:0:0:0:
281,192,35382,1,0,0:0:0:0:
435,192,35382,1,0,0:0:0:0:
25,192,35537,1,8,0:0:0:0:
179,192,35537,1,0,0:0:0:0:
332,192,35537,1,0,0:0:0:0:
486,192,35537,1,0,0:0:0:0:
179,192,35692,1,0,0:0:0:0:
281,192,35769,1,2,0:0:0:0:
332,192,35769,1,0,0:0:0:0:
435,192,35769,1,0,0:0:0:0:
76,192,35846,1,0,0:0:0:0:
179,192,35924,1,0,0:0:0:0:
281,192,36001,1,2,0:0:0:0:
332,192,36001,1,0,0:0:0:0:
435,192,36001,1,0,0:0:0:0:
25,192,36156,1,8,0:0:0:0:
76,192,36156,1,0,0:0:0:0:
230,192,36156,1,0,0:0:0:0:
486,192,36156,1,0,0:0:0:0:
128,192,36310,1,2,0:0:0:0:
384,192,36310,1,0,0:0:0:0:
332,192,36387,1,0,0:0:0:0:
25,192,36465,1,2,0:0:0:0:
230,192,36465,1,0,0:0:0:0:
281,192,36465,1,0,0:0:0:0:
486,192,36465,1,0,0:0:0:0:
25,192,36619,1,2,0:0:0:0:
230,192,36619,1,0,0:0:0:0:
486,192,36619,1,0,0:0:0:0:
76,192,36774,1,8,0:0:0:0:
128,192,36774,1,0,0:0:0:0:
281,192,36774,1,0,0:0:0:0:
435,192,36774,1,0,0:0:0:0:
179,192,36929,1,0,0:0:0:0:
384,192,36929,1,0,0:0:0:0:
281,192,37006,1,0,0:0:0:0:
76,192,37083,1,0,0:0:0:0:
128,192,37083,1,0,0:0:0:0:
230,192,37161,1,0,0:0:0:0:
25,192,37238,1,2,0:0:0:0:
332,192,37238,1,0,0:0:0:0:
486,192,37238,1,0,0:0:0:0:
230,192,37393,1,8,0:0:0:0:
281,192,37393,1,0,0:0:0:0:
384,192,37393,1,0,0:0:0:0:
435,192,37393,1,0,0:0:0:0:
179,192,37470,1,0,0:0:0:0:
128,192,37547,1,0,0:0:0:0:
76,192,37625,1,0,0:0:0:0:
25,192,37702,1,2,0:0:0:0:
230,192,37702,1,0,0:0:0:0:
281,192,37702,1,0,0:0:0:0:
486,192,37702,1,0,0:0:0:0:
25,192,37857,1,2,0:0:0:0:
281,192,37857,1,0,0:0:0:0:
486,192,37857,1,0,0:0:0:0:
76,192,38011,1,8,0:0:0:0:
230,192,38011,1,0,0:0:0:0:
384,192,38011,1,0,0:0:0:0:
435,192,38011,1,0,0:0:0:0:
128,192,38166,1,0,0:0:0:0:
332,192,38166,1,0,0:0:0:0:
435,192,38243,1,0,0:0:0:0:
179,192,38320,1,0,0:0:0:0:
332,192,38320,1,0,0:0:0:0:
435,192,38398,1,0,0:0:0:0:
128,192,38475,1,2,0:0:0:0:
281,192,38475,1,0,0:0:0:0:
486,192,38475,1,0,0:0:0:0:
25,192,38630,1,8,0:0:0:0:
76,192,38630,1,0,0:0:0:0:
230,192,38630,1,0,0:0:0:0:
332,192,38630,1,0,0:0:0:0:
486,192,38707,1,0,0:0:0:0:
179,192,38784,1,2,0:0:0:0:
332,192,38784,1,0,0:0:0:0:
486,192,38862,1,0,0:0:0:0:
76,192,38939,1,2,0:0:0:0:
230,192,38939,1,0,0:0:0:0:
281,192,38939,1,0,0:0:0:0:
384,192,38939,1,0,0:0:0:0:
76,192,39094,1,2,0:0:0:0:
230,192,39094,1,0,0:0:0:0:
281,192,39094,1,0,0:0:0:0:
384,192,39171,1,0,0:0:0:0:
25,192,39248,1,8,0:0:0:0:
179,192,39248,1,0,0:0:0:0:
332,192,39248,1,0,0:0:0:0:
486,192,39248,1,0,0:0:0:0:
281,192,39326,1,0,0:0:0:0:
128,192,39403,1,0,0:0:0:0:
384,192,39403,1,0,0:0:0:0:
332,192,39480,1,0,0:0:0:0:
76,192,39558,1,0,0:0:0:0:
230,192,39558,1,0,0:0:0:0:
435,192,39635,1,0,0:0:0:0:
25,192,39712,1,2,0:0:0:0:
179,192,39712,1,0,0:0:0:0:
384,192,39712,1,0,0:0:0:0:
332,192,39790,1,0,0:0:0:0:
76,192,39867,1,8,0:0:0:0:
230,192,39867,1,0,0:0:0:0:
384,192,39867,1,0,0:0:0:0:
486,192,39867,1,0,0:0:0:0:
332,192,39944,1,0,0:0:0:0:
179,192,40021,1,0,0:0:0:0:
281,192,40021,1,0,0:0:0:0:
384,192,40099,1,0,0:0:0:0:
25,192,40176,1,2,0:0:0:0:
76,192,40176,1,0,0:0:0:0:
486,192,40176,1,0,0:0:0:0:
179,192,40253,1,0,0:0:0:0:
281,192,40331,1,2,0:0:0:0:
332,192,40331,1,0,0:0:0:0:
435,192,40408,1,0,0:0:0:0:
25,192,40485,1,8,0:0:0:0:
76,192,40485,1,0,0:0:0:0:
230,192,40485,1,0,0:0:0:0:
486,192,40485,1,0,0:0:0:0:
281,192,40563,1,0,0:0:0:0:
128,192,40640,1,2,0:0:0:0:
332,192,40640,1,0,0:0:0:0:
179,192,40717,1,0,0:0:0:0:
384,192,40717,1,0,0:0:0:0:
25,192,40795,1,8,0:0:0:0:
76,192,40795,1,0,0:0:0:0:
230,192,40795,1,0,0:0:0:0:
486,192,40795,1,0,0:0:0:0:
435,192,40872,1,0,0:0:0:0:
179,192,40949,1,2,0:0:0:0:
384,192,40949,1,0,0:0:0:0:
128,192,41027,1,0,0:0:0:0:
332,192,41027,1,0,0:0:0:0:
76,192,41104,1,8,0:0:0:0:
230,192,41104,1,0,0:0:0:0:
435,192,41104,1,0,0:0:0:0:
486,192,41104,1,0,0:0:0:0:
332,192,41181,1,0,0:0:0:0:
230,192,41259,1,2,0:0:0:0:
128,192,41336,1,0,0:0:0:0:
25,192,41413,1,2,0:0:0:0:
281,192,41413,1,4,0:0:0:0:
435,192,41413,1,0,0:0:0:0:
486,192,41413,1,0,0:0:0:0:
230,192,41568,1,0,0:0:0:0:
76,192,41877,1,0,0:0:0:0:
230,192,42186,1,0,0:0:0:0:
384,192,42496,1,0,0:0:0:0:
179,192,42805,1,0,0:0:0:0:
179,192,42960,1,0,0:0:0:0:
435,192,43578,1,0,0:0:0:0:
384,192,43656,1,0,0:0:0:0:
332,192,43733,1,0,0:0:0:0:
281,192,43810,1,0,0:0:0:0:
25,192,43887,1,0,0:0:0:0:
179,192,43887,1,0,0:0:0:0:
435,192,44042,1,0,0:0:0:0:
281,192,44351,1,0,0:0:0:0:
179,192,44661,1,0,0:0:0:0:
25,192,44970,1,0,0:0:0:0:
332,192,45279,1,0,0:0:0:0:
332,192,45434,1,0,0:0:0:0:
76,192,46052,1,0,0:0:0:0:
281,192,46207,1,0,0:0:0:0:
435,192,46207,1,0,0:0:0:0:
128,192,46362,1,0,0:0:0:0:
332,192,46439,1,0,0:0:0:0:
25,192,46516,1,0,0:0:0:0:
179,192,46516,1,0,0:0:0:0:
435,192,46516,1,0,0:0:0:0:
332,192,46671,1,0,0:0:0:0:
25,192,46748,1,0,0:0:0:0:
179,192,46748,1,0,0:0:0:0:
435,192,46748,1,0,0:0:0:0:
384,192,46903,1,0,0:0:0:0:
76,192,46980,1,0,0:0:0:0:
230,192,46980,1,0,0:0:0:0:
486,192,46980,1,0,0:0:0:0:
384,192,47135,1,0,0:0:0:0:
76,192,47212,1,0,0:0:0:0:
230,192,47212,1,0,0:0:0:0:
486,192,47212,1,0,0:0:0:0:
384,192,47367,1,0,0:0:0:0:
76,192,47444,1,0,0:0:0:0:
230,192,47444,1,0,0:0:0:0:
486,192,47444,1,0,0:0:0:0:
384,192,47599,1,0,0:0:0:0:
179,192,47676,1,0,0:0:0:0:
76,192,47753,1,0,0:0:0:0:
332,192,47753,1,0,0:0:0:0:
486,192,47753,1,0,0:0:0:0:
179,192,47908,1,0,0:0:0:0:
76,192,47985,1,0,0:0:0:0:
332,192,47985,1,0,0:0:0:0:
486,192,47985,1,0,0:0:0:0:
128,192,48140,1,0,0:0:0:0:
25,192,48217,1,0,0:0:0:0:
281,192,48217,1,0,0:0:0:0:
435,192,48217,1,0,0:0:0:0:
128,192,48372,1,0,0:0:0:0:
25,192,48449,1,0,0:0:0:0:
281,192,48449,1,0,0:0:0:0:
435,192,48449,1,0,0:0:0:0:
128,192,48604,1,0,0:0:0:0:
25,192,48681,1,0,0:0:0:0:
332,192,48681,1,0,0:0:0:0:
486,192,48681,1,0,0:0:0:0:
179,192,48836,1,0,0:0:0:0:
332,192,48913,1,0,0:0:0:0:
76,192,48991,1,0,0:0:0:0:
230,192,48991,1,0,0:0:0:0:
435,192,48991,1,0,0:0:0:0:
332,192,49145,1,0,0:0:0:0:
76,192,49223,1,0,0:0:0:0:
230,192,49223,1,0,0:0:0:0:
435,192,49223,1,0,0:0:0:0:
281,192,49377,1,0,0:0:0:0:
25,192,49454,1,0,0:0:0:0:
179,192,49454,1,0,0:0:0:0:
384,192,49454,1,0,0:0:0:0:
281,192,49609,1,0,0:0:0:0:
25,192,49686,1,0,0:0:0:0:
179,192,49686,1,0,0:0:0:0:
384,192,49686,1,0,0:0:0:0:
281,192,49841,1,0,0:0:0:0:
25,192,49918,1,0,0:0:0:0:
179,192,49918,1,0,0:0:0:0:
384,192,49918,1,0,0:0:0:0:
332,192,50073,1,0,0:0:0:0:
179,192,50150,1,0,0:0:0:0:
76,192,50228,1,0,0:0:0:0:
281,192,50228,1,0,0:0:0:0:
435,192,50228,1,0,0:0:0:0:
179,192,50382,1,0,0:0:0:0:
76,192,50460,1,0,0:0:0:0:
281,192,50460,1,0,0:0:0:0:
435,192,50460,1,0,0:0:0:0:
230,192,50614,1,0,0:0:0:0:
128,192,50692,1,0,0:0:0:0:
332,192,50692,1,0,0:0:0:0:
486,192,50692,1,0,0:0:0:0:
230,192,50846,1,0,0:0:0:0:
25,192,50924,1,0,0:0:0:0:
332,192,50924,1,0,0:0:0:0:
486,192,50924,1,0,0:0:0:0:
76,192,51001,1,0,0:0:0:0:
128,192,51078,1,0,0:0:0:0:
179,192,51156,1,0,0:0:0:0:
332,192,51156,1,0,0:0:0:0:
486,192,51156,1,0,0:0:0:0:
230,192,51233,1,0,0:0:0:0:
25,192,51310,1,0,0:0:0:70:FX_IntroKick.wav
128,192,51310,1,0,0:0:0:0:
384,192,51310,1,0,0:0:0:0:
435,192,51310,1,0,0:0:0:0:
281,192,51465,1,0,0:0:0:0:
435,192,51774,1,0,0:0:0:0:
281,192,52083,1,0,0:0:0:0:
128,192,52393,1,0,0:0:0:0:
230,192,52702,1,0,0:0:0:0:
230,192,52857,1,0,0:0:0:0:
76,192,53475,1,0,0:0:0:0:
128,192,53552,1,0,0:0:0:0:
179,192,53630,1,0,0:0:0:0:
230,192,53707,1,0,0:0:0:0:
332,192,53784,1,0,0:0:0:0:
486,192,53784,1,0,0:0:0:0:
76,192,53939,1,0,0:0:0:0:
230,192,54248,1,0,0:0:0:0:
332,192,54558,1,0,0:0:0:0:
486,192,54867,1,0,0:0:0:0:
281,192,55176,1,0,0:0:0:0:
281,192,55331,1,0,0:0:0:0:
332,192,55949,1,0,0:0:0:0:
435,192,55949,1,0,0:0:0:0:
76,192,56104,1,0,0:0:0:0:
179,192,56104,1,0,0:0:0:0:
281,192,56259,1,0,0:0:0:0:
76,192,56336,1,0,0:0:0:0:
179,192,56413,1,0,0:0:0:0:
332,192,56413,1,0,0:0:0:0:
435,192,56413,1,0,0:0:0:0:
76,192,56568,1,0,0:0:0:0:
179,192,56645,1,0,0:0:0:0:
332,192,56645,1,0,0:0:0:0:
435,192,56645,1,0,0:0:0:0:
76,192,56800,1,0,0:0:0:0:
179,192,56877,1,0,0:0:0:0:
281,192,56877,1,0,0:0:0:0:
486,192,56877,1,0,0:0:0:0:
25,192,57032,1,0,0:0:0:0:
281,192,57109,1,0,0:0:0:0:
486,192,57109,1,0,0:0:0:0:
128,192,57186,1,0,0:0:0:0:
25,192,57341,1,0,0:0:0:0:
281,192,57341,1,0,0:0:0:0:
486,192,57341,1,0,0:0:0:0:
230,192,57496,1,0,0:0:0:0:
435,192,57573,1,0,0:0:0:0:
76,192,57650,1,0,0:0:0:0:
179,192,57650,1,0,0:0:0:0:
332,192,57650,1,0,0:0:0:0:
435,192,57805,1,0,0:0:0:0:
76,192,57882,1,0,0:0:0:0:
179,192,57882,1,0,0:0:0:0:
332,192,57882,1,0,0:0:0:0:
435,192,58037,1,0,0:0:0:0:
25,192,58114,1,0,0:0:0:0:
230,192,58114,1,0,0:0:0:0:
332,192,58114,1,0,0:0:0:0:
486,192,58269,1,0,0:0:0:0:
25,192,58346,1,0,0:0:0:0:
230,192,58346,1,0,0:0:0:0:
384,192,58424,1,0,0:0:0:0:
25,192,58578,1,0,0:0:0:0:
230,192,58578,1,0,0:0:0:0:
486,192,58578,1,0,0:0:0:0:
281,192,58733,1,0,0:0:0:0:
76,192,58810,1,0,0:0:0:0:
179,192,58887,1,0,0:0:0:0:
332,192,58887,1,0,0:0:0:0:
486,192,58887,1,0,0:0:0:0:
76,192,59042,1,0,0:0:0:0:
179,192,59119,1,0,0:0:0:0:
332,192,59119,1,0,0:0:0:0:
486,192,59119,1,0,0:0:0:0:
76,192,59274,1,0,0:0:0:0:
179,192,59351,1,0,0:0:0:0:
281,192,59351,1,0,0:0:0:0:
435,192,59351,1,0,0:0:0:0:
25,192,59506,1,0,0:0:0:0:
281,192,59583,1,0,0:0:0:0:
435,192,59583,1,0,0:0:0:0:
128,192,59661,1,0,0:0:0:0:
25,192,59815,1,0,0:0:0:0:
281,192,59815,1,0,0:0:0:0:
435,192,59815,1,0,0:0:0:0:
230,192,59970,1,0,0:0:0:0:
384,192,59970,1,0,0:0:0:0:
25,192,60125,1,0,0:0:0:0:
179,192,60125,1,0,0:0:0:0:
332,192,60125,1,0,0:0:0:0:
281,192,60279,1,0,0:0:0:0:
435,192,60279,1,0,0:0:0:0:
25,192,60357,1,0,0:0:0:0:
179,192,60357,1,0,0:0:0:0:
435,192,60434,1,0,0:0:0:0:
384,192,60511,1,0,0:0:0:0:
76,192,60589,1,0,0:0:0:0:
230,192,60589,1,0,0:0:0:0:
332,192,60589,1,0,0:0:0:0:
384,192,60743,1,0,0:0:0:0:
76,192,60820,1,0,0:0:0:0:
230,192,60820,1,0,0:0:0:0:
281,192,60898,1,0,0:0:0:0:
435,192,60898,1,0,0:0:0:0:
76,192,61052,1,0,0:0:0:0:
230,192,61052,1,0,0:0:0:0:
384,192,61052,1,0,0:0:0:0:
25,192,61207,1,0,0:0:0:100:D#7S_Eb7S_s.wav
179,192,61207,1,0,0:0:0:70:FX_IntroKick.wav
332,192,61207,1,0,0:0:0:0:
486,192,61207,1,0,0:0:0:0:
76,192,61362,1,0,0:0:0:100:G#7S_Ab7S_s.wav
435,192,61362,1,0,0:0:0:0:
128,192,61516,1,0,0:0:0:100:C#7S_Db7S_s.wav
384,192,61516,1,0,0:0:0:0:
179,192,61671,1,0,0:0:0:100:D#7S_Eb7S_s.wav
435,192,61671,1,0,0:0:0:0:
76,192,61826,1,0,0:0:0:100:D#7S_Eb7S_s.wav
230,192,61826,1,0,0:0:0:0:
332,192,61826,1,0,0:0:0:0:
128,192,61980,1,0,0:0:0:100:G#7S_Ab7S_s.wav
435,192,61980,1,0,0:0:0:0:
179,192,62135,1,0,0:0:0:100:C#7S_Db7S_s.wav
384,192,62135,1,0,0:0:0:0:
230,192,62290,1,0,0:0:0:100:D#7S_Eb7S_s.wav
435,192,62290,1,0,0:0:0:0:
25,192,62444,1,0,0:0:0:100:D#7S_Eb7S_s.wav
76,192,62444,1,0,0:0:0:0:
281,192,62444,1,0,0:0:0:0:
486,192,62444,1,0,0:0:0:0:
179,192,62521,1,0,0:0:0:0:
281,192,62599,1,0,0:0:0:100:G#7S_Ab7S_s.wav
384,192,62676,1,0,0:0:0:0:
25,192,62753,1,0,0:0:0:100:C#7S_Db7S_s.wav
486,192,62753,1,0,0:0:0:0:
128,192,62831,1,0,0:0:0:0:
230,192,62908,1,0,0:0:0:100:D#7S_Eb7S_s.wav
332,192,62985,1,0,0:0:0:0:
25,192,63063,1,0,0:0:0:100:D#7S_Eb7S_s.wav
486,192,63063,1,0,0:0:0:0:
384,192,63140,1,0,0:0:0:0:
281,192,63217,1,0,0:0:0:100:A#7S_Bb7S_s.wav
179,192,63295,1,0,0:0:0:0:
76,192,63372,1,0,0:0:0:100:C#7S_Db7S_s.wav
435,192,63372,1,0,0:0:0:0:
332,192,63449,1,0,0:0:0:0:
230,192,63527,1,0,0:0:0:100:D#7S_Eb7S_s.wav
128,192,63604,1,0,0:0:0:0:
25,192,63681,1,2,0:0:0:0:
281,192,63681,1,0,0:0:0:0:
486,192,63681,1,0,0:0:0:0:
384,192,63759,1,2,0:0:0:0:
128,192,63836,1,2,0:0:0:0:
384,192,63913,1,2,0:0:0:0:
25,192,63991,1,2,0:0:0:0:
230,192,63991,1,0,0:0:0:0:
281,192,64068,1,2,0:0:0:0:
486,192,64068,1,0,0:0:0:0:
25,192,64145,1,2,0:0:0:0:
230,192,64145,1,0,0:0:0:0:
281,192,64223,1,2,0:0:0:0:
486,192,64223,1,0,0:0:0:0:
76,192,64300,1,2,0:0:0:0:
128,192,64300,1,0,0:0:0:0:
179,192,64300,1,0,0:0:0:0:
332,192,64377,1,2,0:0:0:0:
384,192,64377,1,0,0:0:0:0:
435,192,64377,1,0,0:0:0:0:
76,192,64454,1,2,0:0:0:0:
128,192,64454,1,0,0:0:0:0:
179,192,64454,1,0,0:0:0:0:
332,192,64532,1,2,0:0:0:0:
384,192,64532,1,0,0:0:0:0:
435,192,64532,1,0,0:0:0:0:
25,192,64609,1,2,0:0:0:0:
486,192,64609,1,0,0:0:0:0:
128,192,64661,1,2,0:0:0:0:
384,192,64661,1,0,0:0:0:0:
230,192,64712,1,2,0:0:0:0:
281,192,64712,1,0,0:0:0:0:
76,192,64764,1,2,0:0:0:0:
435,192,64764,1,0,0:0:0:0:
128,192,64815,1,2,0:0:0:0:
384,192,64815,1,0,0:0:0:0:
179,192,64867,1,2,0:0:0:0:
332,192,64867,1,0,0:0:0:0:
25,192,64918,1,2,0:0:0:0:
230,192,64918,1,0,0:0:0:0:
281,192,64918,1,0,0:0:0:0:
486,192,64918,1,0,0:0:0:0:
25,192,65846,1,0,0:0:0:70:LR_Clap Air Dart Snare.wav
76,192,65846,1,0,0:0:0:0:
230,192,65846,1,0,0:0:0:0:
281,192,65846,1,0,0:0:0:0:
435,192,65846,1,0,0:0:0:0:
486,192,65846,1,0,0:0:0:0:
25,192,66156,128,2,66465:0:0:0:0:
128,192,66156,128,4,66465:0:0:0:0:
281,192,66156,1,0,0:0:0:0:
332,192,66156,1,0,0:0:0:0:
486,192,66156,1,0,0:0:0:0:
281,192,66310,1,2,0:0:0:0:
332,192,66387,1,0,0:0:0:0:
384,192,66465,1,8,0:0:0:0:
486,192,66465,1,0,0:0:0:0:
25,192,66542,1,0,0:0:0:0:
128,192,66542,1,0,0:0:0:0:
230,192,66619,1,0,0:0:0:0:
384,192,66619,128,0,66929:0:0:0:0:
486,192,66619,128,0,66929:0:0:0:0:
230,192,66774,1,0,0:0:0:0:
179,192,66851,1,0,0:0:0:0:
25,192,66929,1,2,0:0:0:0:
128,192,66929,1,0,0:0:0:0:
384,192,67006,1,0,0:0:0:0:
486,192,67006,1,0,0:0:0:0:
25,192,67083,1,8,0:0:0:0:
128,192,67083,1,0,0:0:0:0:
281,192,67083,1,0,0:0:0:0:
332,192,67161,1,0,0:0:0:0:
179,192,67238,1,0,0:0:0:0:
384,192,67238,1,0,0:0:0:0:
435,192,67315,1,0,0:0:0:0:
25,192,67393,128,2,67547:0:0:0:0:
230,192,67393,1,0,0:0:0:0:
281,192,67393,1,0,0:0:0:0:
486,192,67393,1,0,0:0:0:0:
128,192,67547,128,2,67702:0:0:0:0:
281,192,67547,1,0,0:0:0:0:
486,192,67547,1,0,0:0:0:0:
25,192,67702,1,8,0:0:0:0:
230,192,67702,1,0,0:0:0:0:
332,192,67702,1,0,0:0:0:0:
435,192,67702,1,0,0:0:0:0:
25,192,67857,128,0,68089:0:0:0:0:
230,192,67857,128,0,68089:0:0:0:0:
332,192,67857,1,0,0:0:0:0:
128,192,68011,1,0,0:0:0:0:
384,192,68011,1,0,0:0:0:0:
25,192,68166,1,2,0:0:0:0:
230,192,68166,1,0,0:0:0:0:
281,192,68166,1,0,0:0:0:0:
486,192,68166,1,0,0:0:0:0:
76,192,68320,1,8,0:0:0:0:
384,192,68320,1,0,0:0:0:0:
179,192,68398,1,0,0:0:0:0:
76,192,68475,1,2,0:0:0:0:
332,192,68475,1,0,0:0:0:0:
435,192,68475,1,0,0:0:0:0:
179,192,68552,1,0,0:0:0:0:
25,192,68630,1,2,0:0:0:0:
230,192,68630,1,0,0:0:0:0:
281,192,68630,1,0,0:0:0:0:
486,192,68630,1,0,0:0:0:0:
179,192,68784,1,2,0:0:0:0:
281,192,68784,1,0,0:0:0:0:
486,192,68784,1,0,0:0:0:0:
128,192,68862,1,0,0:0:0:0:
25,192,68939,1,8,0:0:0:0:
384,192,68939,1,0,0:0:0:0:
435,192,68939,1,0,0:0:0:0:
128,192,69016,1,0,0:0:0:0:
179,192,69094,1,0,0:0:0:0:
332,192,69094,1,0,0:0:0:0:
230,192,69171,1,0,0:0:0:0:
128,192,69248,1,0,0:0:0:0:
332,192,69248,1,0,0:0:0:0:
25,192,69326,1,0,0:0:0:0:
128,192,69403,1,2,0:0:0:0:
281,192,69403,1,0,0:0:0:0:
435,192,69403,1,0,0:0:0:0:
486,192,69403,1,0,0:0:0:0:
230,192,69480,1,0,0:0:0:0:
76,192,69558,1,8,0:0:0:0:
332,192,69558,1,0,0:0:0:0:
179,192,69635,1,0,0:0:0:0:
384,192,69635,1,0,0:0:0:0:
76,192,69712,1,0,0:0:0:0:
435,192,69712,1,0,0:0:0:0:
179,192,69790,1,0,0:0:0:0:
486,192,69790,1,0,0:0:0:0:
25,192,69867,1,2,0:0:0:0:
230,192,69867,1,0,0:0:0:0:
384,192,69867,1,0,0:0:0:0:
435,192,69944,1,0,0:0:0:0:
25,192,70021,1,2,0:0:0:0:
230,192,70021,1,0,0:0:0:0:
332,192,70021,1,0,0:0:0:0:
384,192,70099,1,0,0:0:0:0:
76,192,70176,1,8,0:0:0:0:
179,192,70176,1,0,0:0:0:0:
332,192,70176,1,0,0:0:0:0:
281,192,70253,1,0,0:0:0:0:
486,192,70331,1,0,0:0:0:0:
76,192,70408,1,2,0:0:0:0:
128,192,70408,1,0,0:0:0:0:
179,192,70408,1,0,0:0:0:0:
435,192,70408,1,0,0:0:0:0:
384,192,70485,1,0,0:0:0:0:
332,192,70563,1,0,0:0:0:0:
76,192,70640,1,2,0:0:0:0:
128,192,70640,1,0,0:0:0:0:
179,192,70640,1,0,0:0:0:0:
384,192,70640,1,0,0:0:0:0:
435,192,70717,1,0,0:0:0:0:
25,192,70795,1,8,0:0:0:0:
230,192,70795,1,0,0:0:0:0:
384,192,70795,1,0,0:0:0:0:
332,192,70872,1,0,0:0:0:0:
128,192,70949,1,2,0:0:0:0:
281,192,70949,1,0,0:0:0:0:
179,192,71027,1,0,0:0:0:0:
332,192,71027,1,0,0:0:0:0:
25,192,71104,1,2,0:0:0:0:
230,192,71104,1,0,0:0:0:0:
384,192,71104,128,0,71413:0:0:0:0:
486,192,71104,128,0,71413:0:0:0:0:
230,192,71259,1,2,0:0:0:0:
179,192,71336,1,0,0:0:0:0:
25,192,71413,1,8,0:0:0:0:
128,192,71413,1,0,0:0:0:0:
384,192,71491,1,0,0:0:0:0:
486,192,71491,1,0,0:0:0:0:
25,192,71568,128,0,71877:0:0:0:0:
128,192,71568,128,0,71877:0:0:0:0:
281,192,71568,1,0,0:0:0:0:
281,192,71723,1,0,0:0:0:0:
332,192,71800,1,0,0:0:0:0:
384,192,71877,1,2,0:0:0:0:
486,192,71877,1,0,0:0:0:0:
25,192,71954,1,0,0:0:0:0:
128,192,71954,1,0,0:0:0:0:
230,192,72032,1,8,0:0:0:0:
384,192,72032,1,0,0:0:0:0:
486,192,72032,1,0,0:0:0:0:
179,192,72109,1,0,0:0:0:0:
128,192,72186,1,0,0:0:0:0:
332,192,72186,1,0,0:0:0:0:
76,192,72264,1,0,0:0:0:0:
25,192,72341,1,2,0:0:0:0:
230,192,72341,1,0,0:0:0:0:
281,192,72341,1,0,0:0:0:0:
486,192,72341,1,0,0:0:0:0:
25,192,72496,1,2,0:0:0:0:
230,192,72496,1,0,0:0:0:0:
332,192,72496,1,0,0:0:0:0:
435,192,72496,1,0,0:0:0:0:
76,192,72650,1,8,0:0:0:0:
179,192,72650,1,0,0:0:0:0:
384,192,72650,1,0,0:0:0:0:
179,192,72805,1,0,0:0:0:0:
281,192,72805,128,0,73037:0:0:0:0:
486,192,72805,128,0,73037:0:0:0:0:
128,192,72960,1,0,0:0:0:0:
384,192,72960,1,0,0:0:0:0:
25,192,73114,1,2,0:0:0:0:
230,192,73114,1,0,0:0:0:0:
281,192,73114,1,0,0:0:0:0:
486,192,73114,1,0,0:0:0:0:
128,192,73269,1,8,0:0:0:0:
435,192,73269,1,0,0:0:0:0:
332,192,73346,1,0,0:0:0:0:
76,192,73424,1,2,0:0:0:0:
179,192,73424,1,0,0:0:0:0:
435,192,73424,1,0,0:0:0:0:
332,192,73501,1,0,0:0:0:0:
25,192,73578,1,2,0:0:0:0:
230,192,73578,1,0,0:0:0:0:
281,192,73578,1,0,0:0:0:0:
486,192,73578,1,0,0:0:0:0:
25,192,73733,1,2,0:0:0:0:
230,192,73733,1,0,0:0:0:0:
384,192,73733,1,0,0:0:0:0:
332,192,73810,1,0,0:0:0:0:
76,192,73887,1,8,0:0:0:0:
281,192,73887,1,0,0:0:0:0:
435,192,73887,1,0,0:0:0:0:
486,192,73887,1,0,0:0:0:0:
128,192,74042,1,0,0:0:0:0:
332,192,74042,1,0,0:0:0:0:
179,192,74197,1,0,0:0:0:0:
384,192,74197,1,0,0:0:0:0:
25,192,74351,1,2,0:0:0:0:
230,192,74351,1,0,0:0:0:0:
281,192,74351,1,0,0:0:0:0:
486,192,74351,1,0,0:0:0:0:
76,192,74506,1,8,0:0:0:0:
435,192,74506,1,0,0:0:0:0:
128,192,74583,1,0,0:0:0:0:
332,192,74583,1,0,0:0:0:0:
179,192,74661,1,0,0:0:0:0:
435,192,74661,1,0,0:0:0:0:
230,192,74738,1,0,0:0:0:0:
332,192,74738,1,0,0:0:0:0:
25,192,74815,1,2,0:0:0:0:
76,192,74815,1,0,0:0:0:0:
281,192,74815,1,0,0:0:0:0:
486,192,74815,1,0,0:0:0:0:
179,192,74893,1,8,0:0:0:0:
25,192,74970,1,2,0:0:0:0:
76,192,74970,1,0,0:0:0:0:
384,192,74970,1,0,0:0:0:0:
128,192,75125,1,8,0:0:0:0:
230,192,75125,1,2,0:0:0:0:
281,192,75125,1,0,0:0:0:0:
486,192,75125,1,0,0:0:0:0:
76,192,75279,1,8,0:0:0:0:
179,192,75279,1,0,0:0:0:0:
332,192,75357,1,2,0:0:0:0:
384,192,75357,1,0,0:0:0:0:
435,192,75357,1,0,0:0:0:0:
332,192,75511,1,8,0:0:0:0:
435,192,75511,1,0,0:0:0:0:
76,192,75589,1,2,0:0:0:0:
128,192,75589,1,8,0:0:0:0:
179,192,75589,1,0,0:0:0:0:
25,192,75743,1,8,0:0:0:0:
230,192,75743,1,0,0:0:0:0:
281,192,75743,1,0,0:0:0:0:
486,192,75743,1,0,0:0:0:0:
332,192,75898,1,2,0:0:0:0:
435,192,75898,1,8,0:0:0:0:
76,192,75975,1,8,0:0:0:0:
179,192,75975,1,0,0:0:0:0:
25,192,76052,1,2,0:0:0:0:
230,192,76052,1,4,0:0:0:0:
332,192,76052,128,0,76362:0:0:0:0:
435,192,76052,128,0,76362:0:0:0:0:
486,192,76052,1,0,0:0:0:0:
230,192,76207,1,2,0:0:0:0:
281,192,76284,1,0,0:0:0:0:
76,192,76362,1,8,0:0:0:0:
179,192,76362,1,0,0:0:0:0:
332,192,76439,1,0,0:0:0:0:
435,192,76439,1,0,0:0:0:0:
76,192,76516,128,0,76826:0:0:0:0:
179,192,76516,128,0,76826:0:0:0:0:
281,192,76516,1,0,0:0:0:0:
281,192,76671,1,0,0:0:0:0:
230,192,76748,1,0,0:0:0:0:
332,192,76826,1,2,0:0:0:0:
435,192,76826,1,0,0:0:0:0:
76,192,76903,1,0,0:0:0:0:
179,192,76903,1,0,0:0:0:0:
230,192,76980,1,8,0:0:0:0:
332,192,76980,1,0,0:0:0:0:
435,192,76980,1,0,0:0:0:0:
76,192,77058,1,0,0:0:0:0:
128,192,77135,1,0,0:0:0:0:
384,192,77135,1,0,0:0:0:0:
179,192,77212,1,0,0:0:0:0:
25,192,77290,128,2,77444:0:0:0:0:
230,192,77290,1,0,0:0:0:0:
281,192,77290,1,0,0:0:0:0:
486,192,77290,1,0,0:0:0:0:
128,192,77444,128,2,77599:0:0:0:0:
281,192,77444,1,0,0:0:0:0:
486,192,77444,1,0,0:0:0:0:
25,192,77599,1,8,0:0:0:0:
230,192,77599,1,0,0:0:0:0:
332,192,77599,1,0,0:0:0:0:
435,192,77599,1,0,0:0:0:0:
25,192,77753,128,0,77985:0:0:0:0:
230,192,77753,128,0,77985:0:0:0:0:
332,192,77753,1,0,0:0:0:0:
128,192,77908,1,0,0:0:0:0:
384,192,77908,1,0,0:0:0:0:
25,192,78063,1,2,0:0:0:0:
230,192,78063,1,0,0:0:0:0:
281,192,78063,1,0,0:0:0:0:
486,192,78063,1,0,0:0:0:0:
128,192,78217,1,8,0:0:0:0:
435,192,78217,1,0,0:0:0:0:
332,192,78295,1,0,0:0:0:0:
76,192,78372,1,2,0:0:0:0:
179,192,78372,1,0,0:0:0:0:
435,192,78372,1,0,0:0:0:0:
332,192,78449,1,0,0:0:0:0:
25,192,78527,1,2,0:0:0:0:
230,192,78527,1,0,0:0:0:0:
281,192,78527,1,0,0:0:0:0:
486,192,78527,1,0,0:0:0:0:
25,192,78681,1,2,0:0:0:0:
230,192,78681,1,0,0:0:0:0:
384,192,78681,1,0,0:0:0:0:
435,192,78759,1,0,0:0:0:0:
76,192,78836,1,8,0:0:0:0:
128,192,78836,1,0,0:0:0:0:
332,192,78836,1,0,0:0:0:0:
384,192,78913,1,0,0:0:0:0:
179,192,78991,1,0,0:0:0:0:
332,192,78991,1,0,0:0:0:0:
281,192,79068,1,0,0:0:0:0:
179,192,79145,1,0,0:0:0:0:
435,192,79145,1,0,0:0:0:0:
332,192,79223,1,0,0:0:0:0:
25,192,79300,1,2,0:0:0:0:
76,192,79300,1,0,0:0:0:0:
230,192,79300,1,0,0:0:0:0:
486,192,79300,1,0,0:0:0:0:
179,192,79454,1,8,0:0:0:0:
435,192,79454,1,0,0:0:0:0:
128,192,79532,1,0,0:0:0:0:
332,192,79532,1,0,0:0:0:0:
76,192,79609,1,0,0:0:0:0:
435,192,79609,1,0,0:0:0:0:
25,192,79686,1,0,0:0:0:0:
332,192,79686,1,0,0:0:0:0:
128,192,79764,1,2,0:0:0:0:
281,192,79764,1,0,0:0:0:0:
486,192,79764,1,0,0:0:0:0:
230,192,79841,1,0,0:0:0:0:
76,192,79918,1,2,0:0:0:0:
281,192,79918,1,0,0:0:0:0:
486,192,79918,1,0,0:0:0:0:
179,192,79996,1,0,0:0:0:0:
76,192,80073,1,8,0:0:0:0:
332,192,80073,1,0,0:0:0:0:
435,192,80073,1,0,0:0:0:0:
230,192,80150,1,0,0:0:0:0:
76,192,80305,1,2,0:0:0:0:
332,192,80305,1,0,0:0:0:0:
384,192,80305,1,0,0:0:0:0:
435,192,80305,1,0,0:0:0:0:
179,192,80382,1,0,0:0:0:0:
230,192,80460,1,0,0:0:0:0:
76,192,80537,1,2,0:0:0:0:
332,192,80537,1,0,0:0:0:0:
384,192,80537,1,0,0:0:0:0:
435,192,80537,1,0,0:0:0:0:
179,192,80614,1,0,0:0:0:0:
25,192,80692,1,8,0:0:0:0:
230,192,80692,1,0,0:0:0:0:
281,192,80692,1,0,0:0:0:0:
486,192,80692,1,0,0:0:0:0:
76,192,80846,1,2,0:0:0:0:
179,192,80846,1,0,0:0:0:0:
332,192,80924,1,0,0:0:0:0:
435,192,80924,1,0,0:0:0:0:
76,192,81001,128,2,81310:0:0:0:0:
179,192,81001,128,0,81310:0:0:0:0:
281,192,81001,1,0,0:0:0:0:
486,192,81001,1,0,0:0:0:0:
281,192,81156,1,2,0:0:0:0:
230,192,81233,1,0,0:0:0:0:
332,192,81310,1,8,0:0:0:0:
435,192,81310,1,0,0:0:0:0:
76,192,81387,1,0,0:0:0:0:
179,192,81387,1,0,0:0:0:0:
230,192,81465,1,0,0:0:0:0:
332,192,81465,128,0,81774:0:0:0:0:
435,192,81465,128,0,81774:0:0:0:0:
230,192,81619,1,0,0:0:0:0:
281,192,81697,1,0,0:0:0:0:
76,192,81774,1,2,0:0:0:0:
179,192,81774,1,0,0:0:0:0:
332,192,81851,1,0,0:0:0:0:
435,192,81851,1,0,0:0:0:0:
76,192,81929,1,8,0:0:0:0:
179,192,81929,1,0,0:0:0:0:
281,192,81929,1,0,0:0:0:0:
435,192,82006,1,0,0:0:0:0:
128,192,82083,1,0,0:0:0:0:
384,192,82083,1,0,0:0:0:0:
332,192,82161,1,0,0:0:0:0:
25,192,82238,1,2,0:0:0:0:
230,192,82238,1,0,0:0:0:0:
281,192,82238,1,0,0:0:0:0:
486,192,82238,1,0,0:0:0:0:
25,192,82393,1,2,0:0:0:0:
230,192,82393,1,0,0:0:0:0:
332,192,82393,1,0,0:0:0:0:
435,192,82393,1,0,0:0:0:0:
76,192,82547,1,8,0:0:0:0:
179,192,82547,1,0,0:0:0:0:
384,192,82547,1,0,0:0:0:0:
179,192,82702,1,0,0:0:0:0:
281,192,82702,128,0,82934:0:0:0:0:
486,192,82702,128,0,82934:0:0:0:0:
128,192,82857,1,0,0:0:0:0:
384,192,82857,1,0,0:0:0:0:
25,192,83011,1,2,0:0:0:0:
230,192,83011,1,0,0:0:0:0:
281,192,83011,1,0,0:0:0:0:
486,192,83011,1,0,0:0:0:0:
76,192,83166,1,8,0:0:0:0:
384,192,83166,1,0,0:0:0:0:
179,192,83243,1,0,0:0:0:0:
76,192,83320,1,2,0:0:0:0:
332,192,83320,1,0,0:0:0:0:
435,192,83320,1,0,0:0:0:0:
179,192,83398,1,0,0:0:0:0:
25,192,83475,1,2,0:0:0:0:
230,192,83475,1,0,0:0:0:0:
281,192,83475,1,0,0:0:0:0:
486,192,83475,1,0,0:0:0:0:
25,192,83630,1,2,0:0:0:0:
230,192,83630,1,0,0:0:0:0:
384,192,83630,1,0,0:0:0:0:
76,192,83784,1,8,0:0:0:0:
179,192,83784,1,0,0:0:0:0:
281,192,83784,1,0,0:0:0:0:
486,192,83784,1,0,0:0:0:0:
332,192,83939,1,0,0:0:0:0:
76,192,84016,1,2,0:0:0:0:
179,192,84016,1,0,0:0:0:0:
281,192,84094,1,0,0:0:0:0:
76,192,84171,1,2,0:0:0:0:
179,192,84171,1,0,0:0:0:0:
332,192,84248,1,2,0:0:0:0:
435,192,84248,1,0,0:0:0:0:
25,192,84403,1,8,0:0:0:0:
76,192,84403,1,0,0:0:0:0:
230,192,84403,1,0,0:0:0:0:
486,192,84403,1,0,0:0:0:0:
179,192,84480,1,0,0:0:0:0:
281,192,84558,1,2,0:0:0:0:
332,192,84596,1,0,0:0:0:0:
384,192,84635,1,0,0:0:0:0:
435,192,84674,1,0,0:0:0:0:
25,192,84712,1,2,0:0:0:0:
76,192,84712,1,0,0:0:0:0:
230,192,84712,1,0,0:0:0:0:
486,192,84712,1,0,0:0:0:0:
179,192,84790,1,0,0:0:0:0:
281,192,84867,1,2,0:0:0:0:
384,192,84944,1,0,0:0:0:0:
25,192,85021,1,8,0:0:0:0:
76,192,85021,1,0,0:0:0:0:
230,192,85021,1,0,0:0:0:0:
486,192,85021,1,0,0:0:0:0:
128,192,85176,1,2,0:0:0:0:
384,192,85176,1,0,0:0:0:0:
332,192,85253,1,0,0:0:0:0:
25,192,85331,1,8,0:0:0:0:
76,192,85331,1,0,0:0:0:0:
281,192,85331,1,0,0:0:0:0:
435,192,85331,1,0,0:0:0:0:
486,192,85331,1,0,0:0:0:0:
230,192,85408,1,0,0:0:0:0:
128,192,85485,1,2,0:0:0:0:
384,192,85485,1,0,0:0:0:0:
179,192,85563,1,0,0:0:0:0:
25,192,85640,1,8,0:0:0:0:
76,192,85640,1,0,0:0:0:0:
230,192,85640,1,0,0:0:0:0:
332,192,85640,1,0,0:0:0:0:
486,192,85640,1,0,0:0:0:0:
384,192,85717,1,0,0:0:0:0:
179,192,85795,1,2,0:0:0:0:
332,192,85795,1,0,0:0:0:0:
128,192,85872,1,0,0:0:0:0:
281,192,85872,1,0,0:0:0:0:
25,192,85949,1,4,0:0:0:0:
76,192,85949,1,2,0:0:0:0:
230,192,85949,1,0,0:0:0:0:
435,192,85949,1,0,0:0:0:0:
486,192,85949,1,0,0:0:0:0:
179,192,86104,1,0,0:0:0:0:
384,192,86156,1,0,0:0:0:0:
128,192,86181,1,0,0:0:0:0:
76,192,86259,1,2,0:0:0:0:
281,192,86259,1,0,0:0:0:0:
25,192,86336,1,0,0:0:0:0:
435,192,86362,1,0,0:0:0:0:
179,192,86568,1,2,0:0:0:0:
332,192,86568,1,0,0:0:0:0:
486,192,86568,1,0,0:0:0:0:
128,192,86645,1,0,0:0:0:0:
76,192,86723,1,0,0:0:0:0:
25,192,86800,1,0,0:0:0:0:
281,192,86877,1,2,0:0:0:0:
435,192,86877,1,0,0:0:0:0:
25,192,87032,128,0,87341:0:0:0:0:
230,192,87032,128,0,87341:0:0:0:0:
332,192,87186,1,2,0:0:0:0:
435,192,87186,1,0,0:0:0:0:
128,192,87341,1,0,0:0:0:0:
25,192,87496,1,2,0:0:0:0:
230,192,87496,1,0,0:0:0:0:
486,192,87496,1,0,0:0:0:0:
76,192,87650,1,0,0:0:0:0:
179,192,87728,1,0,0:0:0:0:
76,192,87805,1,2,0:0:0:0:
332,192,87805,1,0,0:0:0:0:
435,192,87805,1,0,0:0:0:0:
179,192,87882,1,0,0:0:0:0:
384,192,88037,1,0,0:0:0:0:
76,192,88114,1,2,0:0:0:0:
179,192,88114,1,0,0:0:0:0:
179,192,88269,1,0,0:0:0:0:
332,192,88269,1,0,0:0:0:0:
76,192,88346,1,0,0:0:0:0:
281,192,88424,1,2,0:0:0:0:
435,192,88424,1,0,0:0:0:0:
486,192,88424,1,0,0:0:0:0:
332,192,88578,1,0,0:0:0:0:
128,192,88630,1,0,0:0:0:0:
384,192,88656,1,0,0:0:0:0:
230,192,88733,1,2,0:0:0:0:
435,192,88733,1,0,0:0:0:0:
486,192,88810,1,0,0:0:0:0:
76,192,88836,1,0,0:0:0:0:
25,192,89042,1,2,0:0:0:0:
179,192,89042,1,0,0:0:0:0:
332,192,89042,1,0,0:0:0:0:
384,192,89119,1,0,0:0:0:0:
435,192,89197,1,0,0:0:0:0:
486,192,89274,1,0,0:0:0:0:
128,192,89351,1,2,0:0:0:0:
384,192,89351,1,0,0:0:0:0:
128,192,89506,1,0,0:0:0:0:
384,192,89506,1,0,0:0:0:0:
332,192,89545,1,0,0:0:0:0:
281,192,89583,1,0,0:0:0:0:
230,192,89622,1,0,0:0:0:0:
25,192,89661,1,2,0:0:0:0:
76,192,89661,1,4,0:0:0:0:
435,192,89661,1,0,0:0:0:0:
486,192,89661,1,0,0:0:0:0:
25,192,89815,128,2,89970:0:0:0:0:
76,192,89815,128,4,89970:0:0:0:0:
435,192,89815,128,0,89970:0:0:0:0:
486,192,89815,128,0,89970:0:0:0:0:
76,192,90125,128,2,90279:0:0:0:0:
179,192,90125,128,4,90279:0:0:0:0:
332,192,90125,128,0,90279:0:0:0:0:
435,192,90125,128,0,90279:0:0:0:0:
25,192,90434,1,2,0:0:0:0:
230,192,90434,1,4,0:0:0:0:
281,192,90434,1,0,0:0:0:0:
486,192,90434,1,0,0:0:0:0:
76,192,90511,1,0,0:0:0:0:
435,192,90511,1,0,0:0:0:0:
179,192,90589,1,0,0:0:0:0:
332,192,90589,1,0,0:0:0:0:
230,192,90666,1,0,0:0:0:0:
281,192,90666,1,0,0:0:0:0:
128,192,90743,1,0,0:0:0:0:
384,192,90743,1,0,0:0:0:0:
179,192,90820,1,0,0:0:0:0:
332,192,90820,1,0,0:0:0:0:
25,192,90898,1,4,0:0:0:0:
76,192,90898,1,2,0:0:0:0:
435,192,90898,1,0,0:0:0:0:
486,192,90898,1,0,0:0:0:0:
76,192,91052,1,2,0:0:0:0:
435,192,91052,1,0,0:0:0:0:
384,192,91130,1,0,0:0:0:0:
179,192,91207,1,2,0:0:0:0:
332,192,91207,1,0,0:0:0:0:
281,192,91284,1,0,0:0:0:0:
179,192,91362,1,2,0:0:0:0:
76,192,91516,1,2,0:0:0:0:
435,192,91516,1,0,0:0:0:0:
384,192,91594,1,0,0:0:0:0:
76,192,91671,1,2,0:0:0:0:
332,192,91671,1,0,0:0:0:0:
281,192,91748,1,0,0:0:0:0:
179,192,91826,1,2,0:0:0:0:
179,192,91980,1,2,0:0:0:0:
281,192,91980,128,0,92290:0:0:0:0:
486,192,91980,128,0,92290:0:0:0:0:
76,192,92135,1,2,0:0:0:0:
230,192,92135,1,0,0:0:0:0:
76,192,92290,1,2,0:0:0:0:
384,192,92290,1,0,0:0:0:0:
179,192,92444,1,2,0:0:0:0:
281,192,92444,1,0,0:0:0:0:
486,192,92444,1,0,0:0:0:0:
179,192,92599,1,2,0:0:0:0:
384,192,92599,1,0,0:0:0:0:
332,192,92676,1,0,0:0:0:0:
25,192,92753,1,2,0:0:0:0:
128,192,92753,1,0,0:0:0:0:
486,192,92753,1,0,0:0:0:0:
435,192,92831,1,0,0:0:0:0:
384,192,92908,1,2,0:0:0:0:
76,192,92985,1,0,0:0:0:0:
179,192,92985,1,0,0:0:0:0:
332,192,92985,1,0,0:0:0:0:
486,192,93063,1,2,0:0:0:0:
435,192,93140,1,0,0:0:0:0:
128,192,93217,1,2,0:0:0:0:
230,192,93217,1,0,0:0:0:0:
384,192,93217,1,0,0:0:0:0:
332,192,93295,1,0,0:0:0:0:
25,192,93372,1,2,0:0:0:0:
76,192,93372,1,0,0:0:0:0:
435,192,93449,1,2,0:0:0:0:
486,192,93449,1,0,0:0:0:0:
76,192,93527,1,2,0:0:0:0:
128,192,93527,1,0,0:0:0:0:
384,192,93604,1,2,0:0:0:0:
435,192,93604,1,0,0:0:0:0:
128,192,93681,1,2,0:0:0:0:
179,192,93681,1,0,0:0:0:0:
332,192,93759,1,2,0:0:0:0:
384,192,93759,1,0,0:0:0:0:
179,192,93836,1,2,0:0:0:0:
230,192,93836,1,0,0:0:0:0:
281,192,93913,1,2,0:0:0:0:
332,192,93913,1,0,0:0:0:0:
128,192,93991,1,2,0:0:0:0:
179,192,93991,1,0,0:0:0:0:
332,192,94068,1,2,0:0:0:0:
384,192,94068,1,0,0:0:0:0:
25,192,94145,1,2,0:0:0:0:
486,192,94145,1,0,0:0:0:0:
76,192,94184,1,2,0:0:0:0:
435,192,94184,1,0,0:0:0:0:
128,192,94223,1,2,0:0:0:0:
384,192,94223,1,0,0:0:0:0:
179,192,94261,1,2,0:0:0:0:
332,192,94261,1,0,0:0:0:0:
230,192,94300,1,2,0:0:0:0:
281,192,94300,1,0,0:0:0:0:
76,192,94377,1,2,0:0:0:0:
435,192,94377,1,0,0:0:0:0:
230,192,94454,1,2,0:0:0:0:
281,192,94454,1,0,0:0:0:0:
179,192,94493,1,2,0:0:0:0:
332,192,94493,1,0,0:0:0:0:
128,192,94532,1,2,0:0:0:0:
384,192,94532,1,0,0:0:0:0:
76,192,94570,1,2,0:0:0:0:
435,192,94570,1,0,0:0:0:0:
25,192,94609,1,2,0:0:0:0:
230,192,94609,1,0,0:0:0:0:
281,192,94609,1,0,0:0:0:0:
486,192,94609,1,0,0:0:0:0:
435,192,94764,1,0,0:0:0:0:
384,192,94815,1,0,0:0:0:0:
332,192,94867,1,0,0:0:0:0:
25,192,94918,1,0,0:0:0:0:
76,192,94970,1,0,0:0:0:0:
128,192,95021,1,0,0:0:0:0:
230,192,95073,1,0,0:0:0:0:
486,192,95125,1,0,0:0:0:0:
384,192,95176,1,0,0:0:0:0:
332,192,95228,1,0,0:0:0:0:
281,192,95279,1,0,0:0:0:0:
179,192,95331,1,0,0:0:0:0:
128,192,95382,1,0,0:0:0:0:
76,192,95434,1,0,0:0:0:0:
25,192,95485,1,0,0:0:0:0:
179,192,95537,1,0,0:0:0:70:LR_Clap Air Dart Snare.wav
230,192,95537,1,0,0:0:0:0:
281,192,95537,1,0,0:0:0:0:
332,192,95537,1,0,0:0:0:0:
486,192,95614,1,0,0:0:0:0:
25,192,95692,1,0,0:0:0:0:
435,192,95692,1,0,0:0:0:0:
76,192,95769,1,0,0:0:0:0:
128,192,95846,1,0,0:0:0:70:FX_IntroKick.wav
230,192,95846,1,0,0:0:0:0:
281,192,95846,1,0,0:0:0:0:
384,192,95846,1,0,0:0:0:0:
332,192,96001,1,0,0:0:0:100:A6R_s.wav
179,192,96156,1,0,0:0:0:100:C#7R_Db7R_s.wav
128,192,96310,1,0,0:0:0:100:D7R_s.wav
435,192,96465,1,0,0:0:0:100:A7R_s.wav
281,192,96619,1,0,0:0:0:100:G7R_s.wav
384,192,96929,1,0,0:0:0:100:F#7R_Gb7R.wav
25,192,97083,1,0,0:0:0:0:
128,192,97083,1,0,0:0:0:0:
384,192,97161,1,0,0:0:0:0:
486,192,97161,1,0,0:0:0:0:
76,192,97238,1,2,0:0:0:0:
179,192,97238,1,0,0:0:0:0:
332,192,97315,1,2,0:0:0:0:
435,192,97315,1,0,0:0:0:0:
128,192,97393,1,2,0:0:0:0:
230,192,97393,1,0,0:0:0:0:
281,192,97470,1,2,0:0:0:0:
384,192,97470,1,0,0:0:0:0:
76,192,97547,1,2,0:0:0:0:
179,192,97547,1,0,0:0:0:0:
332,192,97625,1,2,0:0:0:0:
435,192,97625,1,0,0:0:0:0:
25,192,97702,1,2,0:0:0:0:
230,192,97702,1,0,0:0:0:0:
281,192,97702,1,0,0:0:0:0:
486,192,97702,1,0,0:0:0:0:
128,192,97857,1,0,0:0:0:0:
332,192,97934,1,0,0:0:0:0:
435,192,97934,1,0,0:0:0:0:
76,192,98089,1,0,0:0:0:0:
281,192,98166,1,0,0:0:0:0:
384,192,98166,1,0,0:0:0:0:
25,192,98320,1,2,0:0:0:0:
76,192,98320,1,4,0:0:0:0:
128,192,98320,1,0,0:0:0:0:
230,192,98320,1,0,0:0:0:0:
332,192,98320,1,0,0:0:0:0:
486,192,98320,1,0,0:0:0:0:
179,192,98475,1,0,0:0:0:0:
384,192,98475,1,0,0:0:0:0:
435,192,98475,1,0,0:0:0:0:
281,192,98552,1,0,0:0:0:0:
25,192,98630,1,8,0:0:0:0:
128,192,98630,1,2,0:0:0:0:
230,192,98630,1,0,0:0:0:0:
435,192,98630,1,0,0:0:0:0:
332,192,98707,1,0,0:0:0:0:
179,192,98784,1,0,0:0:0:0:
25,192,98939,1,2,0:0:0:0:
76,192,98939,1,0,0:0:0:0:
230,192,98939,1,0,0:0:0:0:
384,192,98939,1,0,0:0:0:0:
435,192,98939,1,0,0:0:0:0:
281,192,99016,1,0,0:0:0:0:
179,192,99094,1,0,0:0:0:0:
435,192,99094,1,0,0:0:0:0:
332,192,99171,1,0,0:0:0:0:
25,192,99248,1,2,0:0:0:0:
128,192,99248,1,8,0:0:0:0:
230,192,99248,1,0,0:0:0:0:
435,192,99326,1,0,0:0:0:0:
25,192,99403,128,0,99712:0:0:0:0:
230,192,99403,128,0,99712:0:0:0:0:
384,192,99403,1,0,0:0:0:0:
332,192,99480,1,0,0:0:0:0:
128,192,99558,1,2,0:0:0:0:
281,192,99558,1,0,0:0:0:0:
486,192,99558,1,0,0:0:0:0:
332,192,99712,1,0,0:0:0:0:
435,192,99712,1,0,0:0:0:0:
25,192,99867,1,2,0:0:0:0:
76,192,99867,1,8,0:0:0:0:
230,192,99867,1,0,0:0:0:0:
384,192,99867,1,0,0:0:0:0:
179,192,100021,1,0,0:0:0:0:
281,192,100021,1,0,0:0:0:0:
435,192,100021,1,0,0:0:0:0:
128,192,100099,1,0,0:0:0:0:
76,192,100176,1,2,0:0:0:0:
384,192,100176,128,0,100331:0:0:0:0:
486,192,100176,128,0,100331:0:0:0:0:
128,192,100253,1,0,0:0:0:0:
179,192,100331,1,0,0:0:0:0:
128,192,100408,1,0,0:0:0:0:
332,192,100408,128,0,100563:0:0:0:0:
435,192,100408,128,0,100563:0:0:0:0:
25,192,100485,1,8,0:0:0:0:
76,192,100485,1,2,0:0:0:0:
230,192,100485,1,0,0:0:0:0:
128,192,100640,1,0,0:0:0:0:
281,192,100640,128,0,100795:0:0:0:0:
384,192,100640,128,0,100795:0:0:0:0:
179,192,100717,1,0,0:0:0:0:
25,192,100795,1,2,0:0:0:0:
230,192,100795,1,0,0:0:0:0:
435,192,100795,1,0,0:0:0:0:
486,192,100795,1,0,0:0:0:0:
76,192,100949,1,0,0:0:0:0:
179,192,100949,1,0,0:0:0:0:
332,192,101027,1,0,0:0:0:0:
435,192,101027,1,0,0:0:0:0:
76,192,101104,128,8,101259:0:0:0:0:
179,192,101104,128,2,101259:0:0:0:0:
281,192,101104,1,0,0:0:0:0:
486,192,101104,1,0,0:0:0:0:
384,192,101259,1,0,0:0:0:0:
128,192,101336,128,0,101491:0:0:0:0:
230,192,101336,128,0,101491:0:0:0:0:
281,192,101413,1,2,0:0:0:0:
435,192,101413,1,0,0:0:0:0:
486,192,101413,1,0,0:0:0:0:
76,192,101568,128,0,101723:0:0:0:0:
179,192,101568,128,0,101723:0:0:0:0:
384,192,101568,1,0,0:0:0:0:
230,192,101723,1,2,0:0:0:0:
332,192,101723,1,8,0:0:0:0:
25,192,101800,128,0,101954:0:0:0:0:
128,192,101800,128,0,101954:0:0:0:0:
435,192,101800,1,0,0:0:0:0:
332,192,101877,1,0,0:0:0:0:
435,192,101954,1,0,0:0:0:0:
25,192,102032,1,2,0:0:0:0:
128,192,102032,1,0,0:0:0:0:
281,192,102032,1,0,0:0:0:0:
486,192,102032,1,0,0:0:0:0:
76,192,102186,1,0,0:0:0:0:
179,192,102186,1,0,0:0:0:0:
281,192,102186,1,0,0:0:0:0:
486,192,102186,1,0,0:0:0:0:
128,192,102341,1,2,0:0:0:0:
230,192,102341,1,8,0:0:0:0:
332,192,102341,1,0,0:0:0:0:
435,192,102341,1,0,0:0:0:0:
25,192,102496,128,0,102805:0:0:0:0:
179,192,102496,128,0,102805:0:0:0:0:
384,192,102496,1,0,0:0:0:0:
281,192,102650,1,2,0:0:0:0:
435,192,102650,1,0,0:0:0:0:
486,192,102650,1,0,0:0:0:0:
230,192,102805,1,0,0:0:0:0:
332,192,102805,1,0,0:0:0:0:
179,192,102882,1,0,0:0:0:0:
25,192,102960,1,8,0:0:0:0:
128,192,102960,1,2,0:0:0:0:
384,192,102960,1,0,0:0:0:0:
486,192,102960,1,0,0:0:0:0:
179,192,103037,1,0,0:0:0:0:
128,192,103114,1,0,0:0:0:0:
332,192,103114,1,0,0:0:0:0:
76,192,103192,1,0,0:0:0:0:
25,192,103269,1,2,0:0:0:0:
230,192,103269,1,0,0:0:0:0:
281,192,103269,1,0,0:0:0:0:
486,192,103269,1,0,0:0:0:0:
332,192,103346,1,0,0:0:0:0:
179,192,103424,1,0,0:0:0:0:
435,192,103424,1,0,0:0:0:0:
332,192,103501,1,0,0:0:0:0:
25,192,103578,1,8,0:0:0:0:
230,192,103578,1,2,0:0:0:0:
281,192,103578,1,0,0:0:0:0:
486,192,103578,1,0,0:0:0:0:
76,192,103656,1,0,0:0:0:0:
179,192,103656,1,0,0:0:0:0:
332,192,103733,128,0,104042:0:0:0:0:
435,192,103733,128,0,104042:0:0:0:0:
25,192,103887,1,2,0:0:0:0:
128,192,103887,1,0,0:0:0:0:
230,192,103887,1,0,0:0:0:0:
179,192,104042,1,0,0:0:0:0:
281,192,104042,1,0,0:0:0:0:
332,192,104119,1,0,0:0:0:0:
25,192,104197,1,2,0:0:0:0:
76,192,104197,1,8,0:0:0:0:
230,192,104197,1,0,0:0:0:0:
384,192,104197,1,0,0:0:0:0:
486,192,104197,1,0,0:0:0:0:
332,192,104274,1,0,0:0:0:0:
128,192,104351,1,0,0:0:0:0:
384,192,104351,1,0,0:0:0:0:
435,192,104429,1,0,0:0:0:0:
25,192,104506,1,2,0:0:0:0:
76,192,104506,1,4,0:0:0:0:
230,192,104506,1,0,0:0:0:0:
281,192,104506,1,0,0:0:0:0:
332,192,104506,1,0,0:0:0:0:
486,192,104506,1,0,0:0:0:0:
76,192,104738,1,2,0:0:0:0:
128,192,104738,1,4,0:0:0:0:
179,192,104738,1,0,0:0:0:0:
332,192,104738,1,0,0:0:0:0:
384,192,104738,1,0,0:0:0:0:
435,192,104738,1,0,0:0:0:0:
25,192,104970,1,2,0:0:0:0:
179,192,104970,1,4,0:0:0:0:
230,192,104970,1,0,0:0:0:0:
281,192,104970,1,0,0:0:0:0:
435,192,104970,1,0,0:0:0:0:
486,192,104970,1,0,0:0:0:0:
76,192,105202,1,2,0:0:0:0:
128,192,105202,1,4,0:0:0:0:
179,192,105202,1,0,0:0:0:0:
332,192,105202,1,0,0:0:0:0:
384,192,105202,1,0,0:0:0:0:
435,192,105202,1,0,0:0:0:0:
25,192,105434,1,8,0:0:0:0:
179,192,105434,1,2,0:0:0:0:
230,192,105434,1,4,0:0:0:0:
281,192,105434,1,0,0:0:0:0:
332,192,105434,1,0,0:0:0:0:
486,192,105434,1,0,0:0:0:0:
128,192,105589,1,0,0:0:0:0:
384,192,105589,1,0,0:0:0:0:
25,192,105743,1,4,0:0:0:0:
230,192,105743,1,2,0:0:0:0:
281,192,105743,1,0,0:0:0:0:
435,192,105743,1,0,0:0:0:0:
486,192,105743,1,0,0:0:0:0:
76,192,105898,1,0,0:0:0:0:
128,192,105898,1,0,0:0:0:0:
332,192,105898,1,0,0:0:0:0:
230,192,105975,1,0,0:0:0:0:
76,192,106052,1,2,0:0:0:0:
281,192,106052,1,8,0:0:0:0:
384,192,106052,1,0,0:0:0:0:
486,192,106052,1,0,0:0:0:0:
179,192,106130,1,0,0:0:0:0:
332,192,106207,1,0,0:0:0:0:
76,192,106362,1,2,0:0:0:0:
128,192,106362,1,0,0:0:0:0:
281,192,106362,1,0,0:0:0:0:
435,192,106362,1,0,0:0:0:0:
486,192,106362,1,0,0:0:0:0:
230,192,106439,1,0,0:0:0:0:
76,192,106516,1,0,0:0:0:0:
332,192,106516,1,0,0:0:0:0:
179,192,106594,1,0,0:0:0:0:
281,192,106671,1,8,0:0:0:0:
384,192,106671,1,2,0:0:0:0:
486,192,106671,1,0,0:0:0:0:
76,192,106748,1,0,0:0:0:0:
128,192,106826,1,0,0:0:0:0:
281,192,106826,128,0,107135:0:0:0:0:
486,192,106826,128,0,107135:0:0:0:0:
179,192,106903,1,0,0:0:0:0:
25,192,106980,1,2,0:0:0:0:
230,192,106980,1,0,0:0:0:0:
384,192,106980,1,0,0:0:0:0:
76,192,107135,1,0,0:0:0:0:
179,192,107135,1,0,0:0:0:0:
128,192,107290,1,8,0:0:0:0:
281,192,107290,1,2,0:0:0:0:
435,192,107290,1,0,0:0:0:0:
486,192,107290,1,0,0:0:0:0:
76,192,107444,1,0,0:0:0:0:
230,192,107444,1,0,0:0:0:0:
332,192,107444,1,0,0:0:0:0:
384,192,107521,1,0,0:0:0:0:
25,192,107599,128,2,107753:0:0:0:0:
128,192,107599,128,0,107753:0:0:0:0:
435,192,107599,1,0,0:0:0:0:
384,192,107676,1,0,0:0:0:0:
332,192,107753,1,0,0:0:0:0:
76,192,107831,128,0,107985:0:0:0:0:
179,192,107831,128,0,107985:0:0:0:0:
384,192,107831,1,0,0:0:0:0:
281,192,107908,1,2,0:0:0:0:
435,192,107908,1,8,0:0:0:0:
486,192,107908,1,0,0:0:0:0:
128,192,108063,128,0,108217:0:0:0:0:
230,192,108063,128,0,108217:0:0:0:0:
384,192,108063,1,0,0:0:0:0:
332,192,108140,1,0,0:0:0:0:
25,192,108217,1,2,0:0:0:0:
76,192,108217,1,0,0:0:0:0:
281,192,108217,1,0,0:0:0:0:
486,192,108217,1,0,0:0:0:0:
179,192,108372,1,0,0:0:0:0:
384,192,108372,1,0,0:0:0:0:
435,192,108372,1,0,0:0:0:0:
281,192,108449,1,0,0:0:0:0:
25,192,108527,1,2,0:0:0:0:
128,192,108527,1,8,0:0:0:0:
230,192,108527,1,0,0:0:0:0:
435,192,108527,1,0,0:0:0:0:
332,192,108604,1,0,0:0:0:0:
179,192,108681,1,0,0:0:0:0:
25,192,108836,1,2,0:0:0:0:
76,192,108836,1,0,0:0:0:0:
230,192,108836,1,0,0:0:0:0:
384,192,108836,1,0,0:0:0:0:
435,192,108836,1,0,0:0:0:0:
281,192,108913,1,0,0:0:0:0:
179,192,108991,1,0,0:0:0:0:
435,192,108991,1,0,0:0:0:0:
332,192,109068,1,0,0:0:0:0:
25,192,109145,1,8,0:0:0:0:
128,192,109145,1,2,0:0:0:0:
230,192,109145,1,0,0:0:0:0:
435,192,109223,1,0,0:0:0:0:
25,192,109300,128,0,109609:0:0:0:0:
230,192,109300,128,0,109609:0:0:0:0:
384,192,109300,1,0,0:0:0:0:
332,192,109377,1,0,0:0:0:0:
128,192,109454,1,2,0:0:0:0:
281,192,109454,1,0,0:0:0:0:
486,192,109454,1,0,0:0:0:0:
332,192,109609,1,0,0:0:0:0:
435,192,109609,1,0,0:0:0:0:
25,192,109764,1,8,0:0:0:0:
76,192,109764,1,2,0:0:0:0:
230,192,109764,1,0,0:0:0:0:
384,192,109764,1,0,0:0:0:0:
179,192,109918,1,0,0:0:0:0:
332,192,109918,1,0,0:0:0:0:
25,192,110073,1,2,0:0:0:0:
128,192,110073,1,4,0:0:0:0:
230,192,110073,1,0,0:0:0:0:
281,192,110073,1,0,0:0:0:0:
384,192,110073,1,0,0:0:0:0:
486,192,110073,1,0,0:0:0:0:
76,192,110305,1,2,0:0:0:0:
128,192,110305,1,4,0:0:0:0:
179,192,110305,1,0,0:0:0:0:
332,192,110305,1,0,0:0:0:0:
384,192,110305,1,0,0:0:0:0:
435,192,110305,1,0,0:0:0:0:
230,192,110382,1,8,0:0:0:0:
281,192,110382,1,0,0:0:0:0:
25,192,110537,1,2,0:0:0:0:
76,192,110537,1,4,0:0:0:0:
179,192,110537,1,0,0:0:0:0:
332,192,110537,1,0,0:0:0:0:
435,192,110537,1,0,0:0:0:0:
486,192,110537,1,0,0:0:0:0:
25,192,110692,1,2,0:0:0:0:
128,192,110692,1,4,0:0:0:0:
230,192,110692,1,0,0:0:0:0:
281,192,110692,1,0,0:0:0:0:
384,192,110692,1,0,0:0:0:0:
486,192,110692,1,0,0:0:0:0:
76,192,110846,1,2,0:0:0:0:
179,192,110846,1,0,0:0:0:0:
332,192,110846,1,0,0:0:0:0:
435,192,110924,1,0,0:0:0:0:
128,192,111001,128,2,111156:0:0:0:0:
230,192,111001,128,8,111156:0:0:0:0:
281,192,111001,1,0,0:0:0:0:
384,192,111001,1,0,0:0:0:0:
230,192,111233,1,2,0:0:0:0:
281,192,111233,1,0,0:0:0:0:
25,192,111310,1,2,0:0:0:0:
179,192,111310,1,4,0:0:0:0:
384,192,111310,128,0,111465:0:0:0:0:
486,192,111310,128,0,111465:0:0:0:0:
25,192,111465,1,2,0:0:0:0:
179,192,111465,1,0,0:0:0:0:
332,192,111542,128,0,111697:0:0:0:0:
435,192,111542,128,0,111697:0:0:0:0:
76,192,111619,1,2,0:0:0:0:
230,192,111619,1,8,0:0:0:0:
76,192,111774,1,2,0:0:0:0:
230,192,111774,1,0,0:0:0:0:
281,192,111774,128,0,111929:0:0:0:0:
384,192,111774,128,0,111929:0:0:0:0:
128,192,111929,1,2,0:0:0:0:
179,192,111929,1,0,0:0:0:0:
435,192,111929,1,0,0:0:0:0:
486,192,111929,1,0,0:0:0:0:
230,192,112083,1,2,0:0:0:0:
435,192,112083,1,0,0:0:0:0:
486,192,112083,1,0,0:0:0:0:
179,192,112161,1,0,0:0:0:0:
25,192,112238,1,2,0:0:0:0:
128,192,112238,1,8,0:0:0:0:
281,192,112238,1,0,0:0:0:0:
332,192,112238,1,0,0:0:0:0:
179,192,112315,1,0,0:0:0:0:
128,192,112393,1,0,0:0:0:0:
76,192,112470,1,2,0:0:0:0:
281,192,112470,1,0,0:0:0:0:
332,192,112470,1,0,0:0:0:0:
25,192,112547,1,2,0:0:0:0:
230,192,112547,1,0,0:0:0:0:
435,192,112547,1,0,0:0:0:0:
486,192,112547,1,0,0:0:0:0:
76,192,112625,1,0,0:0:0:0:
128,192,112702,1,2,0:0:0:0:
435,192,112702,1,0,0:0:0:0:
486,192,112702,1,0,0:0:0:0:
179,192,112779,1,0,0:0:0:0:
281,192,112779,1,0,0:0:0:0:
332,192,112779,1,0,0:0:0:0:
25,192,112857,1,2,0:0:0:0:
128,192,112857,1,8,0:0:0:0:
435,192,112857,1,0,0:0:0:0:
486,192,112857,1,0,0:0:0:0:
230,192,113011,1,2,0:0:0:0:
281,192,113011,1,0,0:0:0:0:
179,192,113050,1,2,0:0:0:0:
332,192,113050,1,0,0:0:0:0:
128,192,113089,1,2,0:0:0:0:
384,192,113089,1,0,0:0:0:0:
76,192,113127,1,2,0:0:0:0:
435,192,113127,1,0,0:0:0:0:
25,192,113166,1,2,0:0:0:0:
486,192,113166,1,4,0:0:0:0:
281,192,113320,1,2,0:0:0:0:
435,192,113320,1,0,0:0:0:0:
486,192,113320,1,0,0:0:0:0:
25,192,113398,1,2,0:0:0:0:
76,192,113398,1,0,0:0:0:0:
230,192,113398,1,0,0:0:0:0:
332,192,113475,1,2,0:0:0:0:
384,192,113475,1,8,0:0:0:0:
435,192,113475,1,0,0:0:0:0:
76,192,113552,1,2,0:0:0:0:
128,192,113552,1,0,0:0:0:0:
179,192,113552,1,0,0:0:0:0:
332,192,113630,1,2,0:0:0:0:
384,192,113630,1,0,0:0:0:0:
435,192,113630,1,0,0:0:0:0:
76,192,113707,1,2,0:0:0:0:
128,192,113707,1,0,0:0:0:0:
179,192,113707,1,0,0:0:0:0:
332,192,113784,1,2,0:0:0:0:
384,192,113784,1,0,0:0:0:0:
435,192,113784,1,0,0:0:0:0:
76,192,113862,1,2,0:0:0:0:
128,192,113862,1,0,0:0:0:0:
179,192,113862,1,0,0:0:0:0:
332,192,113939,1,2,0:0:0:0:
384,192,113939,1,0,0:0:0:0:
435,192,113939,1,0,0:0:0:0:
76,192,114016,1,2,0:0:0:0:
128,192,114016,1,0,0:0:0:0:
179,192,114016,1,0,0:0:0:0:
486,192,114094,1,8,0:0:0:0:
435,192,114119,1,0,0:0:0:0:
384,192,114145,1,0,0:0:0:0:
332,192,114171,1,0,0:0:0:0:
281,192,114197,1,0,0:0:0:0:
25,192,114248,1,2,0:0:0:0:
76,192,114274,1,0,0:0:0:0:
128,192,114300,1,0,0:0:0:0:
179,192,114326,1,2,0:0:0:0:
230,192,114351,1,0,0:0:0:0:
25,192,114403,1,2,0:0:0:0:
76,192,114403,1,4,0:0:0:0:
281,192,114403,1,0,0:0:0:0:
384,192,114403,1,0,0:0:0:0:
435,192,114403,1,0,0:0:0:0:
486,192,114403,1,0,0:0:0:0:
128,192,114480,1,0,0:0:0:0:
179,192,114480,1,0,0:0:0:0:
230,192,114480,1,0,0:0:0:0:
25,192,114558,1,8,0:0:0:0:
281,192,114558,1,0,0:0:0:0:
76,192,114635,1,0,0:0:0:0:
384,192,114635,1,0,0:0:0:0:
486,192,114635,1,0,0:0:0:0:
128,192,114712,1,8,0:0:0:0:
179,192,114790,1,0,0:0:0:0:
25,192,114867,1,2,0:0:0:0:
76,192,114867,1,4,0:0:0:0:
128,192,114867,1,0,0:0:0:0:
230,192,114867,1,0,0:0:0:0:
435,192,114867,1,0,0:0:0:0:
486,192,114867,1,0,0:0:0:0:
281,192,114944,1,0,0:0:0:0:
332,192,114944,1,0,0:0:0:0:
384,192,114944,1,0,0:0:0:0:
230,192,115021,1,0,0:0:0:0:
486,192,115021,1,0,0:0:0:0:
25,192,115099,1,0,0:0:0:0:
128,192,115099,1,0,0:0:0:0:
435,192,115099,1,0,0:0:0:0:
384,192,115176,1,8,0:0:0:0:
332,192,115253,1,0,0:0:0:0:
25,192,115331,1,4,0:0:0:0:
76,192,115331,1,0,0:0:0:100:E7S_s.wav
230,192,115331,1,0,0:0:0:70:FX_IntroKick.wav
281,192,115331,1,0,0:0:0:0:
435,192,115331,1,0,0:0:0:0:
486,192,115331,1,0,0:0:0:0:
179,192,115485,1,0,0:0:0:100:F#7S_Gb7S_s.wav
486,192,115640,1,0,0:0:0:100:F#7S_Gb7S_s.wav
384,192,115795,1,0,0:0:0:100:B7S_s.wav
179,192,115949,1,0,0:0:0:100:E7S_s.wav
332,192,116104,1,0,0:0:0:100:F#7S_Gb7S_s.wav
25,192,116259,1,0,0:0:0:100:F#7S_Gb7S_s.wav
128,192,116413,1,0,0:0:0:100:B7S_s.wav
332,192,116568,1,0,0:0:0:100:E7S_s.wav
179,192,116723,1,0,0:0:0:100:F#7S_Gb7S_s.wav
25,192,116877,1,0,0:0:0:100:F#7S_Gb7S_s.wav
486,192,116877,1,0,0:0:0:0:
332,192,117032,1,0,0:0:0:100:B7S_s.wav
179,192,117186,1,0,0:0:0:100:E7S_s.wav
384,192,117341,1,0,0:0:0:100:F#7S_Gb7S_s.wav
76,192,117496,1,0,0:0:0:100:F#7S_Gb7S_s.wav
179,192,117650,1,0,0:0:0:100:C#8S_Db8S_s.wav
281,192,117805,1,0,0:0:0:100:E7S_s.wav
384,192,117960,1,0,0:0:0:100:F#7S_Gb7S_s.wav
25,192,118114,1,0,0:0:0:100:F#7S_Gb7S_s.wav
486,192,118114,1,0,0:0:0:0:
128,192,118269,1,0,0:0:0:100:B7S_s.wav
332,192,118424,1,0,0:0:0:100:E7S_s.wav
179,192,118578,1,0,0:0:0:100:F#7S_Gb7S_s.wav
486,192,118733,1,0,0:0:0:100:F#7S_Gb7S_s.wav
384,192,118887,1,0,0:0:0:100:B7S_s.wav
179,192,119042,1,0,0:0:0:100:E7S_s.wav
332,192,119197,1,0,0:0:0:100:F#7S_Gb7S_s.wav
25,192,119351,1,0,0:0:0:100:F#7S_Gb7S_s.wav
486,192,119351,1,0,0:0:0:0:
179,192,119506,1,0,0:0:0:100:B7S_s.wav
332,192,119661,1,0,0:0:0:100:E7S_s.wav
128,192,119815,1,0,0:0:0:100:F#7S_Gb7S_s.wav
486,192,119970,1,0,0:0:0:100:F#7S_Gb7S_s.wav
25,192,120125,1,0,0:0:0:100:C#8S_Db8S_s.wav
281,192,120125,1,0,0:0:0:0:
128,192,120299,1,0,0:0:0:100:D8S_s.wav
384,192,120299,1,0,0:0:0:0:
230,192,120511,1,0,0:0:0:100:E8S_s.wav
486,192,120511,1,0,0:0:0:0:
