osu file format v14

[General]
AudioFilename: audio.mp3
AudioLeadIn: 0
PreviewTime: 95231
Countdown: 0
SampleSet: Soft
StackLeniency: 0.5
Mode: 0
LetterboxInBreaks: 0
WidescreenStoryboard: 1

[Editor]
DistanceSpacing: 1
BeatDivisor: 8
GridSize: 16
TimelineZoom: 2.6

[Metadata]
Title:Completeness Under Incompleteness
TitleUnicode:Completeness Under Incompleteness
Artist:Camellia as "Reverse of Riot"
ArtistUnicode:かめりあ as "Reverse of Riot"
Creator:Sonix
Version:HYPER
Source:SOUND VOLTEX III GRAVITY WARS
Tags:The 5th KAC Original song contest GRAVITATIONAL RADAR EPISODE 18 SDVX KONAMI BEMANI RIOT DESTRUDO Artcore
BeatmapID:1360816
BeatmapSetID:634431

[Difficulty]
HPDrainRate:4
CircleSize:4.5
OverallDifficulty:6
ApproachRate:9
SliderMultiplier:1.8
SliderTickRate:1

[Events]
//Background and Video events
0,0,"32584.jpg",0,0
//Break Periods
2,42499,44973
2,86262,88736
//Storyboard Layer 0 (Background)
//Storyboard Layer 1 (Fail)
//Storyboard Layer 2 (Pass)
//Storyboard Layer 3 (Foreground)
//Storyboard Sound Samples

[TimingPoints]
600,309.278350515464,4,2,1,30,1,0
16682,-100,4,2,1,35,0,0
17919,-100,4,2,1,40,0,0
19465,-95.2380952380952,4,2,1,40,0,0
19775,-90.9090909090909,4,2,1,40,0,0
20084,-86.9565217391304,4,2,1,40,0,0
20393,-83.3333333333333,4,2,1,40,0,0
20703,-100,4,2,1,40,0,0
21630,-100,4,2,1,50,0,0
27820,309.278350515464,4,2,1,50,1,0
28270,309.278350515464,4,2,1,50,1,0
29500,309.278350515464,4,2,1,50,1,0
29970,309.278350515464,4,2,1,50,1,0
31520,309.278350515464,4,2,1,50,1,0
46365,-133.333333333333,4,2,1,30,0,0
51313,-100,4,2,1,40,0,0
55952,-133.333333333333,4,2,1,40,0,0
62447,-100,4,2,1,20,0,0
63066,-100,4,2,1,30,0,0
63684,-100,4,2,1,35,0,0
63994,-100,4,2,1,40,0,0
64303,-100,4,2,1,45,0,0
64612,-100,4,2,1,50,0,0
66159,-86.9565217391304,4,2,1,65,0,1
72808,-100,4,2,1,65,0,1
73272,-86.9565217391304,4,2,1,65,0,1
77757,-100,4,2,1,65,0,1
78221,-86.9565217391304,4,2,1,65,0,1
82705,-100,4,2,1,65,0,1
83169,-86.9565217391304,4,2,1,65,0,1
85952,-100,4,2,1,55,0,0
94612,-133.333333333333,4,2,1,40,0,0
95849,-100,4,2,1,40,0,0
98324,-86.9565217391304,4,2,1,50,0,1
115334,-100,4,2,1,40,0,0

[Colours]
Combo1 : 0,152,225
Combo2 : 255,255,255
Combo3 : 172,81,255

[HitObjects]
232,120,10496,6,0,P|315:83|393:125,1,180,0|0,3:0|0:0,0:0:0:0:
318,188,11115,1,0,3:0:0:0:
318,188,11192,1,0,3:0:0:0:
318,188,11270,1,0,3:0:0:0:
403,214,11424,2,0,L|392:304,1,90
304,278,11734,2,0,L|315:368,2,90,0|0|0,3:0|3:0|0:0,0:0:0:0:
174,240,12275,2,0,L|106:247,3,45,0|0|0|0,0:0|3:0|0:0|3:0,0:0:0:0:
179,319,12661,1,0,0:0:0:0:
179,319,12971,5,0,3:0:0:0:
255,271,13125,2,0,P|260:240|258:227,2,45,0|0|0,3:0|3:0|0:0,0:0:0:0:
174,240,13435,2,0,P|169:209|171:196,2,45,0|0|0,3:0|3:0|0:0,0:0:0:0:
90,206,13744,1,0,0:0:0:0:
90,206,13821,1,0,0:0:0:0:
90,206,13898,2,0,P|99:169|73:113,1,90,0|0,3:0|0:0,0:0:0:0:
7,174,14208,5,0,3:0:0:0:
0,84,14517,1,0,3:0:0:0:
74,33,14826,1,0,3:0:0:0:
156,69,15136,1,0,3:0:0:0:
81,121,15445,6,0,B|94:167|94:167|88:215,1,90,0|0,3:0|3:0,3:0:0:0:
179,208,15754,2,0,B|173:248|173:248|187:295,1,90,0|0,3:0|3:0,3:0:0:0:
261,244,16063,2,0,P|304:236|361:249,1,90,0|0,3:0|3:0,3:0:0:0:
393,323,16373,2,0,P|350:331|293:318,1,90,0|0,3:0|3:0,3:0:0:0:
349,243,16682,6,0,B|362:196|362:196|356:148,1,90,0|0,3:0|3:0,3:0:0:0:
447,156,16991,2,0,B|441:115|441:115|455:68,1,90,0|0,3:0|3:0,3:0:0:0:
364,70,17301,2,0,L|270:70,1,90,0|0,3:0|3:0,3:0:0:0:
267,155,17610,2,0,L|361:155,1,90,0|0,3:0|3:0,3:0:0:0:
447,156,17919,6,0,L|495:156,14,45,8|0|0|0|8|0|0|0|8|0|0|0|8|0|0,3:0|3:0|3:0|3:0|3:0|3:0|3:0|3:0|3:0|3:0|3:0|3:0|3:0|3:0|3:0,3:0:0:0:
357,155,19156,6,0,L|325:155,7,22.5,8|0|0|0|8|0|0|0,3:0|3:0|3:0|3:0|3:0|3:0|3:0|3:0,3:0:0:0:
323,127,19465,2,0,L|290:108,7,23.6249992790222
327,80,19775,2,0,L|325:39,7,24.7500007553101
368,48,20084,2,0,L|403:20,8,25.8750004935265
274,70,20703,6,0,P|221:62|172:77,1,90
170,86,20935,2,0,P|117:94|68:79,1,90
64,71,21167,1,0,3:0:0:0:
156,173,21321,1,4,0:0:0:0:
274,70,21630,6,0,L|282:167,1,90,0|0,3:0|3:0,3:0:0:0:
223,229,21940,2,0,P|287:248|319:241,1,90,8|0,0:0|0:0,0:0:0:0:
331,245,22172,1,0,0:0:0:0:
331,245,22249,1,0,0:0:0:0:
372,164,22404,1,0,3:0:0:0:
422,240,22558,2,0,L|468:245,3,45,8|0|0|0,0:0|0:0|0:0|0:0,0:0:0:0:
440,282,22868,6,0,P|434:333|451:384,1,90,0|0,3:0|3:0,3:0:0:0:
362,331,23177,2,0,P|310:316|262:335,1,90,8|0,0:0|0:0,0:0:0:0:
254,329,23409,1,0,0:0:0:0:
231,331,23486,2,0,P|193:328|178:319,2,45,0|0|0,0:0|0:0|3:0,0:0:0:0:
230,240,23795,1,8,0:0:0:0:
139,240,23950,6,0,P|141:200|153:180,1,45,0|0,3:0|0:0,0:0:0:0:
154,176,24105,2,0,P|164:123|154:87,2,90,0|0|8,3:0|3:0|0:0,0:0:0:0:
73,135,24569,2,0,L|18:138,4,45,0|0|0|0|0,0:0|0:0|0:0|0:0|3:0,0:0:0:0:
154,88,25032,2,0,L|209:85,4,45,8|0|0|0|0,0:0|0:0|0:0|0:0|3:0,0:0:0:0:
72,49,25496,1,0,3:0:0:0:
28,137,25651,2,0,P|18:180|28:224,1,90,8|0,0:0|0:0,0:0:0:0:
36,245,25883,1,0,3:0:0:0:
38,267,25960,2,0,P|35:301|26:317,2,45,0|0|0,0:0|0:0|3:0,0:0:0:0:
112,334,26270,6,0,L|211:341,1,90,8|0,0:0|3:0,0:0:0:0:
223,347,26502,1,0,0:0:0:0:
223,347,26579,1,0,3:0:0:0:
313,352,26734,1,0,3:0:0:0:
270,272,26888,1,8,0:0:0:0:
360,277,27043,2,0,L|418:280,1,45
427,281,27197,2,0,B|455:280|455:280|473:269,2,45,0|0|0,0:0|0:0|3:0,0:0:0:0:
409,192,27507,2,0,B|410:164|410:164|421:146,3,45,8|0|0|0,0:0|0:0|0:0|0:0,0:0:0:0:
374,161,27820,6,0,L|277:151,1,90,0|0,3:0|3:0,3:0:0:0:
216,211,28129,2,0,P|192:147|204:108,1,90,8|0,0:0|0:0,0:0:0:0:
201,108,28347,1,0,0:0:0:0:
207,86,28424,2,0,P|210:53|204:36,2,45,0|0|0,0:0|0:0|3:0,0:0:0:0:
118,69,28733,1,8,0:0:0:0:
206,42,28888,2,0,P|237:38|255:40,1,45,0|0,3:0|0:0,0:0:0:0:
271,46,29043,6,0,P|330:51|363:38,1,90,0|0,3:0|3:0,3:0:0:0:
439,78,29352,1,8,0:0:0:0:
364,128,29500,2,0,L|357:176,4,45,0|0|0|0|0,0:0|0:0|0:0|0:0|3:0,0:0:0:0:
449,165,29970,2,0,L|456:213,4,45,8|0|0|0|0,0:0|0:0|0:0|0:0|3:0,0:0:0:0:
382,256,30433,2,0,L|282:260,1,90,8|0,0:0|3:0,0:0:0:0:
357,172,30743,2,0,L|364:128,3,45,8|8|0|8,0:0|0:0|3:0|0:0,0:0:0:0:
275,109,31129,6,0,L|268:64,4,45,8|8|8|0|8,0:0|0:0|0:0|3:0|0:0,0:0:0:0:
230,92,31520,2,0,P|157:84|127:103,1,90,0|0,3:0|3:0,3:0:0:0:
186,169,31829,1,8,0:0:0:0:
98,151,31983,2,0,L|33:155,3,45
30,156,32293,1,0,3:0:0:0:
70,235,32447,1,8,0:0:0:0:
69,244,32525,1,0,0:0:0:0:
68,252,32602,1,0,0:0:0:0:
67,260,32679,1,0,0:0:0:0:
66,269,32757,5,0,3:0:0:0:
113,345,32911,1,0,3:0:0:0:
161,268,33066,2,0,P|221:259|254:268,1,90,8|0,0:0|0:0,0:0:0:0:
270,271,33298,1,0,0:0:0:0:
292,274,33375,2,0,P|322:275|342:270,2,45,0|0|0,0:0|0:0|3:0,0:0:0:0:
295,183,33684,1,8,0:0:0:0:
205,190,33839,6,0,P|206:149|218:127,1,45,0|0,3:0|0:0,0:0:0:0:
216,124,33994,1,0,3:0:0:0:
294,91,34148,1,0,3:0:0:0:
376,131,34303,2,0,P|390:200|380:227,1,90,8|0,0:0|0:0,0:0:0:0:
384,239,34535,1,0,0:0:0:0:
385,247,34612,1,0,0:0:0:0:
386,256,34690,1,0,0:0:0:0:
387,264,34767,5,0,3:0:0:0:
335,338,34922,1,8,0:0:0:0:
317,339,34999,1,0,0:0:0:0:
299,340,35076,1,0,0:0:0:0:
280,341,35154,1,0,0:0:0:0:
262,342,35231,1,0,3:0:0:0:
305,263,35385,1,0,3:0:0:0:
214,263,35540,2,0,P|228:211|261:183,1,90,8|0,0:0|0:0,0:0:0:0:
274,178,35772,1,0,3:0:0:0:
296,174,35849,2,0,P|335:177|350:184,2,45,0|0|0,0:0|0:0|3:0,0:0:0:0:
205,175,36159,6,0,B|171:195|156:157|106:186,2,90,8|0|0,0:0|3:0|3:0,0:0:0:0:
144,241,36623,1,0,3:0:0:0:
57,219,36777,2,0,P|45:171|71:123,1,90,8|0,0:0|0:0,0:0:0:0:
69,114,37009,1,0,0:0:0:0:
75,92,37087,2,0,P|79:68|73:44,2,45,0|0|0,0:0|0:0|3:0,0:0:0:0:
153,47,37396,1,8,0:0:0:0:
166,46,37473,1,0,0:0:0:0:
179,45,37550,1,0,0:0:0:0:
192,44,37628,1,0,0:0:0:0:
205,43,37705,5,0,3:0:0:0:
294,51,37860,1,0,3:0:0:0:
373,91,38014,2,0,B|371:117|391:138|391:138|379:162|390:200,1,90,8|0,0:0|0:0,0:0:0:0:
386,197,38246,1,0,0:0:0:0:
390,219,38324,2,0,P|391:260|386:275,2,45,0|0|0,0:0|0:0|3:0,0:0:0:0:
302,241,38633,1,8,0:0:0:0:
212,254,38788,2,0,P|211:213|216:198,2,45,0|8|0,3:0|0:0|3:0,0:0:0:0:
302,241,39097,5,0,3:0:0:0:
282,153,39251,2,0,P|233:120|183:122,1,90,8|0,0:0|0:0,0:0:0:0:
181,121,39483,1,0,0:0:0:0:
158,123,39561,2,0,P|127:120|102:111,2,45,0|0|0,0:0|0:0|3:0,0:0:0:0:
86,178,39870,2,0,P|55:181|30:190,3,45
21,195,40179,1,0,3:0:0:0:
118,275,40334,6,0,L|126:326,2,45
207,289,40643,2,0,L|215:340,2,45
296,303,40952,2,0,L|304:354,2,45
118,275,41416,1,0,3:0:0:0:
313,89,46365,5,0,0:0:0:0:
399,75,46520,2,0,B|404:114|386:138|386:138|406:142|422:154,2,101.250003862381
228,104,47215,2,0,B|223:65|241:41|241:41|221:37|205:25,1,101.250003862381
93,100,47602,5,0,0:0:0:0:
26,54,47757,2,0,P|73:22|123:24,2,101.250003862381
70,177,48452,2,0,P|119:174|160:145,1,101.250003862381
278,213,48839,5,0,0:0:0:0:
354,186,48994,2,0,P|353:242|322:282,1,101.250003862381
228,151,49458,2,0,P|202:192|202:243,2,101.250003862381
120,232,50076,5,0,0:0:0:0:
38,200,50231,2,0,L|145:190,2,101.250003862381
108,315,50849,2,0,L|154:320,5,33.7500012874604
165,346,51313,6,0,L|255:341,1,90,0|0,3:0|0:0,0:0:0:0:
331,177,51777,2,0,B|374:250|328:307|328:307|343:341|329:368,2,180
253,242,52705,1,0,0:0:0:0:
236,153,52860,1,0,0:0:0:0:
236,153,53478,2,0,L|227:106,3,45
261,93,53788,6,0,P|307:76|362:82,1,90
433,104,54251,1,0,0:0:0:0:
496,167,54561,1,0,0:0:0:0:
503,256,54870,1,0,0:0:0:0:
503,256,55952,5,0,0:0:0:0:
468,339,56107,2,0,P|284:329|238:137,1,405.000015449525
383,203,57190,1,0,0:0:0:0:
374,105,57344,2,0,P|299:256|468:253,1,405.000015449525
383,203,58427,1,0,0:0:0:0:
446,142,58581,2,0,B|478:83|447:30|402:-4|339:6|287:68|197:50,1,337.500012874604
124,78,59509,2,0,P|119:45|130:14,1,67.5000025749208
191,135,59818,1,0,0:0:0:0:
256,192,60128,12,0,61210,3:0:0:0:
334,134,62447,6,0,L|381:140,7,45
305,176,63066,6,0,L|260:181,7,45
256,101,63684,6,0,L|216:60,3,45,0|0|0|0,0:0|0:0|3:0|3:0,0:0:0:0:
203,158,63994,2,0,L|163:199,3,45,0|0|0|0,3:0|3:0|3:0|3:0,3:0:0:0:
134,97,64303,2,0,L|94:56,3,45,0|0|0|0,3:0|3:0|3:0|3:0,3:0:0:0:
34,149,64612,2,0,L|-6:190,3,45,0|0|0|0,3:0|3:0|3:0|3:0,3:0:0:0:
171,190,64922,6,0,L|268:183,1,90,0|0,3:0|3:0,3:0:0:0:
115,129,65231,2,0,P|89:191|96:224,1,90,8|0,0:0|0:0,0:0:0:0:
99,232,65463,2,0,P|110:297|101:323,1,90,8|0,0:0|0:0,0:0:0:0:
95,339,65695,1,0,3:0:0:0:
164,282,65849,2,0,P|208:265|263:270,1,90,4|0,1:0|0:0,0:0:0:0:
367,309,66159,6,0,P|431:293|454:266,1,103.500001974106,0|0,3:0|0:0,0:0:0:0:
464,241,66391,1,0,0:0:0:0:
473,217,66468,2,0,P|483:190|508:172,2,51.7500009870529,8|0|0,0:0|0:0|0:0,0:0:0:0:
369,208,66777,1,0,0:0:0:0:
367,191,66855,1,0,0:0:0:0:
365,175,66932,1,0,3:0:0:0:
363,159,67009,1,0,0:0:0:0:
360,143,67087,2,0,L|349:63,3,51.7500009870529,8|0|0|0,0:0|0:0|0:0|0:0,0:0:0:0:
313,125,67396,6,0,B|267:119|267:119|255:124|255:124|201:115,1,103.500001974106,0|0,3:0|3:0,3:0:0:0:
293,52,67705,1,8,0:0:0:0:
281,196,67860,2,0,B|287:229|269:249|269:249|284:272|277:308,2,103.500001974106,0|0|0,0:0|0:0|3:0,0:0:0:0:
209,287,68324,1,8,0:0:0:0:
346,255,68478,2,0,L|449:227,1,103.500001974106,0|0,3:0|3:0,3:0:0:0:
281,196,68788,5,0,0:0:0:0:
265,194,68865,1,0,0:0:0:0:
249,192,68942,2,0,L|193:186,3,51.7500009870529,8|0|0|0,0:0|0:0|0:0|0:0,0:0:0:0:
209,287,69251,2,0,L|203:343,2,51.7500009870529,0|0|0,0:0|0:0|3:0,0:0:0:0:
238,353,69483,1,0,0:0:0:0:
346,255,69638,6,0,L|352:199,2,51.7500009870529
316,188,69870,1,0,3:0:0:0:
312,162,69947,1,0,0:0:0:0:
308,136,70025,1,0,3:0:0:0:
305,110,70102,1,0,0:0:0:0:
301,84,70179,6,0,L|294:28,3,51.7500009870529,8|0|8|0,0:0|0:0|0:0|3:0,0:0:0:0:
222,66,70489,2,0,L|215:122,3,51.7500009870529,0|8|0|0,0:0|0:0|3:0|0:0,0:0:0:0:
211,153,70798,1,8,0:0:0:0:
208,173,70875,1,8,0:0:0:0:
206,192,70952,1,8,0:0:0:0:
203,212,71030,1,8,0:0:0:0:
201,232,71107,6,0,B|193:285|193:285|133:325,1,103.500001974106,0|0,3:0|3:0,3:0:0:0:
127,323,71339,1,0,0:0:0:0:
101,323,71416,2,0,L|37:323,2,51.7500009870529,8|0|0,0:0|0:0|0:0,0:0:0:0:
247,323,71726,6,0,L|310:323,3,51.7500009870529
332,258,72035,2,0,L|269:258,3,51.7500009870529
207,259,72344,2,0,P|177:187|193:139,1,103.500001974106,0|0,3:0|3:0,3:0:0:0:
274,190,72654,1,8,0:0:0:0:
235,108,72808,2,0,P|154:90|104:182,1,180,0|0,0:0|3:0,0:0:0:0:
207,259,73272,2,0,B|153:270|153:270|103:259,2,103.500001974106,8|0|0,0:0|3:0|3:0,0:0:0:0:
274,190,73736,5,0,3:0:0:0:
289,190,73813,1,0,0:0:0:0:
304,190,73891,1,8,0:0:0:0:
319,190,73968,1,0,0:0:0:0:
334,190,74045,1,0,0:0:0:0:
349,190,74123,1,0,0:0:0:0:
374,190,74200,2,0,L|429:190,3,51.7500009870529
402,143,74509,2,0,L|457:143,3,51.7500009870529,8|0|0|0,0:0|0:0|0:0|0:0,0:0:0:0:
348,142,74818,6,0,P|320:98|335:32,2,103.500001974106,0|0|8,3:0|3:0|0:0,3:0:0:0:
253,99,75282,2,0,B|225:88|187:101,1,51.7500009870529,8|0,0:0|3:0,0:0:0:0:
225,197,75514,2,0,B|253:186|291:199,1,51.7500009870529,8|0,0:0|3:0,0:0:0:0:
256,296,75746,2,0,P|171:286|150:270,1,103.500001974106,8|8,0:0|0:0,0:0:0:0:
140,258,75978,1,8,0:0:0:0:
126,235,76056,6,0,P|120:164|140:126,1,103.500001974106,0|0,3:0|3:0,3:0:0:0:
145,113,76288,1,0,0:0:0:0:
153,88,76365,2,0,P|159:49|156:32,2,51.7500009870529,8|0|0,0:0|0:0|0:0,0:0:0:0:
254,67,76674,2,0,L|326:63,3,51.7500009870529,0|0|0|0,0:0|0:0|3:0|0:0,0:0:0:0:
342,64,76983,1,8,0:0:0:0:
362,65,77061,1,0,0:0:0:0:
382,68,77138,1,0,0:0:0:0:
401,73,77215,1,0,0:0:0:0:
425,82,77293,6,0,P|467:122|480:172,1,103.500001974106,0|0,3:0|3:0,3:0:0:0:
376,173,77602,1,8,0:0:0:0:
286,120,77757,2,0,P|283:220|354:274,1,180,0|0,0:0|3:0,0:0:0:0:
262,340,78221,2,0,B|212:337|212:337|203:343|203:343|156:340,1,103.500001974106,8|0,0:0|3:0,0:0:0:0:
74,282,78530,5,0,3:0:0:0:
70,256,78607,1,0,0:0:0:0:
67,230,78684,1,0,3:0:0:0:
64,204,78762,1,0,0:0:0:0:
61,178,78839,2,0,L|55:127,3,51.7500009870529,8|0|0|0,0:0|0:0|0:0|0:0,0:0:0:0:
143,131,79148,2,0,B|156:108|156:108|160:73,2,51.7500009870529,0|0|0,0:0|0:0|3:0,0:0:0:0:
223,197,79458,5,8,0:0:0:0:
248,199,79535,1,0,0:0:0:0:
273,201,79612,1,0,0:0:0:0:
298,204,79690,1,0,0:0:0:0:
323,207,79767,2,0,L|379:214,3,51.7500009870529,0|0|0|0,3:0|0:0|3:0|0:0,0:0:0:0:
362,290,80076,2,0,L|418:283,3,51.7500009870529,8|0|8|0,0:0|0:0|0:0|3:0,0:0:0:0:
452,215,80385,1,0,0:0:0:0:
453,199,80463,1,8,0:0:0:0:
454,183,80540,1,0,3:0:0:0:
456,167,80617,1,0,0:0:0:0:
458,151,80695,1,8,0:0:0:0:
460,135,80772,1,0,0:0:0:0:
462,119,80849,1,0,0:0:0:0:
464,103,80927,1,8,0:0:0:0:
466,77,81004,6,0,L|357:50,1,103.500001974106,0|0,0:0|0:0,3:0:0:0:
339,47,81236,1,0,0:0:0:0:
313,40,81313,2,0,L|256:25,2,51.7500009870529,8|0|0,0:0|0:0|0:0,0:0:0:0:
349,137,81623,2,0,L|364:193,3,51.7500009870529,0|0|0|0,0:0|0:0|3:0|0:0,0:0:0:0:
350,221,81932,1,8,0:0:0:0:
324,222,82009,1,0,0:0:0:0:
297,223,82087,1,0,0:0:0:0:
271,224,82164,1,0,0:0:0:0:
245,224,82241,6,0,B|200:225|200:225|191:234|191:234|141:235,1,103.500001974106,0|0,3:0|3:0,3:0:0:0:
176,136,82550,1,8,0:0:0:0:
75,162,82705,2,0,P|48:257|92:322,1,180,0|0,0:0|3:0,0:0:0:0:
188,290,83169,1,8,0:0:0:0:
276,344,83324,1,0,3:0:0:0:
371,304,83478,2,0,B|472:324,2,103.500001974106,0|0|8,3:0|3:0|0:0,0:0:0:0:
298,230,83942,2,0,P|329:234|349:230,1,51.7500009870529,8|0,0:0|3:0,0:0:0:0:
319,130,84174,2,0,P|288:134|268:130,1,51.7500009870529,8|0,0:0|3:0,0:0:0:0:
296,30,84406,1,8,0:0:0:0:
316,31,84483,1,0,0:0:0:0:
336,32,84561,1,8,0:0:0:0:
356,33,84638,1,0,0:0:0:0:
376,35,84715,1,0,3:0:0:0:
455,117,84870,6,0,L|514:123,2,51.7500009870529,0|0|8,0:0|0:0|0:0,0:0:0:0:
364,168,85179,2,0,P|351:142|349:113,2,51.7500009870529,0|0|8,0:0|0:0|0:0,0:0:0:0:
453,221,85489,2,0,P|435:245|406:264,2,51.7500009870529,0|0|8,0:0|0:0|0:0,0:0:0:0:
501,348,85952,1,0,3:0:0:0:
166,135,89509,6,0,P|207:132|220:128,1,45
241,121,89664,1,0,3:0:0:0:
180,55,89818,1,0,3:0:0:0:
147,232,90128,1,0,3:0:0:0:
24,320,90437,1,0,3:0:0:0:
44,322,90514,1,0,0:0:0:0:
65,323,90592,1,0,0:0:0:0:
86,325,90669,1,0,0:0:0:0:
107,326,90746,1,0,0:0:0:0:
128,329,90824,1,0,0:0:0:0:
146,330,90901,6,0,L|244:339,1,90,0|0,3:0|3:0,3:0:0:0:
299,274,91210,2,0,P|324:321|317:376,1,90,0|0,3:0|3:0,3:0:0:0:
213,252,91520,2,0,P|241:206|292:185,1,90,0|0,3:0|3:0,3:0:0:0:
196,140,91829,2,0,L|98:131,1,90,0|0,3:0|3:0,3:0:0:0:
163,62,92138,1,0,3:0:0:0:
249,36,92293,1,0,3:0:0:0:
338,45,92447,1,0,3:0:0:0:
413,94,92602,1,0,3:0:0:0:
461,170,92757,2,0,P|471:217|463:263,1,90,0|0,3:0|3:0,3:0:0:0:
451,286,92989,2,0,P|376:330|301:315,1,135,0|0,3:0|3:0,3:0:0:0:
359,220,93375,6,0,L|348:162,3,45,0|0|0|0,3:0|3:0|3:0|3:0,3:0:0:0:
261,194,93684,2,0,L|272:252,3,45,0|0|0|0,3:0|3:0|3:0|3:0,3:0:0:0:
168,228,93994,2,0,L|179:170,3,45,0|0|0|0,3:0|3:0|3:0|3:0,3:0:0:0:
70,208,94303,2,0,L|59:266,3,45,0|0|0|0,3:0|3:0|3:0|3:0,3:0:0:0:
8,132,94612,2,0,B|18:91|45:58|90:21|145:34|200:43|215:74|225:103|240:114|266:125|292:132|352:124|352:124|343:150|325:160|310:203|316:235|335:261,1,540.000020599366,4|0,3:0|3:0,0:0:0:0:
413,279,96004,5,0,0:0:0:0:
347,340,96159,1,0,0:0:0:0:
261,311,96313,1,0,0:0:0:0:
242,222,96468,1,0,0:0:0:0:
175,283,96623,2,0,P|84:292|33:215,1,180
127,127,97087,6,0,L|66:122,3,45
173,48,97396,2,0,L|234:53,3,45
227,141,97705,2,0,P|273:126|307:43,2,135,0|0|0,3:0|0:0|0:0,0:0:0:0:
394,116,98324,5,0,3:0:0:0:
394,219,98478,2,0,L|394:155,3,51.7500009870529
247,219,98942,2,0,L|247:155,3,51.7500009870529
369,70,99406,6,0,B|268:18|257:98|158:50,1,207.000003948212
64,49,99870,1,8,0:0:0:0:
112,140,100025,1,0,0:0:0:0:
8,137,100179,2,0,P|54:227|110:243,2,155.250002961159,0|0|0,3:0|0:0|0:0,0:0:0:0:
64,49,100798,1,0,3:0:0:0:
112,140,100952,5,0,0:0:0:0:
158,144,101030,1,0,0:0:0:0:
202,130,101107,2,0,B|311:90|299:181|412:135,1,207.000003948212,8|0,0:0|3:0,0:0:0:0:
354,58,101571,1,0,0:0:0:0:
254,208,101803,1,0,0:0:0:0:
401,139,102035,2,0,P|419:190|410:253,2,103.500001974106,0|0|8,3:0|0:0|0:0,0:0:0:0:
317,200,102499,2,0,L|253:207,3,51.7500009870529
231,192,102808,5,0,0:0:0:0:
210,189,102885,1,0,0:0:0:0:
189,186,102963,1,8,0:0:0:0:
168,183,103040,1,0,0:0:0:0:
147,180,103117,1,0,0:0:0:0:
126,176,103195,1,0,0:0:0:0:
105,173,103272,2,0,P|117:262|108:281,1,103.500001974106,0|0,3:0|0:0,0:0:0:0:
103,295,103504,1,0,0:0:0:0:
98,320,103581,2,0,P|97:357|105:379,2,51.7500009870529,8|0|0,0:0|0:0|0:0,0:0:0:0:
201,327,104045,5,0,0:0:0:0:
225,318,104123,1,0,0:0:0:0:
250,315,104200,1,8,0:0:0:0:
275,315,104277,1,0,0:0:0:0:
300,318,104355,1,0,0:0:0:0:
324,325,104432,1,0,0:0:0:0:
347,334,104509,5,4,3:0:0:0:
304,184,104741,1,4,3:0:0:0:
454,222,104973,1,4,3:0:0:0:
411,72,105205,1,4,3:0:0:0:
304,184,105437,6,0,B|257:184|257:184|250:189|250:189|191:189,1,103.500001974106,0|8,3:0|3:0,3:0:0:0:
98,189,105746,1,0,3:0:0:0:
166,111,105901,2,0,L|114:111,3,51.7500009870529,0|0|8|0,0:0|0:0|0:0|0:0,0:0:0:0:
115,266,106365,2,0,L|166:266,3,51.7500009870529,0|0|0|0,3:0|0:0|0:0|0:0,0:0:0:0:
304,184,106829,2,0,B|401:135|411:238|512:176,1,207.000003948212
452,114,107293,1,8,0:0:0:0:
349,103,107447,2,0,P|366:57|407:21,1,103.500001974106,0|0,0:0|3:0,0:0:0:0:
354,253,107834,1,0,0:0:0:0:
452,114,108066,1,0,0:0:0:0:
349,103,108221,6,0,L|236:92,1,103.500001974106,0|0,3:0|0:0,0:0:0:0:
220,90,108452,1,0,0:0:0:0:
194,86,108530,2,0,L|136:79,2,51.7500009870529,8|0|0,0:0|0:0|0:0,0:0:0:0:
145,177,108839,1,0,3:0:0:0:
119,180,108916,1,0,0:0:0:0:
93,183,108994,1,0,0:0:0:0:
67,186,109071,1,0,0:0:0:0:
206,260,109303,6,0,P|243:210|169:76,1,207.000003948212
145,177,109767,1,8,0:0:0:0:
272,106,109922,2,0,B|326:103|326:103|334:110|334:110|386:108,1,103.500001974106,0|0,0:0|3:0,0:0:0:0:
233,38,110308,1,0,3:0:0:0:
304,176,110540,1,0,3:0:0:0:
372,108,110695,6,0,P|399:166|392:214,1,103.500001974106,0|0,3:0|3:0,3:0:0:0:
395,230,110927,1,0,3:0:0:0:
395,230,111004,1,8,0:0:0:0:
276,330,111236,1,8,0:0:0:0:
295,313,111313,2,0,P|364:356|463:340,2,155.250002961159,0|0|8,3:0|3:0|0:0,0:0:0:0:
90,349,112087,5,0,0:0:0:0:
87,323,112164,1,0,0:0:0:0:
84,297,112241,2,0,L|76:214,3,51.7500009870529,8|0|8|0,0:0|0:0|0:0|0:0,0:0:0:0:
172,256,112550,2,0,L|180:173,3,51.7500009870529,0|0|0|0,3:0|0:0|3:0|0:0,0:0:0:0:
271,218,112860,2,0,L|263:135,3,51.7500009870529,8|0|8|0,0:0|0:0|0:0|0:0,0:0:0:0:
352,128,113169,5,0,3:0:0:0:
377,130,113246,1,0,3:0:0:0:
316,45,113401,1,8,0:0:0:0:
341,47,113478,1,8,0:0:0:0:
264,117,113633,1,0,3:0:0:0:
239,115,113710,1,0,3:0:0:0:
135,111,113865,1,8,0:0:0:0:
239,226,114097,6,0,L|247:288,3,51.7500009870529,8|0|0|0,0:0|0:0|0:0|0:0,0:0:0:0:
281,283,114406,1,0,3:0:0:0:
316,286,114483,1,0,3:0:0:0:
407,236,114638,1,8,0:0:0:0:
372,239,114715,1,8,0:0:0:0:
283,185,114870,1,0,3:0:0:0:
318,188,114947,1,0,3:0:0:0:
409,138,115102,1,8,0:0:0:0:
407,340,115334,1,0,3:0:0:0:
256,192,115489,12,0,120514,0:0:0:0:
