osu file format v14

[General]
AudioFilename: audio.mp3
AudioLeadIn: 0
PreviewTime: 95231
Countdown: 0
SampleSet: Soft
StackLeniency: 0.2
Mode: 0
LetterboxInBreaks: 0
WidescreenStoryboard: 1

[Editor]
DistanceSpacing: 1
BeatDivisor: 4
GridSize: 4
TimelineZoom: 1.8

[Metadata]
Title:Completeness Under Incompleteness
TitleUnicode:Completeness Under Incompleteness
Artist:Camellia as "Reverse of Riot"
ArtistUnicode:かめりあ as "Reverse of Riot"
Creator:Sonix
Version:GRAVITY
Source:SOUND VOLTEX III GRAVITY WARS
Tags:The 5th KAC Original song contest GRAVITATIONAL RADAR EPISODE 18 SDVX KONAMI BEMANI RIOT DESTRUDO Artcore
BeatmapID:1346151
BeatmapSetID:634431

[Difficulty]
HPDrainRate:6.5
CircleSize:4.1
OverallDifficulty:9
ApproachRate:9.3
SliderMultiplier:1.8
SliderTickRate:1

[Events]
//Background and Video events
0,0,"32584.jpg",0,0
//Break Periods
//Storyboard Layer 0 (Background)
//Storyboard Layer 1 (Fail)
//Storyboard Layer 2 (Pass)
//Storyboard Layer 3 (Foreground)
//Storyboard Sound Samples

[TimingPoints]
600,309.278350515464,4,2,1,20,1,0
9955,-100,4,2,1,22,0,0
10032,-100,4,2,1,24,0,0
10110,-100,4,2,1,26,0,0
10187,-100,4,2,1,28,0,0
10264,-100,4,2,1,30,0,0
10342,-100,4,2,1,32,0,0
10419,-100,4,2,1,34,0,0
10496,-90.9090909090909,4,2,1,40,0,0
16682,-83.3333333333333,4,2,1,40,0,0
20393,-133.333333333333,4,2,1,40,0,0
21630,-100,4,2,1,40,0,0
27820,309.278350515464,4,2,1,40,1,0
28270,309.278350515464,4,2,1,40,1,0
29500,309.278350515464,4,2,1,40,1,0
29970,309.278350515464,4,2,1,40,1,0
31520,309.278350515464,4,2,1,40,1,0
40643,-80,4,2,1,40,0,0
40952,-66.6666666666667,4,2,1,40,0,0
41416,-133.333333333333,4,2,1,40,0,0
46365,-100,4,2,1,40,0,0
51313,-133.333333333333,4,2,1,40,0,0
57344,-117.647058823529,4,2,1,40,0,0
58581,-100,4,2,1,40,0,0
59818,-86.9565217391304,4,2,1,40,0,0
62138,-86.9565217391304,4,2,1,5,0,0
62447,-100,4,2,1,10,0,0
63066,-100,4,2,1,20,0,0
63684,-100,4,2,1,30,0,0
64303,-100,4,2,1,40,0,0
65849,-83.3333333333333,4,2,1,40,0,0
66159,-71.4285714285714,4,2,1,40,0,1
85952,-117.647058823529,4,2,1,40,0,0
89509,-83.3333333333333,4,2,1,40,0,0
90901,-76.9230769230769,4,2,1,40,0,0
98324,-71.4285714285714,4,2,1,40,0,1
100411,-66.6666666666667,4,2,1,40,0,1
100643,-62.5,4,2,1,40,0,1
100952,-71.4285714285714,4,2,1,40,0,1
115334,-71.4285714285714,4,2,1,40,0,0

[Colours]
Combo1 : 0,152,225
Combo2 : 255,255,255
Combo3 : 172,81,255

[HitObjects]
157,92,600,6,0,L|257:84,1,90
246,84,909,1,0,0:0:0:0:
99,187,1063,1,0,0:0:0:0:
99,187,1218,2,0,L|199:179,1,90
189,180,1527,1,0,0:0:0:0:
240,254,1682,2,0,P|270:221|277:172,2,90
277,177,2146,1,0,0:0:0:0:
150,263,2301,2,0,P|163:305|202:336,1,90
240,254,2610,1,0,0:0:0:0:
150,263,2764,2,0,P|107:249|76:210,1,90
277,177,3074,6,0,L|371:183,1,90
353,253,3383,2,0,L|447:259,1,90
442,258,3692,1,0,0:0:0:0:
277,177,3847,2,0,P|240:240|248:280,2,90
436,154,4311,6,0,P|443:107|429:54,1,90
306,109,4620,2,0,P|295:65|304:21,1,90
303,21,4929,1,0,0:0:0:0:
126,88,5084,1,0,0:0:0:0:
306,109,5239,2,0,P|314:65|303:21,1,90
362,207,5548,6,0,P|290:219|255:206,1,90
274,215,5857,2,0,P|202:203|167:216,1,90
362,207,6167,2,0,P|408:150|414:113,1,90
412,135,6476,2,0,P|429:93|462:63,1,90
505,195,6785,1,0,0:0:0:0:
412,135,6940,1,0,0:0:0:0:
306,109,7094,2,0,P|257:84|231:39,1,90
237,55,7404,1,0,0:0:0:0:
461,63,7558,1,0,0:0:0:0:
306,109,7713,2,0,P|257:84|231:39,1,90
87,126,8022,6,0,P|58:172|61:223,1,90
229,258,8331,2,0,P|258:212|255:161,1,90
56,206,8641,2,0,P|73:257|115:287,1,90
259,177,8950,6,0,L|252:145,5,30
281,137,9259,2,0,P|346:120|419:133,1,135,8|0,0:0|0:0,0:0:0:0:
488,246,9569,1,0,0:0:0:0:
488,246,9646,1,0,0:0:0:0:
488,246,9724,2,0,P|423:263|350:250,1,135,8|0,0:0|0:0,0:0:0:0:
313,242,10032,1,0,0:0:0:0:
267,241,10110,1,0,0:0:0:0:
224,254,10187,1,0,0:0:0:0:
186,278,10264,1,0,0:0:0:0:
145,298,10342,1,0,0:0:0:0:
97,293,10419,1,0,0:0:0:0:
52,259,10496,6,0,P|35:199|42:148,1,99.0000030212403,0|0,3:0|0:0,0:0:0:0:
138,98,10806,2,0,P|187:99|233:83,1,99.0000030212403,8|0,0:0|0:0,0:0:0:0:
281,68,11038,1,0,0:0:0:0:
330,70,11115,2,0,P|358:73|388:84,2,49.5000015106202,0|0|8,0:0|0:0|0:0,0:0:0:0:
103,168,11424,2,0,P|61:121|62:74,1,99.0000030212403,0|8,3:0|0:0,0:0:0:0:
195,174,11734,6,0,P|175:233|134:256,1,99.0000030212403,0|0,3:0|3:0,3:0:0:0:
263,280,12043,2,0,L|375:287,1,99.0000030212403,8|0,0:0|0:0,0:0:0:0:
391,288,12275,1,0,0:0:0:0:
410,289,12352,1,0,0:0:0:0:
429,290,12429,1,0,0:0:0:0:
447,291,12507,1,8,0:0:0:0:
275,360,12661,2,0,P|204:336|182:292,1,99.0000030212403,0|0,3:0|0:0,0:0:0:0:
292,205,12971,6,0,P|294:153|269:111,1,99.0000030212403,0|0,3:0|0:0,0:0:0:0:
311,115,13203,1,0,0:0:0:0:
350,117,13280,1,0,3:0:0:0:
207,178,13435,1,0,0:0:0:0:
167,173,13512,1,0,0:0:0:0:
127,168,13589,1,0,3:0:0:0:
292,205,13744,1,0,0:0:0:0:
294,156,13821,1,0,0:0:0:0:
271,113,13898,2,0,P|260:56|272:4,1,99.0000030212403,0|8,3:0|0:0,0:0:0:0:
267,16,14208,5,0,3:0:0:0:
168,12,14517,1,0,3:0:0:0:
74,43,14826,1,0,3:0:0:0:
18,125,15136,1,0,3:0:0:0:
17,223,15445,6,0,L|140:228,1,99.0000030212403,8|0,3:0|3:0,3:0:0:0:
264,228,15754,1,0,3:0:0:0:
200,189,15909,1,0,3:0:0:0:
200,265,16063,1,0,3:0:0:0:
275,135,16218,1,0,3:0:0:0:
115,227,16372,1,0,3:0:0:0:
270,316,16527,1,0,3:0:0:0:
275,135,16682,6,0,L|163:135,1,107.999996704102,8|0,3:0|3:0,3:0:0:0:
264,228,16991,1,0,3:0:0:0:
264,18,17146,1,0,3:0:0:0:
140,187,17301,1,0,3:0:0:0:
140,58,17455,1,0,3:0:0:0:
340,123,17610,1,0,3:0:0:0:
140,187,17764,1,0,3:0:0:0:
347,252,17919,6,0,L|404:256,3,53.9999983520508,8|0|0|0,3:0|3:0|3:0|3:0,0:0:0:0:
420,216,18228,5,8,3:0:0:0:
452,188,18306,1,0,3:0:0:0:
472,148,18383,1,0,3:0:0:0:
474,105,18460,1,0,3:0:0:0:
454,66,18538,5,8,3:0:0:0:
417,43,18615,1,0,3:0:0:0:
373,43,18692,1,0,3:0:0:0:
331,55,18770,1,0,3:0:0:0:
289,64,18847,1,8,3:0:0:0:
246,66,18924,1,0,3:0:0:0:
203,57,19002,1,0,3:0:0:0:
162,43,19079,1,0,3:0:0:0:
111,52,19156,6,0,L|75:59,6,26.9999991760254
125,99,19465,2,0,L|151:104,3,26.9999991760254
57,134,19620,5,0,3:0:0:0:
38,184,19697,1,0,3:0:0:0:
33,238,19775,5,0,0:0:0:0:
86,232,19852,1,0,0:0:0:0:
138,241,19929,1,0,0:0:0:0:
184,269,20007,1,0,0:0:0:0:
237,276,20084,1,0,0:0:0:0:
290,262,20161,1,0,0:0:0:0:
326,222,20238,1,0,0:0:0:0:
337,168,20316,1,0,0:0:0:0:
315,107,20393,6,0,L|247:101,1,67.5000025749208,0|0,3:0|3:0,3:0:0:0:
247,101,20703,1,8,0:0:0:0:
127,34,20857,6,0,L|181:21,1,33.7500012874604,8|0,0:0|3:0,0:0:0:0:
133,156,21089,6,0,L|79:143,1,33.7500012874604,8|0,0:0|3:0,0:0:0:0:
247,101,21321,5,8,0:0:0:0:
425,76,21630,5,0,3:0:0:0:
425,76,21785,1,0,3:0:0:0:
247,101,21940,1,8,0:0:0:0:
485,125,22094,1,0,0:0:0:0:
486,116,22172,1,0,0:0:0:0:
487,107,22249,1,0,0:0:0:0:
332,57,22404,1,0,3:0:0:0:
396,25,22558,2,0,L|454:6,1,45
268,25,22713,2,0,L|210:6,1,45
392,96,22868,6,0,L|383:189,1,90,0|0,3:0|3:0,3:0:0:0:
383,185,23177,1,8,0:0:0:0:
232,88,23331,1,0,0:0:0:0:
186,81,23409,1,0,0:0:0:0:
140,88,23486,1,0,0:0:0:0:
103,114,23563,1,0,0:0:0:0:
81,154,23641,1,0,3:0:0:0:
186,184,23795,1,8,0:0:0:0:
268,113,23950,6,8,P|288:136|294:157,1,45,8|8,3:0|0:0,0:0:0:0:
186,184,24105,1,0,3:0:0:0:
186,184,24259,1,0,3:0:0:0:
292,149,24414,2,0,P|365:136|397:145,1,90,8|0,0:0|0:0,0:0:0:0:
423,149,24646,1,0,0:0:0:0:
467,157,24723,2,0,L|520:152,2,45,0|0|0,0:0|0:0|3:0,0:0:0:0:
316,264,25032,5,8,0:0:0:0:
306,262,25110,1,0,0:0:0:0:
297,261,25187,1,0,0:0:0:0:
288,260,25264,1,0,0:0:0:0:
278,259,25342,2,0,P|213:230|200:211,1,90,0|0,3:0|3:0,3:0:0:0:
379,138,25651,1,8,0:0:0:0:
194,168,25806,2,0,L|246:160,1,45,0|0,0:0|3:0,0:0:0:0:
230,112,25960,2,0,L|282:104,1,45
266,55,26115,1,0,3:0:0:0:
379,138,26270,1,8,0:0:0:0:
266,55,26424,1,0,3:0:0:0:
224,37,26502,1,8,3:0:0:0:
180,27,26579,6,0,P|93:30|72:43,1,90,0|0,3:0|3:0,3:0:0:0:
141,106,26888,1,8,0:0:0:0:
69,98,27043,2,0,L|41:135,1,45
141,106,27197,2,0,L|148:164,1,45
149,186,27352,1,0,3:0:0:0:
41,330,27507,1,8,0:0:0:0:
72,361,27584,1,0,0:0:0:0:
115,371,27661,1,0,0:0:0:0:
160,365,27739,1,0,0:0:0:0:
203,354,27820,2,0,L|301:347,1,90,0|0,3:0|3:0,3:0:0:0:
487,249,28129,1,0,0:0:0:0:
461,348,28270,5,0,0:0:0:0:
420,329,28347,1,0,0:0:0:0:
392,293,28424,1,0,0:0:0:0:
384,248,28501,1,0,0:0:0:0:
387,202,28579,2,0,P|395:148|384:111,1,90,0|8,3:0|0:0,0:0:0:0:
201,168,28888,2,0,L|263:163,1,45,0|8,3:0|3:0,3:0:0:0:
291,161,29043,1,0,3:0:0:0:
233,39,29197,1,0,3:0:0:0:
291,161,29352,2,0,P|300:210|289:258,1,90,8|0,0:0|0:0,0:0:0:0:
282,288,29577,1,0,0:0:0:0:
285,332,29654,2,0,L|298:378,2,45,0|0|0,0:0|0:0|3:0,0:0:0:0:
297,375,29970,5,8,0:0:0:0:
341,378,30047,1,0,0:0:0:0:
385,374,30124,1,0,0:0:0:0:
425,354,30201,1,0,0:0:0:0:
455,320,30279,2,0,P|475:263|470:216,1,90,0|8,3:0|0:0,0:0:0:0:
474,234,30588,1,0,3:0:0:0:
296,203,30743,2,8,L|356:213,1,45
272,130,30897,1,0,3:0:0:0:
260,133,30975,2,0,P|217:208|231:244,1,90,8|0,0:0|0:0,0:0:0:0:
232,251,31207,1,8,0:0:0:0:
242,294,31284,1,0,0:0:0:0:
215,330,31361,1,8,0:0:0:0:
169,335,31439,1,0,0:0:0:0:
127,314,31516,6,0,P|75:299|33:311,1,90,0|0,3:0|3:0,3:0:0:0:
41,306,31829,1,8,0:0:0:0:
138,213,31983,1,0,0:0:0:0:
164,176,32061,1,0,0:0:0:0:
171,131,32138,1,0,0:0:0:0:
157,88,32215,1,0,0:0:0:0:
121,59,32293,1,0,3:0:0:0:
241,118,32447,1,0,0:0:0:0:
285,124,32525,1,0,0:0:0:0:
329,117,32602,1,0,0:0:0:0:
368,96,32679,1,0,0:0:0:0:
394,58,32757,1,0,3:0:0:0:
293,19,32911,1,0,3:0:0:0:
329,221,33066,1,8,0:0:0:0:
329,221,33221,6,0,L|266:211,1,45
392,185,33375,2,0,L|455:195,1,45
330,150,33530,2,0,P|320:97|331:58,1,90,0|8,3:0|0:0,0:0:0:0:
416,109,33839,1,0,3:0:0:0:
460,113,33916,1,0,0:0:0:0:
505,118,33994,1,0,3:0:0:0:
442,41,34148,1,0,3:0:0:0:
472,218,34303,2,0,P|460:294|448:312,1,90,8|0,0:0|0:0,0:0:0:0:
412,322,34535,1,0,0:0:0:0:
368,313,34612,2,0,P|332:309|313:313,2,45,0|0|0,0:0|0:0|3:0,0:0:0:0:
323,310,34922,5,8,0:0:0:0:
278,307,34999,1,0,0:0:0:0:
234,317,35076,1,0,0:0:0:0:
188,318,35154,1,0,0:0:0:0:
147,298,35231,1,0,3:0:0:0:
147,298,35385,5,0,3:0:0:0:
222,185,35540,2,0,P|235:119|225:93,1,90,8|0,0:0|0:0,0:0:0:0:
220,54,35772,1,0,3:0:0:0:
252,23,35849,2,0,P|276:9|311:6,2,45,0|0|0,0:0|0:0|3:0,0:0:0:0:
365,9,36159,1,8,0:0:0:0:
344,129,36313,6,0,L|292:134,1,45,0|8,3:0|3:0,0:0:0:0:
254,139,36468,1,0,3:0:0:0:
365,9,36623,1,0,3:0:0:0:
344,129,36777,2,0,L|328:227,1,90,8|0,0:0|0:0,0:0:0:0:
322,262,37009,1,0,0:0:0:0:
317,288,37087,1,0,0:0:0:0:
313,314,37164,1,0,0:0:0:0:
309,340,37241,1,0,3:0:0:0:
208,249,37396,5,0,0:0:0:0:
167,229,37473,1,0,0:0:0:0:
122,220,37550,1,0,0:0:0:0:
76,225,37628,1,0,0:0:0:0:
36,246,37705,1,0,3:0:0:0:
120,327,37860,1,0,3:0:0:0:
91,131,38014,2,0,P|99:76|130:47,1,90,8|0,0:0|0:0,0:0:0:0:
162,33,38246,1,0,0:0:0:0:
207,27,38324,1,0,0:0:0:0:
250,39,38401,1,0,0:0:0:0:
291,55,38478,2,0,P|361:57|385:47,1,90,0|8,3:0|0:0,0:0:0:0:
363,172,38788,6,0,L|310:166,1,45,0|8,3:0|3:0,0:0:0:0:
273,162,38942,1,0,3:0:0:0:
452,115,39097,1,0,0:0:0:0:
464,148,39174,1,0,0:0:0:0:
466,183,39251,1,0,0:0:0:0:
459,218,39329,1,0,0:0:0:0:
445,251,39406,1,0,0:0:0:0:
440,286,39483,1,0,0:0:0:0:
443,331,39561,5,0,0:0:0:0:
412,364,39638,1,0,0:0:0:0:
367,366,39715,1,0,0:0:0:0:
323,351,39793,1,0,0:0:0:0:
290,320,39870,1,0,0:0:0:0:
244,292,39947,1,0,0:0:0:0:
189,287,40025,1,0,0:0:0:0:
135,303,40102,1,0,0:0:0:0:
102,351,40179,1,0,0:0:0:0:
83,157,40334,5,0,3:0:0:0:
56,151,40411,1,0,3:0:0:0:
29,145,40489,1,8,0:0:0:0:
192,126,40643,5,0,3:0:0:0:
200,152,40720,1,0,3:0:0:0:
209,179,40798,1,8,0:0:0:0:
112,58,40952,5,0,3:0:0:0:
130,39,41029,1,0,3:0:0:0:
149,17,41107,1,8,0:0:0:0:
253,173,41416,6,0,P|301:176|328:170,1,67.5000025749208
192,126,41880,2,0,P|190:217|238:249,1,135.000005149842
84,264,42499,1,0,0:0:0:0:
232,284,42808,1,0,0:0:0:0:
232,284,42963,1,0,0:0:0:0:
232,284,43581,5,0,0:0:0:0:
264,293,43659,1,0,0:0:0:0:
297,297,43736,1,0,0:0:0:0:
330,294,43813,1,0,0:0:0:0:
363,289,43891,2,0,P|413:287|440:292,1,67.5000025749208
430,289,44355,2,0,P|413:194|433:160,1,135.000005149842
429,164,44973,1,0,0:0:0:0:
278,111,46210,1,0,0:0:0:0:
185,156,46365,5,0,0:0:0:0:
186,164,46442,1,0,0:0:0:0:
187,171,46520,2,0,L|197:269,1,90
239,272,46751,2,0,L|248:182,1,90
291,168,46983,2,0,L|301:266,1,90
343,269,47214,2,0,L|352:179,1,90
356,131,47447,1,0,0:0:0:0:
465,119,47602,5,0,0:0:0:0:
455,120,47679,1,0,0:0:0:0:
446,121,47757,2,0,L|351:132,1,90
256,202,47989,2,0,L|345:212,1,90
451,139,48221,2,0,L|356:132,1,90
250,183,48453,2,0,L|335:210,1,90
378,223,48684,1,0,0:0:0:0:
234,333,48839,5,0,0:0:0:0:
225,333,48916,1,0,0:0:0:0:
215,333,48994,2,0,L|125:336,1,90
92,292,49226,2,0,L|182:295,1,90
209,247,49458,2,0,L|119:250,1,90
94,201,49690,2,0,L|184:204,1,90
229,206,49922,1,0,0:0:0:0:
380,110,50076,5,0,0:0:0:0:
389,109,50154,1,0,0:0:0:0:
397,109,50231,2,0,L|488:105,1,90
341,168,50463,2,0,L|292:91,1,90
421,184,50695,2,0,L|378:264,1,90
375,299,50927,1,0,0:0:0:0:
380,334,51004,1,0,0:0:0:0:
345,362,51081,5,0,0:0:0:0:
301,373,51159,1,0,0:0:0:0:
256,366,51236,1,0,0:0:0:0:
210,343,51313,6,0,P|154:334|119:346,1,67.5000025749208,0|0,3:0|0:0,0:0:0:0:
144,335,51777,2,0,P|109:288|119:209,1,135.000005149842
115,214,52396,1,0,0:0:0:0:
245,178,52705,1,0,0:0:0:0:
245,178,52860,1,0,0:0:0:0:
245,178,53478,5,0,0:0:0:0:
236,144,53556,1,0,0:0:0:0:
228,111,53633,1,0,0:0:0:0:
220,78,53710,1,0,0:0:0:0:
270,85,53788,2,0,P|323:89|344:80,1,67.5000025749208
415,71,54251,1,0,0:0:0:0:
487,106,54561,1,0,0:0:0:0:
502,185,54870,1,0,0:0:0:0:
333,298,55952,5,0,0:0:0:0:
333,298,56107,2,0,P|223:303|321:178,1,337.500012874604
274,243,57035,6,0,L|188:232,1,67.5000025749208
298,167,57344,2,0,P|383:155|252:48,1,382.500007295609
330,86,58272,6,0,L|414:96,1,76.5000014591217
297,167,58581,2,0,P|203:175|348:300,1,450
258,259,59509,5,0,0:0:0:0:
433,217,59664,1,0,0:0:0:0:
297,167,59818,2,0,B|321:86|440:83|553:196|413:250|407:274|473:356|473:356|385:337|371:244|234:321|190:386|108:167|192:134|119:98|42:107|17:144,1,931.500017766953
82,82,62138,6,0,L|134:87,3,51.7500009870529
141,57,62447,5,8,0:0:0:0:
162,52,62525,1,0,0:0:0:0:
184,47,62602,1,0,0:0:0:0:
206,43,62679,1,0,0:0:0:0:
233,58,62757,1,8,0:0:0:0:
259,60,62834,1,0,0:0:0:0:
285,62,62911,1,0,0:0:0:0:
312,64,62989,1,0,0:0:0:0:
284,105,63066,5,8,0:0:0:0:
271,138,63143,1,0,0:0:0:0:
269,174,63221,1,0,0:0:0:0:
278,208,63298,1,0,0:0:0:0:
305,237,63375,1,8,0:0:0:0:
316,275,63452,1,0,0:0:0:0:
315,315,63530,1,0,0:0:0:0:
301,352,63607,1,0,0:0:0:0:
258,336,63684,5,8,0:0:0:0:
214,323,63762,1,0,0:0:0:0:
169,328,63839,1,0,0:0:0:0:
126,341,63916,1,0,0:0:0:0:
76,332,63994,5,8,3:0:0:0:
41,296,64071,1,0,3:0:0:0:
28,248,64148,1,0,3:0:0:0:
41,199,64226,1,0,3:0:0:0:
94,202,64303,5,8,3:0:0:0:
147,196,64380,1,0,3:0:0:0:
190,163,64458,1,0,3:0:0:0:
235,135,64535,1,0,3:0:0:0:
291,121,64612,1,8,3:0:0:0:
354,129,64690,1,0,3:0:0:0:
412,161,64767,1,0,3:0:0:0:
439,227,64844,1,0,3:0:0:0:
427,303,64922,6,0,L|333:309,1,90,0|0,0:0|0:0,3:0:0:0:
338,308,65231,1,8,0:0:0:0:
351,206,65385,2,0,L|396:203,1,45,8|0,0:0|3:0,0:0:0:0:
338,308,65617,2,0,L|293:311,1,45,8|0,0:0|3:0,0:0:0:0:
182,166,65849,2,0,P|106:159|71:175,1,107.999996704102,4|0,1:0|0:0,1:0:0:0:
351,108,66159,6,0,P|365:180|343:240,1,125.999996154785,0|0,3:0|0:0,0:0:0:0:
342,279,66391,1,0,0:0:0:0:
348,328,66468,1,0,0:0:0:0:
321,370,66545,1,0,0:0:0:0:
270,377,66623,1,0,0:0:0:0:
131,167,66777,1,0,0:0:0:0:
80,162,66854,1,0,0:0:0:0:
60,208,66931,1,0,0:0:0:0:
98,241,67009,1,0,0:0:0:0:
141,216,67087,1,0,0:0:0:0:
167,165,67164,1,0,0:0:0:0:
155,110,67241,1,0,0:0:0:0:
167,54,67318,1,0,0:0:0:0:
209,15,67396,6,0,B|264:10|264:10|276:14|276:14|333:10,1,125.999996154785,0|0,3:0|0:0,0:0:0:0:
283,231,67705,1,8,0:0:0:0:
209,15,67860,2,0,B|145:22|145:22|103:75|103:15|21:54|11:88|10:141,1,251.999992309571,0|0,3:0|3:0,0:0:0:0:
166,233,68324,2,0,L|26:237,2,125.999996154785,8|0|0,0:0|3:0|3:0,0:0:0:0:
363,75,68788,5,0,0:0:0:0:
398,86,68865,1,0,0:0:0:0:
429,106,68942,1,8,0:0:0:0:
448,138,69020,1,0,0:0:0:0:
456,174,69097,1,0,0:0:0:0:
447,210,69174,1,0,0:0:0:0:
430,243,69251,1,0,0:0:0:0:
419,279,69329,1,0,0:0:0:0:
421,316,69406,2,0,P|423:349|435:377,1,62.9999980773926
349,175,69638,5,0,0:0:0:0:
312,165,69715,1,0,0:0:0:0:
273,163,69793,1,0,0:0:0:0:
237,174,69870,1,0,3:0:0:0:
202,189,69947,1,0,0:0:0:0:
165,198,70025,1,0,3:0:0:0:
127,201,70102,1,0,0:0:0:0:
89,197,70179,1,8,0:0:0:0:
54,181,70257,1,0,0:0:0:0:
155,22,70411,5,8,0:0:0:0:
186,27,70489,2,0,L|267:38,1,62.9999980773926,0|8,3:0|0:0,0:0:0:0:
93,59,70643,2,0,L|62:-16,1,62.9999980773926,0|0,3:0|0:0,0:0:0:0:
173,120,70798,1,8,0:0:0:0:
142,174,70875,1,0,0:0:0:0:
140,236,70952,1,0,3:0:0:0:
171,291,71030,1,0,0:0:0:0:
227,317,71107,6,0,B|283:312|283:312|290:317|290:317|359:311,1,125.999996154785,0|0,3:0|0:0,0:0:0:0:
401,303,71339,1,0,0:0:0:0:
450,312,71416,2,0,L|529:331,2,62.9999980773926,8|0|0,0:0|0:0|0:0,0:0:0:0:
382,204,71726,1,0,0:0:0:0:
370,155,71803,1,0,0:0:0:0:
373,104,71880,1,0,3:0:0:0:
397,59,71958,1,0,0:0:0:0:
441,35,72035,2,0,L|503:28,1,62.9999980773926,8|0,0:0|0:0,0:0:0:0:
373,104,72190,2,0,L|311:97,1,62.9999980773926
464,127,72344,2,0,P|424:194|378:203,1,125.999996154785,0|0,3:0|3:0,3:0:0:0:
185,40,72654,1,8,0:0:0:0:
185,40,72808,2,0,B|129:45|91:16|91:16|91:60|50:108,1,188.999994232178
43,118,73117,5,0,3:0:0:0:
295,131,73272,1,8,0:0:0:0:
108,165,73427,2,0,L|201:148,1,62.9999980773926,0|8,3:0|3:0,3:0:0:0:
295,131,73581,1,0,3:0:0:0:
262,317,73736,5,0,0:0:0:0:
324,321,73813,1,0,0:0:0:0:
378,304,73891,1,8,0:0:0:0:
419,276,73968,1,0,0:0:0:0:
443,239,74045,1,0,0:0:0:0:
454,202,74123,1,0,0:0:0:0:
455,170,74200,2,0,L|446:102,1,62.9999980773926
384,120,74355,2,0,L|375:52,1,62.9999980773926,0|0,3:0|0:0,0:0:0:0:
313,70,74509,1,8,0:0:0:0:
275,64,74587,1,0,0:0:0:0:
237,58,74664,1,0,0:0:0:0:
199,53,74741,1,0,0:0:0:0:
161,46,74818,6,0,B|110:38|110:38|101:64,1,62.9999980773926,0|0,3:0|0:0,0:0:0:0:
104,152,74973,6,0,B|122:200|122:200|149:194,1,62.9999980773926,8|0,0:0|0:0,0:0:0:0:
229,148,75128,6,0,B|261:107|261:107|243:87,1,62.9999980773926,8|0,0:0|0:0,0:0:0:0:
133,197,75282,5,8,0:0:0:0:
133,228,75360,1,0,3:0:0:0:
258,227,75514,1,8,0:0:0:0:
258,258,75592,2,0,P|212:331|164:354,1,125.999996154785,0|8,3:0|0:0,0:0:0:0:
258,258,75901,2,8,L|321:254,1,62.9999980773926
384,247,76056,5,0,3:0:0:0:
309,145,76210,1,0,0:0:0:0:
292,96,76288,1,0,0:0:0:0:
318,53,76365,1,8,0:0:0:0:
367,44,76442,1,0,0:0:0:0:
414,62,76520,1,0,0:0:0:0:
309,145,76674,1,0,0:0:0:0:
259,151,76751,1,0,0:0:0:0:
208,144,76829,1,0,3:0:0:0:
162,122,76906,1,0,0:0:0:0:
99,129,76983,1,8,0:0:0:0:
50,169,77061,1,0,0:0:0:0:
37,230,77138,1,0,0:0:0:0:
58,289,77215,1,0,0:0:0:0:
113,320,77293,6,0,L|241:312,1,125.999996154785,0|0,3:0|3:0,3:0:0:0:
417,248,77602,1,8,0:0:0:0:
245,166,77757,2,0,B|179:126|127:211|59:172,1,188.999994232178
33,162,78066,1,0,3:0:0:0:
218,239,78221,2,0,P|296:226|323:179,1,125.999996154785,8|0,0:0|0:0,0:0:0:0:
450,164,78530,6,0,L|515:173,3,62.9999980773926,0|0|0|0,3:0|0:0|0:0|0:0,0:0:0:0:
487,114,78839,1,8,0:0:0:0:
452,77,78916,1,0,0:0:0:0:
403,62,78994,1,0,0:0:0:0:
359,66,79071,1,0,0:0:0:0:
321,88,79148,1,0,0:0:0:0:
283,64,79226,1,0,0:0:0:0:
245,86,79303,1,0,0:0:0:0:
395,171,79458,6,0,L|457:182,1,62.9999980773926,8|0,0:0|0:0,0:0:0:0:
450,244,79612,2,0,L|512:255,1,62.9999980773926,8|0,0:0|0:0,0:0:0:0:
332,326,79767,5,0,3:0:0:0:
294,275,79844,1,0,0:0:0:0:
282,212,79922,1,0,0:0:0:0:
297,151,79999,1,0,0:0:0:0:
295,88,80076,1,8,0:0:0:0:
256,37,80154,1,0,0:0:0:0:
194,22,80231,1,0,0:0:0:0:
134,41,80308,1,8,0:0:0:0:
71,48,80385,6,0,L|6:41,1,62.9999980773926,0|8,3:0|3:0,0:0:0:0:
193,126,80540,2,0,L|258:119,1,62.9999980773926,0|0,3:0|0:0,0:0:0:0:
64,189,80695,1,8,0:0:0:0:
60,232,80772,1,8,0:0:0:0:
57,269,80849,1,8,0:0:0:0:
54,300,80927,1,8,0:0:0:0:
102,289,81004,6,0,P|196:277|230:290,1,125.999996154785,0|0,3:0|0:0,0:0:0:0:
271,302,81236,1,0,0:0:0:0:
320,311,81313,1,8,0:0:0:0:
370,304,81391,1,0,0:0:0:0:
416,285,81468,1,0,0:0:0:0:
321,166,81623,2,0,L|385:176,1,62.9999980773926,8|0,0:0|0:0,0:0:0:0:
286,96,81777,2,0,L|350:106,1,62.9999980773926,0|0,3:0|0:0,0:0:0:0:
236,165,81932,1,8,0:0:0:0:
186,175,82009,1,0,0:0:0:0:
135,168,82087,1,0,0:0:0:0:
92,141,82164,1,0,0:0:0:0:
60,101,82241,6,0,P|25:184|33:227,1,125.999996154785,0|0,3:0|3:0,3:0:0:0:
194,25,82550,1,8,0:0:0:0:
120,240,82705,2,0,B|205:239|205:239|220:228|220:228|309:228,1,188.999994232178
337,228,83014,1,0,3:0:0:0:
268,334,83169,1,8,0:0:0:0:
236,228,83323,1,8,0:0:0:0:
205,125,83478,1,0,3:0:0:0:
236,228,83633,1,0,3:0:0:0:
88,86,83788,2,0,B|81:123|67:148|67:148|81:172|80:212,1,125.999996154785,8|8,0:0|0:0,0:0:0:0:
88,275,84020,5,0,3:0:0:0:
379,181,84174,2,0,L|390:253,1,62.9999980773926,0|0,3:0|3:0,3:0:0:0:
236,228,84406,1,8,3:0:0:0:
223,166,84483,1,8,0:0:0:0:
238,104,84561,1,8,3:0:0:0:
274,53,84638,1,8,0:0:0:0:
330,25,84715,1,8,3:0:0:0:
379,181,84870,6,0,L|310:184,1,62.9999980773926,0|0,3:0|3:0,3:0:0:0:
284,185,85025,1,8,0:0:0:0:
392,324,85179,2,0,L|454:321,2,62.9999980773926,0|0|8,3:0|3:0|0:0,0:0:0:0:
379,181,85489,2,0,L|316:183,1,62.9999980773926,0|0,3:0|3:0,3:0:0:0:
284,185,85643,2,0,L|243:174,6,31.4999990386963,8|0|0|0|0|0|0,0:0|0:0|0:0|0:0|0:0|0:0|0:0,0:0:0:0:
247,220,85952,1,0,0:0:0:0:
80,104,86107,5,0,0:0:0:0:
72,136,86184,1,0,0:0:0:0:
64,169,86262,1,0,0:0:0:0:
56,201,86339,2,0,L|41:254,1,38.2500007295609
271,123,86571,5,0,0:0:0:0:
263,155,86648,1,0,0:0:0:0:
255,188,86726,1,0,0:0:0:0:
247,220,86803,2,0,L|232:273,1,38.2500007295609
326,41,87035,6,0,B|246:-5|215:65|154:26,1,153.000002918243
177,36,87499,1,0,0:0:0:0:
247,220,87654,1,0,0:0:0:0:
161,143,87808,2,0,P|93:139|46:164,2,114.750002188683
161,143,88427,1,0,0:0:0:0:
347,213,88581,5,0,0:0:0:0:
314,215,88658,1,0,0:0:0:0:
280,217,88736,1,0,0:0:0:0:
247,220,88813,2,0,L|191:224,1,38.2500007295609
459,307,89045,5,0,0:0:0:0:
426,309,89122,1,0,0:0:0:0:
392,311,89200,1,0,0:0:0:0:
359,314,89277,2,0,L|303:318,1,38.2500007295609
132,226,89509,6,0,L|138:282,1,53.9999983520508,0|8,0:0|0:0,0:0:0:0:
140,306,89664,1,0,3:0:0:0:
283,78,89818,1,0,3:0:0:0:
34,184,90128,1,0,3:0:0:0:
283,78,90437,5,0,3:0:0:0:
263,127,90514,1,0,0:0:0:0:
293,171,90592,1,0,0:0:0:0:
273,220,90669,1,0,0:0:0:0:
303,264,90746,1,0,0:0:0:0:
283,313,90823,1,0,0:0:0:0:
313,357,90901,5,0,3:0:0:0:
136,232,91056,1,0,3:0:0:0:
412,294,91210,1,0,3:0:0:0:
198,331,91365,1,0,3:0:0:0:
374,81,91520,5,0,3:0:0:0:
136,232,91674,1,0,3:0:0:0:
436,180,91829,1,0,3:0:0:0:
160,118,91983,1,0,3:0:0:0:
313,357,92138,5,0,3:0:0:0:
374,81,92293,1,0,3:0:0:0:
313,357,92447,1,0,3:0:0:0:
160,118,92602,1,0,3:0:0:0:
412,294,92757,5,0,3:0:0:0:
260,58,92911,1,0,3:0:0:0:
198,331,93066,1,0,3:0:0:0:
260,58,93221,1,0,3:0:0:0:
198,331,93375,5,8,3:0:0:0:
192,273,93452,1,0,3:0:0:0:
236,233,93530,1,0,3:0:0:0:
289,207,93607,1,0,3:0:0:0:
314,154,93684,1,8,3:0:0:0:
308,96,93762,1,0,3:0:0:0:
270,51,93839,1,0,3:0:0:0:
211,51,93916,1,0,3:0:0:0:
224,120,93994,5,8,3:0:0:0:
175,170,94071,1,0,3:0:0:0:
106,182,94148,1,0,3:0:0:0:
67,241,94226,1,0,3:0:0:0:
83,308,94303,1,8,3:0:0:0:
139,348,94380,1,0,3:0:0:0:
209,339,94458,1,0,3:0:0:0:
271,308,94535,1,0,3:0:0:0:
340,315,94612,1,4,3:0:0:0:
256,192,94690,12,8,95540,0:0:0:0:
265,156,95849,5,0,3:0:0:0:
399,90,96004,1,0,0:0:0:0:
353,160,96159,1,0,0:0:0:0:
390,239,96313,1,0,0:0:0:0:
388,321,96468,2,0,P|314:327|258:311,1,116.999994644165
390,239,96932,1,0,0:0:0:0:
272,317,97087,5,0,0:0:0:0:
243,320,97164,1,0,0:0:0:0:
208,318,97241,1,0,0:0:0:0:
168,308,97318,1,0,0:0:0:0:
125,287,97396,1,0,0:0:0:0:
89,248,97473,1,0,0:0:0:0:
68,193,97550,1,0,0:0:0:0:
62,128,97628,1,0,0:0:0:0:
79,60,97705,6,0,P|164:42|214:52,1,116.999994644165
231,73,97937,2,0,P|289:75|344:58,1,116.999994644165
401,98,98169,1,0,0:0:0:0:
232,145,98324,5,4,1:0:0:0:
401,98,98478,1,0,0:0:0:0:
394,148,98556,1,0,0:0:0:0:
387,197,98633,1,0,0:0:0:0:
381,246,98710,2,0,L|372:313,1,62.9999980773926
243,303,98942,1,0,0:0:0:0:
289,284,99020,1,0,0:0:0:0:
335,265,99097,1,0,0:0:0:0:
381,246,99174,2,0,L|443:220,1,62.9999980773926
113,150,99406,6,0,B|135:219|89:274|89:274|161:264|202:304,1,251.999992309571
364,140,99870,1,0,0:0:0:0:
264,122,100025,1,0,0:0:0:0:
299,215,100179,2,0,P|371:238|428:217,1,125.999996154785
232,29,100411,2,0,P|175:79|166:136,1,135.000005149842
462,143,100643,2,0,P|445:83|374:37,1,144
165,125,100952,5,0,0:0:0:0:
183,66,101030,1,0,0:0:0:0:
232,29,101107,1,0,0:0:0:0:
299,215,101339,5,0,0:0:0:0:
83,117,101571,1,0,0:0:0:0:
416,40,101803,1,0,0:0:0:0:
148,164,102035,6,0,L|278:133,1,125.999996154785
204,24,102344,1,0,0:0:0:0:
26,260,102499,2,0,L|3:285,6,31.4999990386963
52,283,102808,5,0,0:0:0:0:
97,304,102885,1,0,0:0:0:0:
147,305,102963,1,0,0:0:0:0:
194,288,103040,1,0,0:0:0:0:
243,278,103117,1,0,0:0:0:0:
293,281,103195,1,0,0:0:0:0:
339,300,103272,1,0,0:0:0:0:
244,167,103427,5,0,0:0:0:0:
259,106,103504,1,0,0:0:0:0:
305,64,103581,1,0,0:0:0:0:
368,56,103659,1,0,0:0:0:0:
427,74,103736,1,0,0:0:0:0:
124,92,104045,5,0,0:0:0:0:
98,47,104123,1,0,0:0:0:0:
50,31,104200,1,0,0:0:0:0:
18,99,104277,1,0,0:0:0:0:
9,174,104355,1,0,0:0:0:0:
40,242,104432,1,0,0:0:0:0:
103,282,104509,5,4,3:0:0:0:
293,110,104741,1,4,3:0:0:0:
50,31,104973,1,4,3:0:0:0:
103,282,105205,1,4,3:0:0:0:
293,110,105437,6,0,L|160:122,1,125.999996154785,0|8,3:0|3:0,0:0:0:0:
167,121,105746,1,0,3:0:0:0:
287,202,105901,5,0,0:0:0:0:
337,205,105978,1,0,0:0:0:0:
387,208,106056,1,0,0:0:0:0:
436,213,106133,2,0,L|501:217,1,62.9999980773926
317,301,106365,5,0,0:0:0:0:
267,304,106442,1,0,0:0:0:0:
217,307,106520,1,0,0:0:0:0:
168,312,106597,2,0,L|103:316,1,62.9999980773926
337,205,106829,6,0,P|335:113|194:45,1,251.999992309571
225,161,107293,1,0,0:0:0:0:
467,94,107447,1,0,0:0:0:0:
225,161,107602,2,0,P|103:113|81:47,2,188.999994232178
225,161,108221,1,0,0:0:0:0:
408,116,108375,5,0,0:0:0:0:
408,168,108452,1,0,0:0:0:0:
408,220,108530,1,0,0:0:0:0:
408,272,108607,2,0,L|408:352,1,62.9999980773926
225,239,108839,5,0,0:0:0:0:
225,187,108916,1,0,0:0:0:0:
225,135,108994,1,0,0:0:0:0:
225,83,109071,2,0,L|225:21,1,62.9999980773926
112,264,109303,6,0,B|226:272|226:272|251:259|251:259|360:268,1,251.999992309571
265,61,109767,1,0,0:0:0:0:
268,329,109922,1,0,0:0:0:0:
130,118,110076,5,0,3:0:0:0:
0,177,110308,1,0,3:0:0:0:
112,264,110540,1,0,3:0:0:0:
18,56,110695,5,0,3:0:0:0:
262,252,110849,1,0,3:0:0:0:
187,259,110927,1,0,0:0:0:0:
112,264,111004,1,8,3:0:0:0:
382,57,111236,1,8,3:0:0:0:
357,76,111313,2,0,B|337:180|337:180|392:268,2,188.999994232178,0|0|8,3:0|0:0|0:0,0:0:0:0:
162,149,112087,5,0,3:0:0:0:
99,146,112164,1,0,0:0:0:0:
63,94,112241,1,0,3:0:0:0:
80,34,112318,1,0,0:0:0:0:
138,10,112396,1,0,0:0:0:0:
194,40,112473,1,0,0:0:0:0:
204,102,112550,5,0,0:0:0:0:
277,84,112627,1,0,0:0:0:0:
347,114,112705,1,0,0:0:0:0:
386,179,112782,1,0,0:0:0:0:
379,254,112859,1,0,0:0:0:0:
330,311,112937,1,0,0:0:0:0:
256,328,113014,1,0,0:0:0:0:
186,299,113091,1,0,0:0:0:0:
147,234,113169,6,0,L|140:168,1,62.9999980773926,0|0,3:0|0:0,0:0:0:0:
386,179,113401,2,0,L|379:245,1,62.9999980773926,0|0,3:0|0:0,0:0:0:0:
140,171,113633,2,0,L|133:105,1,62.9999980773926,0|0,3:0|0:0,0:0:0:0:
379,241,113865,2,0,L|372:307,1,62.9999980773926,0|0,3:0|0:0,0:0:0:0:
256,120,114097,5,0,0:0:0:0:
251,70,114174,1,0,0:0:0:0:
213,36,114251,1,0,0:0:0:0:
162,28,114329,1,0,0:0:0:0:
113,42,114406,2,0,L|39:46,1,62.9999980773926,0|0,3:0|0:0,0:0:0:0:
235,229,114638,2,0,L|309:225,1,62.9999980773926,8|0,0:0|0:0,0:0:0:0:
175,38,114870,2,0,L|101:42,1,62.9999980773926,0|0,3:0|0:0,0:0:0:0:
297,225,115102,2,0,L|371:221,1,62.9999980773926,8|0,0:0|0:0,0:0:0:0:
237,34,115334,1,4,3:0:0:0:
256,192,115643,12,0,120514,0:0:0:0:
