osu file format v14

[General]
AudioFilename: audio.mp3
AudioLeadIn: 0
PreviewTime: 96026
Countdown: 0
SampleSet: Soft
StackLeniency: 0.3
Mode: 0
LetterboxInBreaks: 0
WidescreenStoryboard: 1

[Editor]
Bookmarks: 614,10510,21644,31541,41438,56284,66181,76077,85974,98345,105768,115356,120614
DistanceSpacing: 0.6
BeatDivisor: 4
GridSize: 32
TimelineZoom: 2.3

[Metadata]
Title:Completeness Under Incompleteness
TitleUnicode:Completeness Under Incompleteness
Artist:Camellia as "Reverse of Riot"
ArtistUnicode:かめりあ as "Reverse of Riot"
Creator:Sing
Version:Empyrean
Source:SOUND VOLTEX III GRAVITY WARS
Tags:SDVX Konami
BeatmapID:1182191
BeatmapSetID:558927

[Difficulty]
HPDrainRate:5.8
CircleSize:4
OverallDifficulty:8.2
ApproachRate:9.6
SliderMultiplier:1.92
SliderTickRate:1

[Events]
//Background and Video events
0,0,"lm7.jpg",0,0
//Break Periods
//Storyboard Layer 0 (Background)
//Storyboard Layer 1 (Fail)
//Storyboard Layer 2 (Pass)
//Storyboard Layer 3 (Foreground)
//Storyboard Sound Samples

[TimingPoints]
614,309.278350515464,4,2,1,30,1,0
5407,-200,4,2,1,30,0,0
8964,-200,4,2,3,30,0,0
8976,-200,4,2,3,30,0,0
9428,-133.333333333333,4,2,3,30,0,0
9892,-100,4,2,3,30,0,0
10201,-80,4,2,3,30,0,0
10510,-90.9090909090909,4,2,1,50,0,0
10522,-90.9090909090909,4,2,1,50,0,0
15459,-90.9090909090909,4,2,1,50,0,0
17933,-90.9090909090909,4,1,1,50,0,0
17945,-90.9090909090909,4,1,1,50,0,0
20407,-200,4,2,3,60,0,0
20419,-200,4,2,3,60,0,0
21335,-66.6666666666667,4,2,1,60,0,0
21347,-66.6666666666667,4,2,1,60,0,0
21644,-83.3333333333333,4,2,1,60,0,0
21656,-83.3333333333333,4,2,1,60,0,0
21954,-100,4,2,1,60,0,0
31541,-83.3333333333333,4,2,1,60,0,0
31851,-100,4,2,1,60,0,0
36490,-90.9090909090909,4,2,1,60,0,0
37727,-83.3333333333333,4,2,1,60,0,0
38964,-76.9230769230769,4,2,1,60,0,0
40522,-76.9230769230769,4,2,1,60,0,0
41438,-133.333333333333,4,2,1,60,0,0
41450,-133.333333333333,4,2,1,60,0,0
46387,-111.111111111111,4,2,1,60,0,0
51335,-100,4,2,1,60,0,0
56284,-90.9090909090909,4,2,1,60,0,0
57521,-83.3333333333333,4,2,1,60,0,0
58758,-76.9230769230769,4,2,1,60,0,0
59995,-71.4285714285714,4,2,3,60,0,0
61232,-71.4285714285714,4,2,1,60,0,0
64016,-71.4285714285714,4,3,1,60,0,0
64634,-71.4285714285714,4,2,1,60,0,0
64943,-200,4,2,3,60,0,0
65871,-66.6666666666667,4,2,1,60,0,0
66181,-66.6666666666667,4,2,1,75,0,1
74840,-66.6666666666667,4,2,1,75,0,1
85974,-133.333333333333,4,2,1,75,0,0
85986,-133.333333333333,4,2,1,75,0,0
89531,-66.6666666666667,4,2,1,75,0,0
89852,-66.6666666666667,4,2,1,75,0,0
90923,-100,4,2,1,75,0,0
93397,-66.6666666666667,4,1,1,75,0,0
93409,-66.6666666666667,4,1,1,75,0,0
94634,-200,4,1,1,75,0,0
95562,-66.6666666666667,4,1,1,75,0,0
96026,-200,4,2,1,75,0,0
96038,-200,4,2,1,75,0,0
97108,-133.333333333333,4,2,1,75,0,0
97727,-76.9230769230769,4,2,1,75,0,1
98345,-58.8235294117647,4,2,1,75,0,1
110717,-55.5555555555556,4,2,1,75,0,1
112263,-55.5555555555556,4,1,1,75,0,1
112275,-55.5555555555556,4,1,1,75,0,1
113191,-50,4,1,1,75,0,1
115356,-200,4,2,1,75,0,0
115368,-200,4,2,1,75,0,0

[Colours]
Combo1 : 255,102,0
Combo2 : 128,255,255
Combo3 : 192,192,192
Combo4 : 107,81,232
Combo5 : 252,190,3
Combo6 : 0,128,255
Combo7 : 128,128,128
Combo8 : 128,128,255

[HitObjects]
24,102,614,21,0,0:0:0:0:
108,122,768,1,0,0:0:0:0:
85,38,923,1,0,0:0:0:0:
24,102,1077,53,0,0:0:0:0:
24,102,1232,1,0,0:0:0:0:
108,122,1387,1,0,0:0:0:0:
85,38,1542,1,0,0:0:0:0:
47,186,1696,1,0,0:0:0:0:
306,139,1851,53,0,0:0:0:0:
222,159,2005,1,0,0:0:0:0:
245,75,2160,1,0,0:0:0:0:
306,139,2314,53,0,0:0:0:0:
306,139,2469,1,0,0:0:0:0:
222,159,2624,1,0,0:0:0:0:
245,75,2779,1,0,0:0:0:0:
283,223,2933,1,0,0:0:0:0:
72,277,3088,53,0,0:0:0:0:
156,297,3242,1,0,0:0:0:0:
133,213,3397,1,0,0:0:0:0:
72,277,3551,53,0,0:0:0:0:
72,277,3706,1,0,0:0:0:0:
156,297,3861,1,0,0:0:0:0:
133,213,4016,1,0,0:0:0:0:
95,361,4170,1,0,0:0:0:0:
429,272,4325,53,0,0:0:0:0:
345,292,4479,1,0,0:0:0:0:
368,208,4634,1,0,0:0:0:0:
429,272,4788,53,0,0:0:0:0:
429,272,4943,1,0,0:0:0:0:
283,223,5098,1,0,0:0:0:0:
406,356,5253,1,0,0:0:0:0:
453,182,5407,2,0,L|451:152,1,24,0|0,0:0|0:0,0:0:0:0:
432,2,5562,53,0,0:0:0:0:
409,146,5717,1,0,0:0:0:0:
511,44,5871,1,0,0:0:0:0:
369,64,6026,53,0,0:0:0:0:
369,64,6181,1,0,0:0:0:0:
495,131,6335,1,0,0:0:0:0:
432,2,6490,1,0,0:0:0:0:
409,146,6644,1,0,0:0:0:0:
245,75,6799,53,0,0:0:0:0:
268,219,6954,1,0,0:0:0:0:
166,117,7108,1,0,0:0:0:0:
308,137,7263,53,0,0:0:0:0:
308,137,7418,1,0,0:0:0:0:
182,204,7572,1,0,0:0:0:0:
245,75,7727,1,0,0:0:0:0:
268,219,7881,1,0,0:0:0:0:
85,38,8036,53,0,0:0:0:0:
104,241,8191,1,0,0:0:0:0:
166,117,8345,1,0,0:0:0:0:
12,187,8500,53,0,0:0:0:0:
12,187,8655,1,0,0:0:0:0:
174,297,8809,1,0,0:0:0:0:
83,120,8964,2,0,L|92:164,3,24,0|0|0|0,0:0|0:0|0:0|0:0,0:0:0:0:
104,241,9273,37,8,0:0:0:0:
241,155,9428,2,0,L|231:200,3,36.0000013732911,0|0|0|0,0:0|0:0|0:0|0:0,0:0:0:0:
164,319,9737,21,8,0:0:0:0:
21,281,9892,2,0,L|30:328,1,48,0|0,0:0|0:0,0:0:0:0:
15,338,10046,2,0,L|6:291,1,48,0|0,0:0|0:0,0:0:0:0:
273,305,10201,22,0,L|255:386,1,60,8|0,0:0|0:0,0:0:0:0:
163,318,10356,2,0,L|176:260,1,60,0|0,0:0|0:0,0:0:0:0:
245,75,10510,70,0,B|295:95|295:95|362:76,1,105.600003222656,0|0,3:0|0:0,0:0:0:0:
379,0,10820,1,0,3:0:0:0:
284,183,10974,1,0,0:0:0:0:
410,256,11129,2,0,B|402:202|402:202|352:154,1,105.600003222656,0|0,3:0|0:0,0:0:0:0:
485,23,11438,2,0,B|442:56|442:56|425:123,1,105.600003222656,0|0,3:0|0:0,0:0:0:0:
427,275,11748,54,0,P|373:269|309:269,1,105.600003222656,0|0,3:0|0:0,0:0:0:0:
178,189,12057,2,0,P|230:188|283:182,1,105.600003222656,0|0,3:0|0:0,0:0:0:0:
293,180,12289,1,0,0:0:0:0:
303,177,12366,1,0,3:0:0:0:
418,365,12521,1,0,0:0:0:0:
241,270,12675,1,0,3:0:0:0:
412,158,12830,1,0,0:0:0:0:
153,361,12985,54,0,B|165:309|165:309|141:253,1,105.600003222656,0|0,3:0|0:0,0:0:0:0:
163,105,13294,1,0,3:0:0:0:
241,270,13449,2,0,L|250:203,2,52.8000016113282,0|0|0,0:0|0:0|3:0,0:0:0:0:
75,321,13758,1,0,0:0:0:0:
75,321,13835,1,0,0:0:0:0:
75,321,13912,1,0,3:0:0:0:
86,132,14067,2,0,L|95:199,1,52.8000016113282,0|0,0:0|0:0,0:0:0:0:
241,270,14222,54,0,P|212:268|165:264,1,52.8000016113282,0|0,3:0|0:0,0:0:0:0:
119,252,14376,2,0,P|145:254|171:255,1,52.8000016113282,0|0,0:0|0:0,0:0:0:0:
267,185,14531,1,0,3:0:0:0:
386,73,14686,54,0,P|357:75|310:79,1,52.8000016113282,0|0,0:0|0:0,0:0:0:0:
264,91,14840,2,0,P|290:88|316:87,1,52.8000016113282,0|0,3:0|0:0,0:0:0:0:
412,158,14995,1,0,0:0:0:0:
412,158,15072,1,0,0:0:0:0:
412,158,15150,2,0,L|403:225,1,52.8000016113282,0|0,3:0|0:0,0:0:0:0:
175,89,15304,2,0,L|184:156,1,52.8000016113282,0|0,0:0|0:0,0:0:0:0:
233,370,15459,101,0,3:0:0:0:
23,250,15614,1,0,3:0:0:0:
267,185,15768,1,0,3:0:0:0:
86,328,15923,1,0,3:0:0:0:
175,89,16077,21,0,3:0:0:0:
404,210,16232,1,0,3:0:0:0:
173,274,16387,1,0,3:0:0:0:
339,117,16541,1,0,3:0:0:0:
393,280,16696,21,0,3:0:0:0:
268,51,16851,1,0,3:0:0:0:
180,252,17005,1,0,3:0:0:0:
359,19,17160,1,0,3:0:0:0:
272,212,17315,21,0,3:0:0:0:
70,21,17469,1,0,3:0:0:0:
339,117,17624,1,0,3:0:0:0:
65,245,17778,1,0,3:0:0:0:
156,99,17933,21,0,1:0:0:0:
192,62,18010,1,0,1:0:0:0:
244,54,18087,1,0,1:0:0:0:
290,77,18164,1,0,1:0:0:0:
315,122,18242,1,0,1:0:0:0:
308,174,18319,1,0,1:0:0:0:
272,212,18397,1,0,1:0:0:0:
252,250,18474,1,0,1:0:0:0:
256,294,18551,1,0,1:0:0:0:
281,329,18628,1,0,1:0:0:0:
322,345,18706,1,0,1:0:0:0:
364,338,18783,1,0,1:0:0:0:
398,310,18861,1,0,0:0:0:0:
420,285,18938,1,0,0:0:0:0:
451,276,19015,1,0,0:0:0:0:
482,283,19092,1,0,0:0:0:0:
506,305,19170,22,0,L|503:270,10,26.4000008056641,0|0|0|0|0|0|0|0|0|0|0,0:0|0:0|0:0|0:0|0:0|0:0|0:0|0:0|0:0|0:0|0:0,0:0:0:0:
364,338,19634,21,0,0:0:0:0:
363,335,19711,1,0,0:0:0:0:
363,332,19788,1,0,0:0:0:0:
362,330,19865,1,0,0:0:0:0:
362,327,19943,1,0,0:0:0:0:
362,324,20020,1,0,0:0:0:0:
361,322,20097,1,0,0:0:0:0:
361,319,20175,1,0,0:0:0:0:
361,317,20252,1,0,0:0:0:0:
360,314,20329,1,0,0:0:0:0:
360,311,20407,70,0,P|366:284|382:253,1,48,0|0,0:0|0:0,0:0:0:0:
266,214,20639,2,0,P|286:232|305:262,1,48,0|0,0:0|0:0,0:0:0:0:
397,181,20871,1,0,0:0:0:0:
397,181,20949,2,0,P|370:189|335:190,1,48,0|0,0:0|0:0,0:0:0:0:
230,308,21181,2,0,L|225:285,1,24,8|0,0:0|0:0,0:0:0:0:
244,54,21335,22,0,B|238:83|238:83|226:100|226:100|220:136,1,72.0000027465821,0|0,0:0|0:0,0:0:0:0:
138,326,21490,1,0,0:0:0:0:
138,326,21567,1,0,0:0:0:0:
138,326,21644,70,0,L|226:317,1,57.5999982421876,0|0,1:0|0:0,0:0:0:0:
127,188,21799,2,0,L|215:197,1,57.5999982421876,0|0,1:0|0:0,0:0:0:0:
298,249,21954,21,8,0:0:0:0:
348,101,22108,2,0,B|366:145|366:145|345:204,1,96,0|2,0:0|0:2,0:0:0:0:
252,128,22418,1,2,1:2:0:0:
437,281,22572,1,8,0:0:0:0:
437,281,22650,1,0,0:0:0:0:
437,281,22727,1,0,0:0:0:0:
437,281,22804,1,0,0:0:0:0:
437,281,22882,2,0,B|419:237|419:237|435:191,1,96,0|0,1:0|1:0,0:0:0:0:
484,83,23191,1,8,0:0:0:0:
349,190,23345,21,2,0:2:0:0:
349,190,23423,1,0,0:0:0:0:
349,190,23500,2,0,L|342:132,1,48,2|0,0:2|0:0,0:0:0:0:
239,57,23655,2,0,L|244:104,1,48,2|0,1:2|0:0,0:0:0:0:
190,241,23809,2,0,L|183:183,3,48,8|0|0|0,0:0|0:0|1:0|0:0,0:0:0:0:
166,113,24119,22,0,P|127:122|92:124,1,48,0|0,1:0|0:0,0:0:0:0:
269,196,24273,2,0,P|292:199|315:205,1,48,0|0,1:0|0:0,0:0:0:0:
173,252,24428,2,0,P|121:263|75:266,1,96,8|0,0:0|0:0,0:0:0:0:
78,266,24660,1,2,0:2:0:0:
78,266,24737,2,0,L|88:324,1,48,2|0,0:2|0:0,0:0:0:0:
90,330,24892,1,2,1:2:0:0:
102,144,25046,1,8,0:0:0:0:
102,144,25124,1,0,0:0:0:0:
102,144,25201,1,0,0:0:0:0:
102,144,25278,1,0,0:0:0:0:
102,144,25356,22,0,L|92:201,1,48,0|0,1:0|0:0,0:0:0:0:
204,304,25510,2,0,L|196:256,1,48,0|0,1:0|0:0,0:0:0:0:
276,147,25665,2,0,B|229:137|229:137|177:163,1,96,8|2,0:0|0:2,0:0:0:0:
4,202,25897,2,0,B|51:212|51:212|103:186,1,96,0|2,1:2|0:2,0:0:0:0:
163,68,26129,1,0,1:2:0:0:
32,9,26284,2,0,L|39:56,1,48,8|0,0:0|0:0,0:0:0:0:
102,144,26438,1,0,1:0:0:0:
102,144,26516,1,0,0:0:0:0:
102,144,26593,22,0,P|149:158|213:165,1,96,0|0,1:0|1:0,0:0:0:0:
251,53,26902,1,8,0:0:0:0:
349,182,27057,1,2,0:2:0:0:
303,168,27134,1,0,0:0:0:0:
256,175,27211,1,2,0:2:0:0:
215,200,27288,1,0,0:0:0:0:
189,240,27366,2,0,L|177:179,1,48,2|0,1:2|0:0,0:0:0:0:
172,20,27521,2,0,L|159:81,3,48,8|0|0|0,0:0|0:0|0:0|0:0,0:0:0:0:
251,53,27830,22,0,L|312:45,1,48,0|0,1:0|0:0,0:0:0:0:
256,175,27985,2,0,L|317:183,1,48,0|0,1:0|0:0,0:0:0:0:
388,104,28139,1,8,0:0:0:0:
279,268,28294,1,2,0:2:0:0:
279,268,28371,1,0,0:0:0:0:
279,268,28449,2,0,P|282:226|281:195,1,48,2|0,0:2|0:0,0:0:0:0:
164,109,28603,2,0,P|167:151|166:182,1,48,2|0,1:2|0:0,0:0:0:0:
61,297,28758,2,0,P|64:255|63:224,3,48,8|0|0|0,0:0|0:0|1:0|0:0,0:0:0:0:
24,169,29067,22,0,B|56:158|56:158|108:171,1,64,0|0,1:0|0:0,0:0:0:0:
143,284,29273,2,0,B|175:295|175:295|227:282,1,64,0|8,0:0|0:0,0:0:0:0:
251,192,29479,2,0,B|283:181|283:181|335:194,1,64,0|0,0:0|0:0,0:0:0:0:
400,240,29686,2,0,L|391:292,2,48,2|0|2,0:2|0:0|1:2,0:0:0:0:
427,64,29995,1,8,0:0:0:0:
427,64,30072,1,0,0:0:0:0:
427,64,30150,1,0,0:0:0:0:
427,64,30227,1,0,0:0:0:0:
427,64,30304,22,0,P|429:94|434:132,1,48,0|0,1:0|0:0,0:0:0:0:
505,239,30459,1,0,0:0:0:0:
314,103,30614,1,0,1:0:0:0:
391,287,30768,21,2,0:2:0:0:
391,287,30845,1,0,0:0:0:0:
391,287,30923,2,0,P|340:278|284:271,1,96,2|0,1:2|0:0,0:0:0:0:
243,164,31155,1,0,0:0:0:0:
243,164,31232,2,0,P|239:195|236:231,1,48,0|0,1:0|0:0,0:0:0:0:
143,284,31387,2,0,P|140:260|137:236,1,48,0|0,0:0|0:0,0:0:0:0:
100,150,31541,22,0,P|128:145|156:137,1,57.5999982421876,0|0,1:0|0:0,0:0:0:0:
286,308,31696,2,0,P|245:297|209:292,1,57.5999982421876,0|0,1:0|0:0,0:0:0:0:
45,231,31851,21,8,0:0:0:0:
129,372,32005,2,0,B|153:331|153:331|141:276,1,96,2|0,0:2|0:0,0:0:0:0:
84,135,32315,1,2,1:2:0:0:
237,211,32469,1,8,0:0:0:0:
237,211,32546,1,0,0:0:0:0:
237,211,32624,1,0,0:0:0:0:
237,211,32701,1,0,0:0:0:0:
237,211,32778,2,0,B|213:252|213:252|225:307,1,96,0|0,1:0|1:0,0:0:0:0:
351,362,33088,1,8,0:0:0:0:
382,152,33242,21,2,0:2:0:0:
382,152,33320,1,0,0:0:0:0:
382,152,33397,2,0,L|373:220,1,48,2|0,0:2|0:0,0:0:0:0:
478,131,33552,2,0,L|469:63,1,48,2|0,1:2|0:0,0:0:0:0:
285,140,33706,2,0,L|276:72,3,48,8|0|0|0,0:0|0:0|1:0|0:0,0:0:0:0:
357,241,34016,22,0,P|388:243|423:245,1,48,0|0,1:0|0:0,0:0:0:0:
402,64,34170,2,0,P|378:65|354:67,1,48,0|0,1:0|0:0,0:0:0:0:
191,166,34325,2,0,P|260:160|314:160,1,96,8|2,0:0|0:2,0:0:0:0:
286,159,34557,1,0,0:0:0:0:
286,159,34634,2,0,L|276:219,1,48,2|0,0:2|0:0,0:0:0:0:
273,242,34789,1,2,1:2:0:0:
197,38,34943,1,8,0:0:0:0:
197,38,35021,1,0,0:0:0:0:
197,38,35098,1,0,0:0:0:0:
197,38,35175,1,0,0:0:0:0:
197,38,35253,22,0,L|204:100,1,48,0|0,1:0|0:0,0:0:0:0:
98,208,35407,2,0,L|105:146,1,48,0|0,1:0|0:0,0:0:0:0:
15,53,35562,2,0,P|63:65|125:73,1,96,8|2,0:0|0:2,0:0:0:0:
108,71,35794,1,0,1:0:0:0:
108,71,35871,22,0,P|97:106|95:140,2,48,0|0|2,0:0|0:0|1:2,0:0:0:0:
224,200,36103,1,0,0:0:0:0:
224,200,36181,2,0,P|208:181|190:165,1,48,8|0,0:0|0:0,0:0:0:0:
55,235,36335,2,0,P|78:230|101:223,1,48,0|0,1:0|0:0,0:0:0:0:
280,40,36490,22,0,L|302:151,1,105.600003222656,0|0,1:0|1:0,0:0:0:0:
402,64,36799,1,8,0:0:0:0:
309,243,36954,1,2,0:2:0:0:
340,207,37031,1,0,0:0:0:0:
384,188,37108,1,2,0:2:0:0:
431,190,37185,1,0,0:0:0:0:
474,212,37263,2,0,L|465:272,1,52.8000016113282,2|0,1:2|0:0,0:0:0:0:
408,366,37418,2,0,L|398:306,3,52.8000016113282,8|0|0|0,0:0|0:0|0:0|0:0,0:0:0:0:
231,192,37727,22,0,P|214:241|219:274,1,57.5999982421876,0|0,1:0|0:0,0:0:0:0:
383,332,37882,2,0,P|400:283|395:250,1,57.5999982421876,0|0,0:0|0:0,0:0:0:0:
316,128,38036,1,8,0:0:0:0:
265,331,38191,1,2,0:2:0:0:
215,357,38268,1,0,0:0:0:0:
158,349,38345,1,0,0:0:0:0:
118,309,38422,1,0,0:0:0:0:
109,253,38500,22,0,P|73:267|34:270,1,57.5999982421876,2|0,1:2|0:0,0:0:0:0:
231,192,38655,2,0,P|260:217|283:249,1,57.5999982421876,8|0,0:0|0:0,0:0:0:0:
117,118,38809,2,0,P|123:79|140:44,1,57.5999982421876,0|0,1:0|0:0,0:0:0:0:
302,3,38964,21,0,1:0:0:0:
492,127,39119,1,0,0:0:0:0:
461,150,39196,1,0,0:0:0:0:
423,158,39273,1,8,0:0:0:0:
385,150,39350,1,0,0:0:0:0:
354,127,39428,1,2,0:2:0:0:
369,173,39505,1,0,0:0:0:0:
360,222,39582,1,0,0:0:0:0:
328,260,39659,1,0,0:0:0:0:
282,278,39737,1,2,1:2:0:0:
233,271,39815,1,0,0:0:0:0:
197,237,39892,1,8,0:0:0:0:
150,224,39969,1,0,0:0:0:0:
101,233,40046,1,2,0:2:0:0:
62,263,40124,1,0,0:0:0:0:
41,308,40201,22,0,P|38:274|32:226,1,62.3999971435548,0|0,1:0|0:0,0:0:0:0:
2,121,40356,1,0,0:0:0:0:
2,121,40433,1,0,0:0:0:0:
2,121,40510,2,0,P|37:120|81:137,1,62.3999971435548,8|0,0:0|0:0,0:0:0:0:
114,347,40665,2,0,P|149:348|193:331,1,62.3999971435548,2|0,0:2|0:0,0:0:0:0:
221,152,40820,2,0,P|256:151|300:168,1,62.3999971435548,8|0,0:0|0:0,0:0:0:0:
322,311,40974,2,0,P|357:312|401:295,1,62.3999971435548,2|0,0:2|0:0,0:0:0:0:
491,232,41129,1,8,0:0:0:0:
491,232,41207,1,0,0:0:0:0:
491,232,41284,1,2,0:2:0:0:
491,232,41361,1,0,0:0:0:0:
491,232,41438,5,0,1:0:0:0:
413,185,41593,2,0,B|334:174|355:234|275:218,1,144.000005493164,0|0,0:0|0:0,0:0:0:0:
106,261,42211,2,0,B|185:250|164:310|244:294,1,144.000005493164,0|0,0:0|0:0,0:0:0:0:
297,128,42830,1,0,0:0:0:0:
278,218,42985,1,0,0:0:0:0:
247,13,43603,1,0,0:0:0:0:
247,13,43681,1,0,0:0:0:0:
247,13,43758,1,0,0:0:0:0:
247,13,43835,1,0,0:0:0:0:
247,13,43912,53,0,0:0:0:0:
148,66,44067,2,0,B|89:74|89:74|69:99|69:99|16:107,1,144.000005493164,0|0,0:0|0:0,0:0:0:0:
297,128,44686,2,0,B|356:136|356:136|376:161|376:161|428:169,1,144.000005493164,0|0,0:0|0:0,0:0:0:0:
106,261,45304,1,0,0:0:0:0:
138,147,45459,1,0,0:0:0:0:
399,339,46077,2,0,L|325:329,1,72.0000027465821,0|0,0:0|0:0,0:0:0:0:
117,231,46387,54,0,B|174:256|174:256|149:378,1,172.799994726563,2|0,0:2|0:0,0:0:0:0:
187,323,46773,1,0,0:0:0:0:
45,168,47005,2,0,B|21:206|21:206|27:261,1,86.3999973632813,2|0,0:2|0:0,0:0:0:0:
186,293,47237,2,0,B|210:255|210:255|204:200,1,86.3999973632813,0|0,0:0|0:0,0:0:0:0:
138,147,47469,2,0,L|116:230,1,86.3999973632813,0|2,0:0|0:2,0:0:0:0:
386,141,47778,54,0,L|407:224,1,86.3999973632813,0|0,0:0|0:0,0:0:0:0:
439,74,48010,2,0,P|489:109|524:122,1,86.3999973632813,0|0,0:0|0:0,0:0:0:0:
313,96,48242,2,0,P|276:144|246:167,1,86.3999973632813,2|0,0:2|0:0,0:0:0:0:
364,22,48474,1,0,0:0:0:0:
413,252,48706,1,0,0:0:0:0:
257,160,48861,53,2,0:2:0:0:
194,15,49016,2,0,P|187:63|183:111,1,86.3999973632813,0|0,0:0|0:0,0:0:0:0:
107,180,49248,2,0,P|102:137|96:94,1,86.3999973632813,0|0,0:0|0:0,0:0:0:0:
18,7,49479,2,0,P|11:55|7:103,1,86.3999973632813,2|0,0:2|0:0,0:0:0:0:
99,194,49711,2,0,P|94:151|88:108,1,86.3999973632813,0|0,0:0|0:0,0:0:0:0:
178,19,49943,1,0,0:0:0:0:
211,251,50098,53,2,0:2:0:0:
445,329,50253,2,0,B|402:336|402:336|354:313,1,86.3999973632813,0|0,0:0|0:0,0:0:0:0:
382,175,50485,2,0,B|409:208|409:208|413:261,1,86.3999973632813,0|0,0:0|0:0,0:0:0:0:
281,307,50717,2,0,B|296:266|296:266|340:236,1,86.3999973632813,2|0,0:2|0:0,0:0:0:0:
497,242,50949,1,0,0:0:0:0:
497,242,51026,2,0,L|492:182,1,43.1999986816407,0|0,0:0|0:0,0:0:0:0:
466,25,51181,1,0,0:0:0:0:
466,25,51258,1,0,0:0:0:0:
466,25,51335,37,0,1:0:0:0:
382,175,51490,1,0,0:0:0:0:
382,175,51567,1,0,0:0:0:0:
382,175,51644,2,0,L|387:115,2,48,0|0|0,0:0|0:0|0:0,0:0:0:0:
390,104,51954,1,0,0:0:0:0:
324,66,52108,2,0,B|427:53|387:132|511:107,1,192,0|0,0:0|0:0,0:0:0:0:
228,346,52572,5,0,0:0:0:0:
211,251,52727,1,0,0:0:0:0:
57,313,52882,2,0,B|112:325|112:325|138:357|138:357|173:338|173:338|230:346,1,192,0|0,0:0|0:0,0:0:0:0:
101,233,53345,1,0,0:0:0:0:
445,329,53500,5,0,0:0:0:0:
445,329,53577,1,0,0:0:0:0:
445,329,53655,1,0,0:0:0:0:
445,329,53732,1,0,0:0:0:0:
445,329,53809,2,0,L|328:338,1,96,0|0,0:0|0:0,0:0:0:0:
250,343,54119,2,0,L|255:289,4,48,0|0|0|0|0,0:0|0:0|0:0|0:0|0:0,0:0:0:0:
200,165,54583,2,0,P|271:155|336:248,1,192,0|0,0:0|0:0,0:0:0:0:
16,232,55046,38,0,L|5:126,1,96,0|0,0:0|0:0,0:0:0:0:
105,136,55356,2,0,L|97:202,4,48,0|0|0|0|0,0:0|0:0|0:0|0:0|0:0,0:0:0:0:
47,57,55820,1,0,0:0:0:0:
200,165,55974,1,0,0:0:0:0:
6,243,56129,2,0,L|1:196,1,48,0|0,0:0|0:0,0:0:0:0:
141,49,56284,38,0,L|251:61,1,105.600003222656,0|0,0:0|0:0,0:0:0:0:
334,230,56593,1,0,0:0:0:0:
334,230,56670,2,0,B|379:206|379:206|364:84,1,158.400004833985,0|0,0:0|0:0,0:0:0:0:
253,46,57057,1,2,0:2:0:0:
245,60,57134,2,0,B|222:105|222:105|243:172,1,105.600003222656,0|0,0:0|0:0,0:0:0:0:
244,172,57366,1,2,0:2:0:0:
384,111,57521,21,0,0:0:0:0:
462,67,57675,2,0,P|475:125|451:175,1,115.199996484375,0|0,0:0|0:0,0:0:0:0:
512,240,57907,2,0,P|467:281|412:284,1,115.199996484375,0|0,0:0|0:0,0:0:0:0:
148,151,58139,2,0,P|155:210|195:248,1,115.199996484375,0|2,0:0|0:2,0:0:0:0:
159,329,58371,2,0,P|214:352|267:336,1,115.199996484375,0|0,0:0|0:0,0:0:0:0:
327,172,58603,2,0,L|338:263,1,57.5999982421876,2|0,0:2|0:0,0:0:0:0:
355,372,58758,22,0,L|348:311,1,62.3999971435548,0|0,0:0|0:0,0:0:0:0:
148,151,58912,2,0,B|88:129|88:129|17:166,1,124.79999428711,0|0,0:0|0:0,0:0:0:0:
160,365,59144,2,0,L|172:226,1,124.79999428711,0|0,0:0|0:0,0:0:0:0:
316,47,59376,2,0,L|328:186,1,124.79999428711,0|2,0:0|0:2,0:0:0:0:
345,280,59608,21,0,0:0:0:0:
345,280,59686,2,0,B|399:308|399:308|459:286,1,124.79999428711,2|2,0:2|0:2,0:0:0:0:
468,0,59995,22,0,L|460:82,1,67.1999979492188
326,171,60150,1,0,0:0:0:0:
286,179,60227,1,0,0:0:0:0:
248,167,60304,1,0,0:0:0:0:
220,139,60381,1,0,0:0:0:0:
209,100,60459,1,0,0:0:0:0:
217,61,60536,1,0,0:0:0:0:
243,31,60613,1,0,0:0:0:0:
280,16,60691,1,0,0:0:0:0:
320,21,60768,1,0,0:0:0:0:
352,45,60845,1,0,0:0:0:0:
370,80,60923,22,0,L|362:162,1,67.1999979492188
179,208,61077,2,0,L|187:290,1,67.1999979492188
360,356,61232,1,0,0:0:0:0:
360,356,62469,101,0,0:0:0:0:
316,372,62547,1,0,0:0:0:0:
270,364,62624,1,0,0:0:0:0:
235,334,62701,1,0,0:0:0:0:
218,291,62778,1,0,0:0:0:0:
200,334,62856,1,0,0:0:0:0:
164,363,62933,1,0,0:0:0:0:
118,372,63010,1,0,0:0:0:0:
74,359,63088,1,0,0:0:0:0:
49,321,63165,1,0,0:0:0:0:
50,276,63243,1,0,0:0:0:0:
75,238,63320,1,0,0:0:0:0:
115,218,63397,1,0,0:0:0:0:
144,183,63474,1,0,0:0:0:0:
144,138,63552,1,0,0:0:0:0:
123,98,63629,1,0,0:0:0:0:
84,73,63706,102,0,L|11:67,1,67.1999979492188
0,151,63861,2,0,L|73:156,1,67.1999979492188
228,63,64016,22,0,L|155:57,1,67.1999979492188
144,183,64170,2,0,L|227:188,1,67.1999979492188
371,59,64325,22,0,L|298:53,1,67.1999979492188
288,232,64480,2,0,L|376:238,1,67.1999979492188
512,48,64634,22,0,L|439:42,1,67.1999979492188
425,266,64789,2,0,L|516:272,1,67.1999979492188
371,59,64943,38,0,P|377:86|393:117,1,48,0|0,0:0|0:0,0:0:0:0:
277,156,65175,2,0,P|297:138|316:108,1,48,0|0,0:0|0:0,0:0:0:0:
408,189,65407,1,0,0:0:0:0:
408,189,65485,2,0,P|381:181|346:180,1,48,0|0,0:0|0:0,0:0:0:0:
241,62,65717,2,0,L|236:85,1,24,8|0,0:0|0:0,0:0:0:0:
132,312,65871,22,0,B|126:283|126:283|114:266|114:266|108:230,1,72.0000027465821
38,107,66026,1,0,0:0:0:0:
38,107,66103,1,0,0:0:0:0:
38,107,66181,54,0,B|69:91|69:91|107:97,1,72.0000027465821,2|0,1:1|0:0,0:0:0:0:
207,235,66335,1,0,1:0:0:0:
207,235,66412,1,0,0:0:0:0:
207,235,66490,2,0,B|177:215|177:215|163:179,1,72.0000027465821,8|0,0:0|0:0,0:0:0:0:
234,25,66644,2,0,B|232:60|232:60|207:90,1,72.0000027465821,2|0,0:1|0:0,0:0:0:0:
73,185,66799,1,0,0:0:0:0:
73,185,66876,1,0,0:0:0:0:
73,185,66954,2,0,L|82:100,1,72.0000027465821,0|0,1:0|0:0,0:0:0:0:
317,157,67108,54,0,P|269:163|217:156,1,72.0000027465821,10|0,0:1|0:0,0:0:0:0:
79,18,67263,2,0,P|114:17|150:22,1,72.0000027465821,0|2,0:1|0:1,0:0:0:0:
295,251,67418,1,2,1:1:0:0:
336,55,67572,53,0,1:0:0:0:
336,55,67650,1,0,0:0:0:0:
336,55,67727,2,0,L|345:140,1,72.0000027465821,10|0,0:1|0:0,0:0:0:0:
490,284,67882,2,0,B|419:250|419:250|436:85,1,216.000008239746,0|0,0:1|0:0,0:0:0:0:
490,17,68191,2,0,P|451:24|395:30,1,72.0000027465821,0|0,1:0|0:0,0:0:0:0:
213,235,68345,1,10,0:1:0:0:
243,39,68500,1,0,1:0:0:0:
397,204,68655,53,2,1:1:0:0:
171,137,68809,2,0,L|266:150,1,72.0000027465821,2|2,1:2|0:2,0:0:0:0:
295,316,68964,1,8,0:0:0:0:
256,343,69041,1,0,0:0:0:0:
209,351,69118,1,2,0:2:0:0:
163,338,69195,1,0,0:0:0:0:
128,306,69273,1,0,0:0:0:0:
111,261,69350,1,0,0:0:0:0:
115,214,69428,54,0,P|81:258|49:276,1,72.0000027465821,2|2,1:2|0:2,0:0:0:0:
210,224,69583,2,0,P|264:231|296:250,1,72.0000027465821,8|0,0:0|0:0,0:0:0:0:
171,137,69737,2,0,P|150:85|150:48,1,72.0000027465821,2|0,0:2|0:0,0:0:0:0:
336,55,69892,53,0,1:0:0:0:
376,20,69969,1,0,0:0:0:0:
429,16,70046,1,2,1:2:0:0:
476,42,70123,1,2,0:2:0:0:
499,90,70201,1,8,0:0:0:0:
490,142,70278,1,2,0:2:0:0:
454,181,70355,1,0,0:0:0:0:
402,192,70433,1,0,1:0:0:0:
353,171,70510,54,0,P|346:221|346:262,1,72.0000027465821,0|0,0:0|0:0,0:0:0:0:
171,137,70665,2,0,L|268:127,1,72.0000027465821,2|2,1:2|0:2,0:0:0:0:
261,304,70820,1,8,0:0:0:0:
234,267,70897,1,0,0:0:0:0:
196,244,70974,1,2,1:2:0:0:
152,236,71051,1,0,0:0:0:0:
109,245,71129,54,0,L|92:351,1,72.0000027465821,2|0,1:1|0:0,0:0:0:0:
33,98,71284,1,0,1:0:0:0:
33,98,71361,1,0,0:0:0:0:
33,98,71438,2,0,L|50:203,1,72.0000027465821,8|0,0:0|0:0,0:0:0:0:
242,134,71593,2,0,P|206:139|170:136,1,72.0000027465821,2|0,0:1|0:0,0:0:0:0:
13,260,71748,1,0,0:0:0:0:
13,260,71825,1,0,0:0:0:0:
13,260,71902,2,0,P|63:259|126:279,1,72.0000027465821,0|0,1:0|0:0,0:0:0:0:
268,375,72057,54,0,P|261:325|261:284,1,72.0000027465821,10|0,0:1|0:0,0:0:0:0:
335,119,72211,2,0,P|333:154|327:190,1,72.0000027465821,0|0,0:0|0:0,0:0:0:0:
196,244,72366,1,2,1:1:0:0:
415,150,72521,1,0,1:0:0:0:
211,50,72675,1,10,0:1:0:0:
276,203,72830,54,0,B|347:215|347:215|386:269|386:269|482:281,1,216.000008239746,0|0,0:1|0:0,0:0:0:0:
463,279,73139,2,0,B|449:244|449:244|458:202,1,72.0000027465821,0|0,1:0|0:0,0:0:0:0:
278,112,73294,2,0,B|313:117|313:117|346:146,1,72.0000027465821,10|0,0:1|0:0,0:0:0:0:
511,35,73449,2,0,B|487:62|487:62|446:76,1,72.0000027465821,0|0,1:0|0:0,0:0:0:0:
197,176,73603,53,2,1:1:0:0:
368,2,73758,2,0,L|376:83,1,72.0000027465821,2|0,1:3|0:0,0:0:0:0:
276,203,73912,1,12,0:2:0:0:
276,203,73990,1,0,0:0:0:0:
276,203,74067,1,0,0:0:0:0:
276,203,74144,1,0,0:0:0:0:
276,203,74222,54,0,P|327:195|358:199,1,72.0000027465821,0|0,0:3|0:0,0:0:0:0:
293,41,74376,1,0,1:0:0:0:
197,176,74531,1,12,0:2:0:0:
147,195,74608,1,0,0:0:0:0:
95,184,74685,1,0,0:0:0:0:
58,146,74762,1,0,0:0:0:0:
49,93,74840,53,0,1:0:0:0:
181,72,74918,2,0,B|139:105|139:105|150:232,1,144.000005493164,0|0,0:0|0:0,0:0:0:0:
146,195,75150,2,0,P|111:182|63:179,1,72.0000027465821,12|0,0:2|0:0,0:0:0:0:
270,125,75304,1,2,0:3:0:0:
270,125,75382,1,0,1:0:0:0:
270,125,75459,54,0,L|258:211,1,72.0000027465821,0|0,0:0|0:0,0:0:0:0:
143,12,75614,2,0,L|155:98,1,72.0000027465821,0|0,1:0|0:0,0:0:0:0:
194,270,75768,1,12,0:2:0:0:
194,270,75845,1,0,0:0:0:0:
194,270,75923,1,0,1:0:0:0:
194,270,76000,1,0,0:0:0:0:
194,270,76077,54,0,P|163:285|105:280,1,72.0000027465821,2|0,1:1|0:0,0:0:0:0:
14,149,76232,1,0,1:0:0:0:
14,149,76309,1,0,0:0:0:0:
14,149,76387,2,0,P|42:168|67:221,1,72.0000027465821,8|0,0:0|0:0,0:0:0:0:
0,365,76541,2,0,P|2:330|35:282,1,72.0000027465821,2|0,0:1|0:0,0:0:0:0:
146,195,76696,1,0,0:0:0:0:
146,195,76773,1,0,0:0:0:0:
146,195,76851,2,0,L|245:205,1,72.0000027465821,0|0,1:0|0:0,0:0:0:0:
335,136,77005,54,0,B|302:116|302:116|248:131,1,72.0000027465821,10|0,0:1|0:0,0:0:0:0:
246,288,77160,2,0,B|279:308|279:308|333:293,1,72.0000027465821,0|0,0:0|0:0,0:0:0:0:
438,229,77315,1,2,1:1:0:0:
443,35,77469,53,0,1:0:0:0:
443,35,77546,1,0,0:0:0:0:
443,35,77624,2,0,L|345:56,1,72.0000027465821,10|0,0:1|0:0,0:0:0:0:
233,85,77778,2,0,B|376:49|376:49|340:121,1,216.000008239746,0|2,0:1|0:1,0:0:0:0:
241,264,78088,2,0,L|232:175,1,72.0000027465821,0|0,1:0|0:0,0:0:0:0:
139,69,78242,1,10,0:1:0:0:
340,216,78397,1,0,1:0:0:0:
130,329,78552,53,2,1:1:0:0:
155,80,78706,2,0,L|146:169,1,72.0000027465821,2|2,1:2|0:2,0:0:0:0:
48,268,78861,1,8,0:0:0:0:
85,238,78938,1,0,0:0:0:0:
131,228,79015,1,2,0:2:0:0:
177,241,79092,1,0,0:0:0:0:
213,273,79170,1,0,0:0:0:0:
230,317,79247,1,0,0:0:0:0:
225,365,79325,54,0,P|285:343|328:349,1,72.0000027465821,2|2,1:2|0:2,0:0:0:0:
322,173,79479,2,0,P|311:235|284:270,1,72.0000027465821,8|0,0:0|0:0,0:0:0:0:
440,353,79634,2,0,P|390:312|374:271,1,72.0000027465821,2|0,0:2|0:0,0:0:0:0:
226,172,79789,53,0,1:0:0:0:
241,121,79866,1,0,0:0:0:0:
281,86,79943,1,2,1:2:0:0:
334,77,80020,1,2,0:2:0:0:
383,98,80098,1,8,0:0:0:0:
414,142,80175,1,2,0:2:0:0:
416,195,80252,1,0,0:0:0:0:
391,241,80330,1,0,1:0:0:0:
344,267,80407,54,0,L|332:168,1,72.0000027465821,0|0,0:0|0:0,0:0:0:0:
170,123,80562,2,0,P|239:120|268:133,1,72.0000027465821,2|2,1:2|0:2,0:0:0:0:
230,317,80717,1,8,0:0:0:0:
189,335,80794,1,0,0:0:0:0:
144,335,80871,1,2,1:2:0:0:
104,315,80948,1,0,0:0:0:0:
76,280,81026,54,0,L|88:379,1,72.0000027465821,2|0,1:1|0:0,0:0:0:0:
238,245,81181,1,0,1:0:0:0:
238,245,81258,1,0,0:0:0:0:
238,245,81335,2,0,L|226:344,1,72.0000027465821,8|0,0:0|0:0,0:0:0:0:
49,193,81490,2,0,L|61:292,1,72.0000027465821,2|0,0:1|0:0,0:0:0:0:
240,120,81644,1,0,0:0:0:0:
240,120,81722,1,0,0:0:0:0:
240,120,81799,2,0,P|205:115|170:123,1,72.0000027465821,0|0,1:0|0:0,0:0:0:0:
76,280,81954,54,0,P|97:251|109:217,1,72.0000027465821,10|0,0:1|0:0,0:0:0:0:
20,58,82108,2,0,P|33:91|57:117,1,72.0000027465821,0|0,0:0|0:0,0:0:0:0:
238,245,82263,1,2,1:1:0:0:
0,177,82418,1,0,1:0:0:0:
257,17,82572,1,10,0:1:0:0:
76,280,82727,54,0,B|180:259|150:365|283:335,1,216.000008239746,0|0,0:1|0:0,0:0:0:0:
247,173,83036,2,0,L|233:280,1,72.0000027465821,0|0,1:0|0:0,0:0:0:0:
367,363,83191,1,10,0:1:0:0:
367,363,83268,1,0,0:0:0:0:
367,363,83345,1,0,1:0:0:0:
367,363,83423,1,0,0:0:0:0:
367,363,83500,54,0,B|379:329|379:329|370:281,1,72.0000027465821,2|0,1:1|0:0,0:0:0:0:
163,202,83655,2,0,B|151:236|151:236|160:284,1,72.0000027465821,2|0,1:3|0:0,0:0:0:0:
257,352,83809,2,0,L|272:180,1,144.000005493164,12|2,0:2|0:3,0:0:0:0:
497,230,84041,54,0,B|422:227|442:284|351:265,1,144.000005493164,0|0,1:0|1:0,0:0:0:0:
287,179,84273,2,0,P|337:171|369:180,1,72.0000027465821,0|0,1:0|0:0,0:0:0:0:
488,319,84428,2,0,P|458:339|423:347,1,72.0000027465821,12|0,0:2|0:0,0:0:0:0:
233,264,84583,2,0,L|170:259,2,36.0000013732911,0|0|0,1:0|0:0|1:0,0:0:0:0:
372,293,84737,54,0,B|377:262|377:262|372:247|372:247|378:200,1,72.0000027465821,0|0,1:0|0:0,0:0:0:0:
395,14,84892,1,2,0:3:0:0:
395,14,84969,1,0,0:0:0:0:
395,14,85046,2,0,L|408:105,1,72.0000027465821,4|0,1:2|0:0,0:0:0:0:
486,301,85201,2,0,L|499:210,1,72.0000027465821,2|0,0:3|0:0,0:0:0:0:
197,28,85356,2,0,L|210:119,1,72.0000027465821,0|0,1:0|0:0,0:0:0:0:
288,315,85511,2,0,L|301:224,1,72.0000027465821,0|0,0:0|0:0,0:0:0:0:
0,49,85665,2,0,L|13:140,1,72.0000027465821,4|0,1:2|0:0,0:0:0:0:
91,336,85820,2,0,L|104:245,1,72.0000027465821,0|0,0:0|0:0,0:0:0:0:
207,99,85974,22,0,P|159:108|123:101,1,72.0000027465821,0|2,1:0|0:2,0:0:0:0:
36,65,86206,1,0,0:0:0:0:
36,65,86284,2,0,L|42:121,2,36.0000013732911,0|0|0,1:0|0:0|0:0,0:0:0:0:
179,196,86593,2,0,L|122:191,4,36.0000013732911,2|0|0|0|0,1:2|0:0|0:0|0:0|1:0,0:0:0:0:
381,37,87057,53,2,0:2:0:0:
377,136,87211,2,0,P|386:76|388:34,1,72.0000027465821,0|2,0:0|0:2,0:0:0:0:
430,217,87521,2,0,P|477:254|512:277,1,72.0000027465821,0|2,1:0|0:2,0:0:0:0:
333,222,87830,2,0,P|276:244|239:263,1,72.0000027465821,2|2,1:2|0:2,0:0:0:0:
266,249,88062,1,0,0:0:0:0:
266,249,88139,1,0,1:0:0:0:
467,138,88294,1,2,0:2:0:0:
382,309,88449,53,0,1:0:0:0:
275,109,88603,2,0,L|285:161,2,36.0000013732911,2|0|0,0:2|0:0|1:0,0:0:0:0:
191,313,88912,1,0,0:0:0:0:
191,313,88990,1,0,0:0:0:0:
191,313,89067,2,0,L|201:261,4,36.0000013732911,2|0|0|0|0,1:2|0:0|0:0|0:0|1:0,0:0:0:0:
86,184,89531,21,0,0:0:0:0:
43,190,89608,1,0,0:0:0:0:
0,198,89686,2,0,L|116:220,1,72.0000027465821,2|0,1:1|0:0,0:0:0:0:
249,373,89840,2,0,B|294:351|294:351|282:241,1,144.000005493164,2|0,1:1|0:0,0:0:0:0:
232,68,90150,2,0,B|172:26|172:26|198:188,1,216.000008239746,2|0,1:1|0:0,0:0:0:0:
283,257,90459,54,0,L|399:235,1,72.0000027465821,2|0,1:1|0:0,0:0:0:0:
511,80,90614,1,2,0:2:0:0:
475,84,90691,1,0,0:0:0:0:
439,88,90768,1,2,0:2:0:0:
403,93,90845,1,0,0:0:0:0:
368,97,90923,5,0,1:0:0:0:
385,313,91077,1,2,1:2:0:0:
385,313,91155,1,0,0:0:0:0:
385,313,91232,2,0,L|392:244,1,48,0|0,1:0|0:0,0:0:0:0:
400,183,91387,1,2,1:2:0:0:
244,339,91541,2,0,P|282:345|319:339,1,48,0|0,1:0|0:0,0:0:0:0:
512,270,91696,2,0,P|488:270|464:275,1,48,2|0,1:2|0:0,0:0:0:0:
383,346,91851,1,0,1:0:0:0:
220,60,92005,22,0,L|227:129,1,48,2|0,1:2|0:0,0:0:0:0:
241,193,92160,1,0,1:0:0:0:
315,21,92315,1,2,1:2:0:0:
126,150,92469,1,0,1:0:0:0:
326,214,92624,1,2,1:2:0:0:
326,214,92701,1,0,0:0:0:0:
326,214,92778,22,0,P|337:188|337:155,2,48,2|0|2,1:2|0:0|1:2,0:0:0:0:
210,305,93010,2,0,P|227:327|255:344,2,48,0|2|0,0:0|1:2|0:0,0:0:0:0:
189,159,93242,2,0,P|160:162|132:178,1,48,2|0,1:2|0:0,0:0:0:0:
24,68,93397,21,0,0:0:0:0:
67,48,93474,1,0,0:0:0:0:
115,50,93552,1,2,0:2:0:0:
156,73,93629,1,2,0:2:0:0:
184,111,93706,1,0,0:0:0:0:
189,159,93784,1,0,0:0:0:0:
182,206,93861,1,2,0:2:0:0:
205,247,93938,1,0,0:0:0:0:
249,265,94016,1,0,0:0:0:0:
296,259,94093,1,0,0:0:0:0:
330,225,94170,1,2,0:2:0:0:
334,176,94248,1,2,0:2:0:0:
357,134,94325,70,0,P|382:130|410:138,1,36.0000013732911,0|0,0:0|0:0,0:0:0:0:
400,113,94402,2,0,P|422:124|440:147,1,36.0000013732911,0|0,0:0|0:0,0:0:0:0:
447,124,94480,2,0,P|456:147|455:176,1,36.0000013732911,2|0,0:2|0:0,0:0:0:0:
474,162,94557,2,0,P|474:187|463:214,1,36.0000013732911,0|0,0:0|0:0,0:0:0:0:
471,197,94634,86,0,P|444:205|409:206,1,48,0|0,0:0|0:0,0:0:0:0:
434,327,94866,2,0,P|440:300|456:269,1,48,0|0,0:0|0:0,0:0:0:0:
340,230,95098,1,0,0:0:0:0:
340,230,95175,2,0,P|360:248|379:278,1,48,0|0,0:0|0:0,0:0:0:0:
304,324,95408,2,0,L|299:301,1,24,0|0,0:0|0:0,0:0:0:0:
318,70,95562,86,0,B|312:99|312:99|300:116|300:116|294:152,1,72.0000027465821,8|0,0:0|0:0,0:0:0:0:
212,342,95717,1,0,0:0:0:0:
212,342,95794,1,0,0:0:0:0:
212,342,95871,85,0,0:0:0:0:
296,137,96026,1,2,0:0:0:0:
237,37,96181,1,2,0:0:0:0:
224,152,96335,1,2,0:0:0:0:
303,65,96490,1,2,0:0:0:0:
189,90,96644,2,0,P|241:87|291:68,1,96,2|2,0:0|0:0,0:0:0:0:
390,20,97108,54,0,L|383:87,1,36.0000013732911,2|0,0:0|0:0,0:0:0:0:
377,234,97263,1,0,0:0:0:0:
365,232,97340,1,0,0:0:0:0:
353,230,97417,1,0,3:0:0:0:
341,228,97494,1,0,0:0:0:0:
329,226,97572,1,0,3:0:0:0:
317,224,97649,1,0,3:0:0:0:
305,222,97727,22,0,B|263:198|263:198|282:84,1,124.79999428711,0|0,1:0|0:0,0:0:0:0:
251,0,97959,2,0,B|293:24|293:24|274:138,1,124.79999428711,0|0,0:0|0:0,0:0:0:0:
175,194,98191,2,0,L|94:206,1,62.3999971435548,0|0,0:0|0:0,0:0:0:0:
7,227,98345,53,0,1:0:0:0:
100,18,98500,1,2,0:1:0:0:
117,72,98577,1,2,0:2:0:0:
135,126,98655,2,0,P|144:169|138:260,1,81.6000015563965,8|0,1:0|0:0,0:0:0:0:
81,345,98809,2,0,P|82:304|91:264,1,81.6000015563965,2|0,0:2|0:0,0:0:0:0:
195,65,98964,53,2,1:1:0:0:
257,52,99041,1,0,0:0:0:0:
307,90,99118,1,2,0:2:0:0:
312,155,99195,1,0,0:0:0:0:
267,200,99273,2,0,P|204:213|162:220,1,81.6000015563965,8|0,1:0|0:0,0:0:0:0:
0,171,99428,54,0,P|40:178|79:187,1,81.6000015563965,2|0,0:1|0:0,0:0:0:0:
371,225,99583,2,0,P|312:212|273:206,1,81.6000015563965,0|0,1:0|0:0,0:0:0:0:
81,345,99737,2,0,P|121:337|160:328,1,81.6000015563965,2|0,0:1|0:0,0:0:0:0:
240,127,99892,54,0,L|254:241,1,81.6000015563965,10|0,1:1|0:0,0:0:0:0:
298,377,100046,1,2,0:2:0:0:
305,336,100124,1,0,0:0:0:0:
312,296,100201,2,0,B|224:286|253:355|154:335,1,163.200003112793,4|2,1:2|0:2,0:0:0:0:
98,261,100433,1,2,0:2:0:0:
98,261,100510,2,0,L|192:250,1,81.6000015563965,8|0,1:0|0:0,0:0:0:0:
282,127,100665,2,0,P|278:176|291:216,1,81.6000015563965,2|0,0:2|0:0,0:0:0:0:
468,304,100820,54,0,L|481:212,1,81.6000015563965,2|0,1:1|0:0,0:0:0:0:
464,52,100974,1,2,0:2:0:0:
488,48,101051,1,2,0:2:0:0:
512,44,101129,2,0,B|452:37|452:37|417:64|417:64|322:55,1,163.200003112793,8|2,1:0|0:2,0:0:0:0:
231,22,101361,1,0,0:0:0:0:
241,0,101438,2,0,P|257:47|263:106,1,81.6000015563965,4|0,1:2|0:0,0:0:0:0:
371,225,101593,2,0,P|378:184|392:146,1,81.6000015563965,2|0,0:1|0:0,0:0:0:0:
131,93,101748,53,8,1:0:0:0:
121,70,101825,2,0,B|177:98|177:98|139:243,1,163.200003112793,2|0,0:1|0:0,0:0:0:0:
9,274,102057,2,0,L|89:263,1,81.6000015563965,2|0,1:1|0:0,0:0:0:0:
337,155,102211,2,0,L|248:167,1,81.6000015563965,2|0,0:2|0:0,0:0:0:0:
0,294,102366,2,0,L|80:283,1,81.6000015563965,10|0,1:1|0:0,0:0:0:0:
289,368,102521,54,0,B|282:326|282:326|301:275,2,81.6000015563965,2|0|4,0:1|0:0|1:2,0:0:0:0:
129,164,102830,1,2,0:2:0:0:
179,146,102907,1,2,0:2:0:0:
230,161,102984,1,8,1:0:0:0:
262,205,103062,1,0,0:0:0:0:
290,248,103139,1,2,0:2:0:0:
344,263,103216,1,0,0:0:0:0:
395,246,103294,54,0,P|441:192|413:92,1,163.200003112793,2|2,1:1|0:2,0:0:0:0:
391,70,103526,1,2,0:2:0:0:
343,60,103603,1,8,1:0:0:0:
296,75,103680,1,0,0:0:0:0:
254,101,103758,2,0,P|214:116|159:113,1,81.6000015563965,2|0,0:1|0:0,0:0:0:0:
23,56,103912,53,4,1:2:0:0:
157,247,104067,1,2,0:2:0:0:
129,292,104144,1,2,0:2:0:0:
79,311,104221,1,10,1:1:0:0:
29,294,104298,1,0,0:0:0:0:
0,249,104376,1,2,0:2:0:0:
6,196,104454,1,0,0:0:0:0:
44,158,104531,54,0,P|85:228|106:306,1,163.200003112793,0|2,1:0|0:2,0:0:0:0:
257,105,104763,1,2,1:1:0:0:
257,105,104840,2,0,P|215:122|155:121,1,81.6000015563965,0|0,0:0|0:0,0:0:0:0:
29,294,104995,2,0,P|71:277|131:278,1,81.6000015563965,2|0,1:2|0:0,0:0:0:0:
279,197,105150,1,0,0:0:0:0:
257,231,105227,1,2,1:1:0:0:
238,267,105304,1,0,0:0:0:0:
225,306,105381,1,2,0:2:0:0:
217,345,105459,2,0,L|210:256,1,81.6000015563965,0|0,1:0|0:0,0:0:0:0:
162,43,105614,2,0,L|155:132,1,81.6000015563965,2|0,0:1|0:0,0:0:0:0:
327,298,105768,53,0,1:0:0:0:
284,33,105923,1,2,0:3:0:0:
337,52,106000,1,2,0:2:0:0:
392,65,106077,2,0,P|468:72|513:63,1,81.6000015563965,8|0,1:0|0:0,0:0:0:0:
512,234,106232,2,0,P|471:233|431:240,1,81.6000015563965,2|0,0:3|0:0,0:0:0:0:
210,264,106387,53,4,1:2:0:0:
182,211,106464,1,0,0:0:0:0:
206,157,106541,1,2,0:2:0:0:
263,143,106618,1,2,0:2:0:0:
309,180,106696,2,0,P|313:237|340:296,1,81.6000015563965,8|0,1:0|0:0,0:0:0:0:
454,351,106851,54,0,P|392:366|343:364,1,81.6000015563965,2|0,0:1|0:0,0:0:0:0:
342,159,107005,2,0,P|280:144|231:146,1,81.6000015563965,0|0,1:0|0:0,0:0:0:0:
204,295,107160,2,0,P|142:310|93:308,1,81.6000015563965,2|0,0:1|0:0,0:0:0:0:
1,189,107315,54,0,L|90:200,1,81.6000015563965,10|0,1:1|0:0,0:0:0:0:
204,295,107469,1,2,0:2:0:0:
199,335,107546,1,0,0:0:0:0:
194,375,107624,2,0,B|243:344|243:344|216:208,1,163.200003112793,4|2,1:2|0:2,0:0:0:0:
175,118,107856,1,2,0:2:0:0:
186,96,107933,2,0,P|173:146|163:203,1,81.6000015563965,8|0,1:0|0:0,0:0:0:0:
34,366,108088,2,0,P|25:326|15:286,1,81.6000015563965,2|0,0:2|0:0,0:0:0:0:
16,99,108242,53,0,1:0:0:0:
320,181,108397,1,2,0:1:0:0:
273,213,108474,1,2,0:2:0:0:
222,240,108552,2,0,P|155:259|119:260,1,81.6000015563965,8|0,1:0|0:0,0:0:0:0:
107,76,108706,2,0,P|147:82|185:95,1,81.6000015563965,2|0,0:2|0:0,0:0:0:0:
343,294,108861,53,2,1:1:0:0:
398,313,108938,1,0,0:0:0:0:
448,282,109015,1,2,0:2:0:0:
458,225,109092,1,0,0:0:0:0:
419,180,109170,2,0,P|406:131|407:98,1,81.6000015563965,8|0,1:0|0:0,0:0:0:0:
512,14,109325,54,0,P|468:9|401:4,1,81.6000015563965,2|0,0:1|0:0,0:0:0:0:
337,188,109479,2,0,P|378:184|419:180,1,81.6000015563965,0|0,1:0|0:0,0:0:0:0:
311,21,109634,2,0,P|267:16|200:11,1,81.6000015563965,2|0,0:1|0:0,0:0:0:0:
100,54,109789,53,10,1:1:0:0:
234,184,109943,1,2,0:2:0:0:
243,143,110021,1,0,0:0:0:0:
253,103,110098,2,0,B|205:143|205:143|230:288,1,163.200003112793,4|2,1:2|0:2,0:0:0:0:
90,290,110330,2,0,B|175:276|142:369|273:328,1,163.200003112793,2|0,1:2|0:0,0:0:0:0:
337,188,110562,2,0,L|320:279,1,81.6000015563965,2|0,1:2|0:0,0:0:0:0:
136,364,110717,54,0,P|179:367|220:354,1,86.3999973632813,2|0,1:1|0:0,0:0:0:0:
400,165,110871,1,2,1:2:0:0:
443,159,110949,1,2,0:2:0:0:
485,154,111026,2,0,B|426:154|426:154|386:194|386:194|310:192,1,172.799994726563,10|0,1:1|0:0,0:0:0:0:
165,67,111258,53,2,1:2:0:0:
160,32,111335,2,0,B|181:67|181:67|172:130,2,86.3999973632813,6|0|2,1:1|0:0|1:2,0:0:0:0:
222,242,111567,2,0,B|181:242|181:242|131:203,2,86.3999973632813,2|8|0,0:1|1:0|0:0,0:0:0:0:
9,190,111799,2,0,B|28:154|28:154|87:130,1,86.3999973632813,2|0,1:1|0:0,0:0:0:0:
265,35,111954,53,0,1:0:0:0:
508,149,112108,1,2,1:2:0:0:
494,96,112185,1,2,0:2:0:0:
452,61,112262,1,8,1:0:0:0:
398,57,112339,1,0,0:0:0:0:
351,85,112417,1,2,0:2:0:0:
330,135,112494,1,0,1:0:0:0:
341,188,112571,1,4,1:2:0:0:
381,225,112650,1,0,0:0:0:0:
415,270,112727,1,2,1:2:0:0:
412,327,112804,1,2,1:2:0:0:
372,367,112881,1,8,1:0:0:0:
316,372,112959,1,0,0:0:0:0:
270,339,113036,2,0,L|205:346,2,43.1999986816407,2|0|0,1:2|1:0|1:0,0:0:0:0:
366,123,113191,53,0,1:0:0:0:
325,37,113268,2,0,B|264:67|264:67|301:215,1,192,2|2,0:1|1:1,0:0:0:0:
477,321,113500,1,8,1:0:0:0:
486,274,113577,1,0,1:0:0:0:
492,225,113655,2,0,L|364:248,1,96,0|2,1:2|1:1,0:0:0:0:
62,186,113809,1,0,0:0:0:0:
113,166,113886,1,2,0:1:0:0:
167,177,113963,1,0,0:0:0:0:
208,214,114040,1,0,0:0:0:0:
224,267,114119,54,0,L|210:344,2,48,10|2|2,0:2|0:2|0:2,0:0:0:0:
239,63,114273,2,0,L|250:-3,2,48,2|2|2,0:2|0:2|0:2,0:0:0:0:
162,155,114428,53,0,0:0:0:0:
94,70,114505,2,0,P|40:92|-9:102,1,96,2|0,0:1|0:0,0:0:0:0:
38,297,114660,2,0,B|141:278|104:373|223:349,1,192,2|0,0:1|0:0,0:0:0:0:
404,53,114892,54,0,B|401:90|401:90|410:111|410:111|404:153,1,96,0|2,0:0|0:1,0:0:0:0:
502,239,115046,2,0,B|422:240|387:321|387:321|373:233|268:217,1,288,0|0,0:0|0:0,0:0:0:0:
75,62,115356,53,0,1:0:0:0:
256,192,115433,12,2,120614,0:0:0:0:
