osu file format v14

[General]
AudioFilename: mp3.mp3
AudioLeadIn: 0
PreviewTime: 98345
Countdown: 0
SampleSet: Normal
StackLeniency: 0.7
Mode: 0
LetterboxInBreaks: 0
WidescreenStoryboard: 0

[Editor]
Bookmarks: 75768
DistanceSpacing: 2
BeatDivisor: 4
GridSize: 4
TimelineZoom: 1.7

[Metadata]
Title:Completeness Under Incompleteness
TitleUnicode:Completeness Under Incompleteness
Artist:Camellia as "Reverse of Riot"
ArtistUnicode:かめりあ as "Reverse of Riot"
Creator:Regou
Version:wkyik's INFINITE
Source:SOUND VOLTEX III GRAVITY WARS
Tags:the 5th kac original song contest gravitational radar episode 18 sdvx konami bemani riot destrudo artcore RLC xlni choikapo [ Drop ] Kawaiwkyik Rizia Dailycare Hey lululu HootOwlStar
BeatmapID:1095566
BeatmapSetID:514750

[Difficulty]
HPDrainRate:6
CircleSize:4.2
OverallDifficulty:8.6
ApproachRate:9.5
SliderMultiplier:1.92
SliderTickRate:1

[Events]
//Background and Video events
0,0,"57194842_p0 (1).jpg",0,0
//Break Periods
2,86186,87895
//Storyboard Layer 0 (Background)
//Storyboard Layer 1 (Fail)
//Storyboard Layer 2 (Pass)
//Storyboard Layer 3 (Foreground)
//Storyboard Sound Samples

[TimingPoints]
626,309.278350515464,4,2,1,30,1,0
8976,-100,4,2,3,30,0,0
10522,-181.818181818182,4,2,1,50,0,0
15471,-100,4,2,1,50,0,0
17945,-100,4,1,1,50,0,0
19646,-66.6666666666667,4,1,1,50,0,0
20419,-133.333333333333,4,2,3,60,0,0
21347,-80,4,2,1,60,0,0
21656,-83.3333333333333,4,2,1,60,0,0
21966,-100,4,2,1,60,0,0
25986,-83.3333333333333,4,2,1,60,0,0
26605,-100,4,2,1,60,0,0
28461,-83.3333333333333,4,2,1,60,0,0
28770,-71.4285714285714,4,2,1,60,0,0
29079,-66.6666666666667,4,2,1,60,0,0
31553,-83.3333333333333,4,2,1,60,0,0
31863,-100,4,2,1,60,0,0
38280,-71.4285714285714,4,2,1,60,0,0
40213,-62.5,4,2,1,60,0,0
40522,-62.5,4,2,3,60,0,0
41450,-133.333333333333,4,2,1,60,0,0
60007,-133.333333333333,4,2,3,60,0,0
61244,-200,4,2,1,60,0,0
64028,-200,4,3,1,60,0,0
64646,-200,4,2,1,60,0,0
64955,-200,4,2,3,60,0,0
65883,-83.3333333333333,4,2,1,60,0,0
66193,-71.4285714285714,4,2,1,75,0,1
74852,-71.4285714285714,4,2,4,75,0,1
75780,-71.4285714285714,4,2,1,75,0,1
85986,-125,4,2,1,35,0,0
89698,-125,4,2,1,75,0,0
93409,-71.4285714285714,4,1,1,75,0,0
94646,-133.333333333333,4,1,1,75,0,0
96038,-200,4,2,1,75,0,0
97430,-100,4,2,1,75,0,0
97584,-80,4,2,1,75,0,0
97739,-100,4,2,1,75,0,0
98357,-71.4285714285714,4,2,1,75,0,1
104543,-55.5555555555556,4,2,1,75,0,1
105780,-71.4285714285714,4,2,1,75,0,1
112275,-71.4285714285714,4,1,1,75,0,1
114440,-55.5555555555556,4,1,1,75,0,1
115368,-71.4285714285714,4,2,1,75,0,0

[Colours]
Combo1 : 255,94,94
Combo2 : 128,128,128
Combo3 : 242,242,242
Combo4 : 49,131,253
Combo5 : 150,243,254
Combo6 : 255,158,100

[HitObjects]
256,192,8048,12,0,10368,0:0:0:0:
120,88,10522,6,0,P|144:81|180:80,1,52.8000016113282,0|0,3:0|0:0,0:0:0:0:
256,40,10832,2,0,L|244:156,1,105.600003222656,0|0,3:0|3:0,0:0:0:0:
388,112,11296,1,0,0:0:0:0:
388,112,11450,2,0,P|363:118|328:120,1,52.8000016113282,0|0,3:0|0:0,0:0:0:0:
208,240,11760,6,0,P|214:264|216:300,1,52.8000016113282,0|0,3:0|0:0,0:0:0:0:
304,312,12069,2,0,P|304:264|288:196,1,105.600003222656,0|0,3:0|3:0,0:0:0:0:
104,152,12533,5,0,0:0:0:0:
208,240,12687,1,0,3:0:0:0:
264,60,12842,1,0,0:0:0:0:
192,252,12997,6,0,L|188:320,1,52.8000016113282,0|0,3:0|0:0,0:0:0:0:
104,152,13306,2,0,L|96:108,2,26.4000008056641,0|0|0,3:0|0:0|0:0,0:0:0:0:
80,280,13615,2,0,L|116:272,1,26.4000008056641,0|0,3:0|0:0,0:0:0:0:
192,252,13770,1,0,0:0:0:0:
24,200,13924,1,0,3:0:0:0:
152,340,14079,1,0,0:0:0:0:
92,112,14234,6,0,P|140:116|200:68,3,105.600003222656,0|0|0|0,3:0|3:0|3:0|3:0,0:0:0:0:
440,56,15471,5,0,3:0:0:0:
476,144,15626,1,0,3:0:0:0:
456,236,15780,1,0,3:0:0:0:
372,284,15935,1,0,3:0:0:0:
456,332,16089,5,0,3:0:0:0:
376,248,16244,1,0,3:0:0:0:
264,216,16399,1,0,3:0:0:0:
152,244,16553,1,0,3:0:0:0:
232,328,16708,5,0,3:0:0:0:
300,212,16863,1,0,3:0:0:0:
264,84,17017,1,0,3:0:0:0:
136,40,17172,1,0,3:0:0:0:
52,148,17327,5,0,3:0:0:0:
164,44,17481,1,0,3:0:0:0:
292,128,17636,1,0,3:0:0:0:
404,24,17790,1,0,3:0:0:0:
488,216,17945,5,0,0:0:0:0:
504,260,18022,1,0,0:0:0:0:
500,308,18100,1,0,0:0:0:0:
464,340,18177,1,0,0:0:0:0:
416,348,18254,1,0,0:0:0:0:
372,328,18332,1,0,0:0:0:0:
328,304,18409,1,0,0:0:0:0:
280,296,18486,1,0,0:0:0:0:
232,308,18564,6,0,L|239:368,1,48,0|0,0:0|0:0,0:0:0:0:
148,284,18718,2,0,L|144:344,1,48,0|0,0:0|0:0,0:0:0:0:
72,224,18873,2,0,L|58:283,1,48,0|0,0:0|0:0,0:0:0:0:
24,128,19028,2,0,L|0:184,1,48,0|0,0:0|0:0,0:0:0:0:
60,32,19182,6,0,L|92:24,2,32,0|0|0,0:0|0:0|0:0,0:0:0:0:
192,16,19337,2,0,L|223:25,2,32,0|0|0,0:0|0:0|0:0,0:0:0:0:
300,72,19491,2,0,L|322:95,2,32,0|0|0,0:0|0:0|0:0,0:0:0:0:
352,208,19646,5,0,2:0:0:0:
320,248,19723,1,2,2:0:0:0:
272,264,19801,1,0,2:0:0:0:
224,256,19878,1,0,2:0:0:0:
188,220,19955,1,0,2:0:0:0:
180,172,20033,1,2,2:0:0:0:
192,124,20110,6,0,P|232:104|296:108,1,72.0000027465821,0|0,2:0|2:0,0:0:0:0:
384,40,20265,2,0,P|421:64|449:122,1,72.0000027465821,0|2,2:0|2:0,0:0:0:0:
508,216,20419,6,0,L|488:344,1,108.000004119873,0|0,2:0|0:0,0:0:0:0:
491,322,20729,2,0,P|448:312|404:308,1,72.0000027465821,8|0,0:0|0:0,0:0:0:0:
384,304,20961,2,0,P|340:314|296:318,1,72.0000027465821,0|0,0:0|0:0,0:0:0:0:
280,312,21193,1,0,0:0:0:0:
136,139,21347,6,0,L|124:55,2,60,0|0|0,0:0|0:0|0:0,0:0:0:0:
88,216,21579,1,0,0:0:0:0:
88,216,21656,6,0,P|120:184|260:196,1,172.799994726563,4|0,1:0|0:0,0:0:0:0:
304,232,21966,1,8,0:0:0:0:
100,108,22120,1,0,0:0:0:0:
88,80,22198,1,0,0:0:0:0:
84,52,22275,1,0,0:0:0:0:
180,268,22430,6,0,P|179:291|175:315,1,48,0|0,1:0|0:0,0:0:0:0:
40,304,22584,2,0,P|68:288|92:288,1,48,8|0,0:0|0:0,0:0:0:0:
168,188,22739,2,0,P|199:188|221:200,1,48,0|0,0:0|0:0,0:0:0:0:
344,152,22894,6,0,P|371:168|383:189,1,48,0|0,1:0|0:0,0:0:0:0:
508,248,23048,1,0,0:0:0:0:
368,372,23203,2,0,L|377:276,1,96,8|0,0:0|0:0,0:0:0:0:
377,276,23435,1,0,0:0:0:0:
377,276,23512,1,2,0:0:0:0:
88,176,23667,6,0,P|93:201|94:242,1,48,0|0,1:0|0:0,0:0:0:0:
180,268,23821,2,0,P|205:262|246:261,1,48,8|0,0:3|0:0,0:0:0:0:
108,340,23976,2,0,P|84:337|60:332,1,48,0|0,0:0|0:0,0:0:0:0:
252,144,24131,5,0,1:0:0:0:
252,144,24208,1,0,0:0:0:0:
252,144,24285,1,0,0:0:0:0:
88,176,24440,6,0,B|71:130|71:130|84:56,1,96,8|0,0:0|0:0,0:0:0:0:
184,24,24672,1,0,0:0:0:0:
184,24,24749,2,0,B|175:71,1,48,0|0,0:0|0:0,0:0:0:0:
252,144,24904,2,0,B|260:191,1,48,0|0,1:0|0:0,0:0:0:0:
400,176,25058,1,8,0:0:0:0:
512,88,25213,1,0,0:0:0:0:
512,88,25290,1,0,0:0:0:0:
512,88,25368,6,0,L|436:96,1,48,0|0,1:0|0:0,0:0:0:0:
352,170,25522,2,0,L|400:176,1,48,0|0,0:0|0:0,0:0:0:0:
512,244,25677,1,8,0:0:0:0:
252,144,25832,1,0,0:0:0:0:
252,144,25909,1,0,0:0:0:0:
252,144,25986,6,0,P|256:200|256:240,1,57.5999982421876,0|0,0:0|1:0,0:0:0:0:
328,28,26141,2,0,P|324:84|324:124,1,57.5999982421876,0|0,0:0|0:0,0:0:0:0:
176,304,26296,2,0,P|180:248|180:208,1,57.5999982421876,8|0,1:0|0:0,0:0:0:0:
152,52,26450,1,0,0:0:0:0:
160,84,26528,1,0,0:0:0:0:
164,112,26605,5,0,1:0:0:0:
176,304,26760,1,0,0:0:0:0:
12,212,26914,1,8,0:0:0:0:
176,208,27069,1,0,0:0:0:0:
176,208,27146,1,0,0:0:0:0:
176,208,27223,2,0,P|216:216|248:240,1,48,0|0,0:0|0:0,0:0:0:0:
320,168,27378,2,0,P|333:206|328:246,1,48,0|0,1:0|0:0,0:0:0:0:
416,272,27533,1,8,0:0:0:0:
312,360,27687,2,0,P|315:336|325:314,1,48,0|0,0:0|0:0,0:0:0:0:
462,260,27842,6,0,P|439:268|415:271,1,48,0|0,1:0|0:0,0:0:0:0:
312,360,27997,2,0,P|288:356|266:346,1,48,0|0,1:0|0:0,0:0:0:0:
224,180,28151,1,8,0:0:0:0:
424,368,28306,1,0,0:0:0:0:
424,368,28383,1,0,0:0:0:0:
424,368,28461,6,0,P|420:341|416:308,1,57.5999982421876,0|0,0:0|0:0,0:0:0:0:
320,168,28615,2,0,P|316:141|312:108,1,57.5999982421876,0|0,0:0|0:0,0:0:0:0:
220,368,28770,6,0,P|215:335|210:296,1,67.1999979492188,8|0,0:0|0:0,0:0:0:0:
83,105,28924,2,0,P|87:138|92:171,1,67.1999979492188,0|0,0:0|0:0,0:0:0:0:
36,264,29079,6,0,P|88:224|192:240,1,144.000005493164,0|0,1:0|0:0,0:0:0:0:
236,164,29311,2,0,P|288:203|299:308,1,144.000005493164,0|0,0:0|0:0,0:0:0:0:
380,344,29543,2,0,P|424:336|472:336,1,72.0000027465821,0|0,0:0|0:0,0:0:0:0:
508,204,29698,5,0,0:0:0:0:
468,172,29775,1,0,0:0:0:0:
416,168,29852,1,0,1:0:0:0:
376,196,29930,1,0,0:0:0:0:
332,216,30007,1,8,0:0:0:0:
280,212,30084,1,0,0:0:0:0:
240,180,30162,1,0,0:0:0:0:
220,136,30239,1,0,0:0:0:0:
228,88,30316,6,0,P|248:40|348:56,1,144.000005493164,0|0,1:0|0:0,0:0:0:0:
436,24,30548,1,0,0:0:0:0:
436,24,30626,2,0,P|424:84|412:108,1,72.0000027465821,8|0,0:0|0:0,0:0:0:0:
372,284,30780,2,0,P|384:224|396:200,1,72.0000027465821,0|0,0:0|0:0,0:0:0:0:
468,172,30935,5,0,1:0:0:0:
468,172,31012,2,0,P|412:132|316:156,1,144.000005493164,0|0,0:0|0:0,0:0:0:0:
240,180,31244,5,8,0:0:0:0:
168,196,31321,1,2,0:0:0:0:
108,156,31399,1,0,0:0:0:0:
92,84,31476,1,2,0:0:0:0:
136,28,31553,6,0,L|124:232,1,172.799994726563,4|0,1:0|0:0,0:0:0:0:
120,288,31863,1,8,0:0:0:0:
368,144,32017,1,0,0:0:0:0:
364,116,32095,1,0,0:0:0:0:
360,88,32172,1,0,0:0:0:0:
336,232,32327,6,0,L|412:248,1,48,0|0,1:0|0:0,0:0:0:0:
500,104,32481,2,0,L|453:113,1,48,8|0,0:0|0:0,0:0:0:0:
496,296,32636,2,0,L|486:249,1,48,2|0,0:0|0:0,0:0:0:0:
280,100,32790,6,0,L|270:146,1,48,0|0,0:0|0:0,0:0:0:0:
324,328,32945,1,0,0:0:0:0:
120,288,33100,2,0,B|164:268|164:268|211:273,1,96,8|2,0:0|0:0,0:0:0:0:
211,273,33332,1,0,0:0:0:0:
211,273,33409,1,0,0:0:0:0:
96,208,33564,6,0,B|52:228,1,48,0|0,1:0|0:0,0:0:0:0:
200,56,33718,1,8,0:0:0:0:
200,56,33796,1,0,0:0:0:0:
200,56,33873,2,0,L|184:136,1,48,0|0,0:0|0:0,0:0:0:0:
40,144,34028,6,0,B|84:124|84:124,1,48,0|0,1:0|0:0,0:0:0:0:
240,184,34182,1,0,1:0:0:0:
108,24,34337,1,8,0:0:0:0:
96,208,34491,5,0,0:0:0:0:
96,208,34569,1,0,0:0:0:0:
96,208,34646,2,0,P|90:233|92:264,1,48,0|0,0:0|0:0,0:0:0:0:
184,316,34801,2,0,P|208:308|234:291,1,48,0|0,1:0|0:0,0:0:0:0:
240,184,34955,2,0,P|221:166|193:152,1,48,8|0,0:0|0:0,0:0:0:0:
172,236,35110,1,0,0:0:0:0:
172,236,35187,1,0,0:0:0:0:
172,236,35265,5,0,1:0:0:0:
412,216,35419,1,0,0:0:0:0:
172,236,35574,1,8,0:0:0:0:
288,64,35729,5,0,0:0:0:0:
288,64,35806,2,0,L|272:188,1,96,0|0,1:0|0:0,0:0:0:0:
275,159,36038,2,0,B|322:143|322:143|384:160,1,96,0|8,1:0|0:0,0:0:0:0:
480,108,36347,2,0,L|492:48,2,48,0|0|0,0:0|0:0|1:0,0:0:0:0:
432,320,36656,5,2,0:0:0:0:
340,292,36811,1,8,0:0:0:0:
256,340,36966,1,0,0:0:0:0:
208,328,37043,1,0,0:0:0:0:
164,316,37120,1,0,0:0:0:0:
116,304,37198,2,0,L|56:320,1,48,0|0,0:0|1:0,0:0:0:0:
180,88,37430,6,0,L|192:134,1,48,8|0,0:0|0:0,0:0:0:0:
332,88,37584,2,0,L|319:134,1,48,0|0,0:0|0:0,0:0:0:0:
209,226,37739,2,0,P|256:217|303:225,1,96,0|2,1:0|0:0,0:0:0:0:
116,304,38048,5,8,0:0:0:0:
396,304,38203,1,0,0:0:0:0:
396,304,38280,2,0,P|432:256|424:172,1,134.399995898438,0|0,0:0|0:0,0:0:0:0:
429,184,38512,2,0,P|363:178|308:214,1,134.399995898438,0|8,1:0|0:0,0:0:0:0:
308,214,38744,2,0,P|292:276|292:304,1,67.1999979492188,0|0,0:0|0:0,0:0:0:0:
296,360,38899,1,0,0:0:0:0:
296,360,38976,1,0,1:0:0:0:
216,24,39131,5,0,0:0:0:0:
216,24,39208,1,0,0:0:0:0:
216,24,39285,1,8,0:0:0:0:
224,64,39363,1,0,0:0:0:0:
220,104,39440,1,0,0:0:0:0:
200,140,39517,1,0,0:0:0:0:
164,160,39595,1,0,0:0:0:0:
124,164,39672,1,0,0:0:0:0:
84,152,39749,1,0,1:0:0:0:
56,124,39827,1,0,0:0:0:0:
44,84,39904,6,0,P|88:68|128:80,1,67.1999979492188,8|0,0:0|0:0,0:0:0:0:
276,212,40058,2,0,P|267:258|237:286,1,67.1999979492188,0|0,0:0|0:0,0:0:0:0:
48,376,40213,5,4,3:0:0:0:
112,203,40368,1,0,0:0:0:0:
112,203,40445,1,0,0:0:0:0:
112,203,40522,6,0,L|208:219,1,76.8,8|0,3:2|0:0,0:0:0:0:
416,336,40677,1,0,0:0:0:0:
416,336,40754,1,0,0:0:0:0:
416,336,40832,6,0,L|320:320,1,76.8,8|0,3:2|0:0,0:0:0:0:
308,60,40986,2,0,L|324:156,1,76.8,0|0,0:0|0:0,0:0:0:0:
244,332,41141,2,0,P|251:294|270:259,1,76.8,8|0,3:2|0:0,0:0:0:0:
484,176,41296,2,0,P|448:188|408:188,1,76.8,2|0,0:2|0:0,0:0:0:0:
184,128,41450,5,4,0:0:0:0:
381,330,41760,1,0,0:0:0:0:
380,330,41914,2,0,P|391:258|409:189,2,144.000005493164,0|0|0,0:0|0:0|0:0,0:0:0:0:
240,268,42842,5,0,0:0:0:0:
208,300,42997,1,0,0:0:0:0:
168,316,43151,1,0,0:0:0:0:
124,316,43306,1,0,0:0:0:0:
36,104,43615,5,0,0:0:0:0:
56,96,43693,1,0,0:0:0:0:
76,92,43770,1,0,0:0:0:0:
96,92,43847,1,0,0:0:0:0:
116,96,43924,1,0,0:0:0:0:
208,160,44079,1,0,0:0:0:0:
240,268,44388,5,0,0:0:0:0:
332,124,44698,1,0,0:0:0:0:
460,252,45007,2,0,P|391:231|319:235,1,144.000005493164,0|0,0:0|0:0,0:0:0:0:
240,268,45471,1,0,0:0:0:0:
424,76,46089,6,0,P|436:20|448:-16,1,72.0000027465821,0|0,0:0|0:0,0:0:0:0:
464,164,46399,5,0,0:0:0:0:
384,208,46553,1,0,0:0:0:0:
384,208,46631,1,0,0:0:0:0:
320,144,46785,1,0,0:0:0:0:
320,144,46863,1,0,0:0:0:0:
408,300,47017,6,0,P|354:293|276:292,2,108.000004119873,0|0|0,0:0|0:0|0:0,0:0:0:0:
220,232,47636,6,0,P|213:196|211:160,1,72.0000027465821,0|0,0:0|0:0,0:0:0:0:
211,160,47868,1,0,0:0:0:0:
312,248,48022,1,0,0:0:0:0:
312,248,48100,1,0,0:0:0:0:
212,332,48254,2,0,P|164:352|88:340,2,108.000004119873,0|0|0,0:0|0:0|0:0,0:0:0:0:
360,212,48873,6,0,P|368:164|384:132,1,72.0000027465821,0|0,0:0|0:0,0:0:0:0:
446,160,49105,2,0,P|412:146|376:142,1,72.0000027465821,0|0,0:0|0:0,0:0:0:0:
376,142,49337,2,0,P|362:108|358:72,1,72.0000027465821
280,160,49646,1,0,0:0:0:0:
280,160,49723,1,0,0:0:0:0:
444,252,49878,1,0,0:0:0:0:
444,252,49955,1,0,0:0:0:0:
281,359,50110,6,0,P|286:324|300:291,1,72.0000027465821,0|0,0:0|0:0,0:0:0:0:
160,260,50419,1,0,0:0:0:0:
160,260,50497,2,0,L|72:276,1,72.0000027465821
28,236,50729,2,0,L|12:148,1,72.0000027465821
56,108,50961,2,0,L|144:92,1,72.0000027465821
228,88,51193,6,0,P|233:61|236:40,2,36.0000013732911
160,260,51502,1,0,0:0:0:0:
336,232,51811,6,0,P|388:220|492:212,2,144.000005493164,0|0|0,0:0|0:0|0:0,0:0:0:0:
180,352,52739,1,0,0:0:0:0:
180,352,52894,1,0,0:0:0:0:
32,132,53512,5,0,0:0:0:0:
48,120,53589,1,0,0:0:0:0:
68,112,53667,1,0,0:0:0:0:
88,108,53744,1,0,0:0:0:0:
108,108,53821,1,0,0:0:0:0:
196,156,53976,1,0,0:0:0:0:
180,16,54285,5,0,0:0:0:0:
348,183,54595,2,0,P|354:111|364:40,2,144.000005493164,0|0|0,0:0|0:0|0:0,0:0:0:0:
360,280,55368,1,0,0:0:0:0:
104,352,55986,5,0,0:0:0:0:
48,308,56141,1,0,0:0:0:0:
76,240,56296,5,0,0:0:0:0:
216,296,56450,1,0,0:0:0:0:
216,296,56528,1,0,0:0:0:0:
296,184,56682,1,0,0:0:0:0:
296,184,56760,1,0,0:0:0:0:
200,104,56914,2,0,B|196:56|196:56|228:-4,2,108.000004119873,0|0|0,0:0|0:0|0:0,0:0:0:0:
416,184,57533,5,0,0:0:0:0:
360,84,57687,1,0,0:0:0:0:
360,84,57765,1,0,0:0:0:0:
296,184,57919,1,0,0:0:0:0:
296,184,57997,1,0,0:0:0:0:
356,280,58151,2,0,L|476:272,2,108.000004119873,0|0|0,0:0|0:0|0:0,0:0:0:0:
356,280,58770,1,0,0:0:0:0:
124,356,58924,6,0,P|156:340|196:332,1,72.0000027465821,0|0,0:0|0:0,0:0:0:0:
191,332,59156,2,0,P|185:296|190:256,1,72.0000027465821,0|0,0:0|0:0,0:0:0:0:
189,260,59388,2,0,P|153:254|116:237,1,72.0000027465821,0|0,0:0|0:0,0:0:0:0:
120,240,59620,2,0,P|103:271|75:301,1,72.0000027465821,0|0,0:0|0:0,0:0:0:0:
78,297,59852,1,0,0:0:0:0:
380,316,60007,5,0,0:0:0:0:
276,162,60162,1,0,0:0:0:0:
452,221,60316,1,0,0:0:0:0:
272,277,60471,5,0,0:0:0:0:
272,277,60548,1,0,0:0:0:0:
272,277,60626,1,0,0:0:0:0:
384,128,60780,1,0,0:0:0:0:
384,128,60857,1,0,0:0:0:0:
380,316,61012,1,0,0:0:0:0:
380,316,61089,1,0,0:0:0:0:
144,112,61244,6,0,L|136:56,3,48,0|0|0|0,0:0|0:0|0:0|0:0,0:0:0:0:
380,200,61863,2,0,L|386:152,3,48,0|0|0|0,0:0|0:0|0:0|0:0,0:0:0:0:
144,348,62481,5,0,0:0:0:0:
138,322,62636,1,0,0:0:0:0:
132,297,62790,1,0,0:0:0:0:
127,272,62945,1,0,0:0:0:0:
357,307,63100,5,0,0:0:0:0:
365,270,63254,1,0,0:0:0:0:
373,235,63409,1,0,0:0:0:0:
380,200,63564,1,0,0:0:0:0:
252,24,63718,5,0,0:0:0:0:
243,43,63796,1,0,0:0:0:0:
236,64,63873,1,0,0:0:0:0:
231,85,63950,1,0,0:0:0:0:
230,106,64028,1,0,0:0:0:0:
232,128,64105,1,0,0:0:0:0:
236,149,64182,1,0,0:0:0:0:
242,170,64260,1,0,0:0:0:0:
248,190,64337,1,0,0:0:0:0:
254,211,64414,1,0,0:0:0:0:
259,232,64491,1,0,0:0:0:0:
261,254,64569,1,0,0:0:0:0:
261,275,64646,1,0,0:0:0:0:
258,297,64723,1,0,0:0:0:0:
252,317,64801,1,0,0:0:0:0:
243,337,64878,1,0,0:0:0:0:
236,356,64955,6,0,P|180:360|156:364,2,72,0|0|0,0:0|0:0|0:0,0:0:0:0:
76,320,65574,6,0,L|72:280,1,24,0|0,0:0|0:0,0:0:0:0:
160,248,65729,2,0,L|156:208,1,24,0|0,0:0|0:0,0:0:0:0:
36,172,65883,2,0,P|92:176|180:192,1,115.199996484375,0|0,0:0|0:0,0:0:0:0:
400,275,66193,6,0,P|388:307|383:340,1,67.1999979492188,6|0,1:0|0:0,0:0:0:0:
476,204,66347,1,0,0:0:0:0:
328,88,66502,1,8,0:0:0:0:
384,176,66656,1,2,0:1:0:0:
384,176,66734,1,0,0:0:0:0:
384,176,66811,2,0,P|336:192|296:188,1,67.1999979492188
468,84,66966,1,0,1:0:0:0:
168,320,67120,5,10,0:1:0:0:
191,288,67198,1,2,0:1:0:0:
227,270,67275,1,2,0:1:0:0:
267,271,67352,1,2,0:1:0:0:
300,296,67430,6,0,P|310:332|313:388,2,67.1999979492188,6|0|2,1:0|0:0|0:0,0:0:0:0:
228,96,67739,2,0,P|232:62|241:30,1,67.1999979492188,8|0,0:0|0:0,0:0:0:0:
328,88,67894,2,0,P|358:74|391:67,1,67.1999979492188,2|0,0:1|0:0,0:0:0:0:
392,160,68048,5,0,0:0:0:0:
176,188,68203,1,0,1:0:0:0:
344,64,68357,1,10,0:1:0:0:
208,76,68512,1,0,0:0:0:0:
304,260,68667,5,0,1:0:0:0:
48,280,68821,1,0,0:0:0:0:
44,252,68899,1,2,0:0:0:0:
40,224,68976,1,8,0:0:0:0:
36,196,69053,1,0,0:0:0:0:
32,168,69131,1,0,0:0:0:0:
28,140,69208,1,2,0:0:0:0:
24,112,69285,6,0,L|96:100,1,67.1999979492188,0|0,0:0|0:0,0:0:0:0:
183,121,69440,2,0,L|176:188,1,67.1999979492188,0|0,1:0|0:0,0:0:0:0:
152,32,69595,2,0,L|224:20,1,67.1999979492188,8|0,0:0|0:0,0:0:0:0:
280,168,69749,2,0,L|287:101,1,67.1999979492188,0|0,0:0|0:0,0:0:0:0:
68,192,69904,5,0,1:0:0:0:
72,220,69981,1,0,0:0:0:0:
76,248,70058,1,0,0:0:0:0:
80,276,70136,1,2,0:0:0:0:
84,304,70213,5,8,0:0:0:0:
88,332,70290,2,0,L|152:300,1,67.1999979492188,2|0,0:0|0:0,0:0:0:0:
248,248,70445,5,0,1:0:0:0:
248,248,70522,2,0,P|238:284|236:320,1,67.1999979492188,0|0,0:0|0:0,0:0:0:0:
390,339,70677,2,0,P|363:319|340:296,1,67.1999979492188,0|0,1:0|0:0,0:0:0:0:
427,240,70832,2,0,P|460:231|490:217,1,67.1999979492188,8|0,0:0|0:0,0:0:0:0:
432,66,70986,2,0,P|428:99|420:132,1,67.1999979492188,2|0,0:0|0:0,0:0:0:0:
91,131,71141,6,0,P|84:99|80:66,1,67.1999979492188,6|0,1:0|0:0,0:0:0:0:
256,20,71296,1,0,0:0:0:0:
256,256,71450,1,8,0:0:0:0:
96,232,71605,6,0,P|63:222|32:209,1,67.1999979492188,2|0,0:1|0:0,0:0:0:0:
285,151,71760,1,0,0:0:0:0:
200,348,71914,1,0,1:0:0:0:
92,132,72069,1,10,0:1:0:0:
132,140,72146,1,2,0:1:0:0:
172,148,72223,1,2,0:1:0:0:
212,156,72301,1,2,0:1:0:0:
252,168,72378,5,6,1:0:0:0:
36,304,72533,1,0,0:0:0:0:
348,236,72687,1,8,0:0:0:0:
0,112,72842,2,0,P|36:60|164:76,1,201.599993847656,6|0,0:1|0:0,0:0:0:0:
212,156,73151,5,0,1:0:0:0:
200,196,73229,1,0,0:0:0:0:
196,236,73306,2,0,P|244:244|288:268,1,67.1999979492188,10|0,0:1|0:0,0:0:0:0:
348,236,73461,2,0,P|365:281|366:331,1,67.1999979492188,2|0,0:1|0:0,0:0:0:0:
484,336,73615,5,4,1:0:0:0:
320,124,73770,1,2,0:0:0:0:
304,88,73847,1,0,0:0:0:0:
316,52,73924,1,8,0:0:0:0:
352,36,74002,1,0,0:0:0:0:
392,36,74079,1,0,0:0:0:0:
420,64,74156,1,0,0:0:0:0:
428,104,74234,6,0,P|424:160|404:204,1,67.1999979492188,0|0,0:0|0:0,0:0:0:0:
348,236,74388,1,0,1:0:0:0:
459,343,74543,6,0,P|440:289|409:252,1,67.1999979492188,8|0,0:0|0:0,0:0:0:0:
348,236,74698,2,0,P|311:278|294:323,1,67.1999979492188,0|0,0:0|0:0,0:0:0:0:
256,376,74852,5,0,1:0:0:0:
228,372,74930,1,8,0:0:0:0:
200,368,75007,1,0,0:0:0:0:
40,272,75162,5,0,1:0:0:0:
40,272,75316,2,0,L|60:344,1,67.1999979492188,8|8,0:0|0:0,0:0:0:0:
212,156,75471,5,0,0:0:0:0:
212,156,75626,2,0,L|219:81,1,67.1999979492188,0|0,1:0|0:0,0:0:0:0:
464,160,75780,2,0,P|430:159|398:170,1,67.1999979492188,8|0,0:0|0:0,0:0:0:0:
304,44,75935,2,0,P|335:54|369:54,1,67.1999979492188,0|0,0:0|0:0,0:0:0:0:
336,336,76089,6,0,P|312:248|328:184,1,134.399995898438,6|0,1:0|0:0,0:0:0:0:
352,124,76321,1,0,0:0:0:0:
352,124,76399,1,8,0:0:0:0:
436,288,76553,2,0,P|472:276|528:280,2,67.1999979492188,2|0|0,0:1|0:0|0:0,0:0:0:0:
220,364,76863,6,0,L|232:284,1,67.1999979492188,0|0,1:0|0:0,0:0:0:0:
296,180,77017,2,0,L|305:246,1,67.1999979492188,10|0,0:1|0:0,0:0:0:0:
132,308,77172,1,2,0:1:0:0:
336,336,77327,5,6,1:1:0:0:
192,200,77481,1,2,0:0:0:0:
404,144,77636,1,8,0:0:0:0:
256,296,77790,2,0,L|112:284,1,134.399995898438,2|0,0:1|0:0,0:0:0:0:
88,196,78100,6,0,L|188:187,1,67.1999979492188,0|0,1:0|0:0,0:0:0:0:
153,369,78254,2,0,L|220:364,1,67.1999979492188,8|0,0:0|0:0,0:0:0:0:
284,256,78409,2,0,L|384:247,1,67.1999979492188,0|0,1:0|0:0,0:0:0:0:
44,276,78564,1,0,1:0:0:0:
384,352,78718,5,0,0:0:0:0:
351,349,78796,1,2,0:0:0:0:
317,346,78873,1,8,0:0:0:0:
284,343,78950,1,2,0:0:0:0:
250,340,79028,1,0,0:0:0:0:
217,337,79105,1,2,0:0:0:0:
183,334,79182,6,0,L|168:264,1,67.1999979492188,0|2,0:0|0:0,0:0:0:0:
44,276,79337,2,0,L|66:207,1,67.1999979492188,0|2,1:0|0:0,0:0:0:0:
148,88,79491,2,0,L|163:158,1,67.1999979492188,8|0,0:0|0:0,0:0:0:0:
287,146,79646,2,0,L|264:214,1,67.1999979492188,0|0,0:0|0:0,0:0:0:0:
448,288,79801,5,0,1:0:0:0:
451,255,79878,1,2,0:0:0:0:
454,221,79955,1,0,0:0:0:0:
457,188,80033,1,2,0:0:0:0:
460,154,80110,5,8,0:0:0:0:
463,121,80187,2,0,L|392:136,1,67.1999979492188,2|0,0:0|0:0,0:0:0:0:
276,40,80342,5,0,1:0:0:0:
276,40,80419,2,0,L|341:53,1,67.1999979492188
392,196,80574,2,0,L|347:245,1,67.1999979492188,0|0,1:0|0:0,0:0:0:0:
196,216,80729,2,0,L|175:152,1,67.1999979492188,8|0,0:0|0:0,0:0:0:0:
287,146,80883,1,0,0:0:0:0:
204,356,81038,5,6,1:0:0:0:
16,220,81193,2,0,P|20:180|40:144,1,67.1999979492188,0|0,0:0|0:0,0:0:0:0:
120,212,81347,1,8,0:0:0:0:
244,68,81502,6,0,P|207:84|166:85,1,67.1999979492188,2|0,2:1|0:0,0:0:0:0:
80,56,81656,1,0,0:0:0:0:
287,146,81811,1,0,1:0:0:0:
138,275,81966,6,0,P|124:245|120:212,1,67.1999979492188,10|2,0:1|0:1,0:0:0:0:
360,88,82120,2,0,P|374:118|378:151,1,67.1999979492188,2|2,0:1|0:1,0:0:0:0:
280,348,82275,5,2,1:0:0:0:
287,146,82430,1,0,0:0:0:0:
476,240,82584,1,8,0:0:0:0:
200,196,82739,6,0,B|128:184|128:184|80:208|80:208|-24:192,1,201.599993847656,6|0,1:0|0:0,0:0:0:0:
52,56,83048,1,0,1:0:0:0:
52,56,83126,1,0,0:0:0:0:
52,56,83203,2,0,L|68:144,1,67.1999979492188,10|0,0:1|0:0,0:0:0:0:
125,341,83357,2,0,L|138:275,1,67.1999979492188
336,132,83512,5,6,1:0:0:0:
456,272,83667,1,0,0:0:0:0:
456,272,83744,1,0,0:0:0:0:
456,272,83821,1,8,0:0:0:0:
280,348,83976,5,0,0:0:0:0:
252,364,84053,2,0,B|226:301|226:301|244:232,1,134.399995898438,0|0,1:0|0:0,0:0:0:0:
336,132,84285,2,0,L|252:116,1,67.1999979492188,0|0,1:0|0:0,0:0:0:0:
180,100,84440,1,8,0:0:0:0:
336,296,84595,2,0,L|328:348,4,33.5999989746094,0|0|0|0|4,0:0|0:0|0:0|0:0|1:0,0:0:0:0:
464,152,84904,5,0,0:0:0:0:
464,152,85058,2,0,P|416:156|384:180,1,67.1999979492188,8|0,0:0|0:0,0:0:0:0:
252,364,85213,5,0,0:0:0:0:
252,364,85368,2,0,P|272:320|267:280,1,67.1999979492188,2|0,0:0|0:0,0:0:0:0:
180,84,85522,5,0,0:0:0:0:
180,84,85677,2,0,P|207:123|244:139,1,67.1999979492188,8|0,0:0|0:0,0:0:0:0:
304,204,85832,2,0,L|236:216,1,67.1999979492188,0|0,0:0|0:0,0:0:0:0:
76,248,85986,5,0,1:0:0:0:
256,192,88461,12,0,89543,0:0:0:0:
124,136,89698,5,0,0:0:0:0:
388,248,89852,1,0,1:0:0:0:
124,136,90162,5,0,1:0:0:0:
388,248,90471,1,0,1:0:0:0:
240,296,90626,5,0,0:0:0:0:
232,263,90703,1,0,0:0:0:0:
232,229,90780,1,0,0:0:0:0:
240,197,90857,1,0,0:0:0:0:
256,167,90935,5,0,1:0:0:0:
400,104,91089,2,0,L|464:96,2,38.4,0|0|0,1:0|0:0|1:0,0:0:0:0:
308,240,91399,1,0,1:0:0:0:
232,96,91553,1,0,1:0:0:0:
228,68,91631,1,0,0:0:0:0:
224,40,91708,1,0,1:0:0:0:
356,172,91863,1,0,1:0:0:0:
360,324,92017,6,0,P|312:340|268:332,1,76.8,0|0,1:0|1:0,0:0:0:0:
144,220,92327,1,0,1:0:0:0:
144,220,92481,2,0,P|192:204|236:212,1,76.8,0|0,1:0|1:0,0:0:0:0:
400,144,92790,2,0,P|404:87|416:20,2,115.2,0|0|0,1:0|0:0|1:0,0:0:0:0:
428,344,93409,5,0,0:0:0:0:
388,349,93486,1,0,0:0:0:0:
348,354,93564,1,0,0:0:0:0:
308,360,93641,1,0,0:0:0:0:
264,340,93718,1,0,0:0:0:0:
224,345,93796,1,0,0:0:0:0:
184,350,93873,1,0,0:0:0:0:
144,356,93950,1,0,0:0:0:0:
96,344,94028,5,0,0:0:0:0:
64,312,94105,1,0,0:0:0:0:
48,268,94182,1,0,0:0:0:0:
52,220,94260,1,0,0:0:0:0:
76,180,94337,1,0,0:0:0:0:
116,156,94414,1,0,0:0:0:0:
164,152,94491,1,0,0:0:0:0:
204,176,94569,1,0,0:0:0:0:
228,216,94646,6,0,L|220:288,2,72.0000027465821,0|0|0,0:0|0:0|0:0,0:0:0:0:
320,168,95110,1,0,0:0:0:0:
320,168,95187,1,0,0:0:0:0:
320,168,95265,2,0,L|312:96,1,72.0000027465821,0|0,0:0|0:0,0:0:0:0:
512,168,95574,2,0,P|468:224|376:212,1,144.000005493164,0|0,0:0|0:0,0:0:0:0:
320,168,96038,5,2,0:0:0:0:
328,88,96193,1,2,0:0:0:0:
336,8,96347,1,2,0:0:0:0:
156,88,96502,5,2,0:0:0:0:
156,88,96656,1,2,0:0:0:0:
320,168,96966,6,0,P|268:172|224:208,1,96,0|0,0:0|0:0,0:0:0:0:
100,160,97352,5,0,0:0:0:0:
100,160,97430,2,0,P|136:168|164:180,1,48,0|0,0:0|0:0,0:0:0:0:
300,256,97584,2,0,P|272:280|254:305,1,60,0|0,0:0|0:0,0:0:0:0:
144,384,97739,6,0,P|136:320|108:244,1,144.000005493164,4|0,1:0|0:0,0:0:0:0:
108,245,98048,2,0,L|32:256,1,48,0|0,0:0|0:0,0:0:0:0:
100,160,98203,2,0,L|23:170,1,48,0|0,0:0|0:0,0:0:0:0:
92,72,98357,5,0,1:0:0:0:
300,256,98512,1,2,0:1:0:0:
300,256,98589,1,2,0:1:0:0:
300,256,98667,2,0,L|308:176,1,67.1999979492188,8|0,0:0|0:0,0:0:0:0:
316,100,98821,1,0,0:0:0:0:
152,216,98976,6,0,L|240:204,1,67.1999979492188,2|2,1:1|0:1,0:0:0:0:
392,184,99131,1,0,0:0:0:0:
196,64,99285,1,8,0:0:0:0:
372,300,99440,1,2,0:1:0:0:
372,300,99517,1,2,0:1:0:0:
372,300,99595,6,0,P|308:292|248:336,1,134.399995898438,0|0,0:0|0:0,0:0:0:0:
176,364,99827,1,0,0:0:0:0:
176,364,99904,2,0,L|168:288,1,67.1999979492188,10|0,0:1|0:0,0:0:0:0:
64,260,100058,2,0,L|56:184,1,67.1999979492188,2|0,0:1|0:0,0:0:0:0:
42,378,100213,6,0,L|176:364,1,134.399995898438,2|0,1:0|0:0,0:0:0:0:
252,329,100445,2,0,P|264:269|208:181,1,134.399995898438,2|0,0:1|0:0,0:0:0:0:
164,156,100677,2,0,L|97:163,1,67.1999979492188,2|0,0:1|0:0,0:0:0:0:
64,260,100832,5,6,1:0:0:0:
300,136,100986,1,0,0:0:0:0:
300,136,101064,1,2,0:1:0:0:
300,136,101141,1,10,0:1:0:0:
144,68,101296,2,0,L|128:-24,2,67.1999979492188,0|0|0,0:0|0:0|1:0,0:0:0:0:
184,252,101605,5,2,0:0:0:0:
184,252,101682,1,2,0:1:0:0:
184,252,101760,2,0,P|180:300|168:340,1,67.1999979492188,8|2,0:0|0:0,0:0:0:0:
63,259,101914,2,0,P|85:234|104:206,1,67.1999979492188,2|0,0:1|0:0,0:0:0:0:
144,68,102069,6,0,P|176:74|210:76,1,67.1999979492188,2|0,1:0|0:0,0:0:0:0:
346,56,102223,1,2,0:0:0:0:
164,156,102378,1,8,0:0:0:0:
366,144,102533,2,0,P|333:137|299:135,1,67.1999979492188,2|0,0:1|0:0,0:0:0:0:
164,156,102687,1,0,0:0:0:0:
264,0,102842,5,2,0:1:0:0:
260,48,102919,1,2,0:1:0:0:
256,96,102997,1,10,0:1:0:0:
252,144,103074,1,2,0:1:0:0:
248,192,103151,1,2,0:1:0:0:
244,240,103229,1,2,0:1:0:0:
240,288,103306,6,0,L|232:368,2,67.1999979492188,6|0|0,1:0|0:0|0:0,0:0:0:0:
444,208,103615,1,8,0:0:0:0:
444,208,103693,1,0,0:0:0:0:
444,208,103770,2,0,P|388:240|312:232,1,134.399995898438,2|0,2:1|0:0,0:0:0:0:
80,144,104079,5,0,0:0:0:0:
80,144,104156,1,2,0:0:0:0:
80,144,104234,2,0,P|100:100|144:76,1,67.1999979492188,10|0,0:1|0:0,0:0:0:0:
204,14,104388,2,0,P|228:37|260:48,1,67.1999979492188,0|0,0:0|0:0,0:0:0:0:
348,148,104543,6,0,P|420:136|348:76,1,172.799994726563,6|0,1:0|0:0,0:0:0:0:
304,72,104775,2,0,L|324:248,1,172.799994726563,6|0,1:0|0:0,0:0:0:0:
264,364,105007,2,0,B|244:320|244:320|296:364|376:344,1,172.799994726563,6|0,1:0|0:0,0:0:0:0:
444,208,105239,2,0,P|380:272|296:244,1,172.799994726563,6|0,1:0|0:0,0:0:0:0:
200,216,105471,6,0,L|216:124,1,86.3999973632813,14|0,0:0|0:0,0:0:0:0:
228,108,105626,2,0,L|213:193,1,86.3999973632813,0|0,0:0|0:0,0:0:0:0:
76,312,105780,5,4,1:0:0:0:
40,156,105935,1,2,0:0:0:0:
196,120,106089,1,8,0:0:0:0:
232,276,106244,1,2,0:0:0:0:
136,216,106399,5,0,1:0:0:0:
360,248,106553,2,0,L|372:152,2,67.1999979492188,2|2|8,0:0|0:0|0:0,0:0:0:0:
177,36,106863,6,2,B|220:56|228:108|228:108|264:64|326:70,1,201.599993847656,2|0,0:1|0:0,0:1:0:0:
304,164,107172,1,2,0:0:0:0:
304,164,107249,1,0,0:0:0:0:
304,164,107327,2,0,P|284:224|284:256,1,67.1999979492188,10|0,0:1|0:0,0:0:0:0:
136,116,107481,2,0,P|148:177|164:205,1,67.1999979492188,2|0,0:0|0:0,0:0:0:0:
44,284,107636,6,2,P|96:256|196:292,1,134.399995898438,2|2,1:1|0:0,0:0:0:0:
248,320,107868,2,2,P|312:333|371:303,1,134.399995898438,2|0,0:1|0:0,0:0:0:0:
432,224,108100,6,0,P|444:168|464:136,1,67.1999979492188,2|0,0:1|0:0,0:0:0:0:
504,80,108254,1,4,1:0:0:0:
240,220,108409,5,2,0:1:0:0:
220,177,108486,1,2,0:1:0:0:
227,131,108564,1,8,0:0:0:0:
256,95,108641,1,0,0:0:0:0:
300,80,108718,1,0,0:0:0:0:
291,301,108873,5,2,1:1:0:0:
248,320,108950,1,2,0:1:0:0:
202,313,109028,1,0,0:0:0:0:
166,284,109105,1,2,0:0:0:0:
151,240,109182,1,8,0:0:0:0:
304,164,109337,6,0,P|356:172|392:200,1,67.1999979492188,2|2,0:1|0:1,0:0:0:0:
448,260,109491,1,0,1:0:0:0:
460,304,109569,1,0,0:0:0:0:
456,352,109646,1,2,0:0:0:0:
320,260,109801,5,10,0:1:0:0:
496,120,109955,1,0,0:0:0:0:
171,143,110110,6,0,P|236:149|304:164,1,134.399995898438,0|0,1:0|0:0,0:0:0:0:
368,212,110342,2,0,P|341:151|319:86,1,134.399995898438,0|0,1:0|0:0,0:0:0:0:
308,8,110574,1,0,1:0:0:0:
176,296,110729,5,2,1:0:0:0:
84,200,110883,1,2,0:0:0:0:
72,156,110961,1,0,0:0:0:0:
80,108,111038,1,8,1:0:0:0:
320,72,111193,2,0,L|392:60,2,67.1999979492188,2|0|6,0:0|0:0|1:0,0:0:0:0:
32,276,111502,5,0,0:0:0:0:
32,276,111579,1,0,0:0:0:0:
32,276,111656,2,0,P|72:292|120:288,1,67.1999979492188,8|0,0:0|0:0,0:0:0:0:
200,260,111811,2,0,L|208:336,1,67.1999979492188,0|0,1:0|0:0,0:0:0:0:
171,143,111966,5,0,1:0:0:0:
408,212,112120,1,0,1:0:0:0:
224,360,112275,5,0,1:0:0:0:
200,312,112352,1,0,1:0:0:0:
200,260,112430,1,0,1:0:0:0:
224,212,112507,1,0,1:0:0:0:
264,176,112584,5,0,0:0:0:0:
296,200,112662,1,0,0:0:0:0:
336,208,112739,1,0,0:0:0:0:
376,204,112816,1,0,0:0:0:0:
412,188,112894,5,0,0:0:0:0:
396,136,112971,1,0,0:0:0:0:
356,100,113048,1,0,0:0:0:0:
304,84,113126,1,0,0:0:0:0:
252,84,113203,5,0,0:0:0:0:
40,204,113357,1,0,0:0:0:0:
40,204,113435,1,0,0:0:0:0:
40,204,113512,1,0,0:0:0:0:
24,152,113589,1,0,0:0:0:0:
36,100,113667,1,0,0:0:0:0:
76,68,113744,1,0,0:0:0:0:
128,60,113821,6,0,L|196:84,1,67.1999979492188,0|0,0:0|0:0,0:0:0:0:
160,228,113976,2,0,L|137:164,1,67.1999979492188,0|0,0:0|0:0,0:0:0:0:
272,0,114131,2,0,L|288:48,4,33.5999989746094,0|0|0|0|0,0:0|0:0|0:0|0:0|0:0,0:0:0:0:
128,356,114440,6,0,B|96:288|96:288|144:148,1,172.799994726563,4|0,0:0|0:0,0:0:0:0:
384,28,114672,2,0,B|416:96|416:96|384:188,1,172.799994726563,4|0,0:0|0:0,0:0:0:0:
208,316,114904,5,4,0:0:0:0:
208,316,114981,2,0,P|256:268|372:288,1,172.799994726563,0|0,0:0|0:0,0:0:0:0:
496,372,115213,6,0,L|392:356,1,86.3999973632813,4|0,0:0|0:0,0:0:0:0:
296,344,115368,1,4,0:0:0:0:
