osu file format v14

[General]
AudioFilename: mp3.mp3
AudioLeadIn: 0
PreviewTime: 98345
Countdown: 0
SampleSet: Soft
StackLeniency: 0.7
Mode: 0
LetterboxInBreaks: 0
WidescreenStoryboard: 0

[Editor]
Bookmarks: 75382
DistanceSpacing: 1.2
BeatDivisor: 8
GridSize: 4
TimelineZoom: 1.7

[Metadata]
Title:Completeness Under Incompleteness
TitleUnicode:Completeness Under Incompleteness
Artist:Camellia as "Reverse of Riot"
ArtistUnicode:かめりあ as "Reverse of Riot"
Creator:Regou
Version:RLC's INFINITE
Source:SOUND VOLTEX III GRAVITY WARS
Tags:the 5th kac original song contest gravitational radar episode 18 sdvx konami bemani riot destrudo artcore RLC xlni choikapo [ Drop ] Kawaiwkyik Rizia Dailycare Hey lululu HootOwlStar
BeatmapID:1094551
BeatmapSetID:514750

[Difficulty]
HPDrainRate:6
CircleSize:4.8
OverallDifficulty:8
ApproachRate:9
SliderMultiplier:1.7
SliderTickRate:1

[Events]
//Background and Video events
0,0,"placeholder.jpg",0,0
//Break Periods
//Storyboard Layer 0 (Background)
//Storyboard Layer 1 (Fail)
//Storyboard Layer 2 (Pass)
//Storyboard Layer 3 (Foreground)
//Storyboard Sound Samples

[TimingPoints]
626,309.278350515464,4,2,1,30,1,0
626,-133.333333333333,4,2,1,30,0,0
8976,-133.333333333333,4,2,3,30,0,0
9285,-100,4,2,3,30,0,0
10522,-100,4,2,1,50,0,0
17945,-100,4,1,1,50,0,0
20419,-200,4,2,3,60,0,0
21347,-50,4,2,1,60,0,0
21656,-100,4,2,1,60,0,0
41450,-133.333333333333,4,2,1,60,0,0
55368,-200,4,2,1,60,0,0
57533,-133.333333333333,4,2,1,60,0,0
60007,-133.333333333333,4,2,3,60,0,0
61244,-133.333333333333,4,2,1,60,0,0
64028,-133.333333333333,4,3,1,60,0,0
64646,-100,4,2,1,60,0,0
64955,-100,4,2,3,60,0,0
65883,-50,4,2,1,60,0,0
66193,-83.3333333333333,4,2,1,75,0,1
85986,-200,4,2,1,75,0,0
93409,-100,4,1,1,75,0,0
96038,-100,4,2,1,75,0,0
96656,-200,4,2,1,75,0,0
97120,-100,4,2,1,75,0,0
98357,-83.3333333333333,4,2,1,75,0,1
112275,-83.3333333333333,4,1,1,75,0,1
115368,-83.3333333333333,4,2,1,75,0,0

[Colours]
Combo1 : 255,128,0
Combo2 : 128,255,255
Combo3 : 255,255,255
Combo4 : 175,97,97
Combo5 : 255,0,0
Combo6 : 128,255,128
Combo7 : 255,128,192
Combo8 : 128,128,128

[HitObjects]
63,216,626,5,0,0:0:0:0:
197,148,780,1,0,0:0:0:0:
127,125,935,1,0,0:0:0:0:
177,220,1089,2,0,L|170:258,2,31.8750012159348
152,332,1399,1,0,0:0:0:0:
145,330,1553,1,0,0:0:0:0:
138,328,1708,2,0,L|180:324,1,31.8750012159348
235,267,1863,86,0,B|284:272|284:272|311:290|311:290|368:296,1,127.500004863739
356,294,2327,2,0,L|365:356,1,63.7500024318696
421,159,2636,1,0,0:0:0:0:
472,211,2790,2,0,P|439:229|399:230,1,63.7500024318696
343,102,3100,21,0,0:0:0:0:
247,212,3254,1,0,0:0:0:0:
208,84,3409,1,0,0:0:0:0:
181,161,3564,2,0,L|143:157,2,31.8750012159348
274,133,3873,1,0,0:0:0:0:
280,134,4028,1,0,0:0:0:0:
286,135,4182,2,0,L|326:143,1,31.8750012159348
413,169,4337,86,0,P|392:202|354:223,1,63.7500024318696
279,225,4646,1,0,0:0:0:0:
324,293,4801,2,0,P|275:263|183:268,1,127.500004863739
188,355,5265,1,0,0:0:0:0:
121,235,5419,1,0,0:0:0:0:
114,320,5574,22,0,L|120:238,1,63.7500024318696
38,338,5883,1,0,0:0:0:0:
200,267,6038,2,0,L|243:258,2,31.8750012159348
61,166,6347,1,0,0:0:0:0:
61,166,6502,2,0,L|115:170,1,31.8750012159348
161,174,6656,2,0,L|215:178,1,31.8750012159348
273,198,6811,86,0,B|262:117|262:117|291:74,1,127.500004863739
340,133,7275,1,0,0:0:0:0:
216,56,7430,21,0,0:0:0:0:
291,9,7584,1,0,0:0:0:0:
340,133,7739,85,0,0:0:0:0:
212,72,7894,1,0,0:0:0:0:
197,221,8048,21,0,0:0:0:0:
346,148,8203,1,0,0:0:0:0:
276,215,8357,1,0,0:0:0:0:
264,144,8512,2,0,L|268:175,1,31.8750012159348
357,336,8667,85,0,0:0:0:0:
194,237,8821,1,0,0:0:0:0:
270,298,8976,2,0,L|273:266,4,21.2500008106232
291,195,9285,54,0,B|340:180|340:180|369:213|352:263,1,127.5,8|0,0:0|0:0,0:0:0:0:
328,327,9595,2,0,L|337:376,1,42.5
453,312,9749,70,0,B|382:299|402:340|316:326,1,127.5,8|0,0:0|0:0,0:0:0:0:
259,291,10058,1,0,0:0:0:0:
259,291,10136,1,0,0:0:0:0:
259,291,10213,2,0,P|232:295|214:296,1,42.5,8|0,0:0|0:0,0:0:0:0:
131,355,10368,2,0,P|104:351|86:350,1,42.5
35,228,10522,5,0,3:0:0:0:
112,267,10677,1,0,0:0:0:0:
160,194,10832,1,0,3:0:0:0:
402,233,10986,21,0,0:0:0:0:
402,233,11064,1,0,0:0:0:0:
402,233,11141,1,0,3:0:0:0:
321,205,11296,2,0,P|321:247|338:286,1,85,0|0,0:0|3:0,0:0:0:0:
477,256,11605,1,0,0:0:0:0:
221,332,11760,85,0,3:0:0:0:
233,248,11914,1,0,0:0:0:0:
248,160,12069,1,0,3:0:0:0:
139,214,12223,21,0,0:0:0:0:
139,214,12301,1,0,0:0:0:0:
139,214,12378,2,0,P|140:258|154:303,1,85,0|0,3:0|0:0,0:0:0:0:
256,83,12687,1,0,3:0:0:0:
256,83,12842,1,0,0:0:0:0:
423,151,12997,86,0,L|336:138,1,85,0|0,3:0|0:0,0:0:0:0:
395,62,13306,1,0,3:0:0:0:
73,168,13461,21,0,0:0:0:0:
73,168,13538,1,0,0:0:0:0:
73,168,13615,1,0,3:0:0:0:
151,111,13770,2,0,L|161:169,1,42.5
156,176,13924,1,0,3:0:0:0:
94,33,14079,1,0,0:0:0:0:
258,42,14234,85,0,3:0:0:0:
289,120,14388,2,0,L|282:173,1,42.5
234,212,14543,1,0,3:0:0:0:
236,228,14620,1,0,0:0:0:0:
238,244,14698,1,0,0:0:0:0:
373,260,14852,22,0,L|330:255,2,42.5,0|0|0,3:0|0:0|0:0,0:0:0:0:
480,252,15084,1,0,0:0:0:0:
480,252,15162,2,0,L|382:240,1,85,0|0,3:0|0:0,0:0:0:0:
132,374,15471,85,0,3:0:0:0:
248,247,15626,1,0,3:0:0:0:
157,291,15780,1,0,3:0:0:0:
340,319,15935,1,0,3:0:0:0:
244,334,16089,21,0,3:0:0:0:
149,179,16244,1,0,3:0:0:0:
248,238,16399,1,0,3:0:0:0:
33,252,16553,1,0,3:0:0:0:
156,271,16708,85,0,3:0:0:0:
199,52,16863,1,0,3:0:0:0:
249,224,17017,1,0,3:0:0:0:
16,168,17172,1,0,3:0:0:0:
259,291,17327,21,0,3:0:0:0:
201,37,17481,1,0,3:0:0:0:
155,245,17636,1,0,3:0:0:0:
400,146,17790,1,0,3:0:0:0:
229,196,17945,21,0,1:0:0:0:
214,190,18022,1,0,1:0:0:0:
199,184,18100,1,0,1:0:0:0:
184,178,18177,1,0,1:0:0:0:
136,156,18254,5,0,1:0:0:0:
149,146,18332,1,0,1:0:0:0:
161,136,18409,1,0,1:0:0:0:
174,126,18486,1,0,1:0:0:0:
215,100,18564,21,0,1:0:0:0:
218,117,18641,1,0,1:0:0:0:
220,132,18718,1,0,1:0:0:0:
222,148,18796,1,0,1:0:0:0:
229,196,18873,6,0,L|237:255,3,42.5
151,285,19182,102,0,L|147:331,4,28.3333333333333
247,339,19491,86,0,L|244:311,3,28.3333333333333
290,366,19723,1,0,0:0:0:0:
337,346,19801,1,0,0:0:0:0:
344,295,19878,1,0,0:0:0:0:
318,251,19955,1,0,0:0:0:0:
268,238,20033,1,0,0:0:0:0:
253,189,20110,1,0,0:0:0:0:
277,144,20187,1,0,0:0:0:0:
328,137,20265,1,0,0:0:0:0:
363,169,20342,1,0,0:0:0:0:
413,166,20419,54,0,L|498:156,1,85,0|8,0:0|0:0,0:0:0:0:
410,242,20883,1,0,0:0:0:0:
422,246,20961,1,0,0:0:0:0:
416,80,21115,1,0,0:0:0:0:
404,84,21193,1,8,0:0:0:0:
498,156,21347,22,0,L|413:166,1,85
336,174,21502,1,0,0:0:0:0:
254,286,21656,5,0,1:0:0:0:
214,78,21811,1,0,1:0:0:0:
209,180,21966,2,0,P|261:185|346:170,1,127.5,8|2,0:0|0:2,0:0:0:0:
361,112,22275,1,2,0:2:0:0:
320,251,22430,1,2,1:2:0:0:
209,180,22584,2,0,P|187:228|178:261,1,85,8|0,0:0|0:0,0:0:0:0:
165,325,22816,1,0,0:0:0:0:
162,342,22894,53,0,1:0:0:0:
105,211,23048,1,0,1:0:0:0:
251,279,23203,2,0,P|298:282|346:295,1,85,8|2,0:0|0:2,0:0:0:0:
402,321,23435,1,0,0:0:0:0:
405,303,23512,2,0,P|404:273|396:245,1,42.5,2|0,0:2|0:0,0:0:0:0:
340,120,23667,1,2,1:2:0:0:
446,145,23821,2,0,P|420:160|400:181,1,42.5,8|0,0:0|0:0,0:0:0:0:
333,203,23976,2,0,P|313:195|294:185,1,42.5,0|0,1:0|0:0,0:0:0:0:
246,129,24131,53,0,1:0:0:0:
358,37,24285,1,0,1:0:0:0:
446,145,24440,2,0,P|391:166|320:213,1,127.5,8|2,0:0|0:2,0:0:0:0:
283,255,24749,1,2,0:2:0:0:
409,317,24904,1,2,1:2:0:0:
250,185,25058,2,0,P|296:191|333:202,1,85,8|0,0:0|0:0,0:0:0:0:
400,230,25290,1,0,0:0:0:0:
414,238,25368,53,0,1:0:0:0:
347,115,25522,1,0,1:0:0:0:
250,185,25677,2,0,P|196:211|159:217,1,85,8|2,0:0|0:2,0:0:0:0:
154,212,25909,1,0,1:2:0:0:
214,283,26064,1,2,0:2:0:0:
229,289,26141,1,0,1:2:0:0:
68,225,26296,1,8,0:0:0:0:
121,334,26450,2,0,L|130:278,1,42.5,0|0,1:0|0:0,0:0:0:0:
156,131,26605,53,0,1:0:0:0:
131,271,26760,1,0,1:0:0:0:
72,141,26914,2,0,P|125:139|170:124,1,85,8|2,0:0|0:2,0:0:0:0:
225,89,27146,1,0,0:0:0:0:
225,89,27223,2,0,P|235:124|238:152,1,42.5,2|0,0:2|0:0,0:0:0:0:
257,293,27378,1,2,1:2:0:0:
344,209,27533,2,0,P|291:211|246:226,1,85,8|0,0:0|0:0,0:0:0:0:
204,250,27765,1,0,0:0:0:0:
191,261,27842,53,0,1:0:0:0:
324,71,27997,2,0,P|333:110|333:131,1,42.5,0|0,1:0|0:0,0:0:0:0:
332,142,28151,1,8,0:0:0:0:
254,50,28306,1,2,0:2:0:0:
254,50,28383,1,0,0:0:0:0:
254,50,28461,1,2,0:2:0:0:
402,81,28615,1,2,1:2:0:0:
250,126,28770,1,8,0:0:0:0:
216,119,28847,1,0,0:0:0:0:
189,97,28924,1,0,1:0:0:0:
162,118,29002,1,0,0:0:0:0:
129,127,29079,53,0,1:0:0:0:
69,184,29234,2,0,B|46:161|46:161|52:95,1,85,0|8,1:3|0:0,0:0:0:0:
153,205,29543,1,2,0:2:0:0:
162,213,29620,1,0,0:0:0:0:
171,221,29698,2,0,L|162:294,1,42.5,2|0,0:2|0:0,0:0:0:0:
115,310,29852,1,2,1:2:0:0:
245,282,30007,2,0,B|268:305|268:305|262:371,1,85,8|0,0:0|0:0,0:0:0:0:
51,272,30316,53,0,1:0:0:0:
300,212,30471,2,0,L|249:203,1,42.5
182,179,30626,1,0,1:0:0:0:
168,338,30780,2,0,L|160:262,1,42.5,2|0,0:2|0:0,0:0:0:0:
122,132,30935,1,2,1:2:0:0:
122,132,31012,2,0,B|104:174|104:174|119:227,1,85
133,246,31244,2,0,L|61:258,2,56.6666666666667,0|0|0,1:0|0:0|0:0,0:0:0:0:
404,188,31553,53,0,1:0:0:0:
395,272,31708,2,0,L|404:188,1,85,0|8,1:0|0:0,0:0:0:0:
274,79,32017,2,0,B|320:100|320:100|342:142|310:186,1,127.5,2|0,0:2|0:0,0:0:0:0:
254,192,32327,1,2,1:2:0:0:
395,272,32481,2,0,B|326:255|342:302|258:291,1,127.5,8|0,0:0|0:0,0:0:0:0:
209,261,32790,5,0,1:0:0:0:
143,117,32945,2,0,P|139:162|153:207,1,85,0|8,1:0|0:0,0:0:0:0:
237,337,33254,1,2,0:2:0:0:
212,343,33332,1,0,0:0:0:0:
187,335,33409,1,2,0:2:0:0:
309,189,33564,1,2,1:2:0:0:
225,120,33718,2,0,L|227:162,1,42.5,8|0,0:0|0:0,0:0:0:0:
232,111,33873,2,0,L|234:153,1,42.5,0|0,1:0|0:0,0:0:0:0:
238,242,34028,101,0,1:0:0:0:
394,200,34182,2,0,L|302:189,1,85,0|8,1:0|0:0,0:0:0:0:
394,200,34491,2,0,L|413:261,1,42.5,2|0,0:2|0:0,0:0:0:0:
437,324,34646,1,2,0:2:0:0:
437,324,34723,1,0,0:0:0:0:
437,324,34801,1,2,1:2:0:0:
394,200,34955,2,0,L|424:160,1,42.5,8|0,0:0|0:0,0:0:0:0:
386,80,35110,2,0,L|356:120,1,42.5
309,189,35265,5,0,1:0:0:0:
178,293,35419,2,0,L|166:201,1,85,0|8,1:0|0:0,0:0:0:0:
139,83,35729,1,2,0:2:0:0:
188,38,35806,2,0,B|208:76|208:76|196:119,1,85,0|0,1:0|0:0,0:0:0:0:
70,156,36038,2,0,L|131:164,1,42.5,2|0,1:2|0:0,0:0:0:0:
238,187,36193,1,8,0:0:0:0:
102,278,36347,1,0,1:0:0:0:
270,123,36502,101,0,1:0:0:0:
252,260,36656,1,0,1:0:0:0:
180,140,36811,1,8,0:0:0:0:
314,194,36966,2,0,L|328:238,1,42.5,2|0,0:2|0:0,0:0:0:0:
170,226,37120,2,0,L|170:281,1,42.5,2|0,0:2|0:0,0:0:0:0:
225,127,37275,1,2,1:2:0:0:
252,260,37430,2,0,L|268:348,1,85,8|0,0:0|0:0,0:0:0:0:
271,359,37662,1,0,0:0:0:0:
330,329,37739,6,0,B|371:307|371:307|410:327|410:327|467:327,1,127.5,0|0,1:0|0:0,0:0:0:0:
472,257,38048,2,0,L|416:258,1,42.5,8|0,0:0|0:0,0:0:0:0:
330,329,38203,2,0,L|179:328,1,127.5,2|0,0:2|0:0,0:0:0:0:
175,328,38512,1,2,1:2:0:0:
131,199,38667,1,8,0:0:0:0:
127,182,38744,1,0,0:0:0:0:
122,165,38821,2,0,L|112:120,1,42.5,0|0,1:0|0:0,0:0:0:0:
138,14,38976,102,0,B|100:51|100:51|116:141,1,127.5,0|0,1:0|0:0,0:0:0:0:
131,199,39285,6,0,L|83:205,1,42.5,8|0,0:0|0:0,0:0:0:0:
203,55,39440,2,0,L|209:103,1,42.5,2|0,0:2|0:0,0:0:0:0:
117,192,39595,102,0,L|68:189,1,42.5
216,61,39749,2,0,L|213:109,1,42.5,2|0,1:2|0:0,0:0:0:0:
105,183,39904,6,0,L|57:172,1,42.5,8|0,0:0|0:0,0:0:0:0:
228,70,40058,2,0,L|217:117,1,42.5,2|0,0:2|0:0,0:0:0:0:
192,200,40213,102,0,B|241:210|241:210|266:233|266:233|320:245,1,127.5,0|0,1:0|0:0,0:0:0:0:
381,217,40522,6,0,L|387:169,1,42.5,8|0,0:0|0:0,0:0:0:0:
309,324,40677,2,0,L|357:330,1,42.5,2|0,0:2|0:0,0:0:0:0:
374,203,40832,102,0,L|371:154,1,42.5,8|0,0:0|0:0,0:0:0:0:
315,337,40986,2,0,L|363:334,1,42.5,2|0,0:2|0:0,0:0:0:0:
365,191,41141,6,0,L|354:143,1,42.5,8|0,0:0|0:0,0:0:0:0:
324,349,41296,2,0,L|371:338,1,42.5,2|0,0:2|0:0,0:0:0:0:
473,304,41450,69,0,1:0:0:0:
473,304,41605,2,0,L|453:231,1,63.7500024318696
382,148,41914,2,0,L|370:282,2,127.500004863739
383,131,42842,1,0,0:0:0:0:
315,68,42997,2,0,B|261:40|261:40|227:78|231:125|275:155|275:155|241:163|216:200,1,255.000009727478
214,203,43693,1,0,0:0:0:0:
197,192,43770,1,0,0:0:0:0:
178,186,43847,1,0,0:0:0:0:
157,188,43924,38,0,L|88:194,2,63.7500024318696
40,243,44388,1,0,0:0:0:0:
83,46,44698,1,0,0:0:0:0:
40,243,45007,2,0,L|50:323,1,63.7500024318696
128,345,45316,1,0,0:0:0:0:
139,259,45471,2,0,B|182:266|211:303|215:342|215:342|239:309|268:303|268:303|292:331|327:332,1,255.000009727478
329,255,46244,1,0,0:0:0:0:
398,363,46399,70,0,P|401:332|398:293,1,63.7500024318696,2|0,0:2|0:0,0:0:0:0:
468,175,46708,1,0,0:0:0:0:
468,175,46785,2,0,P|464:205|468:245,1,63.7500024318696
475,261,47017,2,0,L|366:272,2,95.6250036478044,2|0|0,0:2|0:0|0:0,0:0:0:0:
259,219,47636,37,2,0:2:0:0:
259,219,47713,1,0,0:0:0:0:
259,219,47790,1,0,0:0:0:0:
332,201,47945,1,0,0:0:0:0:
344,200,48022,1,0,0:0:0:0:
222,284,48177,1,0,0:0:0:0:
216,294,48254,1,2,0:2:0:0:
222,151,48409,1,0,0:0:0:0:
214,140,48486,1,0,0:0:0:0:
308,288,48641,1,0,0:0:0:0:
316,299,48718,1,0,0:0:0:0:
142,275,48873,69,2,0:2:0:0:
135,104,49028,2,0,L|129:135,1,31.8750012159348
294,193,49260,2,0,L|268:212,1,31.8750012159348
40,38,49491,2,0,L|47:101,1,63.7500024318696,2|0,0:2|0:0,0:0:0:0:
254,75,49723,2,0,L|208:159,1,95.6250036478044
90,221,50110,37,2,0:2:0:0:
90,221,50187,1,0,0:0:0:0:
90,221,50265,1,0,0:0:0:0:
49,307,50419,1,0,0:0:0:0:
47,319,50497,1,0,0:0:0:0:
176,243,50651,1,0,0:0:0:0:
186,251,50729,1,2,0:2:0:0:
139,348,50883,1,0,0:0:0:0:
143,359,50961,1,0,0:0:0:0:
260,182,51115,1,0,0:0:0:0:
274,183,51193,2,0,L|313:187,1,31.8750012159348
384,192,51347,69,0,1:0:0:0:
384,192,51502,1,0,0:0:0:0:
394,322,51811,1,0,0:0:0:0:
275,374,52120,1,0,0:0:0:0:
188,274,52430,1,0,0:0:0:0:
256,162,52739,1,0,0:0:0:0:
256,162,52894,2,0,L|331:168,1,63.7500024318696
332,242,53203,2,0,L|257:236,1,63.7500024318696
183,215,53512,1,0,0:0:0:0:
160,217,53589,1,0,0:0:0:0:
137,219,53667,1,0,0:0:0:0:
114,221,53744,1,0,0:0:0:0:
91,223,53821,37,0,0:0:0:0:
91,223,53976,1,0,0:0:0:0:
192,100,54285,1,0,0:0:0:0:
287,206,54595,1,0,0:0:0:0:
363,132,54904,1,0,0:0:0:0:
458,175,55213,1,0,0:0:0:0:
458,175,55368,2,0,B|360:152|386:218|283:195,1,170
324,116,56141,1,0,0:0:0:0:
294,196,56296,6,0,L|209:205,2,85
35,190,57069,5,2,0:2:0:0:
123,143,57223,1,2,0:2:0:0:
104,47,57378,1,2,0:2:0:0:
196,185,57533,102,0,B|226:188|244:185|244:185|275:205|275:205|295:204|327:211,2,127.500004863739
477,190,58306,5,2,0:2:0:0:
389,143,58461,1,2,0:2:0:0:
408,47,58615,1,2,0:2:0:0:
318,189,58770,101,0,0:0:0:0:
318,189,58847,1,0,0:0:0:0:
318,189,58924,2,0,L|324:242,1,31.8750012159348
194,189,59079,2,0,L|188:242,1,31.8750012159348
256,272,59234,2,0,L|256:356,1,63.7500024318696
140,72,59543,5,2,0:2:0:0:
256,128,59698,1,2,0:2:0:0:
372,72,59852,1,2,0:2:0:0:
404,232,60007,5,0,0:0:0:0:
194,189,60162,1,0,0:0:0:0:
300,40,60316,1,0,0:0:0:0:
108,232,60471,53,0,0:0:0:0:
108,232,60548,1,0,0:0:0:0:
108,232,60626,1,0,0:0:0:0:
318,189,60780,1,0,0:0:0:0:
332,192,60857,1,0,0:0:0:0:
212,40,61012,1,0,0:0:0:0:
198,42,61089,1,0,0:0:0:0:
256,272,61244,5,0,3:0:0:0:
256,272,61553,1,0,0:0:0:0:
345,261,61708,2,0,L|355:331,1,63.7500024318696,0|2,0:0|0:0,0:0:0:0:
345,261,62017,1,2,0:0:0:0:
157,324,62172,2,0,L|167:261,1,63.7500024318696
182,183,62481,37,2,0:0:0:0:
75,256,62636,1,2,0:0:0:0:
35,193,62790,1,0,0:0:0:0:
64,124,62945,1,0,0:0:0:0:
194,182,63100,69,2,0:0:0:0:
17,196,63254,1,2,0:0:0:0:
207,181,63409,1,0,0:0:0:0:
188,76,63564,37,0,0:0:0:0:
188,76,63641,1,0,0:0:0:0:
188,76,63718,2,0,L|235:90,1,31.8750012159348,2|0,0:0|0:0,0:0:0:0:
274,154,63873,2,0,L|321:142,1,31.8750012159348,2|0,0:0|0:0,0:0:0:0:
395,164,64028,2,0,L|430:130,1,31.8750012159348
494,101,64182,2,0,L|508:53,1,31.8750012159348
302,69,64337,69,2,0:2:0:0:
337,90,64414,1,0,0:0:0:0:
378,89,64491,1,2,0:2:0:0:
414,68,64569,1,0,0:0:0:0:
361,19,64646,38,0,L|354:61,4,28.3333333333333
347,133,64955,22,0,L|328:284,1,127.5
328,280,65265,1,8,0:0:0:0:
264,160,65419,2,0,L|241:220,1,42.5
421,186,65574,2,0,L|425:239,1,42.5
320,363,65729,1,8,0:0:0:0:
320,363,65883,6,0,B|326:330|326:330|323:312|323:312|331:258,1,85
337,191,66038,1,0,0:0:0:0:
508,281,66193,53,2,1:1:0:0:
411,127,66347,2,0,L|403:196,1,50.9999984436036,0|0,1:0|0:0,0:0:0:0:
388,283,66502,1,8,0:0:0:0:
385,267,66579,1,0,0:0:0:0:
382,251,66656,1,2,0:1:0:0:
33,277,66811,54,0,L|104:263,1,50.9999984436036
161,253,66966,1,0,1:0:0:0:
159,269,67043,1,0,0:0:0:0:
157,285,67120,1,10,0:1:0:0:
100,147,67275,2,2,L|172:154,1,50.9999984436036,0|2,0:1|0:1,0:1:0:0:
450,179,67430,53,2,1:1:0:0:
413,92,67584,1,0,1:0:0:0:
510,106,67739,1,10,0:1:0:0:
385,247,67894,2,2,L|393:312,2,50.9999984436036,0|0|0,0:1|0:1|0:1,0:1:0:0:
52,221,68203,53,0,1:0:0:0:
77,98,68357,1,10,0:1:0:0:
130,197,68512,1,0,1:0:0:0:
130,197,68589,1,0,0:0:0:0:
130,197,68667,2,0,L|138:144,1,50.9999984436036,2|0,1:1|0:0,0:0:0:0:
272,33,68821,21,2,1:2:0:0:
289,62,68899,1,2,0:2:0:0:
298,94,68976,1,8,0:0:0:0:
298,127,69053,1,0,0:0:0:0:
290,160,69131,2,0,P|277:188|265:206,1,50.9999984436036,2|0,0:2|0:0,0:0:0:0:
172,126,69285,53,0,0:0:0:0:
172,126,69363,1,0,0:0:0:0:
172,126,69440,2,0,P|206:132|234:146,1,50.9999984436036,2|2,1:2|0:2,0:0:0:0:
216,365,69595,1,8,0:0:0:0:
205,333,69672,1,0,0:0:0:0:
209,298,69749,1,2,0:2:0:0:
225,267,69827,1,0,0:0:0:0:
254,249,69904,54,0,P|281:254|305:264,1,50.9999984436036,0|0,1:0|0:0,0:0:0:0:
357,13,70058,2,0,P|337:20|305:24,1,50.9999984436036,2|2,1:2|0:2,0:0:0:0:
301,192,70213,1,8,0:0:0:0:
301,192,70290,2,0,L|287:76,1,101.999996887207,2|0,0:2|1:0,0:0:0:0:
223,65,70522,53,0,0:0:0:0:
206,95,70600,1,0,0:0:0:0:
198,128,70677,1,2,1:2:0:0:
201,161,70754,1,2,0:2:0:0:
213,192,70832,1,8,0:0:0:0:
257,176,70909,1,0,0:0:0:0:
284,138,70986,1,2,1:2:0:0:
294,92,71064,1,0,0:0:0:0:
295,45,71141,86,0,L|345:66,1,50.9999984436036,2|0,1:1|0:0,0:0:0:0:
378,334,71296,53,0,1:0:0:0:
378,334,71373,1,0,0:0:0:0:
378,334,71450,2,0,L|389:271,1,50.9999984436036,8|0,0:0|0:0,0:0:0:0:
161,45,71605,54,0,L|212:65,1,50.9999984436036,2|0,0:1|0:0,0:0:0:0:
266,345,71760,53,0,0:0:0:0:
266,345,71837,1,0,0:0:0:0:
266,345,71914,2,0,L|275:285,1,50.9999984436036,0|0,1:0|0:0,0:0:0:0:
37,58,72069,54,0,L|85:79,1,50.9999984436036,10|0,0:1|0:0,0:0:0:0:
142,303,72223,53,0,0:0:0:0:
124,305,72301,1,0,0:0:0:0:
107,308,72378,1,2,1:1:0:0:
217,79,72533,53,0,1:0:0:0:
256,300,72687,53,10,0:1:0:0:
128,65,72842,54,2,L|120:9,2,50.9999984436036,0|0|0,0:1|0:1|0:1,0:1:0:0:
405,308,73151,53,0,1:0:0:0:
295,79,73306,53,10,0:1:0:0:
256,300,73461,53,0,1:0:0:0:
384,60,73615,53,2,1:1:0:0:
491,185,73770,69,2,1:3:0:0:
491,185,73847,1,0,0:0:0:0:
491,185,73924,2,0,B|408:168|428:216|335:199,1,152.999995330811,12|0,0:2|0:0,0:0:0:0:
270,133,74234,2,0,P|234:146|205:167,1,50.9999984436036,0|0,0:3|0:0,0:0:0:0:
226,258,74388,1,0,1:0:0:0:
58,207,74543,2,0,P|129:178|204:183,1,152.999995330811,12|0,0:2|0:0,0:0:0:0:
274,204,74852,53,0,1:0:0:0:
488,172,75007,1,2,1:3:0:0:
386,227,75162,2,0,B|336:239|336:239|282:220,1,101.999996887207,12|2,0:2|0:3,0:0:0:0:
229,160,75394,2,0,L|124:177,1,101.999996887207,0|0,1:0|0:0,0:0:0:0:
58,207,75626,1,0,1:0:0:0:
288,222,75780,2,0,B|338:210|338:210|392:229,1,101.999996887207,12|0,0:2|1:0,0:0:0:0:
449,252,76012,1,0,0:0:0:0:
449,252,76089,102,0,L|461:137,1,101.999996887207,2|0,1:1|1:0,0:0:0:0:
438,78,76321,1,0,0:0:0:0:
419,81,76399,2,0,P|379:89|355:94,1,50.9999984436036,8|0,0:0|0:0,0:0:0:0:
58,101,76553,54,0,L|160:80,1,101.999996887207,2|0,0:1|0:0,0:0:0:0:
154,151,76785,1,0,0:0:0:0:
151,170,76863,2,0,L|143:226,1,50.9999984436036,0|0,1:0|0:0,0:0:0:0:
350,221,77017,54,0,L|367:351,1,101.999996887207,10|0,0:1|0:0,0:0:0:0:
363,322,77249,1,0,0:0:0:0:
363,322,77327,1,2,1:1:0:0:
428,188,77481,1,0,1:0:0:0:
453,338,77636,1,10,0:1:0:0:
133,353,77790,54,2,B|102:308|102:308|122:208,1,152.999995330811,0|2,0:1|0:1,0:1:0:0:
127,183,78100,1,0,1:0:0:0:
133,353,78254,1,10,0:1:0:0:
390,203,78409,53,0,1:0:0:0:
390,203,78486,1,0,0:0:0:0:
390,203,78564,2,0,L|386:256,1,50.9999984436036,2|0,1:1|0:0,0:0:0:0:
266,364,78718,85,2,1:2:0:0:
281,325,78796,1,2,0:2:0:0:
279,284,78873,1,8,0:0:0:0:
263,246,78950,1,0,0:0:0:0:
237,213,79028,2,0,P|231:191|232:151,1,50.9999984436036,2|0,0:2|0:0,0:0:0:0:
278,13,79182,53,0,0:0:0:0:
269,53,79260,1,0,0:0:0:0:
251,89,79337,1,2,1:2:0:0:
220,116,79414,1,2,0:2:0:0:
182,131,79491,2,0,P|226:133|251:137,1,50.9999984436036,8|0,0:0|0:0,0:0:0:0:
329,281,79646,2,0,P|303:283|278:283,1,50.9999984436036,2|0,0:2|0:0,0:0:0:0:
299,147,79801,54,0,P|302:190|306:213,1,50.9999984436036,0|0,1:0|0:0,0:0:0:0:
192,320,79955,2,0,P|189:363|185:386,1,50.9999984436036,2|2,1:2|0:2,0:0:0:0:
222,221,80110,1,8,0:0:0:0:
222,221,80187,2,0,L|210:112,1,101.999996887207,2|0,0:2|1:0,0:0:0:0:
206,23,80419,53,0,0:0:0:0:
217,62,80497,1,0,0:0:0:0:
240,92,80574,1,2,1:2:0:0:
273,116,80651,1,2,0:2:0:0:
313,124,80729,2,0,L|301:185,1,50.9999984436036,8|0,0:0|0:0,0:0:0:0:
192,270,80883,2,0,L|253:259,1,50.9999984436036,2|0,1:2|0:0,0:0:0:0:
472,294,81038,85,2,1:1:0:0:
258,338,81193,1,0,1:0:0:0:
296,353,81270,1,0,0:0:0:0:
332,334,81347,2,0,P|332:311|324:263,1,50.9999984436036,8|0,0:0|0:0,0:0:0:0:
275,93,81502,53,2,0:1:0:0:
64,45,81656,1,0,0:0:0:0:
102,30,81734,1,0,0:0:0:0:
138,49,81811,2,0,P|138:84|130:120,1,50.9999984436036,0|0,1:0|0:0,0:0:0:0:
69,300,81966,53,10,0:1:0:0:
275,93,82120,53,0,0:0:0:0:
295,90,82198,1,0,0:0:0:0:
315,88,82275,1,2,1:1:0:0:
256,316,82430,53,0,1:0:0:0:
138,49,82584,53,10,0:1:0:0:
372,326,82739,54,2,L|448:342,2,50.9999984436036,0|0|0,0:1|0:1|0:1,0:1:0:0:
197,88,83048,53,0,1:0:0:0:
256,316,83203,53,10,0:1:0:0:
374,49,83357,53,0,1:0:0:0:
140,326,83512,54,0,L|64:342,1,50.9999984436036,2|0,1:1|0:0,0:0:0:0:
16,198,83667,69,2,1:3:0:0:
16,198,83744,1,0,0:0:0:0:
16,198,83821,2,0,B|63:219|63:219|119:200,1,101.999996887207,12|2,0:2|0:3,0:0:0:0:
160,151,84053,2,0,L|276:168,1,101.999996887207,0|0,1:0|1:0,0:0:0:0:
502,210,84285,2,0,L|433:200,1,50.9999984436036,0|0,1:0|0:0,0:0:0:0:
220,202,84440,2,0,L|289:192,1,50.9999984436036,12|0,0:2|0:0,0:0:0:0:
488,173,84595,2,0,L|415:183,1,50.9999984436036,0|0,1:0|1:0,0:0:0:0:
295,195,84749,53,0,1:0:0:0:
307,211,84827,1,0,0:0:0:0:
323,222,84904,1,2,0:3:0:0:
342,227,84981,1,0,0:0:0:0:
361,223,85058,1,4,1:2:0:0:
377,211,85136,1,0,0:0:0:0:
386,193,85213,1,2,0:3:0:0:
387,172,85290,1,0,0:0:0:0:
376,154,85368,1,0,1:0:0:0:
359,142,85445,1,0,0:0:0:0:
347,125,85522,1,0,0:0:0:0:
340,105,85600,1,0,0:0:0:0:
343,84,85677,1,4,1:2:0:0:
353,66,85754,1,0,0:0:0:0:
371,56,85832,1,0,0:0:0:0:
391,54,85909,1,0,0:0:0:0:
412,59,85986,6,0,L|458:75,1,42.5,0|2,1:0|0:2,0:0:0:0:
417,145,86296,2,0,L|447:187,1,42.5,0|0,1:0|0:0,0:0:0:0:
375,222,86605,1,2,1:2:0:0:
378,234,86682,1,0,0:0:0:0:
382,246,86760,1,0,0:0:0:0:
386,258,86837,1,0,0:0:0:0:
390,270,86914,1,0,1:0:0:0:
317,307,87069,70,0,P|280:328|224:344,1,85,2|2,0:2|0:2,0:0:0:0:
170,295,87533,1,0,1:0:0:0:
238,245,87687,1,2,0:2:0:0:
238,245,87765,1,0,0:0:0:0:
238,245,87842,1,2,1:2:0:0:
178,179,87997,2,0,L|169:130,1,42.5,2|0,0:2|1:0,0:0:0:0:
277,161,88306,2,0,L|286:112,1,42.5,2|0,0:2|1:0,0:0:0:0:
193,106,88615,37,2,0:2:0:0:
180,102,88693,1,0,0:0:0:0:
167,102,88770,1,0,1:0:0:0:
154,105,88847,1,0,0:0:0:0:
144,113,88924,1,0,0:0:0:0:
51,197,89079,1,2,1:2:0:0:
64,201,89156,1,0,0:0:0:0:
77,201,89234,1,0,0:0:0:0:
90,198,89311,1,0,0:0:0:0:
100,190,89388,1,0,1:0:0:0:
192,192,89543,1,0,0:0:0:0:
192,192,89620,1,0,0:0:0:0:
192,192,89698,1,2,1:1:0:0:
45,53,89852,6,0,L|98:110,1,63.75,2|0,1:1|0:0,0:0:0:0:
96,293,90162,2,0,L|116:219,1,63.75,2|0,1:1|0:0,0:0:0:0:
262,134,90471,5,2,1:1:0:0:
249,136,90548,1,0,0:0:0:0:
236,138,90626,1,2,0:2:0:0:
223,140,90703,1,0,0:0:0:0:
210,142,90780,1,2,0:2:0:0:
197,144,90857,1,0,0:0:0:0:
184,146,90935,37,0,1:0:0:0:
72,261,91089,1,2,1:2:0:0:
90,250,91167,1,0,0:0:0:0:
110,244,91244,1,0,1:0:0:0:
131,244,91321,1,0,0:0:0:0:
151,249,91399,1,2,1:2:0:0:
267,343,91553,1,0,1:0:0:0:
287,348,91631,1,0,0:0:0:0:
308,348,91708,1,2,1:2:0:0:
328,342,91785,1,0,0:0:0:0:
346,331,91863,1,0,1:0:0:0:
410,189,92017,53,2,1:2:0:0:
448,329,92172,1,0,1:0:0:0:
286,259,92327,1,2,1:2:0:0:
464,133,92481,1,0,1:0:0:0:
385,271,92636,1,2,1:2:0:0:
288,59,92790,53,2,1:2:0:0:
464,133,92945,1,2,1:2:0:0:
356,157,93100,1,2,1:2:0:0:
480,20,93254,1,2,1:2:0:0:
276,148,93409,54,0,L|224:141,1,42.5
68,117,93564,1,2,0:2:0:0:
68,117,93641,1,2,0:2:0:0:
68,117,93718,2,0,L|119:125,1,42.5
276,148,93873,54,0,L|268:212,1,42.5,2|0,0:2|0:0,0:0:0:0:
158,279,94028,1,0,0:0:0:0:
158,279,94105,1,0,0:0:0:0:
158,279,94182,2,0,L|166:228,1,42.5,2|2,0:2|0:2,0:0:0:0:
216,84,94337,53,0,0:0:0:0:
251,61,94414,1,0,0:0:0:0:
293,57,94491,1,2,0:2:0:0:
331,76,94569,1,0,0:0:0:0:
356,109,94646,1,0,0:0:0:0:
256,192,94801,12,8,95574,0:0:0:0:
134,274,95729,54,0,L|124:372,1,85
44,212,96038,21,2,0:0:0:0:
111,202,96193,1,2,0:0:0:0:
177,194,96347,1,2,0:0:0:0:
160,103,96502,1,2,0:0:0:0:
160,103,96656,2,0,P|110:114|50:116,1,85,2|2,0:0|0:0,0:0:0:0:
233,78,97043,1,2,0:0:0:0:
233,78,97120,54,0,L|281:84,1,42.5,2|0,0:0|0:0,0:0:0:0:
353,85,97275,2,0,L|305:79,1,42.5
160,103,97430,2,0,L|208:97,1,42.5,0|0,3:0|3:0,0:0:0:0:
427,72,97584,2,0,L|379:78,1,42.5,0|0,3:0|3:0,0:0:0:0:
296,67,97739,6,0,L|286:164,1,85,0|0,1:0|0:0,0:0:0:0:
288,165,97971,2,0,L|298:262,1,85
297,261,98203,2,0,L|290:325,1,42.5
60,274,98357,22,0,B|110:281|110:281|177:247,1,101.999996887207,0|2,1:0|0:1,0:0:0:0:
150,183,98589,1,2,0:2:0:0:
150,183,98667,2,0,L|206:190,1,50.9999984436036,8|0,1:0|0:0,0:0:0:0:
308,97,98821,2,0,B|258:90|258:90|191:124,1,101.999996887207,2|2,0:2|1:1,0:0:0:0:
150,183,99053,1,0,0:0:0:0:
150,183,99131,2,0,L|94:176,1,50.9999984436036,2|2,0:2|0:2,0:0:0:0:
21,165,99285,1,8,1:0:0:0:
429,243,99440,85,2,0:1:0:0:
429,243,99517,1,0,0:0:0:0:
429,243,99595,1,0,1:0:0:0:
327,148,99749,1,2,0:1:0:0:
340,234,99904,1,10,1:1:0:0:
353,320,100058,1,2,0:2:0:0:
397,81,100213,2,0,B|419:128|419:128|404:194,1,101.999996887207,4|2,1:2|0:2,0:0:0:0:
398,198,100445,2,0,L|457:203,1,50.9999984436036,2|8,0:2|1:0,0:0:0:0:
146,281,100677,1,2,0:2:0:0:
146,281,100754,1,0,0:0:0:0:
146,281,100832,22,0,L|29:296,1,101.999996887207,2|2,1:1|0:2,0:0:0:0:
25,285,101064,2,0,L|34:342,1,50.9999984436036,2|8,0:2|1:0,0:0:0:0:
90,140,101296,2,0,L|9:130,2,50.9999984436036,2|0|4,0:2|0:0|1:2,0:0:0:0:
241,267,101605,1,2,0:1:0:0:
200,70,101760,1,8,1:0:0:0:
200,70,101837,2,0,B|179:103|179:103|194:182,1,101.999996887207,2|0,0:1|0:0,0:0:0:0:
212,194,102069,85,2,1:1:0:0:
355,156,102223,1,2,0:2:0:0:
274,130,102378,1,10,1:1:0:0:
320,342,102533,2,0,L|307:284,2,50.9999984436036,2|0|4,0:1|0:0|1:2,0:0:0:0:
463,256,102842,1,2,0:2:0:0:
430,271,102919,1,2,0:2:0:0:
394,266,102997,1,8,1:0:0:0:
365,245,103074,1,0,0:0:0:0:
343,217,103151,1,2,0:2:0:0:
308,208,103229,1,0,0:0:0:0:
274,220,103306,21,2,1:1:0:0:
429,135,103461,1,2,0:2:0:0:
429,135,103538,1,2,0:2:0:0:
429,135,103615,2,0,L|421:198,1,50.9999984436036,8|0,1:0|0:0,0:0:0:0:
274,220,103770,2,0,L|158:233,1,101.999996887207,2|4,0:1|1:2,0:0:0:0:
32,146,104079,1,2,0:2:0:0:
64,160,104156,1,2,0:2:0:0:
99,163,104234,1,10,1:1:0:0:
134,157,104311,1,0,0:0:0:0:
164,138,104388,1,2,0:2:0:0:
186,109,104466,1,0,0:0:0:0:
198,75,104543,54,0,L|308:65,1,101.999996887207,0|2,1:0|0:2,0:0:0:0:
313,54,104775,2,0,L|191:49,1,101.999996887207,2|0,1:1|0:0,0:0:0:0:
93,57,105007,2,0,L|215:62,1,101.999996887207,2|0,1:2|0:0,0:0:0:0:
420,55,105239,2,0,L|298:60,1,101.999996887207,2|2,1:1|0:2,0:0:0:0:
72,72,105471,1,0,1:0:0:0:
435,70,105626,1,2,0:1:0:0:
216,161,105780,53,0,1:0:0:0:
328,243,105935,1,2,0:3:0:0:
328,243,106012,1,2,0:2:0:0:
328,243,106089,2,0,P|331:212|334:175,1,50.9999984436036,8|0,1:0|0:0,0:0:0:0:
416,127,106244,2,0,P|413:158|410:195,1,50.9999984436036,2|0,0:3|0:0,0:0:0:0:
282,112,106399,1,4,1:2:0:0:
282,112,106476,1,0,0:0:0:0:
282,112,106553,2,0,P|313:115|350:118,1,50.9999984436036,2|2,0:2|0:2,0:0:0:0:
462,257,106708,2,0,P|431:254|394:251,1,50.9999984436036,8|0,1:0|0:0,0:0:0:0:
192,146,106863,86,0,L|201:266,1,101.999996887207,2|0,0:1|1:0,0:0:0:0:
7,204,107172,1,2,0:1:0:0:
286,185,107327,1,10,1:1:0:0:
105,254,107481,1,2,0:2:0:0:
105,254,107558,1,0,0:0:0:0:
105,254,107636,2,0,L|96:134,1,101.999996887207,4|2,1:2|0:2,0:0:0:0:
110,128,107868,2,0,L|48:120,1,50.9999984436036,2|8,0:2|1:0,0:0:0:0:
321,125,108100,1,2,0:2:0:0:
220,353,108254,22,0,B|200:307|200:307|219:259,1,101.999996887207,0|2,1:0|0:1,0:0:0:0:
229,187,108486,1,2,0:2:0:0:
229,187,108564,2,0,L|164:177,1,50.9999984436036,8|0,1:0|0:0,0:0:0:0:
248,24,108718,2,0,B|268:70|268:70|249:118,1,101.999996887207,2|2,0:2|1:1,0:0:0:0:
229,187,108950,1,0,0:0:0:0:
229,187,109028,2,0,L|294:197,1,50.9999984436036,2|2,0:2|0:2,0:0:0:0:
352,207,109182,1,8,1:0:0:0:
105,172,109337,85,2,0:1:0:0:
105,172,109414,1,0,0:0:0:0:
105,172,109491,1,0,1:0:0:0:
292,132,109646,1,2,0:1:0:0:
144,242,109801,1,10,1:1:0:0:
317,321,109955,1,2,0:2:0:0:
198,127,110110,86,0,L|235:232,1,101.999996887207,4|2,1:2|0:2,0:0:0:0:
175,326,110342,2,0,L|247:241,1,101.999996887207,2|0,1:2|0:0,0:0:0:0:
361,247,110574,2,0,L|251:226,1,101.999996887207,2|2,1:2|1:1,0:0:0:0:
354,25,110883,21,2,1:2:0:0:
354,25,110961,1,2,0:2:0:0:
354,25,111038,2,0,B|323:97|323:97|366:173,1,152.999995330811,10|2,1:1|1:2,0:0:0:0:
379,178,111347,1,6,1:1:0:0:
214,42,111502,2,0,L|283:52,1,50.9999984436036,2|2,1:2|0:1,0:0:0:0:
422,74,111656,1,8,1:0:0:0:
181,148,111811,2,0,L|240:133,1,50.9999984436036,2|0,1:1|0:0,0:0:0:0:
422,74,111966,1,0,1:0:0:0:
136,32,112120,2,0,L|205:42,1,50.9999984436036,2|2,1:2|0:2,0:0:0:0:
422,74,112275,21,8,1:0:0:0:
388,51,112352,1,0,0:0:0:0:
346,51,112430,1,2,0:2:0:0:
314,76,112507,1,0,1:0:0:0:
301,114,112584,1,4,1:2:0:0:
314,152,112662,1,0,0:0:0:0:
346,175,112739,1,2,1:2:0:0:
386,178,112816,1,2,1:2:0:0:
420,199,112894,1,8,1:0:0:0:
432,237,112971,1,0,0:0:0:0:
414,273,113048,2,0,L|409:313,2,25.4999992218018,2|0|0,1:2|1:0|1:0,0:0:0:0:
348,332,113203,85,0,1:0:0:0:
348,332,113280,2,0,B|326:285|326:285|346:234,1,101.999996887207,2|2,0:1|1:1,0:0:0:0:
432,144,113512,2,0,L|372:156,1,50.9999984436036,8|0,1:0|1:0,0:0:0:0:
260,124,113667,21,0,1:2:0:0:
260,124,113744,2,0,B|282:171|282:171|262:222,1,101.999996887207,2|2,1:1|0:1,0:0:0:0:
184,304,113976,2,0,L|244:292,1,50.9999984436036
336,88,114131,54,2,L|344:56,2,25.4999992218018,10|2|2,0:2|0:2|0:2,0:2:0:0:
328,176,114285,2,2,L|336:208,2,25.4999992218018,2|2|2,0:2|0:2|0:2,0:2:0:0:
260,124,114440,21,0,0:0:0:0:
260,124,114517,2,0,L|156:112,1,101.999996887207,2|2,0:1|0:1,0:0:0:0:
24,68,114749,2,0,L|36:124,1,50.9999984436036,8|0,0:0|0:0,0:0:0:0:
292,228,114904,21,0,0:0:0:0:
292,228,114981,2,0,L|188:216,1,101.999996887207,2|2,0:1|0:1,0:0:0:0:
16,196,115213,2,0,L|28:252,1,50.9999984436036
8,354,115368,53,4,1:0:0:0:
256,192,115522,12,2,120626,0:0:0:0:
