osu file format v14

[General]
AudioFilename: mp3.mp3
AudioLeadIn: 0
PreviewTime: 98345
Countdown: 0
SampleSet: Soft
StackLeniency: 0.7
Mode: 0
LetterboxInBreaks: 0
WidescreenStoryboard: 1

[Editor]
Bookmarks: 89686
DistanceSpacing: 0.9
BeatDivisor: 4
GridSize: 4
TimelineZoom: 2.4

[Metadata]
Title:Completeness Under Incompleteness
TitleUnicode:Completeness Under Incompleteness
Artist:Camellia as "Reverse of Riot"
ArtistUnicode:かめりあ as "Reverse of Riot"
Creator:Regou
Version:Drop's EXHAUST
Source:SOUND VOLTEX III GRAVITY WARS
Tags:the 5th kac original song contest gravitational radar episode 18 sdvx konami bemani riot destrudo artcore RLC xlni choikapo [ Drop ] Kawaiwkyik Rizia Dailycare Hey lululu HootOwlStar
BeatmapID:1095270
BeatmapSetID:514750

[Difficulty]
HPDrainRate:5
CircleSize:4
OverallDifficulty:8
ApproachRate:9
SliderMultiplier:1.8
SliderTickRate:1

[Events]
//Background and Video events
0,0,"57194842_p0 (1).jpg",0,0
//Break Periods
2,86186,88943
//Storyboard Layer 0 (Background)
//Storyboard Layer 1 (Fail)
//Storyboard Layer 2 (Pass)
//Storyboard Layer 3 (Foreground)
//Storyboard Sound Samples

[TimingPoints]
626,309.278350515464,4,2,1,30,1,0
626,-166.666666666667,4,2,1,30,0,0
8976,-100,4,2,3,30,0,0
9285,-100,4,2,3,30,0,0
10522,-133.333333333333,4,2,1,50,0,0
12997,-100,4,2,1,50,0,0
15471,-142.857142857143,4,2,1,50,0,0
16089,-125,4,2,1,50,0,0
16708,-111.111111111111,4,2,1,50,0,0
17327,-100,4,2,1,50,0,0
17945,-100,4,1,1,50,0,0
20419,-80,4,2,3,60,0,0
21347,-66.6666666666667,4,2,1,60,0,0
21656,-100,4,2,1,60,0,0
40522,-100,4,2,3,60,0,0
41450,-133.333333333333,4,2,1,60,0,0
60007,-133.333333333333,4,2,3,60,0,0
61244,-200,4,2,1,60,0,0
62790,-166.666666666667,4,2,1,60,0,0
63100,-142.857142857143,4,2,1,60,0,0
63409,-125,4,2,1,60,0,0
63718,-111.111111111111,4,2,1,60,0,0
64028,-100,4,3,1,60,0,0
64646,-100,4,2,1,60,0,0
64955,-80,4,2,3,60,0,0
65883,-66.6666666666667,4,2,1,60,0,0
66193,-100,4,2,1,75,0,1
74852,-100,4,2,4,75,0,1
75780,-100,4,2,1,75,0,1
85986,-100,4,2,1,35,0,0
89698,-100,4,2,1,75,0,0
90935,-125,4,2,1,75,0,0
92172,-100,4,2,1,75,0,0
93409,-100,4,1,1,75,0,0
94646,-80,4,1,1,75,0,0
95574,-66.6666666666667,4,1,1,75,0,0
96038,-133.333333333333,4,2,1,75,0,0
98357,-100,4,2,1,75,0,1
104543,-76.9230769230769,4,2,1,75,0,1
104775,-71.4285714285714,4,2,1,75,0,1
105007,-66.6666666666667,4,2,1,75,0,1
105239,-62.5,4,2,1,75,0,1
105471,-58.8235294117647,4,2,1,75,0,1
105780,-100,4,2,1,75,0,1
112275,-100,4,1,1,75,0,1
115368,-100,4,2,1,75,0,0

[Colours]
Combo1 : 255,94,94
Combo2 : 128,128,128
Combo3 : 242,242,242
Combo4 : 49,131,253
Combo5 : 150,243,254
Combo6 : 255,158,100

[HitObjects]
112,164,626,6,0,B|151:181|191:157|191:157|162:204|186:245|186:245|168:323|168:323|208:308|208:308|236:334|312:321|316:252,1,431.999986816407
316,264,3100,6,0,B|300:225|324:187|324:187|308:148|308:148|338:93|300:49|300:49|364:60|408:24|408:24|355:33|311:-4,1,431.999986816407,0|0,0:0|0:0,0:0:0:0:
324,5,5574,6,0,B|297:46|239:57|196:25|196:25|191:55|166:69|166:69|123:31|58:45|28:94|46:169|116:180,1,431.999986816407,0|0,0:0|0:0,0:0:0:0:
97,174,8048,6,0,B|156:204|211:170|211:170|206:210|212:240|212:240|260:208|320:224,1,296.99999093628,0|0,0:0|0:0,0:0:0:0:
372,268,8976,2,0,L|361:315,5,30
384,192,9285,54,0,L|380:84,1,90,0|0,0:0|0:0,0:0:0:0:
332,40,9517,1,0,0:0:0:0:
308,64,9595,2,0,L|304:124,1,45,0|0,0:0|0:0,0:0:0:0:
232,184,9749,70,0,L|228:94,1,90,0|0,0:0|0:0,0:0:0:0:
152,68,9981,2,0,L|156:24,2,45,0|0|0,0:0|0:0|0:0,0:0:0:0:
88,120,10213,2,0,L|92:164,1,45,0|0,0:0|0:0,0:0:0:0:
152,220,10368,1,0,0:0:0:0:
149,242,10445,1,0,0:0:0:0:
148,264,10522,6,0,L|140:340,1,67.5000025749208,0|0,3:0|0:0,0:0:0:0:
232,315,10832,2,0,L|240:248,1,67.5000025749208,0|0,3:0|0:0,0:0:0:0:
302,178,11141,5,0,3:0:0:0:
276,88,11296,1,0,0:0:0:0:
376,104,11450,1,0,3:0:0:0:
204,152,11605,1,0,0:0:0:0:
376,104,11760,6,0,L|448:112,1,67.5000025749208,0|0,3:0|0:0,0:0:0:0:
388,185,12069,2,0,L|460:193,1,67.5000025749208,0|0,3:0|0:0,0:0:0:0:
400,264,12378,37,0,3:0:0:0:
264,252,12533,1,0,0:0:0:0:
380,272,12687,1,0,3:0:0:0:
244,258,12842,1,0,0:0:0:0:
258,122,12997,6,0,L|268:24,2,90,0|0|0,3:0|0:0|3:0,0:0:0:0:
124,160,13461,5,0,0:0:0:0:
127,182,13538,1,0,0:0:0:0:
129,205,13615,1,0,3:0:0:0:
131,227,13693,1,0,0:0:0:0:
134,250,13770,1,0,0:0:0:0:
136,272,13847,1,0,0:0:0:0:
139,295,13924,2,0,L|148:368,1,45,0|0,3:0|0:0,0:0:0:0:
256,256,14079,2,0,L|188:227,1,45,0|0,0:0|0:0,0:0:0:0:
231,376,14234,6,0,B|266:349|266:349|328:352,1,90,0|0,3:0|0:0,0:0:0:0:
480,328,14543,2,0,B|445:355|445:355|383:352,1,90,0|0,3:0|0:0,0:0:0:0:
304,168,14852,37,0,3:0:0:0:
300,273,15007,1,0,0:0:0:0:
405,277,15162,1,0,3:0:0:0:
409,171,15316,1,0,0:0:0:0:
304,168,15471,6,0,L|236:176,1,62.9999980773926,0|0,3:0|3:0,0:0:0:0:
80,204,15780,2,0,L|148:212,1,62.9999980773926,0|0,3:0|3:0,0:0:0:0:
309,96,16089,6,0,L|301:200,1,72,0|0,3:0|3:0,0:0:0:0:
80,204,16399,2,0,L|74:132,1,72,0|0,3:0|3:0,0:0:0:0:
192,136,16708,5,0,3:0:0:0:
196,272,16863,1,0,3:0:0:0:
176,112,17017,2,0,L|184:28,1,80.9999975280763,0|0,3:0|3:0,0:0:0:0:
208,260,17327,70,0,L|198:354,1,90,0|0,3:0|3:0,0:0:0:0:
300,280,17636,1,0,3:0:0:0:
100,312,17790,1,0,3:0:0:0:
360,344,17945,21,0,0:0:0:0:
378,316,18022,1,0,0:0:0:0:
385,283,18100,1,0,0:0:0:0:
378,250,18177,1,0,0:0:0:0:
360,222,18254,1,0,0:0:0:0:
342,194,18332,1,0,0:0:0:0:
335,161,18409,1,0,0:0:0:0:
342,128,18486,1,0,0:0:0:0:
360,100,18564,6,0,P|381:83|408:72,3,45,0|0|0|0,0:0|0:0|0:0|0:0,0:0:0:0:
296,36,18873,2,0,P|275:19|248:8,3,45,0|0|0|0,0:0|0:0|0:0|0:0,0:0:0:0:
200,88,19182,70,0,L|168:92,10,22.5,0|0|0|0|0|0|0|0|0|0|0,0:0|0:0|0:0|0:0|0:0|0:0|0:0|0:0|0:0|0:0|0:0,0:0:0:0:
108,128,19646,6,0,L|52:120,1,45,0|2,2:0|2:0,0:0:0:0:
208,208,19801,2,0,L|264:200,1,45,0|2,2:0|2:0,0:0:0:0:
85,196,19955,69,0,2:0:0:0:
85,240,20033,1,2,2:0:0:0:
102,281,20110,1,0,2:0:0:0:
134,313,20187,1,0,2:0:0:0:
175,331,20265,1,0,2:0:0:0:
220,332,20342,1,2,2:0:0:0:
263,317,20419,22,0,P|301:321|336:348,1,56.25,0|0,2:0|0:0,0:0:0:0:
452,352,20574,2,0,P|414:356|379:383,1,56.25,0|0,0:0|0:0,0:0:0:0:
336,248,20729,6,0,L|344:116,1,112.5,8|0,0:0|0:0,0:0:0:0:
420,112,20961,2,0,B|468:140|468:140|416:168,1,112.5,0|0,0:0|0:0,0:0:0:0:
296,220,21193,2,0,L|300:154,1,56.25,0|0,0:0|0:0,0:0:0:0:
248,56,21347,70,0,P|173:97|253:169,1,202.500007724762,0|0,0:0|0:0,0:0:0:0:
236,160,21656,22,0,P|192:158|133:162,1,90,4|0,1:0|1:0,0:0:0:0:
336,60,21966,2,0,P|380:62|425:60,1,90,8|0,0:0|0:0,0:0:0:0:
448,48,22198,1,0,0:0:0:0:
468,28,22275,1,0,0:0:0:0:
504,168,22430,1,0,1:0:0:0:
408,256,22584,1,8,0:0:0:0:
388,215,22662,1,0,0:0:0:0:
351,192,22739,1,0,0:0:0:0:
307,191,22816,1,0,0:0:0:0:
269,215,22894,6,0,P|248:264|260:316,1,90,0|0,1:0|0:0,0:0:0:0:
144,184,23203,2,0,P|146:139|126:99,1,90,8|0,0:0|0:0,0:0:0:0:
126,82,23435,1,0,0:0:0:0:
126,65,23512,1,2,0:0:0:0:
126,48,23589,1,0,0:0:0:0:
126,32,23667,1,0,1:0:0:0:
162,59,23744,1,0,0:0:0:0:
205,68,23821,1,8,0:3:0:0:
248,56,23899,1,0,0:0:0:0:
281,26,23976,2,0,L|350:36,1,45,0|0,0:0|0:0,0:0:0:0:
400,8,24131,70,0,P|386:62|384:108,1,90,0|0,1:0|0:0,0:0:0:0:
436,200,24440,1,8,0:0:0:0:
348,280,24595,1,0,0:0:0:0:
303,282,24672,1,0,0:0:0:0:
258,285,24749,1,0,0:0:0:0:
213,287,24827,1,0,0:0:0:0:
168,290,24904,2,0,L|64:296,1,90,0|8,1:0|0:0,0:0:0:0:
28,344,25136,1,0,0:0:0:0:
8,320,25213,2,0,P|4:304|16:256,1,45
88,172,25368,70,0,L|80:64,1,90,0|0,1:0|0:0,0:0:0:0:
204,144,25677,2,0,L|192:298,1,135,8|0,0:0|0:0,0:0:0:0:
176,316,25986,2,0,P|219:324|252:372,1,90,0|0,0:0|0:0,0:0:0:0:
452,248,26296,2,0,P|423:281|379:289,1,90,8|0,1:0|0:0,0:0:0:0:
326,244,26528,1,0,0:0:0:0:
326,244,26605,6,0,L|319:138,1,90,0|0,1:0|0:0,0:0:0:0:
400,112,26914,1,8,0:0:0:0:
240,180,27069,1,0,0:0:0:0:
195,171,27146,1,0,0:0:0:0:
151,167,27223,1,0,0:0:0:0:
106,167,27301,1,0,0:0:0:0:
61,172,27378,2,0,P|49:129|48:80,1,90,0|8,1:0|0:0,0:0:0:0:
96,28,27610,1,0,0:0:0:0:
124,32,27687,2,0,L|180:36,1,45
252,96,27842,5,0,0:0:0:0:
420,36,27997,1,0,0:0:0:0:
440,176,28151,2,0,P|404:168|336:164,1,90,8|0,0:0|0:0,0:0:0:0:
347,197,28383,1,0,0:0:0:0:
344,230,28461,1,0,0:0:0:0:
341,264,28538,1,0,0:0:0:0:
338,298,28615,1,0,0:0:0:0:
216,364,28770,1,8,0:0:0:0:
120,248,28924,1,0,0:0:0:0:
120,248,29002,1,0,0:0:0:0:
120,248,29079,6,0,P|128:180|88:120,1,135,0|0,1:0|0:0,0:0:0:0:
64,132,29388,1,8,0:0:0:0:
176,40,29543,1,0,0:0:0:0:
198,64,29620,1,0,0:0:0:0:
228,80,29698,1,0,0:0:0:0:
261,85,29775,1,0,0:0:0:0:
294,79,29852,2,0,P|319:65|334:35,1,45,0|0,1:0|0:0,0:0:0:0:
384,104,30007,2,0,B|420:91|420:91|508:104,1,90,8|0,0:0|0:0,0:0:0:0:
504,160,30239,1,0,0:0:0:0:
512,184,30316,70,0,L|400:196,1,90,0|0,1:0|0:0,0:0:0:0:
422,193,30548,1,0,0:0:0:0:
422,193,30626,1,8,0:0:0:0:
312,68,30780,5,0,0:0:0:0:
288,88,30857,1,0,0:0:0:0:
268,108,30935,2,0,L|254:277,1,135,0|0,1:0|0:0,0:0:0:0:
232,280,31244,1,8,0:0:0:0:
232,294,31321,1,2,0:0:0:0:
233,309,31399,1,0,0:0:0:0:
233,324,31476,1,2,0:0:0:0:
234,339,31553,70,0,P|170:311|74:379,1,180,4|8,1:0|0:0,0:0:0:0:
8,272,32017,1,0,0:0:0:0:
136,216,32172,1,0,0:0:0:0:
142,171,32249,1,0,0:0:0:0:
142,126,32327,2,0,L|132:28,1,90,0|8,1:0|0:0,0:0:0:0:
248,116,32636,1,2,0:0:0:0:
248,116,32713,1,0,0:0:0:0:
248,116,32790,5,0,0:0:0:0:
48,120,32945,1,0,0:0:0:0:
236,96,33100,2,0,L|325:105,1,90,8|2,0:0|0:0,0:0:0:0:
356,128,33332,1,0,0:0:0:0:
392,120,33409,1,0,0:0:0:0:
460,56,33564,2,0,L|504:62,2,45,0|0|8,1:0|0:0|0:0,0:0:0:0:
400,204,33873,1,0,0:0:0:0:
400,204,33950,1,0,0:0:0:0:
400,204,34028,70,0,P|402:274|416:332,1,90,0|0,1:0|1:0,0:0:0:0:
500,236,34337,1,8,0:0:0:0:
328,356,34491,1,0,0:0:0:0:
306,316,34569,1,0,0:0:0:0:
270,290,34646,1,0,0:0:0:0:
226,282,34723,1,0,0:0:0:0:
183,293,34801,2,0,P|135:315|72:312,1,90,0|8,1:0|0:0,0:0:0:0:
28,296,35033,1,0,0:0:0:0:
24,268,35110,2,0,L|16:212,1,45
104,188,35265,6,0,L|116:88,1,90,0|0,1:0|0:0,0:0:0:0:
240,24,35574,2,0,L|250:113,1,90,8|0,0:0|0:0,0:0:0:0:
277,148,35806,1,0,1:0:0:0:
318,165,35883,1,0,0:0:0:0:
362,159,35961,1,0,0:0:0:0:
396,131,36038,1,0,1:0:0:0:
480,272,36193,2,0,P|439:257|387:253,1,90,8|0,0:0|0:0,0:0:0:0:
336,288,36424,1,0,0:0:0:0:
308,288,36502,70,0,L|204:280,1,90,0|2,1:0|0:0,0:0:0:0:
24,256,36811,1,8,0:0:0:0:
120,352,36966,1,0,0:0:0:0:
132,309,37043,1,0,0:0:0:0:
136,264,37120,1,0,0:0:0:0:
131,219,37198,1,0,0:0:0:0:
116,177,37275,1,0,1:0:0:0:
42,64,37430,2,0,P|98:77|160:68,1,90,8|0,0:0|0:0,0:0:0:0:
160,60,37662,1,0,0:0:0:0:
184,36,37739,6,0,L|288:44,1,90,0|2,1:0|0:0,0:0:0:0:
448,116,38048,2,0,L|344:124,1,90,8|0,0:0|0:0,0:0:0:0:
334,160,38280,1,0,0:0:0:0:
328,204,38357,1,0,0:0:0:0:
342,247,38435,1,0,0:0:0:0:
372,280,38512,1,0,1:0:0:0:
424,204,38667,1,8,0:0:0:0:
272,288,38821,1,0,0:0:0:0:
272,288,38899,1,0,0:0:0:0:
272,288,38976,70,0,P|223:283|177:282,1,90,0|0,1:0|0:0,0:0:0:0:
147,294,39208,1,0,0:0:0:0:
116,312,39285,2,0,L|60:316,3,45,8|0|0|0,0:0|0:0|0:0|0:0,0:0:0:0:
56,292,39595,2,0,L|11:288,3,45,0|0|0|0,0:0|0:0|1:0|0:0,0:0:0:0:
96,228,39904,1,8,0:0:0:0:
95,205,39981,1,0,0:0:0:0:
94,183,40058,1,0,0:0:0:0:
93,160,40136,1,0,0:0:0:0:
92,138,40213,2,0,L|88:32,1,90,4|0,3:0|0:0,0:0:0:0:
248,140,40522,6,0,L|252:196,3,45,8|0|0|0,3:2|0:0|0:0|0:0,0:0:0:0:
276,212,40832,1,8,3:2:0:0:
278,234,40909,1,0,0:0:0:0:
280,256,40986,1,0,0:0:0:0:
283,279,41064,1,0,0:0:0:0:
285,302,41141,2,0,L|287:346,1,45,8|0,3:2|0:0,0:0:0:0:
364,208,41296,2,0,L|367:164,1,45,2|0,0:2|0:0,0:0:0:0:
440,292,41450,38,0,L|448:372,2,67.5000025749208,4|0|0,0:0|0:0|0:0,0:0:0:0:
360,344,41914,2,0,L|220:340,2,135.000005149842,0|0|0,0:0|0:0|0:0,0:0:0:0:
368,336,42842,1,0,0:0:0:0:
196,272,42997,2,0,P|167:283|120:280,1,67.5000025749208,0|0,0:0|0:0,0:0:0:0:
120,268,43615,1,0,0:0:0:0:
121,259,43693,1,0,0:0:0:0:
122,251,43770,1,0,0:0:0:0:
123,242,43847,1,0,0:0:0:0:
124,234,43924,1,0,0:0:0:0:
60,136,44079,6,0,P|96:150|188:86,2,135.000005149842
224,36,45007,2,0,P|288:23|341:61,1,135.000005149842,0|0,0:0|0:0,0:0:0:0:
352,80,45471,1,0,0:0:0:0:
352,80,46244,1,0,0:0:0:0:
452,128,46399,5,0,0:0:0:0:
452,128,46476,1,0,0:0:0:0:
452,128,46553,2,0,P|450:161|443:194,1,67.5000025749208,0|0,0:0|0:0,0:0:0:0:
380,272,46785,2,0,P|378:238|371:205,1,67.5000025749208,0|0,0:0|0:0,0:0:0:0:
308,128,47017,2,0,P|306:161|299:194,1,67.5000025749208,0|0,0:0|0:0,0:0:0:0:
236,272,47249,2,0,P|234:238|227:205,1,67.5000025749208,0|0,0:0|0:0,0:0:0:0:
155,194,47481,1,0,0:0:0:0:
72,272,47636,5,0,0:0:0:0:
72,272,47713,1,0,0:0:0:0:
72,272,47790,2,0,L|80:368,1,67.5000025749208,0|0,0:0|0:0,0:0:0:0:
148,292,48022,2,0,L|156:388,1,67.5000025749208,0|0,0:0|0:0,0:0:0:0:
224,268,48254,2,0,L|232:172,1,67.5000025749208,0|0,0:0|0:0,0:0:0:0:
300,248,48486,2,0,L|308:152,1,67.5000025749208,0|0,0:0|0:0,0:0:0:0:
364,288,48718,1,0,0:0:0:0:
436,164,48873,5,0,0:0:0:0:
436,164,48950,1,0,0:0:0:0:
436,164,49028,2,0,P|408:144|372:136,1,67.5000025749208,0|0,0:0|0:0,0:0:0:0:
336,72,49260,2,0,P|308:91|276:99,1,67.5000025749208,0|0,0:0|0:0,0:0:0:0:
228,160,49491,2,0,P|200:140|164:132,1,67.5000025749208,0|0,0:0|0:0,0:0:0:0:
128,68,49723,2,0,P|100:87|68:95,1,67.5000025749208,0|0,0:0|0:0,0:0:0:0:
12,144,49955,1,0,0:0:0:0:
40,244,50110,1,0,0:0:0:0:
73,342,50265,38,0,L|165:346,1,67.5000025749208,0|0,0:0|0:0,0:0:0:0:
192,288,50497,2,0,P|213:317|217:366,1,67.5000025749208,0|0,0:0|0:0,0:0:0:0:
288,376,50729,2,0,L|300:288,1,67.5000025749208,0|0,0:0|0:0,0:0:0:0:
368,256,50961,2,0,L|377:322,1,67.5000025749208,0|0,0:0|0:0,0:0:0:0:
448,356,51193,1,0,0:0:0:0:
448,356,51347,5,0,3:0:0:0:
464,224,51502,2,0,P|460:156|444:60,2,135.000005149842,0|0|0,0:0|0:0|0:0,0:0:0:0:
300,172,52430,2,0,P|304:104|320:8,1,135.000005149842,0|0,0:0|0:0,0:0:0:0:
316,24,52894,1,0,0:0:0:0:
316,24,53512,1,0,0:0:0:0:
307,24,53589,1,0,0:0:0:0:
299,25,53667,1,0,0:0:0:0:
290,25,53744,1,0,0:0:0:0:
282,26,53821,1,0,0:0:0:0:
216,112,53976,6,0,P|155:104|56:100,2,135.000005149842
308,188,54904,2,0,L|442:175,1,135.000005149842,0|0,0:0|0:0,0:0:0:0:
464,172,55368,1,0,0:0:0:0:
464,172,56141,1,0,0:0:0:0:
424,280,56296,1,0,0:0:0:0:
424,280,56450,6,0,L|344:288,1,67.5000025749208,0|0,0:0|0:0,0:0:0:0:
356,360,56682,2,0,L|288:353,1,67.5000025749208,0|0,0:0|0:0,0:0:0:0:
284,284,56914,2,0,L|204:292,1,67.5000025749208,0|0,0:0|0:0,0:0:0:0:
216,364,57146,2,0,L|148:357,1,67.5000025749208,0|0,0:0|0:0,0:0:0:0:
76,352,57378,1,0,0:0:0:0:
32,224,57533,1,0,0:0:0:0:
32,224,57687,38,0,L|40:152,1,67.5000025749208,0|0,0:0|0:0,0:0:0:0:
112,192,57919,2,0,L|120:120,1,67.5000025749208,0|0,0:0|0:0,0:0:0:0:
192,168,58151,2,0,L|200:96,1,67.5000025749208,0|0,0:0|0:0,0:0:0:0:
272,136,58383,2,0,L|280:64,1,67.5000025749208,0|0,0:0|0:0,0:0:0:0:
352,104,58615,1,0,0:0:0:0:
416,184,58770,1,0,0:0:0:0:
416,184,58924,6,0,P|414:234|392:260,1,67.5000025749208,0|0,0:0|0:0,0:0:0:0:
344,332,59156,2,0,P|347:298|333:268,1,67.5000025749208,0|0,0:0|0:0,0:0:0:0:
276,180,59388,2,0,P|274:230|252:256,1,67.5000025749208,0|0,0:0|0:0,0:0:0:0:
204,328,59620,2,0,P|207:294|193:264,1,67.5000025749208,0|0,0:0|0:0,0:0:0:0:
120,256,59852,1,0,0:0:0:0:
56,140,60007,38,0,L|64:100,3,33.7500012874604,0|0|0|0,0:0|0:0|0:0|0:0,0:0:0:0:
152,60,60316,2,0,L|158:93,3,33.7500012874604,0|0|0|0,0:0|0:0|0:0|0:0,0:0:0:0:
236,152,60626,5,0,0:0:0:0:
266,166,60703,1,0,0:0:0:0:
299,168,60780,1,0,0:0:0:0:
331,157,60857,1,0,0:0:0:0:
356,135,60935,1,0,0:0:0:0:
353,168,61012,1,0,0:0:0:0:
349,202,61089,1,0,0:0:0:0:
346,235,61167,1,0,0:0:0:0:
343,269,61244,38,0,B|324:288|318:314|318:314|271:290|228:296|195:327|195:327|175:323|158:316|158:316|124:344|64:336|48:296,1,337.5,0|0,0:0|0:0,0:0:0:0:
60,276,62481,6,0,L|52:236,3,22.5,0|0|0|0,0:0|0:0|0:0|0:0,0:0:0:0:
128,208,62790,2,0,L|136:168,3,26.9999991760254,0|0|0|0,0:0|0:0|0:0|0:0,0:0:0:0:
32,164,63100,6,0,L|24:124,3,31.4999990386963,0|0|0|0,0:0|0:0|0:0|0:0,0:0:0:0:
152,96,63409,2,0,L|160:56,3,36,0|0|0|0,0:0|0:0|0:0|0:0,0:0:0:0:
8,48,63718,70,0,L|0:8,3,40.4999987640381,0|0|0|0,0:0|0:0|0:0|0:0,0:0:0:0:
65,103,64028,5,0,0:0:0:0:
97,133,64105,1,0,0:0:0:0:
139,146,64182,1,0,0:0:0:0:
183,136,64260,1,0,0:0:0:0:
217,107,64337,1,0,0:0:0:0:
250,78,64414,1,0,0:0:0:0:
294,68,64491,1,0,0:0:0:0:
337,80,64569,1,0,0:0:0:0:
369,111,64646,2,0,L|376:168,1,45,0|0,0:0|0:0,0:0:0:0:
456,216,64801,2,0,L|449:273,1,45,0|0,0:0|0:0,0:0:0:0:
404,360,64955,38,0,P|372:347|348:344,1,56.25,0|0,0:0|0:0,0:0:0:0:
280,288,65110,2,0,P|248:301|224:304,1,56.25,0|0,0:0|0:0,0:0:0:0:
140,344,65265,6,0,B|127:308|127:308|136:208,1,112.5
52,160,65497,2,0,B|56:200|56:200|48:232|48:232|52:276,1,112.5,0|0,0:0|0:0,0:0:0:0:
236,184,65729,2,0,B|208:189|208:189|181:180,1,56.25,0|0,0:0|0:0,0:0:0:0:
100,80,65883,70,0,P|140:18|196:118,1,202.500007724762,0|0,0:0|0:0,0:0:0:0:
216,112,66193,6,0,P|262:109|316:92,1,90,6|0,1:0|0:0,0:0:0:0:
412,60,66502,2,0,L|416:8,2,45,8|0|0,0:0|0:0|0:0,0:0:0:0:
448,148,66811,2,0,L|443:248,1,90,0|0,0:0|1:0,0:0:0:0:
360,336,67120,5,8,0:0:0:0:
315,329,67198,1,0,0:0:0:0:
270,324,67275,1,0,0:0:0:0:
225,321,67352,1,0,0:0:0:0:
180,319,67430,1,4,1:0:0:0:
52,199,67584,1,2,0:0:0:0:
225,221,67739,1,8,0:0:0:0:
72,305,67894,1,0,0:0:0:0:
145,147,68048,2,0,P|203:81|289:90,1,180,0|8,0:0|0:0,0:0:0:0:
318,107,68435,1,0,0:0:0:0:
351,115,68512,1,0,0:0:0:0:
384,114,68589,1,0,0:0:0:0:
416,103,68667,6,0,P|410:173|412:224,1,90,0|0,1:0|0:0,0:0:0:0:
424,220,68899,1,2,0:0:0:0:
444,240,68976,2,0,L|508:236,3,45,8|0|0|2,0:0|0:0|0:0|0:0,0:0:0:0:
356,296,69285,2,0,L|311:299,3,45,0|0|0|0,0:0|0:0|1:0|0:0,0:0:0:0:
440,320,69595,2,0,L|437:365,2,45,8|0|0,0:0|0:0|0:0,0:0:0:0:
268,216,69904,5,0,1:0:0:0:
236,204,69981,1,0,0:0:0:0:
203,205,70058,1,0,0:0:0:0:
173,220,70136,1,2,0:0:0:0:
151,246,70213,1,8,0:0:0:0:
127,270,70290,1,2,0:0:0:0:
97,285,70368,1,0,0:0:0:0:
64,287,70445,1,0,1:0:0:0:
32,274,70522,2,0,L|20:224,3,45,0|0|0|0,0:0|0:0|1:0|0:0,0:0:0:0:
56,164,70832,2,0,L|44:114,3,45,8|0|2|0,0:0|0:0|0:0|0:0,0:0:0:0:
80,54,71141,6,0,P|124:90|204:60,1,135,4|0,1:0|0:0,0:0:0:0:
224,36,71450,2,0,L|320:28,1,90,8|0,0:0|0:0,0:0:0:0:
464,144,71760,2,0,P|400:134|316:131,1,135
333,148,72069,1,8,1:0:0:0:
337,165,72146,1,0,0:0:0:0:
340,183,72223,1,0,0:0:0:0:
344,201,72301,1,0,0:0:0:0:
348,219,72378,6,0,L|332:348,1,90,4|0,1:0|0:0,0:0:0:0:
464,296,72687,1,8,0:0:0:0:
260,236,72842,2,0,B|200:224|200:224|148:248|148:248|83:233,1,180,6|0,0:1|1:0,0:0:0:0:
20,132,73306,1,8,0:0:0:0:
208,112,73461,1,0,0:0:0:0:
120,60,73615,6,0,P|110:111|130:175,1,90,4|2,1:0|0:0,0:0:0:0:
136,176,73847,1,0,0:0:0:0:
136,176,73924,2,0,L|132:228,1,45,8|0,0:0|0:0,0:0:0:0:
56,319,74079,2,0,B|103:338|103:338|232:312,1,180,0|0,0:0|1:0,0:0:0:0:
413,363,74543,2,0,B|368:352|368:352|312:364,1,90,8|0,0:0|0:0,0:0:0:0:
248,228,74852,6,0,L|252:164,3,45,0|8|0|0,1:0|0:0|0:0|0:0,0:0:0:0:
320,144,75162,2,0,L|316:80,3,45,0|0|8|8,1:0|0:0|0:0|0:0,0:0:0:0:
232,32,75471,1,0,0:0:0:0:
265,30,75548,1,0,0:0:0:0:
299,28,75626,1,0,1:0:0:0:
333,26,75703,1,0,0:0:0:0:
364,48,75780,1,8,0:0:0:0:
397,46,75857,1,0,0:0:0:0:
431,44,75935,1,0,0:0:0:0:
465,42,76012,1,0,0:0:0:0:
498,40,76089,6,0,L|488:148,1,90,6|0,1:0|0:0,0:0:0:0:
476,264,76399,2,0,L|472:308,2,45,8|0|2,0:0|0:0|0:1,0:0:0:0:
336,156,76708,2,0,L|346:264,1,90,0|0,0:0|1:0,0:0:0:0:
256,344,77017,5,10,0:0:0:0:
213,359,77095,1,0,0:0:0:0:
169,356,77172,1,0,0:0:0:0:
129,336,77249,1,0,0:0:0:0:
100,302,77327,1,4,1:0:0:0:
180,184,77481,1,2,0:0:0:0:
52,144,77636,1,8,0:0:0:0:
172,268,77790,1,0,0:0:0:0:
227,12,77945,2,0,P|294:68|296:156,1,180,0|8,0:0|0:0,0:0:0:0:
287,187,78332,1,0,0:0:0:0:
290,221,78409,1,0,1:0:0:0:
306,250,78486,1,0,0:0:0:0:
331,273,78564,6,0,P|369:279|425:269,1,90,0|0,1:0|0:0,0:0:0:0:
444,252,78796,1,2,0:0:0:0:
460,224,78873,2,0,L|456:160,3,45,8|2|0|2,0:0|0:0|0:0|0:0,0:0:0:0:
392,304,79182,2,0,L|389:348,3,45,0|2|0|2,0:0|0:0|1:0|0:0,0:0:0:0:
292,248,79491,2,0,L|247:245,2,45,8|0|0,0:0|0:0|0:0,0:0:0:0:
120,348,79801,5,0,1:0:0:0:
96,323,79878,1,2,0:0:0:0:
86,291,79955,1,0,0:0:0:0:
92,258,80033,1,2,0:0:0:0:
111,231,80110,1,8,0:0:0:0:
130,204,80187,1,2,0:0:0:0:
136,171,80265,1,0,0:0:0:0:
126,139,80342,1,0,1:0:0:0:
102,114,80419,2,0,P|72:102|44:100,3,45,0|0|0|0,0:0|0:0|1:0|0:0,0:0:0:0:
196,80,80729,2,0,P|185:49|169:26,3,45,8|0|0|0,0:0|0:0|0:0|0:0,0:0:0:0:
282,129,81038,6,0,P|319:68|335:6,1,135,6|0,1:0|0:0,0:0:0:0:
360,32,81347,2,0,L|364:136,1,90,8|2,0:0|2:0,0:0:0:0:
448,328,81656,2,0,L|453:193,1,135,0|0,0:0|0:0,0:0:0:0:
464,164,81966,2,0,L|396:172,1,45,8|0,0:0|0:0,0:0:0:0:
340,216,82120,1,2,0:0:0:0:
340,216,82198,1,2,0:0:0:0:
340,216,82275,6,0,L|240:204,1,90,2|0,1:0|0:0,0:0:0:0:
68,252,82584,1,8,0:0:0:0:
144,320,82739,2,0,B|168:264|168:264|152:132,1,180,6|0,1:0|1:0,0:0:0:0:
224,60,83203,1,8,0:0:0:0:
52,44,83357,1,0,0:0:0:0:
246,92,83512,2,0,P|277:85|340:84,1,90,4|0,1:0|0:0,0:0:0:0:
452,36,83821,6,0,L|448:136,1,90,8|0,0:0|0:0,0:0:0:0:
408,152,84053,2,0,L|412:252,1,90,0|0,1:0|0:0,0:0:0:0:
440,276,84285,1,0,1:0:0:0:
440,276,84363,1,0,0:0:0:0:
440,276,84440,2,0,L|436:336,1,45,8|0,0:0|0:0,0:0:0:0:
324,384,84595,2,0,L|321:339,1,45,0|0,0:0|0:0,0:0:0:0:
276,240,84749,6,0,L|272:188,7,45,4|0|0|0|8|0|0|0,1:0|0:0|0:0|0:0|0:0|0:0|0:0|0:0,0:0:0:0:
319,119,85368,5,2,0:0:0:0:
275,107,85445,1,0,0:0:0:0:
232,117,85522,1,0,0:0:0:0:
198,146,85600,1,0,0:0:0:0:
182,188,85677,1,8,0:0:0:0:
180,142,85754,1,0,0:0:0:0:
158,104,85832,1,0,0:0:0:0:
121,79,85909,1,0,0:0:0:0:
76,75,85986,1,0,1:0:0:0:
60,44,89543,5,0,0:0:0:0:
68,60,89620,1,0,0:0:0:0:
76,75,89698,1,0,0:0:0:0:
88,256,89852,1,0,1:0:0:0:
104,272,90162,1,0,1:0:0:0:
120,288,90471,6,0,L|116:336,1,45,0|0,1:0|0:0,0:0:0:0:
192,236,90626,1,0,0:0:0:0:
222,268,90703,1,0,0:0:0:0:
263,284,90780,1,0,0:0:0:0:
307,280,90857,1,0,0:0:0:0:
345,256,90935,6,0,L|348:180,1,72,0|0,1:0|1:0,0:0:0:0:
264,208,91244,2,0,L|261:284,1,72,0|0,1:0|1:0,0:0:0:0:
428,224,91553,6,0,L|431:148,1,72,0|0,1:0|1:0,0:0:0:0:
181,240,91863,2,0,L|178:316,1,72,0|0,1:0|1:0,0:0:0:0:
72,176,92172,5,0,1:0:0:0:
60,76,92327,1,0,1:0:0:0:
184,120,92481,1,0,1:0:0:0:
189,19,92636,1,0,1:0:0:0:
288,168,92790,5,0,1:0:0:0:
276,268,92945,1,0,1:0:0:0:
376,120,93100,2,0,L|364:24,1,90,0|0,1:0|1:0,0:0:0:0:
480,172,93332,1,0,0:0:0:0:
480,172,93409,6,0,L|476:220,7,45,0|0|0|0|0|0|0|0,0:0|0:0|0:0|0:0|0:0|0:0|0:0|0:0,0:0:0:0:
512,292,94028,5,0,0:0:0:0:
469,302,94105,1,0,0:0:0:0:
429,282,94182,1,0,0:0:0:0:
404,246,94260,1,0,0:0:0:0:
362,232,94337,1,0,0:0:0:0:
319,245,94414,1,0,0:0:0:0:
293,280,94491,1,0,0:0:0:0:
292,324,94569,1,0,0:0:0:0:
318,360,94646,6,0,P|356:375|396:368,1,56.25
228,300,94801,2,0,P|200:302|175:315,1,56.25,0|0,0:0|0:0,0:0:0:0:
96,364,94955,6,0,L|108:244,1,112.5
160,128,95187,2,0,P|192:171|184:232,1,112.5,0|0,0:0|0:0,0:0:0:0:
48,188,95419,2,0,L|56:96,1,56.25,0|0,0:0|0:0,0:0:0:0:
24,56,95574,6,0,B|92:16|151:46|151:46|228:92|292:48,1,270.000010299683
256,192,96038,12,0,97120,0:0:0:0:
280,55,97275,5,0,0:0:0:0:
297,56,97352,1,0,0:0:0:0:
314,57,97430,1,0,0:0:0:0:
331,58,97507,1,0,0:0:0:0:
347,59,97584,1,0,0:0:0:0:
364,60,97662,1,0,0:0:0:0:
382,62,97739,2,0,P|429:55|508:52,2,101.250003862381,4|0|0,1:0|0:0|0:0,0:0:0:0:
312,136,98357,6,0,P|267:141|222:144,1,90,0|0,1:0|0:0,0:0:0:0:
192,132,98589,1,0,0:0:0:0:
172,116,98667,2,0,L|164:48,2,45,8|0|0,0:0|0:0|0:0,0:0:0:0:
120,232,98976,2,0,P|115:277|116:344,1,90,0|0,1:0|0:0,0:0:0:0:
16,252,99285,1,8,0:0:0:0:
216,272,99440,2,0,L|428:260,1,180,0|0,0:0|0:0,0:0:0:0:
472,260,99904,1,8,0:0:0:0:
348,340,100058,1,0,0:0:0:0:
304,196,100213,2,0,L|314:71,1,90,0|0,1:0|0:0,0:0:0:0:
311,106,100445,1,0,0:0:0:0:
311,106,100522,1,8,0:0:0:0:
420,52,100677,1,0,0:0:0:0:
248,24,100832,6,0,P|210:32|150:29,1,90,6|0,1:0|0:0,0:0:0:0:
115,38,101064,1,0,0:0:0:0:
81,67,101141,1,8,0:0:0:0:
66,109,101218,1,0,0:0:0:0:
74,153,101296,2,0,L|76:200,1,45,0|0,0:0|0:0,0:0:0:0:
132,248,101450,2,0,L|136:352,1,90,0|2,1:0|0:0,0:0:0:0:
156,360,101682,1,0,0:0:0:0:
156,360,101760,2,0,P|204:368|264:340,1,90,8|0,0:0|0:0,0:0:0:0:
368,200,102069,5,0,1:0:0:0:
196,288,102223,1,2,0:0:0:0:
392,312,102378,1,8,0:0:0:0:
244,187,102533,2,0,L|48:192,1,180,0|0,0:0|0:0,0:0:0:0:
40,180,102919,5,0,0:0:0:0:
28,137,102997,1,8,0:0:0:0:
40,94,103074,1,0,0:0:0:0:
72,64,103151,1,0,0:0:0:0:
116,54,103229,1,0,0:0:0:0:
158,69,103306,6,0,P|212:84|264:64,1,90,6|0,1:0|0:0,0:0:0:0:
300,28,103538,1,0,0:0:0:0:
300,28,103615,2,0,L|396:32,1,90,8|2,0:0|2:1,0:0:0:0:
504,96,103924,1,0,0:0:0:0:
376,152,104079,1,0,0:0:0:0:
378,196,104156,1,2,0:0:0:0:
380,241,104234,1,8,0:0:0:0:
383,286,104311,1,0,0:0:0:0:
385,331,104388,2,0,L|320:324,1,45,0|0,0:0|0:0,0:0:0:0:
236,352,104543,6,0,B|229:311|229:311|239:284|239:284|229:213,1,116.999994644165,6|0,1:0|0:0,0:0:0:0:
212,344,104775,2,0,B|204:301|204:301|215:273|215:273|204:198,1,125.999996154785,6|0,1:0|0:0,0:0:0:0:
192,336,105007,6,0,B|184:291|184:291|195:261|195:261|186:204,1,135.000005149842,6|0,1:0|0:0,0:0:0:0:
172,328,105239,2,0,B|164:281|164:281|175:250|175:250|164:168,1,144,6|0,1:0|0:0,0:0:0:0:
152,320,105471,6,0,B|143:271|143:271|156:238|156:238|143:152,1,153.000002918243,14|0,0:0|0:0,0:0:0:0:
48,72,105780,5,4,1:0:0:0:
83,97,105857,1,0,0:0:0:0:
127,101,105935,1,0,0:0:0:0:
168,83,106012,1,2,0:0:0:0:
202,55,106089,1,8,0:0:0:0:
246,52,106167,1,0,0:0:0:0:
284,75,106244,1,0,0:0:0:0:
302,116,106321,1,0,0:0:0:0:
294,159,106399,6,0,P|271:185|241:196,3,45,0|0|0|2,1:0|0:0|0:0|0:0,0:0:0:0:
364,132,106708,2,0,P|369:166|358:196,1,45,8|0,0:0|0:0,0:0:0:0:
360,192,106863,6,0,L|368:7,1,180,0|2,0:0|0:0,0:0:0:0:
460,96,107327,1,8,0:0:0:0:
276,144,107481,1,2,0:0:0:0:
456,200,107636,2,0,P|464:240|436:284,1,90,0|2,1:0|0:0,0:0:0:0:
440,280,107868,1,0,0:0:0:0:
440,280,107945,1,8,0:0:0:0:
332,352,108100,2,0,P|287:350|242:353,1,90,0|4,0:0|1:0,0:0:0:0:
100,292,108409,5,2,0:0:0:0:
104,316,108486,1,0,0:0:0:0:
108,336,108564,1,8,0:0:0:0:
264,260,108718,1,0,0:0:0:0:
184,184,108873,5,0,1:0:0:0:
180,208,108950,1,0,0:0:0:0:
176,228,109028,1,0,0:0:0:0:
20,152,109182,1,8,0:0:0:0:
136,64,109337,6,0,P|205:41|269:145,1,180,2|2,0:0|0:0,0:0:0:0:
424,40,109801,2,0,P|380:45|333:26,1,90,8|0,0:0|0:0,0:0:0:0:
388,188,110110,2,0,P|429:172|473:178,1,90,0|0,1:0|0:0,0:0:0:0:
473,178,110342,1,0,1:0:0:0:
473,178,110419,1,8,0:0:0:0:
360,308,110574,1,0,1:0:0:0:
232,260,110729,6,0,L|136:268,1,90,2|2,1:0|0:0,0:0:0:0:
124,280,110961,1,0,0:0:0:0:
108,292,111038,1,8,1:0:0:0:
40,196,111193,1,2,0:0:0:0:
140,52,111347,2,0,P|176:88|184:184,1,135,6|0,1:0|0:0,0:0:0:0:
176,188,111656,1,8,0:0:0:0:
280,312,111811,6,0,L|272:222,1,90,0|0,1:0|1:0,0:0:0:0:
340,88,112120,5,0,1:0:0:0:
340,88,112198,1,0,1:0:0:0:
340,88,112275,2,0,P|375:94|400:92,3,45,0|0|0|0,1:0|1:0|1:0|1:0,0:0:0:0:
408,12,112584,5,0,0:0:0:0:
444,37,112662,1,0,0:0:0:0:
463,77,112739,1,0,0:0:0:0:
459,121,112816,1,0,0:0:0:0:
433,158,112894,1,0,0:0:0:0:
407,195,112971,1,0,0:0:0:0:
403,239,113048,1,0,0:0:0:0:
422,279,113126,1,0,0:0:0:0:
458,304,113203,2,0,P|490:308|516:300,4,45
304,348,113667,2,0,P|272:344|246:352,4,45,0|0|0|0|0,0:0|0:0|0:0|0:0|0:0,0:0:0:0:
360,192,114131,1,0,0:0:0:0:
315,191,114208,1,0,0:0:0:0:
270,190,114285,1,0,0:0:0:0:
225,189,114363,1,0,0:0:0:0:
180,188,114440,5,0,0:0:0:0:
147,157,114517,1,0,0:0:0:0:
137,114,114595,2,0,P|139:83|152:52,2,45
296,68,114904,1,0,0:0:0:0:
313,109,114981,1,0,0:0:0:0:
315,154,115058,1,0,0:0:0:0:
302,196,115136,1,0,0:0:0:0:
275,232,115213,2,0,L|192:242,1,45,0|0,0:0|0:0,0:0:0:0:
84,254,115368,5,4,0:0:0:0:
256,192,115445,12,0,120626,0:0:0:0:
