osu file format v14

[General]
AudioFilename: mp3.mp3
AudioLeadIn: 0
PreviewTime: 98345
Countdown: 0
SampleSet: Soft
StackLeniency: 0.7
Mode: 0
LetterboxInBreaks: 0
WidescreenStoryboard: 0

[Editor]
Bookmarks: 89686
DistanceSpacing: 0.9
BeatDivisor: 6
GridSize: 4
TimelineZoom: 2.4

[Metadata]
Title:Completeness Under Incompleteness
TitleUnicode:Completeness Under Incompleteness
Artist:Camellia as "Reverse of Riot"
ArtistUnicode:かめりあ as "Reverse of Riot"
Creator:Regou
Version:HYPER
Source:SOUND VOLTEX III GRAVITY WARS
Tags:the 5th kac original song contest gravitational radar episode 18 sdvx konami bemani riot destrudo artcore RLC xlni choikapo [ Drop ] Kawaiwkyik Rizia Dailycare Hey lululu HootOwlStar
BeatmapID:1095271
BeatmapSetID:514750

[Difficulty]
HPDrainRate:5
CircleSize:4
OverallDifficulty:7
ApproachRate:8.2
SliderMultiplier:1.4
SliderTickRate:1

[Events]
//Background and Video events
0,0,"57194842_p0 (1).jpg",0,0
//Break Periods
//Storyboard Layer 0 (Background)
//Storyboard Layer 1 (Fail)
//Storyboard Layer 2 (Pass)
//Storyboard Layer 3 (Foreground)
//Storyboard Sound Samples

[TimingPoints]
626,309.278350515464,4,2,1,30,1,0
626,-200,4,2,1,30,0,0
8976,-100,4,2,3,30,0,0
9285,-100,4,2,3,30,0,0
10522,-133.333333333333,4,2,1,50,0,0
15471,-100,4,2,1,50,0,0
17945,-100,4,1,1,50,0,0
20419,-100,4,2,3,60,0,0
21347,-66.6666666666667,4,2,2,60,0,0
21656,-100,4,2,1,60,0,0
24131,-133.333333333333,4,2,1,60,0,0
24672,-100,4,2,1,60,0,0
34028,-133.333333333333,4,2,1,60,0,0
34646,-100,4,2,1,60,0,0
40522,-100,4,2,3,60,0,0
41450,-200,4,2,1,60,0,0
56296,-133.333333333333,4,2,1,60,0,0
60007,-133.333333333333,4,2,3,60,0,0
61244,-200,4,2,1,60,0,0
63718,-100,4,2,1,60,0,0
64646,-100,4,2,1,60,0,0
64955,-100,4,2,3,60,0,0
65883,-66.6666666666667,4,2,1,60,0,0
66193,-100,4,2,1,75,0,1
74852,-100,4,2,4,75,0,1
75780,-100,4,2,1,75,0,1
85986,-133.333333333333,4,2,1,35,0,0
89698,-100,4,2,1,75,0,0
90935,-114.942528735632,4,2,1,75,0,0
92172,-100,4,2,1,75,0,0
93409,-100,4,1,1,75,0,0
94646,-80,4,1,1,75,0,0
95574,-66.6666666666667,4,1,1,75,0,0
96038,-200,4,2,1,75,0,0
97120,-100,4,2,1,75,0,0
98357,-100,4,2,1,75,0,1
104543,-76.9230769230769,4,2,1,75,0,1
105780,-100,4,2,1,75,0,1
112275,-100,4,1,1,75,0,1
113280,-76.9230769230769,4,1,1,75,0,1
115368,-100,4,2,1,75,0,0

[Colours]
Combo1 : 255,94,94
Combo2 : 128,128,128
Combo3 : 242,242,242
Combo4 : 49,131,253
Combo5 : 150,243,254
Combo6 : 255,158,100

[HitObjects]
40,244,626,6,0,P|40:360|124:284,1,280
256,72,3100,6,0,B|172:116|108:28|108:28|136:88|112:140,1,280,0|0,0:0|0:0,0:0:0:0:
284,320,5574,70,0,B|272:352|312:376|312:376|348:340|344:304|288:284|268:232|292:176,1,280,0|0,0:0|0:0,0:0:0:0:
492,116,8048,6,0,B|504:176|504:176|440:224|364:160,1,210,0|0,0:0|0:0,0:0:0:0:
360,72,9131,70,0,L|364:40,3,23.3333333333333
288,124,9440,5,0,0:0:0:0:
272,132,9517,1,0,0:0:0:0:
256,140,9595,2,0,L|212:132,2,35,0|0|0,0:0|0:0|0:0,0:0:0:0:
248,216,9904,69,0,0:0:0:0:
256,232,9981,1,0,0:0:0:0:
264,248,10058,1,0,0:0:0:0:
272,264,10136,1,0,0:0:0:0:
284,280,10213,2,0,L|340:288,3,35,0|0|0|0,0:0|0:0|0:0|0:0,0:0:0:0:
232,352,10522,22,0,P|176:348|112:344,3,105.000004005432,0|0|0|0,3:0|3:0|3:0|3:0,0:0:0:0:
120,340,11605,1,0,0:0:0:0:
112,336,11760,53,0,3:0:0:0:
12,344,12069,1,0,3:0:0:0:
0,248,12378,1,0,3:0:0:0:
92,232,12687,1,0,3:0:0:0:
124,56,12997,22,0,P|184:60|248:64,3,105.000004005432,0|0|0|0,3:0|3:0|3:0|3:0,0:0:0:0:
236,60,14079,1,0,0:0:0:0:
244,56,14234,53,0,3:0:0:0:
344,68,14543,1,0,3:0:0:0:
332,168,14852,1,0,3:0:0:0:
236,152,15162,2,0,P|204:148|184:144,1,52.5000020027161,0|0,3:0|0:0,0:0:0:0:
272,360,15471,21,0,3:0:0:0:
336,320,15626,1,0,3:0:0:0:
412,320,15780,1,0,3:0:0:0:
480,348,15935,1,0,3:0:0:0:
352,160,16089,6,0,P|356:212|360:256,1,70,0|0,3:0|3:0,0:0:0:0:
440,240,16399,2,0,P|436:188|432:144,1,70,0|0,3:0|3:0,0:0:0:0:
304,24,16708,69,0,3:0:0:0:
240,64,16863,1,0,3:0:0:0:
164,64,17017,1,0,3:0:0:0:
96,36,17172,1,0,3:0:0:0:
136,240,17327,6,0,P|132:188|128:144,1,70,0|0,3:0|3:0,0:0:0:0:
212,148,17636,2,0,P|216:200|220:244,1,70,0|0,3:0|3:0,0:0:0:0:
63,360,17945,6,0,L|11:352,15,35,0|0|0|0|0|0|0|0|0|0|0|0|0|0|0|0,0:0|0:0|0:0|0:0|0:0|0:0|0:0|0:0|0:0|0:0|0:0|0:0|0:0|0:0|0:0|0:0,0:0:0:0:
44,344,19182,6,0,L|2:338,6,23.3333333333333
148,324,19646,69,0,2:0:0:0:
168,320,19723,1,2,2:0:0:0:
192,320,19801,1,0,2:0:0:0:
216,324,19878,1,0,2:0:0:0:
236,332,19955,1,0,2:0:0:0:
256,344,20033,1,2,2:0:0:0:
272,364,20110,2,0,L|328:360,4,35,0|0|0|2|0,2:0|2:0|2:0|2:0|2:0,0:0:0:0:
240,36,20729,22,0,P|240:88|244:132,1,70,8|0,0:0|0:0,0:0:0:0:
240,128,20961,2,0,P|288:148|356:120,1,105,0|0,0:0|0:0,0:0:0:0:
492,204,21347,6,0,B|408:184|436:240|332:216,1,157.500006008148,4|0,0:3|0:0,0:0:0:0:
339,217,21656,6,0,P|335:289|331:365,1,140,4|8,1:0|0:0,0:0:0:0:
331,356,22120,2,0,P|259:349|191:344,1,140,0|0,0:0|1:0,0:0:0:0:
104,368,22584,1,8,0:0:0:0:
104,368,22739,1,0,0:0:0:0:
124,280,22894,6,0,P|68:240|-12:244,1,140,0|8,1:0|0:0,0:0:0:0:
40,56,23357,2,0,L|44:20,2,35,0|0|2,0:0|0:0|0:0,0:0:0:0:
64,144,23667,1,0,1:0:0:0:
120,72,23821,2,0,L|124:32,3,35,8|0|0|0,0:3|0:0|0:0|0:0,0:0:0:0:
128,80,24131,70,0,P|196:88|281:85,1,140.000005340576,0|0,1:0|0:0,0:0:0:0:
232,168,24672,1,0,0:0:0:0:
236,184,24749,2,0,P|236:232|236:272,1,70,0|0,0:0|1:0,0:0:0:0:
244,344,25058,1,8,0:0:0:0:
320,288,25213,5,0,0:0:0:0:
320,288,25290,1,0,0:0:0:0:
320,288,25368,2,0,P|360:288|400:292,1,70,0|0,1:0|0:0,0:0:0:0:
156,308,25677,2,0,P|88:304|24:296,2,105,8|0|0,0:0|0:0|0:0,0:0:0:0:
244,344,26296,1,8,1:0:0:0:
240,260,26450,69,0,0:0:0:0:
240,260,26528,1,0,0:0:0:0:
240,260,26605,2,0,P|272:212|236:132,1,140,0|8,1:0|0:0,0:0:0:0:
352,12,27069,2,0,P|320:60|356:140,1,140,0|0,0:0|1:0,0:0:0:0:
345,132,27533,2,0,P|385:136|417:136,1,70,8|0,0:0|0:0,0:0:0:0:
480,276,27842,6,0,P|408:268|332:268,1,140,0|8,1:0|0:0,0:0:0:0:
272,328,28306,1,0,0:0:0:0:
272,328,28383,1,0,0:0:0:0:
272,328,28461,2,0,P|268:352|268:376,2,35,0|0|0,0:0|0:0|0:0,0:0:0:0:
264,240,28770,2,0,P|248:224|232:216,3,35,8|0|0|0,0:0|0:0|0:0|0:0,0:0:0:0:
272,232,29079,70,0,P|276:192|276:152,1,70,0|0,1:0|0:0,0:0:0:0:
184,16,29388,2,0,P|180:56|180:96,1,70,8|0,0:0|0:0,0:0:0:0:
140,164,29698,2,0,P|72:168|-4:172,1,140,0|8,0:0|0:0,0:0:0:0:
152,364,30162,21,0,0:0:0:0:
152,364,30239,1,0,0:0:0:0:
152,364,30316,2,0,P|156:316|156:264,1,70,0|0,1:0|0:0,0:0:0:0:
44,260,30626,2,0,P|40:308|40:360,1,70,8|0,0:0|0:0,0:0:0:0:
39,329,30857,1,0,0:0:0:0:
44,336,30935,1,0,1:0:0:0:
156,368,31089,6,0,L|208:364,5,35,0|0|8|2|0|2,0:0|0:0|0:0|0:0|0:0|0:0,0:0:0:0:
176,348,31553,38,0,P|244:332|300:380,1,140,4|8,1:0|0:0,0:0:0:0:
296,371,32017,2,0,P|368:368|440:368,1,140,0|0,0:0|1:0,0:0:0:0:
488,296,32481,1,8,0:0:0:0:
488,296,32636,1,2,0:0:0:0:
396,280,32790,2,0,P|388:216|380:120,1,140,0|8,0:0|0:0,0:0:0:0:
231,30,33254,6,0,L|187:22,2,35,2|0|0,0:0|0:0|0:0,0:0:0:0:
283,99,33564,1,0,1:0:0:0:
200,108,33718,2,0,L|156:100,3,35,8|0|0|0,0:0|0:0|0:0|0:0,0:0:0:0:
208,128,34028,70,0,P|228:201|196:264,1,140.000005340576,0|0,1:0|0:0,0:0:0:0:
131,309,34569,1,0,0:0:0:0:
116,302,34646,2,0,L|69:296,2,35,0|0|0,0:0|0:0|1:0,0:0:0:0:
125,216,34955,1,8,0:0:0:0:
230,345,35110,5,0,0:0:0:0:
230,345,35187,1,0,0:0:0:0:
230,345,35265,2,0,P|271:339|306:335,1,70,0|0,1:0|0:0,0:0:0:0:
375,283,35574,2,0,P|383:227|384:159,2,105,8|0|0,0:0|1:0|1:0,0:0:0:0:
384,374,36193,1,8,0:0:0:0:
285,244,36347,69,0,0:0:0:0:
285,244,36424,1,0,0:0:0:0:
285,244,36502,2,0,P|216:253|139:267,1,140,0|8,1:0|0:0,0:0:0:0:
161,169,36966,2,0,P|85:164|8:150,1,140,0|0,0:0|1:0,0:0:0:0:
22,153,37430,1,8,0:0:0:0:
22,340,37584,5,0,0:0:0:0:
22,340,37662,1,0,0:0:0:0:
22,340,37739,2,0,P|91:349|168:363,1,140,0|8,1:0|0:0,0:0:0:0:
146,265,38203,2,0,P|222:260|299:246,1,140,0|0,0:0|1:0,0:0:0:0:
284,249,38667,1,8,0:0:0:0:
435,364,38821,5,0,0:0:0:0:
435,364,38899,1,0,0:0:0:0:
435,364,38976,2,0,P|441:311|445:250,1,105,0|0,1:0|0:0,0:0:0:0:
420,174,39285,6,0,L|466:178,3,35,8|0|0|0,0:0|0:0|0:0|0:0,0:0:0:0:
436,136,39595,2,0,L|482:140,3,35,0|0|0|0,0:0|0:0|1:0|0:0,0:0:0:0:
448,96,39904,2,0,L|494:100,3,35,8|0|0|0,0:0|0:0|0:0|0:0,0:0:0:0:
332,54,40213,70,0,P|280:16|229:73,1,140,4|8,3:0|3:2,0:0:0:0:
228,73,40600,1,0,0:0:0:0:
228,88,40677,2,0,L|223:140,1,35,0|0,0:0|0:0,0:0:0:0:
150,99,40832,2,0,L|145:154,3,35,8|0|0|0,3:2|0:0|0:0|0:0,0:0:0:0:
71,111,41141,2,0,L|66:166,3,35,8|0|2|0,3:2|0:0|0:2|0:0,0:0:0:0:
128,216,41450,21,4,0:0:0:0:
69,256,41605,2,0,P|19:252|-9:249,4,70
69,256,42997,1,0,0:0:0:0:
165,83,43615,5,0,0:0:0:0:
165,83,43693,1,0,0:0:0:0:
165,83,43770,1,0,0:0:0:0:
165,83,43847,1,0,0:0:0:0:
165,83,43924,1,0,0:0:0:0:
232,132,44079,2,0,P|282:128|310:125,4,70,0|0|0|0|0,0:0|0:0|0:0|0:0|0:0,0:0:0:0:
232,132,45471,1,0,0:0:0:0:
490,291,46244,21,0,0:0:0:0:
419,336,46399,1,0,0:0:0:0:
419,336,46476,1,0,0:0:0:0:
419,336,46553,2,0,P|377:332|361:330,4,52.5,0|0|0|0|0,0:0|0:0|0:0|0:0|0:0,0:0:0:0:
293,304,47636,53,0,0:0:0:0:
293,304,47713,1,0,0:0:0:0:
293,304,47790,2,0,P|289:346|287:362,4,52.5,0|0|0|0|0,0:0|0:0|0:0|0:0|0:0,0:0:0:0:
298,218,48873,21,0,0:0:0:0:
298,218,49028,2,0,P|256:214|240:212,4,52.5,0|0|0|0|0,0:0|0:0|0:0|0:0|0:0,0:0:0:0:
389,230,50110,53,0,0:0:0:0:
389,230,50265,2,0,P|393:188|395:172,3,52.5,0|0|0|0,0:0|0:0|0:0|0:0,0:0:0:0:
460,112,51038,69,0,0:0:0:0:
460,112,51115,1,0,0:0:0:0:
460,112,51193,1,0,0:0:0:0:
460,112,51270,1,0,0:0:0:0:
460,112,51347,1,0,3:0:0:0:
370,60,51502,2,0,P|332:57|287:52,4,70,0|0|0|0|0,0:0|0:0|0:0|0:0|0:0,0:0:0:0:
370,60,52894,1,0,0:0:0:0:
282,289,53512,6,0,L|307:291,4,17.5,0|0|0|0|0,0:0|0:0|0:0|0:0|0:0,0:0:0:0:
203,338,53976,2,0,P|165:341|120:346,4,70,0|0|0|0|0,0:0|0:0|0:0|0:0|0:0,0:0:0:0:
203,338,55368,1,0,0:0:0:0:
94,83,56141,5,0,0:0:0:0:
96,170,56296,2,0,P|46:186|-13:166,2,105.000004005432,0|0|0,0:0|0:0|0:0,0:0:0:0:
175,131,57069,2,0,L|238:134,2,52.5000020027161,0|0|0,0:0|0:0|0:0,0:0:0:0:
159,293,57533,6,0,P|109:277|50:297,2,105.000004005432,0|0|0,0:0|0:0|0:0,0:0:0:0:
239,332,58306,2,0,L|302:329,2,52.5000020027161,0|0|0,0:0|0:0|0:0,0:0:0:0:
263,155,58770,70,0,P|266:98|270:33,2,105.000004005432,0|0|0,0:0|0:0|0:0,0:0:0:0:
329,217,59543,1,0,0:0:0:0:
403,170,59698,2,0,P|442:163|468:160,1,52.5000020027161,0|0,0:0|0:0,0:0:0:0:
461,295,60007,22,0,L|458:342,3,26.2500010013581,0|0|0|0,0:0|0:0|0:0|0:0,0:0:0:0:
419,312,60316,2,0,L|416:359,3,26.2500010013581,0|0|0|0,0:0|0:0|0:0|0:0,0:0:0:0:
384,326,60626,2,0,L|381:373,3,26.2500010013581,0|0|0|0,0:0|0:0|0:0|0:0,0:0:0:0:
342,343,60935,2,0,L|339:390,3,26.2500010013581,0|0|0|0,0:0|0:0|0:0|0:0,0:0:0:0:
308,357,61244,1,0,0:0:0:0:
256,192,61321,12,0,62481,0:0:0:0:
252,76,62790,22,0,L|252:47,11,17.5
193,136,63718,21,0,0:0:0:0:
193,136,63796,1,0,0:0:0:0:
193,136,63873,2,0,L|136:140,1,35
319,136,64028,5,0,0:0:0:0:
319,136,64105,1,0,0:0:0:0:
319,136,64182,2,0,L|376:140,1,35
254,183,64337,69,0,0:0:0:0:
254,199,64414,1,0,0:0:0:0:
254,214,64491,1,0,0:0:0:0:
254,229,64569,1,0,0:0:0:0:
255,245,64646,2,0,L|256:280,6,23.3333333333333
136,357,65265,70,0,P|148:324|139:284,1,70,0|0,0:0|0:0,0:0:0:0:
131,271,65497,2,0,P|108:244|69:231,1,70,0|0,0:0|0:0,0:0:0:0:
62,232,65729,1,0,0:0:0:0:
10,312,65883,54,0,L|81:317,1,52.5000020027161,0|0,0:0|0:0,0:0:0:0:
336,368,66193,38,0,P|328:296|324:216,1,140,6|8,1:0|0:0,0:0:0:0:
476,200,66656,2,0,P|484:272|488:352,1,140,0|0,0:0|1:0,0:0:0:0:
496,352,67120,2,0,P|464:352|412:360,1,70,8|0,0:0|0:0,0:0:0:0:
321,329,67352,5,0,0:0:0:0:
321,329,67430,1,4,1:0:0:0:
229,343,67584,1,2,0:0:0:0:
212,252,67739,1,8,0:0:0:0:
304,236,67894,2,0,P|320:168|288:96,1,140,0|0,0:0|1:0,0:0:0:0:
192,32,68357,6,0,L|196:-12,3,35,8|0|0|0,0:0|0:0|0:0|0:0,0:0:0:0:
192,52,68667,1,0,1:0:0:0:
96,28,68821,1,0,0:0:0:0:
96,28,68899,1,2,0:0:0:0:
96,28,68976,2,0,L|44:36,3,35,8|0|0|2,0:0|0:0|0:0|0:0,0:0:0:0:
72,108,69285,2,0,L|20:116,3,35,0|0|0|0,0:0|0:0|1:0|0:0,0:0:0:0:
52,188,69595,2,0,L|0:196,3,35,8|0|0|0,0:0|0:0|0:0|0:0,0:0:0:0:
128,176,69904,6,0,P|156:244|132:304,1,140,0|8,1:0|0:0,0:0:0:0:
64,360,70368,1,0,0:0:0:0:
44,356,70445,1,0,1:0:0:0:
133,302,70600,1,0,0:0:0:0:
152,317,70677,2,0,L|224:309,1,70,0|8,1:0|0:0,0:0:0:0:
240,317,70909,1,0,0:0:0:0:
260,329,70986,1,2,0:0:0:0:
280,341,71064,1,0,0:0:0:0:
300,353,71141,38,0,P|296:277|292:189,1,140,4|8,1:0|0:0,0:0:0:0:
184,20,71605,2,0,P|188:96|192:184,1,140,0|0,0:0|1:0,0:0:0:0:
284,112,72069,2,0,P|324:108|360:104,1,70,8|0,0:0|0:0,0:0:0:0:
353,104,72301,1,0,0:0:0:0:
353,104,72378,5,4,1:0:0:0:
452,64,72533,1,0,0:0:0:0:
500,152,72687,1,8,0:0:0:0:
412,200,72842,2,0,P|396:276|428:332,1,140,6|0,0:1|1:0,0:0:0:0:
296,372,73306,6,0,L|248:368,3,35,8|0|0|0,0:0|0:0|0:0|0:0,0:0:0:0:
316,364,73615,1,4,1:0:0:0:
264,280,73770,1,2,0:0:0:0:
256,272,73847,1,0,0:0:0:0:
248,264,73924,2,0,P|168:260|96:256,1,140,8|0,0:0|0:0,0:0:0:0:
24,284,74388,1,0,1:0:0:0:
32,136,74543,2,0,L|36:84,3,35,8|0|0|0,0:0|0:0|0:0|0:0,0:0:0:0:
36,76,74852,6,0,P|76:36|156:56,1,140,0|0,1:0|1:0,0:0:0:0:
188,120,75316,2,0,L|184:168,1,35,8|8,0:0|0:0,0:0:0:0:
268,136,75548,2,0,L|264:184,1,35,0|0,0:0|1:0,0:0:0:0:
348,148,75780,1,8,0:0:0:0:
368,300,75935,38,0,L|416:304,2,35,0|0|6,0:0|0:0|1:0,0:0:0:0:
284,340,76244,1,0,0:0:0:0:
284,340,76321,1,0,0:0:0:0:
284,340,76399,2,0,P|276:356|268:384,2,35,8|0|2,0:0|0:0|0:1,0:0:0:0:
296,248,76708,2,0,P|292:228|284:200,4,35,0|0|0|0|10,0:0|0:0|1:0|0:0|0:0,0:0:0:0:
376,308,77172,5,0,0:0:0:0:
376,308,77249,1,0,0:0:0:0:
376,308,77327,2,0,P|420:312|468:320,1,70,4|2,1:0|0:0,0:0:0:0:
284,340,77636,1,8,0:0:0:0:
208,284,77790,2,0,P|136:288|52:296,1,140,0|0,0:0|1:0,0:0:0:0:
0,348,78254,1,8,0:0:0:0:
88,176,78409,5,0,1:0:0:0:
88,176,78486,1,0,0:0:0:0:
88,176,78564,2,0,L|92:232,3,35,0|2|0|2,1:0|0:0|0:0|0:0,0:0:0:0:
36,112,78873,2,0,L|-4:116,3,35,8|2|0|2,0:0|0:0|0:0|0:0,0:0:0:0:
92,60,79182,2,0,L|88:4,3,35,0|2|0|2,0:0|0:0|1:0|0:0,0:0:0:0:
140,120,79491,2,0,L|180:116,3,35,8|0|0|0,0:0|0:0|0:0|0:0,0:0:0:0:
239,23,79801,6,0,P|279:63|263:159,1,140,0|8,1:0|0:0,0:0:0:0:
228,220,80265,1,0,0:0:0:0:
208,216,80342,1,0,1:0:0:0:
275,142,80497,1,0,0:0:0:0:
295,151,80574,1,0,1:0:0:0:
304,356,80729,37,8,0:0:0:0:
300,348,80806,1,0,0:0:0:0:
296,340,80883,1,0,0:0:0:0:
292,332,80961,1,0,0:0:0:0:
288,324,81038,2,0,P|352:296|416:340,1,140,6|8,1:0|0:0,0:0:0:0:
424,344,81502,2,0,P|428:268|436:192,1,140,2|0,2:0|1:0,0:0:0:0:
332,20,81966,2,0,P|328:76|324:112,1,70,8|2,0:0|0:0,0:0:0:0:
326,89,82198,1,2,0:0:0:0:
332,96,82275,5,2,1:0:0:0:
320,196,82430,1,0,0:0:0:0:
228,184,82584,1,8,0:0:0:0:
236,84,82739,2,0,P|156:72|84:64,1,140,6|0,1:0|1:0,0:0:0:0:
4,256,83203,5,8,0:0:0:0:
28,260,83280,1,0,0:0:0:0:
52,264,83357,1,0,0:0:0:0:
76,268,83435,1,0,0:0:0:0:
100,272,83512,2,0,P|152:312|224:284,1,140,4|8,1:0|0:0,0:0:0:0:
336,364,84053,5,0,1:0:0:0:
336,364,84131,2,0,L|340:312,2,35,0|0|0,0:0|0:0|1:0,0:0:0:0:
384,232,84440,2,0,P|336:236|304:240,1,70,8|0,0:0|0:0,0:0:0:0:
196,184,84749,38,0,L|200:144,3,35,4|0|0|0,1:0|0:0|0:0|0:0,0:0:0:0:
160,156,85058,2,0,L|164:116,3,35,8|0|0|0,0:0|0:0|0:0|0:0,0:0:0:0:
128,136,85368,2,0,L|132:96,3,35,2|0|0|0,0:0|0:0|0:0|0:0,0:0:0:0:
92,108,85677,2,0,L|96:68,3,35,8|0|0|0,0:0|0:0|0:0|0:0,0:0:0:0:
60,84,85986,53,0,1:0:0:0:
60,84,86296,1,0,1:0:0:0:
60,84,86605,1,0,1:0:0:0:
60,84,86914,1,0,1:0:0:0:
16,148,87223,6,0,P|68:164|120:128,1,105.000004005432,0|0,0:0|1:0,0:0:0:0:
110,141,87842,2,0,P|140:96|126:41,1,105.000004005432,0|0,1:0|1:0,0:0:0:0:
184,304,88461,69,0,1:0:0:0:
184,304,88770,1,0,1:0:0:0:
184,304,89079,1,0,1:0:0:0:
184,304,89388,1,0,1:0:0:0:
248,360,89543,54,0,L|288:368,2,26.2500010013581,0|0|0,0:0|0:0|0:0,0:0:0:0:
264,276,89852,2,0,P|244:240|212:224,1,70,0|0,1:0|0:0,0:0:0:0:
136,232,90162,1,0,1:0:0:0:
292,60,90471,6,0,L|296:12,5,35,0|0|0|0|0|0,1:0|0:0|0:0|0:0|0:0|0:0,0:0:0:0:
288,84,90935,38,0,P|324:92|360:96,1,60.9000005110931,0|0,1:0|1:0,0:0:0:0:
452,180,91244,2,0,P|416:172|380:168,1,60.9000005110931,0|0,1:0|1:0,0:0:0:0:
248,164,91553,6,0,P|284:172|320:176,1,60.9000005110931,0|0,1:0|1:0,0:0:0:0:
412,260,91863,2,0,P|376:252|340:248,1,60.9000005110931,0|0,1:0|1:0,0:0:0:0:
256,264,92172,69,0,1:0:0:0:
236,352,92327,1,0,1:0:0:0:
176,240,92481,5,0,1:0:0:0:
156,328,92636,1,0,1:0:0:0:
96,248,92790,69,0,1:0:0:0:
76,336,92945,1,0,1:0:0:0:
20,224,93100,5,0,1:0:0:0:
0,312,93254,1,0,1:0:0:0:
20,224,93409,6,0,L|16:176,3,35,0|0|0|0,0:0|0:0|0:0|0:0,0:0:0:0:
56,204,93718,2,0,L|52:156,3,35,0|0|0|0,0:0|0:0|0:0|0:0,0:0:0:0:
92,184,94028,2,0,L|88:136,3,35,0|0|0|0,0:0|0:0|0:0|0:0,0:0:0:0:
128,164,94337,2,0,L|124:116,3,35,0|0|0|0,0:0|0:0|0:0|0:0,0:0:0:0:
160,144,94646,1,0,0:0:0:0:
256,192,94723,12,4,95883,0:0:0:0:
256,284,96038,22,0,L|256:240,3,35,2|2|2|2,0:0|0:0|0:0|0:0,0:0:0:0:
292,348,96656,2,0,P|256:356|224:348,1,70,2|0,0:0|0:0,0:0:0:0:
212,344,97043,1,0,0:0:0:0:
200,336,97120,1,0,0:0:0:0:
112,352,97275,5,0,0:0:0:0:
112,352,97352,1,0,0:0:0:0:
112,352,97430,2,0,L|104:292,3,35,0|0|0|0,0:0|0:0|0:0|0:0,0:0:0:0:
104,296,97739,2,0,P|56:300|-16:316,2,105,4|0|0,1:0|0:0|0:0,0:0:0:0:
144,148,98357,5,0,1:0:0:0:
200,68,98512,1,0,0:0:0:0:
200,68,98589,1,0,0:0:0:0:
200,68,98667,2,0,P|224:52|244:48,2,35,8|0|0,0:0|0:0|0:0,0:0:0:0:
104,56,98976,2,0,P|88:36|80:8,4,35,0|0|0|0|8,1:0|0:0|0:0|0:0|0:0,0:0:0:0:
144,148,99440,6,0,P|224:156|304:168,1,140,0|0,0:0|0:0,0:0:0:0:
356,220,99904,1,8,0:0:0:0:
364,140,100058,1,0,0:0:0:0:
436,192,100213,2,0,P|452:144|432:76,2,105,0|0|0,1:0|0:0|0:0,0:0:0:0:
472,316,100832,5,6,1:0:0:0:
400,368,100986,1,0,0:0:0:0:
400,368,101064,1,0,0:0:0:0:
400,368,101141,2,0,P|336:360|280:356,1,105,8|0,0:0|0:0,0:0:0:0:
248,300,101450,1,0,1:0:0:0:
256,288,101528,2,0,P|252:232|252:160,1,105,0|8,0:0|0:0,0:0:0:0:
260,172,101837,1,2,0:0:0:0:
160,32,102069,6,0,P|112:24|80:16,2,70,0|2|8,1:0|0:0|0:0,0:0:0:0:
152,116,102533,2,0,P|76:100|16:144,1,140,0|0,0:0|0:0,0:0:0:0:
28,144,102919,1,0,0:0:0:0:
32,164,102997,2,0,L|36:216,3,35,8|0|0|0,0:0|0:0|0:0|0:0,0:0:0:0:
24,276,103306,37,6,1:0:0:0:
160,372,103461,2,0,L|212:376,3,35,0|0|8|0,0:0|0:0|0:0|0:0,0:0:0:0:
144,360,103770,2,0,P|144:296|148:200,1,140,2|0,2:1|0:0,0:0:0:0:
156,200,104156,1,2,0:0:0:0:
168,180,104234,2,0,L|172:124,3,35,8|0|0|0,0:0|0:0|0:0|0:0,0:0:0:0:
216,80,104543,6,0,P|160:64|92:128,1,136.499993751526,6|6,1:0|1:0,0:0:0:0:
296,184,105007,2,0,P|352:200|420:136,1,136.499993751526,6|6,1:0|1:0,0:0:0:0:
216,276,105471,2,0,P|216:328|220:372,1,90.9999958343508,14|0,0:0|0:0,0:0:0:0:
432,280,105780,5,4,1:0:0:0:
476,364,105935,1,0,0:0:0:0:
476,364,106012,1,2,0:0:0:0:
476,364,106089,2,0,P|504:364|524:368,2,35,8|0|0,0:0|0:0|0:0,0:0:0:0:
392,352,106399,2,0,P|360:368|336:376,4,35,0|0|0|2|8,1:0|0:0|0:0|0:0|0:0,0:0:0:0:
432,280,106863,6,0,P|352:268|276:264,1,140,0|2,0:0|0:0,0:0:0:0:
248,184,107327,1,8,0:0:0:0:
336,156,107481,1,2,0:0:0:0:
336,156,107558,1,0,0:0:0:0:
336,156,107636,2,0,P|332:108|332:68,1,70,0|2,1:0|0:0,0:0:0:0:
336,68,107868,1,0,0:0:0:0:
344,48,107945,2,0,P|304:52|264:56,1,70,8|0,0:0|0:0,0:0:0:0:
59,47,108254,37,4,1:0:0:0:
132,120,108409,1,2,0:0:0:0:
132,120,108486,1,0,0:0:0:0:
132,120,108564,2,0,L|136:168,2,35,8|0|0,0:0|0:0|0:0,0:0:0:0:
44,136,108873,2,0,L|4:144,4,35,0|0|0|2|8,1:0|0:0|0:0|0:0|0:0,0:0:0:0:
60,48,109337,6,0,P|128:16|192:52,1,140,2|2,0:0|0:0,0:0:0:0:
180,228,109801,2,0,P|136:236|92:236,1,70,8|0,0:0|0:0,0:0:0:0:
134,154,110110,5,0,1:0:0:0:
80,328,110342,1,0,1:0:0:0:
240,312,110574,1,0,1:0:0:0:
240,312,110651,1,0,0:0:0:0:
240,312,110729,6,0,P|288:316|336:324,1,70,2|2,1:0|0:0,0:0:0:0:
332,312,110961,1,0,0:0:0:0:
356,304,111038,2,0,P|404:308|452:316,1,70,8|2,1:0|0:0,0:0:0:0:
448,300,111270,1,0,0:0:0:0:
472,288,111347,37,6,1:0:0:0:
496,208,111502,1,0,1:0:0:0:
444,136,111656,1,8,0:0:0:0:
460,52,111811,1,0,1:0:0:0:
288,28,111966,6,0,L|240:20,3,35,0|0|0|0,1:0|1:0|1:0|1:0,0:0:0:0:
248,64,112275,2,0,L|200:56,3,35,0|0|0|0,1:0|1:0|1:0|1:0,0:0:0:0:
216,92,112584,2,0,L|168:84,3,35,0|0|0|0,0:0|0:0|0:0|0:0,0:0:0:0:
184,120,112894,2,0,L|136:112,3,35,0|0|0|0,0:0|0:0|0:0|0:0,0:0:0:0:
144,156,113203,5,0,0:0:0:0:
128,152,113280,2,0,P|72:148|28:140,1,90.9999958343508,0|0,0:0|0:0,0:0:0:0:
28,228,113512,6,0,L|84:236,4,45.4999979171754,0|0|0|0|0,0:0|0:0|0:0|0:0|0:0,0:0:0:0:
96,240,113899,2,0,P|100:300|108:348,1,90.9999958343508,0|0,0:0|0:0,0:0:0:0:
180,352,114131,38,0,L|228:348,1,45.4999979171754
228,368,114285,2,0,L|276:364,1,45.4999979171754
288,280,114440,5,0,0:0:0:0:
284,264,114517,2,0,P|276:212|268:128,1,136.499993751526,0|0,0:0|0:0,0:0:0:0:
444,32,114904,5,0,0:0:0:0:
448,48,114981,2,0,P|456:100|464:172,1,90.9999958343508,0|0,0:0|0:0,0:0:0:0:
464,156,115213,2,0,L|468:208,2,45.4999979171754,0|0|4,0:0|0:0|0:0,0:0:0:0:
256,192,115445,12,2,120626,0:0:0:0:
