osu file format v14

[General]
AudioFilename: mp3.mp3
AudioLeadIn: 0
PreviewTime: 98345
Countdown: 0
SampleSet: Soft
StackLeniency: 0.7
Mode: 0
LetterboxInBreaks: 0
WidescreenStoryboard: 1

[Editor]
Bookmarks: 614,10510,21644,31541,41438,51335,61232,76077,85278,105768
DistanceSpacing: 1.2
BeatDivisor: 4
GridSize: 4
TimelineZoom: 1.7

[Metadata]
Title:Completeness Under Incompleteness
TitleUnicode:Completeness Under Incompleteness
Artist:Camellia as "Reverse of Riot"
ArtistUnicode:かめりあ as "Reverse of Riot"
Creator:Regou
Version:HOS' BASIC
Source:SOUND VOLTEX III GRAVITY WARS
Tags:the 5th kac original song contest gravitational radar episode 18 sdvx konami bemani riot destrudo artcore RLC xlni choikapo [ Drop ] Kawaiwkyik Rizia Dailycare Hey lululu HootOwlStar
BeatmapID:1101159
BeatmapSetID:514750

[Difficulty]
HPDrainRate:2
CircleSize:3
OverallDifficulty:2
ApproachRate:3
SliderMultiplier:0.799999999999999
SliderTickRate:1

[Events]
//Background and Video events
0,0,"57194842_p0 (1).jpg",0,0
//Break Periods
2,41650,49907
//Storyboard Layer 0 (Background)
//Storyboard Layer 1 (Fail)
//Storyboard Layer 2 (Pass)
//Storyboard Layer 3 (Foreground)
//Storyboard Sound Samples

[TimingPoints]
626,309.278350515464,4,2,1,30,1,0
8976,-100,4,2,3,30,0,0
10522,-100,4,2,1,50,0,0
15471,-100,4,2,1,50,0,0
16708,-100,4,2,1,50,0,0
17945,-100,4,1,1,50,0,0
19182,-100,4,1,1,50,0,0
20419,-100,4,2,3,60,0,0
21347,-100,4,2,1,60,0,0
21656,-100,4,2,1,60,0,0
40522,-100,4,2,3,60,0,0
41450,-100,4,2,1,60,0,0
56296,-100,4,2,1,60,0,0
57533,-100,4,2,1,60,0,0
58770,-100,4,2,1,60,0,0
60007,-100,4,2,3,60,0,0
61244,-100,4,2,1,60,0,0
64028,-100,4,3,1,60,0,0
64646,-100,4,2,1,60,0,0
64955,-100,4,2,3,60,0,0
65883,-100,4,2,1,60,0,0
66193,-100,4,2,1,75,0,1
74852,-100,4,2,4,75,0,1
75780,-100,4,2,1,75,0,1
85986,-100,4,2,1,35,0,0
89698,-100,4,2,1,75,0,0
90935,-100,4,2,1,75,0,0
92172,-100,4,2,1,75,0,0
93409,-100,4,1,1,75,0,0
95883,-100,4,1,1,75,0,0
96038,-100,4,2,1,75,0,0
97275,-100,4,2,1,75,0,0
98357,-100,4,2,1,75,0,1
112275,-100,4,1,1,75,0,1
115368,-100,4,2,1,75,0,0
120626,-100,4,2,1,75,0,0

[Colours]
Combo1 : 255,94,94
Combo2 : 128,128,128
Combo3 : 242,242,242
Combo4 : 49,131,253
Combo5 : 150,243,254
Combo6 : 255,158,100

[HitObjects]
40,252,626,6,0,P|152:204|128:352,1,320
144,347,3100,2,0,B|224:332|224:332|300:348|300:348|380:315|460:352,1,320,0|0,0:0|0:0,0:0:0:0:
456,350,5574,6,0,B|444:272|444:272|464:192|464:192|452:108,1,240,0|0,0:0|0:0,0:0:0:0:
500,32,6811,1,0,0:0:0:0:
500,32,8048,2,0,B|424:52|424:52|252:32,1,240,0|0,0:0|0:0,0:0:0:0:
172,64,9285,2,0,P|152:152|160:196,2,120,0|0|0,0:0|0:0|0:0,0:0:0:0:
263,33,10522,6,0,P|300:84|420:4,1,240,0|0,3:0|3:0,0:0:0:0:
508,52,11760,2,0,B|492:128|492:128|508:304,1,240,0|0,3:0|3:0,0:0:0:0:
428,344,12997,2,0,B|308:304|308:384|188:344,1,240,0|0,3:0|3:0,0:0:0:0:
136,268,14234,2,0,L|128:108,1,160,0|0,3:0|3:0,0:0:0:0:
76,28,15162,1,0,3:0:0:0:
24,108,15471,6,0,B|12:188|12:188|36:264|36:264|20:300|20:352,1,240,0|0,3:0|3:0,0:0:0:0:
112,364,16708,2,0,L|280:352,1,160,0|0,3:0|3:0,0:0:0:0:
336,280,17636,1,0,3:0:0:0:
372,368,17945,1,0,0:0:0:0:
256,192,18100,12,0,20419,2:0:0:0:
372,368,21656,6,0,P|430:362|484:332,2,106.666666666667,4|0|0,1:0|0:0|0:0,0:0:0:0:
248,328,22894,2,0,P|153:275|97:368,1,240,0|8,1:0|0:3,0:0:0:0:
8,328,24131,2,0,L|0:196,2,106.666666666667,0|0|0,1:0|0:0|0:0,0:0:0:0:
132,364,25368,2,0,B|196:348|196:348|264:364|264:364|334:355|344:284,1,240,0|8,1:0|1:0,0:0:0:0:
280,228,26605,6,0,L|156:220,2,106.666666666667,0|0|0,1:0|0:0|0:0,0:0:0:0:
408,204,27842,2,0,P|384:300|496:292,1,240,0|8,1:0|0:0,0:0:0:0:
504,204,29079,2,0,L|496:72,1,106.666666666667,0|0,1:0|0:0,0:0:0:0:
360,16,30007,1,8,0:0:0:0:
268,40,30316,2,0,L|184:44,1,79.9999999999999,0|8,1:0|0:0,0:0:0:0:
96,16,30935,2,0,P|56:40|36:80,1,79.9999999999999,0|8,1:0|0:0,0:0:0:0:
12,160,31553,6,0,L|17:271,2,106.666666666667,4|0|0,1:0|0:0|0:0,0:0:0:0:
128,108,32790,2,0,P|134:150|244:88,1,240,0|8,0:0|0:0,0:0:0:0:
328,44,34028,2,0,B|382:52|382:52|452:32,2,106.666666666667,0|0|0,1:0|0:0|0:0,0:0:0:0:
204,16,35265,2,0,L|212:184,1,160,0|0,1:0|0:0,0:0:0:0:
296,224,36193,1,8,0:0:0:0:
256,312,36502,6,0,B|176:304|176:304|100:332|100:332|4:320,1,240,0|8,1:0|0:0,0:0:0:0:
0,228,37739,2,0,P|32:156|152:224,1,240,0|8,1:0|0:0,0:0:0:0:
128,304,38976,2,0,L|300:292,1,160,0|0,1:0|0:0,0:0:0:0:
348,220,39904,1,8,0:0:0:0:
416,288,40213,2,0,L|412:368,2,79.9999999999999,4|8|8,3:0|3:2|3:2,0:0:0:0:
444,196,41141,1,8,3:2:0:0:
512,264,41450,5,4,0:0:0:0:
512,264,51347,6,0,L|352:272,1,160,0|0,3:0|0:0,0:0:0:0:
244,112,52584,2,0,L|404:120,1,160,0|0,0:0|0:0,0:0:0:0:
476,56,53512,1,0,0:0:0:0:
496,148,53821,2,0,B|488:204|488:204|500:260|500:260|492:320,1,160,0|0,0:0|0:0,0:0:0:0:
312,368,55058,2,0,B|304:312|304:312|316:256|316:256|309:210,1,160,0|0,0:0|0:0,0:0:0:0:
240,144,55986,1,0,0:0:0:0:
168,208,56296,6,0,P|72:220|40:96,1,240,2|2,0:0|0:0,0:0:0:0:
116,48,57533,2,0,B|196:60|196:60|272:40|272:40|360:52,1,240,0|2,0:0|0:0,0:0:0:0:
384,144,58770,2,0,B|224:147,1,160,0|0,0:0|0:0,0:0:0:0:
160,220,59698,1,2,0:0:0:0:
224,292,60007,2,0,B|348:332|348:252|472:292,1,240,0|0,0:0|0:0,0:0:0:0:
504,372,61244,6,0,B|496:299|484:212|484:212|504:124,1,240,0|0,0:0|0:0,0:0:0:0:
452,52,62481,1,0,0:0:0:0:
452,52,63718,2,0,P|400:112|324:12,1,240,0|0,0:0|0:0,0:0:0:0:
228,36,64955,2,0,L|68:28,1,160,0|0,0:0|0:0,0:0:0:0:
8,104,65883,1,0,0:0:0:0:
68,180,66193,6,0,P|52:260|28:296,2,120,6|0|8,1:0|0:0|0:0,0:0:0:0:
8,104,67430,2,0,P|84:84|152:132,1,160,4|0,1:0|0:0,0:0:0:0:
172,220,68357,1,8,0:0:0:0:
244,156,68667,2,0,B|312:148|312:148|380:164|380:164|424:136|480:152,1,240,0|8,1:0|0:0,0:0:0:0:
512,240,69904,2,0,B|512:292|460:348|460:348|400:332|363:284,1,240,0|8,1:0|0:0,0:0:0:0:
284,228,71141,6,0,P|226:221|164:264,2,120,4|0|8,1:0|0:0|0:0,0:0:0:0:
363,285,72378,2,0,L|495:271,2,120,4|6|8,1:0|0:1|0:0,0:0:0:0:
284,228,73615,2,0,B|204:220|204:220|128:244|128:244|88:232|36:228,1,240,4|8,1:0|0:0,0:0:0:0:
0,312,74852,2,0,L|4:152,1,160,0|0,1:0|0:0,0:0:0:0:
36,60,75780,1,8,0:0:0:0:
96,136,76089,6,0,P|180:132|212:108,2,120,6|2|10,1:0|0:1|0:0,0:0:0:0:
36,60,77327,2,0,L|40:220,1,160,4|0,1:0|0:0,0:0:0:0:
0,308,78254,1,8,0:0:0:0:
84,356,78564,2,0,B|108:348|140:344|140:344|204:360|204:360|260:344|260:344|290:347|324:360,1,240,0|8,1:0|0:0,0:0:0:0:
412,344,79801,2,0,P|444:268|324:272,1,240,0|8,1:0|0:0,0:0:0:0:
316,357,81038,6,0,L|187:347,2,120,6|2|8,1:0|2:0|0:0,0:0:0:0:
400,312,82275,2,0,P|484:336|508:368,2,120,2|2|8,1:0|1:0|0:0,0:0:0:0:
316,357,83512,2,0,L|300:188,1,160,4|0,1:0|0:0,0:0:0:0:
336,108,84440,1,8,0:0:0:0:
420,156,84749,2,0,B|464:164|464:164|508:148,1,79.9999999999999,4|8,1:0|0:0,0:0:0:0:
496,56,85368,2,0,B|452:48|452:48|408:64,1,79.9999999999999,2|8,0:0|0:0,0:0:0:0:
336,108,85986,6,0,B|256:100|256:100|208:116|208:116|144:84|92:96,1,240,0|0,1:0|1:0,0:0:0:0:
28,156,87223,2,0,P|32:232|156:204,1,240,0|0,0:0|1:0,0:0:0:0:
208,124,88461,2,0,B|196:204|196:204|220:280|220:280|208:360,1,240,0|0,1:0|1:0,0:0:0:0:
304,376,89698,2,0,P|348:300|440:340,1,200,0|0,0:0|1:0,0:0:0:0:
492,200,90935,6,0,B|410:194|410:194|332:208|332:208|244:200,1,240,0|0,1:0|1:0,0:0:0:0:
212,112,92172,2,0,L|384:104,1,160,0|0,1:0|1:0,0:0:0:0:
468,92,93100,1,0,1:0:0:0:
408,16,93409,1,0,0:0:0:0:
256,192,93564,12,0,95883,0:0:0:0:
408,16,97739,5,4,1:0:0:0:
408,16,98357,6,0,B|400:92|400:92|436:168|436:168|424:252,1,240,0|8,1:0|0:0,0:0:0:0:
388,336,99595,2,0,P|320:368|296:240,1,240,0|8,0:0|0:0,0:0:0:0:
368,192,100832,2,0,B|288:212|288:212|236:198|236:198|184:208|184:208|124:192,1,240,6|8,1:0|0:0,0:0:0:0:
60,136,102069,2,0,L|52:12,2,120,0|0|8,1:0|0:0|0:0,0:0:0:0:
134,194,103306,6,0,P|60:172|32:304,1,240,6|8,1:0|0:0,0:0:0:0:
104,352,104543,2,0,L|227:343,2,120,6|6|14,1:0|1:0|0:0,0:0:0:0:
24,297,105780,6,0,B|16:240|16:240|40:176|40:176|11:122|28:60,1,240,4|8,1:0|0:0,0:0:0:0:
108,16,107017,2,0,L|284:24,1,160,0|0,1:0|1:0,0:0:0:0:
356,60,107945,1,8,0:0:0:0:
280,120,108254,2,0,B|204:128|204:128|124:108|124:108|36:112,1,240,4|8,1:0|0:0,0:0:0:0:
0,200,109491,2,0,L|12:292,1,79.9999999999999,0|8,1:0|0:0,0:0:0:0:
104,296,110110,2,0,P|84:336|84:388,1,79.9999999999999,0|0,1:0|0:0,0:0:0:0:
176,360,110729,6,0,B|300:320|300:400|424:360,1,240,2|8,1:0|0:0,0:0:0:0:
488,304,111966,2,0,P|464:220|360:284,1,240,0|0,1:0|0:0,0:0:0:0:
300,352,113203,2,0,B|240:364|240:364|180:344,2,120
359,276,114440,2,0,L|347:140,2,120,0|0|4,0:0|0:0|0:0,0:0:0:0:
256,192,115522,12,2,120626,0:0:0:0:
