osu file format v14

[General]
AudioFilename: mp3.mp3
AudioLeadIn: 0
PreviewTime: 98345
Countdown: 0
SampleSet: Soft
StackLeniency: 0.7
Mode: 0
LetterboxInBreaks: 0
WidescreenStoryboard: 0

[Editor]
Bookmarks: 75382
DistanceSpacing: 1.2
BeatDivisor: 6
GridSize: 4
TimelineZoom: 1.7

[Metadata]
Title:Completeness Under Incompleteness
TitleUnicode:Completeness Under Incompleteness
Artist:Camellia as "Reverse of Riot"
ArtistUnicode:かめりあ as "Reverse of Riot"
Creator:Regou
Version:EXHAUST
Source:SOUND VOLTEX III GRAVITY WARS
Tags:the 5th kac original song contest gravitational radar episode 18 sdvx konami bemani riot destrudo artcore RLC xlni choikapo [ Drop ] Kawaiwkyik Rizia Dailycare Hey lululu HootOwlStar
BeatmapID:1093434
BeatmapSetID:514750

[Difficulty]
HPDrainRate:6
CircleSize:5.6
OverallDifficulty:8
ApproachRate:8.7
SliderMultiplier:1.3
SliderTickRate:1

[Events]
//Background and Video events
0,0,"57194842_p0 (1).jpg",0,0
//Break Periods
//Storyboard Layer 0 (Background)
//Storyboard Layer 1 (Fail)
//Storyboard Layer 2 (Pass)
//Storyboard Layer 3 (Foreground)
//Storyboard Sound Samples

[TimingPoints]
626,309.278350515464,4,2,1,30,1,0
626,-200,4,2,1,30,0,0
8976,-100,4,2,3,30,0,0
9285,-100,4,2,3,30,0,0
10522,-133.333333333333,4,2,1,50,0,0
17790,-100,4,2,1,50,0,0
17945,-100,4,1,1,50,0,0
20419,-200,4,2,3,60,0,0
21347,-50,4,2,2,60,0,0
21656,-100,4,2,1,60,0,0
24131,-133.333333333333,4,2,1,60,0,0
24749,-100,4,2,1,60,0,0
30316,-76.9230769230769,4,2,1,60,0,0
31553,-100,4,2,1,60,0,0
34028,-133.333333333333,4,2,1,60,0,0
34646,-100,4,2,1,60,0,0
38976,-133.333333333333,4,2,1,60,0,0
39595,-76.9230769230769,4,2,1,60,0,0
40522,-76.9230769230769,4,2,3,60,0,0
41450,-133.333333333333,4,2,1,60,0,0
42997,-200,4,2,1,60,0,0
44079,-133.333333333333,4,2,1,60,0,0
52894,-200,4,2,1,60,0,0
53976,-133.333333333333,4,2,1,60,0,0
57533,-133.333333333333,4,2,1,60,0,0
60007,-100,4,2,3,60,0,0
61244,-133.333333333333,4,2,1,60,0,0
64028,-133.333333333333,4,3,1,60,0,0
64646,-100,4,2,1,60,0,0
64955,-100,4,2,3,60,0,0
65883,-50,4,2,1,60,0,0
66193,-83.3333333333333,4,2,1,75,0,1
67120,-66.6666666666667,4,2,1,75,0,1
67894,-83.3333333333333,4,2,1,75,0,1
70368,-66.6666666666667,4,2,1,75,0,1
71141,-83.3333333333333,4,2,1,75,0,1
72069,-66.6666666666667,4,2,1,75,0,1
72842,-66.6666666666667,4,2,1,75,0,1
73924,-83.3333333333333,4,2,1,75,0,1
74852,-66.6666666666667,4,2,4,75,0,1
75780,-66.6666666666667,4,2,1,75,0,1
75935,-55.5555555555556,4,2,1,75,0,1
76089,-83.3333333333333,4,2,1,75,0,1
80342,-66.6666666666667,4,2,1,75,0,1
81038,-83.3333333333333,4,2,1,75,0,1
82275,-66.6666666666667,4,2,1,75,0,1
83512,-133.333333333333,4,2,1,75,0,1
83821,-55.5555555555556,4,2,1,75,0,1
84749,-66.6666666666667,4,2,1,75,0,1
85986,-133.333333333333,4,2,1,35,0,0
89698,-66.6666666666667,4,2,1,75,0,0
90394,-100,4,2,1,75,0,0
93409,-100,4,1,1,75,0,0
96038,-200,4,2,1,75,0,0
96656,-200,4,2,1,75,0,0
97120,-66.6666666666667,4,2,1,75,0,0
97739,-200,4,2,1,75,0,0
98357,-83.3333333333333,4,2,1,75,0,1
102997,-83.3333333333333,4,2,1,75,0,1
104543,-66.6666666666667,4,2,1,75,0,1
105935,-83.3333333333333,4,2,1,75,0,1
110729,-66.6666666666667,4,2,1,75,0,1
112275,-66.6666666666667,4,1,1,75,0,1
113280,-55.5555555555556,4,1,1,75,0,1
115368,-83.3333333333333,4,2,1,75,0,0

[Colours]
Combo1 : 255,94,94
Combo2 : 128,128,128
Combo3 : 242,242,242
Combo4 : 49,131,253
Combo5 : 150,243,254
Combo6 : 255,158,100

[HitObjects]
64,364,626,6,0,P|8:308|108:332,1,260
72,105,3100,6,0,B|131:121|180:175|180:175|202:100|250:62,1,260,0|0,0:0|0:0,0:0:0:0:
340,284,5574,70,0,B|368:248|336:208|336:208|292:240|288:292|296:348|336:364,1,260,0|0,0:0|0:0,0:0:0:0:
484,192,8048,6,0,B|520:148|520:148|452:116|396:151,1,184.166666666667
384,168,8976,2,0,L|388:208,6,21.6666666666667
310,189,9440,69,0,0:0:0:0:
311,198,9517,1,0,0:0:0:0:
313,206,9595,1,0,0:0:0:0:
314,215,9672,1,0,0:0:0:0:
316,224,9749,1,0,0:0:0:0:
238,210,9904,5,0,0:0:0:0:
239,219,9981,1,0,0:0:0:0:
241,227,10058,1,0,0:0:0:0:
242,236,10136,1,0,0:0:0:0:
243,245,10213,2,0,L|240:285,3,32.5,0|0|0|0,0:0|0:0|0:0|0:0,0:0:0:0:
188,368,10522,5,0,3:0:0:0:
116,376,10832,1,0,3:0:0:0:
188,368,11141,2,0,L|184:300,1,48.750001859665,0|0,3:0|0:0,0:0:0:0:
116,376,11450,2,0,L|112:308,1,48.750001859665,0|0,3:0|0:0,0:0:0:0:
12,248,11760,53,0,3:0:0:0:
72,272,11914,1,0,0:0:0:0:
12,248,12069,2,0,P|32:216|48:208,1,48.750001859665,0|0,3:0|0:0,0:0:0:0:
104,168,12378,1,0,3:0:0:0:
134,224,12533,1,0,0:0:0:0:
104,168,12687,2,0,P|139:156|157:160,1,48.750001859665,0|0,3:0|0:0,0:0:0:0:
216,80,12997,21,0,3:0:0:0:
284,88,13306,1,0,3:0:0:0:
216,80,13461,1,0,0:0:0:0:
216,80,13538,1,0,0:0:0:0:
216,80,13615,2,0,L|212:28,1,48.750001859665,0|0,3:0|0:0,0:0:0:0:
288,92,13847,1,0,0:0:0:0:
288,92,13924,2,0,L|284:40,1,48.750001859665,0|0,3:0|0:0,0:0:0:0:
260,196,14234,53,0,3:0:0:0:
220,252,14388,1,0,0:0:0:0:
264,200,14543,2,0,P|284:224|292:244,1,48.750001859665,0|0,3:0|0:0,0:0:0:0:
292,304,14852,1,0,3:0:0:0:
225,321,15007,1,0,0:0:0:0:
292,309,15162,2,0,P|291:340|285:360,1,48.750001859665,0|0,3:0|0:0,0:0:0:0:
456,352,15471,21,0,3:0:0:0:
464,288,15626,1,0,3:0:0:0:
383,288,15780,5,0,3:0:0:0:
380,216,15935,1,0,3:0:0:0:
304,252,16089,69,0,3:0:0:0:
264,180,16244,1,0,3:0:0:0:
207,248,16399,5,0,3:0:0:0:
156,176,16553,1,0,3:0:0:0:
11,101,16708,69,0,3:0:0:0:
0,196,16863,1,0,3:0:0:0:
83,165,17017,5,0,3:0:0:0:
88,264,17172,1,0,3:0:0:0:
163,201,17327,69,0,3:0:0:0:
208,308,17481,1,0,3:0:0:0:
260,205,17636,5,0,3:0:0:0:
332,312,17790,1,0,3:0:0:0:
404,72,17945,6,0,L|408:28,3,32.5,0|0|0|0,0:0|0:0|0:0|0:0,0:0:0:0:
364,168,18254,2,0,L|334:201,3,32.5,0|0|0|0,0:0|0:0|0:0|0:0,0:0:0:0:
456,124,18564,5,0,0:0:0:0:
456,124,18641,1,0,0:0:0:0:
456,124,18718,2,0,L|504:108,1,32.5,0|0,0:0|0:0,0:0:0:0:
352,108,18873,1,0,0:0:0:0:
352,108,18950,1,0,0:0:0:0:
352,108,19028,2,0,L|316:88,1,32.5,0|0,0:0|0:0,0:0:0:0:
428,180,19182,70,0,L|440:200,7,16.25,0|0|0|0|0|0|0|0,0:0|0:0|0:0|0:0|0:0|0:0|0:0|0:0,0:0:0:0:
428,196,19491,2,0,L|420:236,1,32.5,0|0,0:0|0:0,0:0:0:0:
380,304,19646,5,0,2:0:0:0:
360,308,19723,1,2,2:0:0:0:
340,312,19801,1,0,2:0:0:0:
320,316,19878,1,0,2:0:0:0:
300,320,19955,1,0,2:0:0:0:
280,324,20033,1,2,2:0:0:0:
260,328,20110,2,0,L|216:320,1,32.5,0|0,2:0|2:0,0:0:0:0:
164,340,20265,2,0,L|120:332,1,32.5,0|2,2:0|2:0,0:0:0:0:
72,352,20419,5,0,2:0:0:0:
72,352,20729,2,0,L|68:312,1,32.5,8|0,0:0|0:0,0:0:0:0:
112,244,20961,2,0,L|76:272,1,32.5,0|0,0:0|0:0,0:0:0:0:
4,260,21193,2,0,L|28:272,1,16.25,0|0,0:0|0:0,0:0:0:0:
76,368,21347,6,0,P|156:380|140:284,1,195,4|0,0:3|0:0,0:0:0:0:
40,204,21656,6,0,P|36:140|32:68,1,130,4|8,1:0|0:0,0:0:0:0:
96,28,22120,1,0,0:0:0:0:
108,40,22198,2,0,B|132:60|132:60|124:132,1,97.5,0|0,0:0|1:0,0:0:0:0:
148,216,22584,5,8,0:0:0:0:
164,220,22662,1,0,0:0:0:0:
180,224,22739,1,0,0:0:0:0:
196,228,22816,1,0,0:0:0:0:
212,232,22894,2,0,L|296:224,2,65,0|0|8,1:0|0:0|0:0,0:0:0:0:
200,336,23357,69,0,0:0:0:0:
200,336,23435,1,0,0:0:0:0:
200,336,23512,1,2,0:0:0:0:
256,376,23667,1,0,1:0:0:0:
268,304,23821,1,8,0:3:0:0:
284,300,23899,1,0,0:0:0:0:
300,296,23976,1,0,0:0:0:0:
316,292,24053,1,0,0:0:0:0:
332,288,24131,6,0,P|376:292|464:300,1,130.000004959107,0|0,1:0|0:0,0:0:0:0:
502,248,24672,1,0,0:0:0:0:
512,232,24749,2,0,L|508:188,2,32.5,0|0|0,0:0|0:0|1:0,0:0:0:0:
428,216,25058,1,8,0:0:0:0:
416,200,25136,1,0,0:0:0:0:
412,180,25213,1,0,0:0:0:0:
416,160,25290,1,0,0:0:0:0:
428,144,25368,69,0,1:0:0:0:
468,40,25522,1,0,0:0:0:0:
364,56,25677,2,0,L|360:148,1,65,8|0,0:0|0:0,0:0:0:0:
354,136,25909,2,0,L|350:228,1,65,0|0,0:0|1:0,0:0:0:0:
342,215,26141,1,0,0:0:0:0:
264,276,26296,6,0,L|303:278,3,32.5,8|0|0|0,1:0|0:0|0:0|0:0,0:0:0:0:
253,289,26605,2,0,B|212:288|212:288|184:304|184:304|116:300,1,130,0|8,1:0|0:0,0:0:0:0:
36,180,27069,70,0,P|32:164|24:140,1,32.5,0|0,0:0|0:0,0:0:0:0:
32,244,27223,2,0,P|28:251|11:270,1,32.5,0|0,0:0|0:0,0:0:0:0:
88,220,27378,2,0,P|104:224|128:229,1,32.5,0|0,1:0|0:0,0:0:0:0:
36,180,27533,1,8,0:0:0:0:
140,52,27687,5,0,0:0:0:0:
140,52,27765,1,0,0:0:0:0:
140,52,27842,2,0,L|136:132,2,65,0|0|8,1:0|1:0|0:0,0:0:0:0:
212,36,28306,69,0,0:0:0:0:
211,48,28383,1,0,0:0:0:0:
210,60,28461,1,0,0:0:0:0:
209,73,28538,1,0,0:0:0:0:
208,86,28615,1,0,1:0:0:0:
280,56,28770,1,8,0:0:0:0:
352,40,28924,1,0,0:0:0:0:
351,53,29002,1,0,0:0:0:0:
350,66,29079,1,0,1:0:0:0:
240,160,29234,6,0,P|224:204|260:240,1,97.5,0|0,0:0|0:0,0:0:0:0:
307,209,29543,2,0,P|315:177|295:145,1,65,0|0,0:0|0:0,0:0:0:0:
240,160,29775,1,0,0:0:0:0:
240,160,29852,1,0,1:0:0:0:
225,287,30007,70,0,L|192:290,1,32.5,8|0,0:0|0:0,0:0:0:0:
204,346,30162,2,0,L|171:349,1,32.5,0|0,0:0|0:0,0:0:0:0:
268,337,30316,22,0,B|319:307|319:307|390:334,1,126.749994197846,0|0,1:0|0:0,0:0:0:0:
395,318,30626,2,0,L|492:328,1,84.4999961318971,8|0,0:0|0:0,0:0:0:0:
479,326,30857,1,0,0:0:0:0:
479,326,30935,1,0,1:0:0:0:
445,246,31089,5,0,0:0:0:0:
442,240,31167,1,0,0:0:0:0:
439,235,31244,2,0,L|441:188,3,42.2499980659486,8|2|0|2,0:0|0:0|0:0|0:0,0:0:0:0:
432,175,31553,38,0,P|366:186|320:140,1,130,4|8,1:0|0:0,0:0:0:0:
349,82,32017,1,0,0:0:0:0:
356,69,32095,2,0,P|398:59|439:91,1,97.5,0|0,0:0|1:0,0:0:0:0:
322,146,32481,5,8,0:0:0:0:
308,155,32558,1,0,0:0:0:0:
293,164,32636,1,2,0:0:0:0:
278,172,32713,1,0,0:0:0:0:
264,181,32790,2,0,L|255:313,1,130,0|8,0:0|0:0,0:0:0:0:
173,364,33254,69,2,0:0:0:0:
173,364,33332,1,0,0:0:0:0:
173,364,33409,1,0,0:0:0:0:
99,381,33564,1,0,1:0:0:0:
119,309,33718,2,0,L|120:277,3,32.5,8|0|0|0,0:0|0:0|0:0|0:0,0:0:0:0:
125,255,34028,6,0,P|61:232|-3:266,1,130.000004959107,0|0,1:0|0:0,0:0:0:0:
0,182,34569,1,0,0:0:0:0:
8,165,34646,2,0,L|12:123,2,32.5,0|0|0,0:0|0:0|1:0,0:0:0:0:
0,62,34955,69,8,0:0:0:0:
17,65,35033,1,0,0:0:0:0:
34,68,35110,1,0,0:0:0:0:
52,72,35187,1,0,0:0:0:0:
69,75,35265,5,0,1:0:0:0:
177,38,35419,1,0,0:0:0:0:
154,147,35574,2,0,L|230:151,1,65,8|0,0:0|0:0,0:0:0:0:
229,164,35806,2,0,L|305:168,1,65,0|0,1:0|0:0,0:0:0:0:
304,178,36038,1,0,1:0:0:0:
317,305,36193,69,8,0:0:0:0:
270,358,36347,1,0,0:0:0:0:
270,358,36424,1,0,0:0:0:0:
270,358,36502,2,0,P|245:303|286:244,1,130,0|8,1:0|0:0,0:0:0:0:
364,252,36966,2,0,P|389:307|348:366,1,130,0|0,0:0|1:0,0:0:0:0:
191,239,37430,5,8,0:0:0:0:
191,239,37507,1,0,0:0:0:0:
191,239,37584,1,0,0:0:0:0:
191,239,37662,1,0,0:0:0:0:
191,239,37739,2,0,P|216:184|175:125,1,130,0|8,1:0|0:0,0:0:0:0:
97,133,38203,2,0,P|72:188|113:247,1,130,0|0,0:0|1:0,0:0:0:0:
277,139,38667,69,8,0:0:0:0:
279,129,38744,1,0,0:0:0:0:
281,121,38821,1,0,0:0:0:0:
283,113,38899,1,0,0:0:0:0:
284,104,38976,2,0,L|280:26,1,73.1250027894975,0|0,1:0|0:0,0:0:0:0:
350,61,39285,21,8,0:0:0:0:
376,54,39363,1,0,0:0:0:0:
401,56,39440,1,0,0:0:0:0:
424,68,39517,1,0,0:0:0:0:
442,89,39595,1,0,0:0:0:0:
449,115,39672,1,0,0:0:0:0:
448,142,39749,1,0,1:0:0:0:
434,162,39827,1,0,0:0:0:0:
415,179,39904,2,0,L|411:225,3,42.2499980659486,8|0|0|0,0:0|0:0|0:0|0:0,0:0:0:0:
448,328,40213,6,0,P|392:306|326:357,1,147.87499323082,4|0,3:0|0:0,0:0:0:0:
264,358,40522,69,8,3:2:0:0:
251,348,40600,1,0,0:0:0:0:
240,339,40677,1,0,0:0:0:0:
228,330,40754,1,0,0:0:0:0:
196,355,40832,5,8,3:2:0:0:
183,345,40909,1,0,0:0:0:0:
172,336,40986,1,0,0:0:0:0:
160,327,41064,1,0,0:0:0:0:
131,344,41141,69,8,3:2:0:0:
118,334,41218,1,0,0:0:0:0:
107,325,41296,1,2,0:2:0:0:
95,316,41373,1,0,0:0:0:0:
64,332,41450,21,4,0:0:0:0:
7,253,41605,2,0,P|57:262|100:229,4,97.50000371933,0|0|0|0|0,0:0|0:0|0:0|0:0|0:0,0:0:0:0:
7,253,42997,1,0,0:0:0:0:
150,82,43615,6,0,L|151:56,4,16.25
196,136,44079,2,0,P|240:113|285:126,4,97.50000371933,0|0|0|0|0,0:0|0:0|0:0|0:0|0:0,0:0:0:0:
196,136,45471,1,0,0:0:0:0:
361,296,46244,1,0,0:0:0:0:
346,366,46399,21,0,0:0:0:0:
346,366,46476,1,0,0:0:0:0:
346,366,46553,2,0,P|379:369|407:349,1,48.750001859665,0|0,0:0|0:0,0:0:0:0:
418,334,46785,2,0,P|431:303|420:270,1,48.750001859665,0|0,0:0|0:0,0:0:0:0:
415,250,47017,2,0,P|390:228|355:227,1,48.750001859665,0|0,0:0|0:0,0:0:0:0:
337,233,47249,2,0,P|308:249|297:282,1,48.750001859665,0|0,0:0|0:0,0:0:0:0:
295,300,47481,1,0,0:0:0:0:
149,308,47636,53,0,0:0:0:0:
149,308,47713,1,0,0:0:0:0:
149,308,47790,2,0,P|116:311|88:291,1,48.750001859665,0|0,0:0|0:0,0:0:0:0:
77,276,48022,2,0,P|63:245|74:212,1,48.750001859665,0|0,0:0|0:0,0:0:0:0:
80,192,48254,2,0,P|104:170|139:169,1,48.750001859665,0|0,0:0|0:0,0:0:0:0:
158,175,48486,2,0,P|186:191|197:224,1,48.750001859665,0|0,0:0|0:0,0:0:0:0:
200,242,48718,1,0,0:0:0:0:
312,170,48873,21,0,0:0:0:0:
312,170,48950,1,0,0:0:0:0:
312,170,49028,2,0,P|320:138|320:112,1,48.750001859665,0|0,0:0|0:0,0:0:0:0:
299,78,49260,2,0,P|311:108|326:129,1,48.750001859665
363,145,49491,2,0,P|335:127|310:119,1,48.750001859665
272,129,49723,2,0,P|304:126|329:118,1,48.750001859665
362,87,49955,1,0,0:0:0:0:
154,101,50110,53,0,0:0:0:0:
154,101,50187,1,0,0:0:0:0:
154,101,50265,2,0,P|146:69|146:43,1,48.750001859665,0|0,0:0|0:0,0:0:0:0:
167,10,50497,2,0,P|154:40|139:61,1,48.750001859665
102,76,50729,2,0,P|129:58|154:50,1,48.750001859665
193,56,50961,2,0,P|160:57|135:49,1,48.750001859665
108,24,51193,2,0,L|129:48,1,24.3750009298325
241,138,51347,69,0,3:0:0:0:
301,101,51502,2,0,P|355:122|399:104,4,97.50000371933,0|0|0|0|0,0:0|0:0|0:0|0:0|0:0,0:0:0:0:
301,101,52894,1,0,0:0:0:0:
371,297,53512,6,0,L|375:320,4,16.25,0|0|0|0|0,0:0|0:0|0:0|0:0|0:0,0:0:0:0:
411,249,53976,2,0,P|465:228|509:246,4,97.50000371933,0|0|0|0|0,0:0|0:0|0:0|0:0|0:0,0:0:0:0:
411,249,55368,1,0,0:0:0:0:
190,297,56141,1,0,0:0:0:0:
208,360,56296,21,0,0:0:0:0:
214,365,56373,1,0,0:0:0:0:
214,365,56450,2,0,P|184:367|160:352,1,48.750001859665
134,333,56682,2,0,P|122:305|129:277,1,48.750001859665,0|0,0:0|0:0,0:0:0:0:
135,251,56914,1,0,0:0:0:0:
38,180,57069,21,0,0:0:0:0:
128,182,57223,1,0,0:0:0:0:
204,146,57378,1,0,0:0:0:0:
312,267,57533,53,0,0:0:0:0:
312,267,57610,1,0,0:0:0:0:
312,267,57687,2,0,P|342:269|366:254,1,48.750001859665,0|0,0:0|0:0,0:0:0:0:
392,235,57919,2,0,P|403:207|396:179,1,48.750001859665,0|0,0:0|0:0,0:0:0:0:
391,153,58151,1,0,0:0:0:0:
495,81,58306,21,0,0:0:0:0:
398,84,58461,1,0,0:0:0:0:
312,45,58615,1,0,0:0:0:0:
191,131,58770,53,0,0:0:0:0:
191,131,58847,1,0,0:0:0:0:
191,131,58924,2,0,L|192:203,1,48.750001859665,0|0,0:0|0:0,0:0:0:0:
124,163,59156,2,0,L|125:235,1,48.750001859665,0|0,0:0|0:0,0:0:0:0:
58,199,59388,1,0,0:0:0:0:
45,13,59543,21,0,0:0:0:0:
145,88,59698,1,0,0:0:0:0:
23,137,59852,1,0,0:0:0:0:
2,291,60007,69,0,0:0:0:0:
19,294,60084,1,0,0:0:0:0:
34,297,60162,1,0,0:0:0:0:
49,300,60239,1,0,0:0:0:0:
64,303,60316,2,0,L|102:298,3,32.5,0|0|0|0,0:0|0:0|0:0|0:0,0:0:0:0:
154,328,60626,5,0,0:0:0:0:
171,331,60703,1,0,0:0:0:0:
186,334,60780,1,0,0:0:0:0:
201,337,60857,1,0,0:0:0:0:
216,340,60935,2,0,L|254:335,3,32.5,0|0|0|0,0:0|0:0|0:0|0:0,0:0:0:0:
304,365,61244,69,0,0:0:0:0:
256,192,61321,12,0,62481,0:0:0:0:
260,274,62636,22,0,L|292:270,13,24.3750009298325,0|0|0|0|0|0|0|0|0|0|0|0|0|0,0:0|0:0|0:0|0:0|0:0|0:0|0:0|0:0|0:0|0:0|0:0|0:0|0:0|0:0,0:0:0:0:
235,259,63718,21,0,0:0:0:0:
206,252,63796,1,0,0:0:0:0:
178,256,63873,1,0,0:0:0:0:
154,275,63950,1,0,0:0:0:0:
140,301,64028,1,0,0:0:0:0:
142,334,64105,1,0,0:0:0:0:
158,359,64182,1,0,0:0:0:0:
186,371,64260,1,0,0:0:0:0:
216,371,64337,1,0,0:0:0:0:
246,360,64414,1,0,0:0:0:0:
264,333,64491,1,0,0:0:0:0:
264,303,64569,1,0,0:0:0:0:
204,306,64646,6,0,L|196:328,5,21.6666666666667
200,293,64955,1,0,0:0:0:0:
200,293,65265,54,0,L|126:288,1,65,0|0,0:0|0:0,0:0:0:0:
123,276,65497,2,0,L|49:271,1,65,0|0,0:0|0:0,0:0:0:0:
47,258,65729,2,0,L|2:255,1,32.5,0|0,0:0|0:0,0:0:0:0:
97,196,65883,54,0,P|161:198|123:98,1,195,0|0,0:0|0:0,0:0:0:0:
84,48,66193,37,6,1:0:0:0:
32,104,66347,1,0,0:0:0:0:
52,116,66424,1,0,0:0:0:0:
76,120,66502,1,8,0:0:0:0:
144,100,66656,2,0,B|184:96|184:96|224:112|224:112|264:108,1,116.999996429443,0|0,0:0|0:0,0:0:0:0:
260,112,66966,1,0,1:0:0:0:
154,160,67120,6,0,B|181:158|181:158|216:172|216:172|252:168,1,97.50000371933,8|0,0:0|0:0,0:0:0:0:
288,224,67352,5,0,0:0:0:0:
288,224,67430,1,4,1:0:0:0:
272,332,67584,1,2,0:0:0:0:
376,348,67739,1,8,0:0:0:0:
396,240,67894,2,0,P|448:256|496:204,1,116.999996429443,0|0,0:0|0:0,0:0:0:0:
488,208,68203,1,0,1:0:0:0:
428,32,68357,6,0,L|424:88,1,38.9999988098145,8|0,0:0|0:0,0:0:0:0:
416,40,68512,2,0,L|412:96,1,38.9999988098145,0|0,0:0|0:0,0:0:0:0:
404,52,68667,1,0,1:0:0:0:
360,148,68821,37,0,0:0:0:0:
360,148,68899,1,2,0:0:0:0:
360,148,68976,2,0,L|296:144,3,38.9999988098145,8|0|0|2,0:0|0:0|0:0|0:0,0:0:0:0:
280,196,69285,1,0,0:0:0:0:
264,188,69363,1,0,0:0:0:0:
244,184,69440,1,0,1:0:0:0:
224,184,69517,1,0,0:0:0:0:
204,192,69595,2,0,L|200:240,3,38.9999988098145,8|0|0|0,0:0|0:0|0:0|0:0,0:0:0:0:
28,256,69904,6,0,L|76:252,3,38.9999988098145,0|0|0|2,1:0|0:0|0:0|0:0,0:0:0:0:
112,304,70213,1,8,0:0:0:0:
128,296,70290,1,2,0:0:0:0:
148,296,70368,1,0,0:0:0:0:
168,304,70445,2,0,B|212:324|212:324|264:296,1,97.50000371933,0|0,1:0|0:0,0:0:0:0:
260,364,70677,2,0,B|304:344|304:344|356:372,1,97.50000371933,0|8,1:0|0:0,0:0:0:0:
352,352,70909,1,0,0:0:0:0:
356,336,70986,1,2,0:0:0:0:
360,320,71064,1,0,0:0:0:0:
364,304,71141,5,4,1:0:0:0:
432,340,71296,1,0,0:0:0:0:
460,344,71373,1,0,0:0:0:0:
484,332,71450,1,8,0:0:0:0:
440,264,71605,2,0,B|444:224|444:224|436:184|436:184|440:136,1,116.999996429443,0|0,0:0|0:0,0:0:0:0:
444,128,71914,1,0,1:0:0:0:
379,257,72069,6,0,B|383:222|383:222|375:193|375:193|380:145,1,97.50000371933,8|0,0:0|0:0,0:0:0:0:
336,120,72301,37,0,0:0:0:0:
336,120,72378,1,4,1:0:0:0:
216,48,72533,1,0,0:0:0:0:
312,24,72687,1,8,0:0:0:0:
244,144,72842,2,0,B|164:128|184:192|76:164,1,146.250005578995,6|0,0:1|0:0,0:0:0:0:
96,160,73151,1,0,1:0:0:0:
224,356,73306,6,0,L|228:304,1,48.750001859665,8|0,0:0|0:0,0:0:0:0:
212,352,73461,2,0,L|216:300,1,48.750001859665,0|0,0:0|0:0,0:0:0:0:
200,348,73615,1,4,1:0:0:0:
128,284,73770,5,2,0:0:0:0:
128,284,73847,1,0,0:0:0:0:
128,284,73924,2,0,P|64:312|-4:248,1,155.999995239258,8|0,0:0|0:0,0:0:0:0:
8,192,74388,1,0,1:0:0:0:
16,60,74543,5,8,0:0:0:0:
36,64,74620,1,0,0:0:0:0:
56,68,74698,1,0,0:0:0:0:
76,72,74775,1,0,0:0:0:0:
96,76,74852,2,0,L|92:24,2,48.750001859665,0|8|0,1:0|0:0|0:0,0:0:0:0:
176,192,75162,38,0,B|192:148|192:148|168:96,1,97.50000371933,0|8,1:0|0:0,0:0:0:0:
232,16,75394,2,0,B|216:60|216:60|240:112,1,97.50000371933,8|0,0:0|0:0,0:0:0:0:
244,120,75626,1,0,1:0:0:0:
232,16,75780,1,8,0:0:0:0:
316,184,75935,6,0,L|252:192,1,58.4999982147217,0|0,0:0|0:0,0:0:0:0:
220,240,76089,5,6,1:0:0:0:
264,352,76244,1,0,0:0:0:0:
277,342,76321,1,0,0:0:0:0:
292,337,76399,1,8,0:0:0:0:
309,335,76476,1,0,0:0:0:0:
328,341,76553,1,2,0:1:0:0:
400,364,76708,1,0,0:0:0:0:
419,370,76785,1,0,0:0:0:0:
436,368,76863,1,0,1:0:0:0:
451,363,76940,1,0,0:0:0:0:
464,353,77017,1,10,0:0:0:0:
384,208,77172,6,0,L|380:164,2,38.9999988098145,0|0|4,0:0|0:0|1:0,0:0:0:0:
488,292,77481,1,2,0:0:0:0:
396,304,77636,1,8,0:0:0:0:
476,196,77790,2,0,B|470:133|503:163|494:75,1,116.999996429443,0|0,0:0|0:0,0:0:0:0:
488,68,78100,1,0,1:0:0:0:
372,16,78254,38,0,L|316:12,1,38.9999988098145,8|0,0:0|0:0,0:0:0:0:
360,36,78409,2,0,L|304:32,1,38.9999988098145,0|0,1:0|0:0,0:0:0:0:
348,56,78564,1,0,1:0:0:0:
276,168,78718,5,0,0:0:0:0:
276,168,78796,1,2,0:0:0:0:
276,168,78873,2,0,L|280:236,3,38.9999988098145,8|2|0|2,0:0|0:0|0:0|0:0,0:0:0:0:
328,120,79182,1,0,0:0:0:0:
344,134,79260,1,2,0:0:0:0:
353,154,79337,1,0,1:0:0:0:
352,180,79414,1,2,0:0:0:0:
344,204,79491,2,0,L|412:200,3,38.9999988098145,8|0|0|0,0:0|0:0|0:0|0:0,0:0:0:0:
256,300,79801,6,0,L|256:360,3,38.9999988098145,0|2|0|2,1:0|0:0|0:0|0:0,0:0:0:0:
208,252,80110,1,8,0:0:0:0:
188,256,80187,1,2,0:0:0:0:
168,260,80265,1,0,0:0:0:0:
148,264,80342,2,0,B|100:248|100:248|44:272,1,97.50000371933,0|0,1:0|0:0,0:0:0:0:
0,188,80574,2,0,B|48:204|48:204|104:180,1,97.50000371933,0|8,1:0|0:0,0:0:0:0:
108,176,80806,1,0,0:0:0:0:
128,168,80883,1,0,0:0:0:0:
144,160,80961,1,0,0:0:0:0:
160,152,81038,5,6,1:0:0:0:
104,60,81193,2,0,L|48:48,2,38.9999988098145,0|0|8,0:0|0:0|0:0,0:0:0:0:
147,277,81502,1,2,2:0:0:0:
91,185,81656,2,0,L|35:173,2,38.9999988098145,0|0|0,0:0|0:0|1:0,0:0:0:0:
132,384,81966,1,8,0:0:0:0:
68,312,82120,1,2,0:0:0:0:
68,312,82198,1,2,0:0:0:0:
68,312,82275,37,2,1:0:0:0:
256,264,82430,1,0,0:0:0:0:
444,312,82584,1,8,0:0:0:0:
192,352,82739,6,0,P|256:380|324:348,1,146.250005578995,6|0,1:0|0:0,0:0:0:0:
321,350,83048,1,0,1:0:0:0:
208,208,83203,5,8,0:0:0:0:
228,192,83280,1,0,0:0:0:0:
256,188,83357,1,0,0:0:0:0:
284,196,83435,1,0,0:0:0:0:
312,208,83512,6,0,L|392:204,1,73.1250027894975,4|0,1:0|0:0,0:0:0:0:
344,36,83821,38,0,P|324:96|372:156,1,116.999996429443,8|0,0:0|0:0,0:0:0:0:
460,136,84053,2,0,P|480:76|432:16,1,116.999996429443,0|0,1:0|0:0,0:0:0:0:
400,72,84285,1,0,1:0:0:0:
404,88,84363,1,0,0:0:0:0:
408,104,84440,1,8,0:0:0:0:
492,216,84595,1,0,0:0:0:0:
444,316,84749,5,4,1:0:0:0:
428,322,84827,1,0,0:0:0:0:
413,329,84904,1,0,0:0:0:0:
398,336,84981,1,0,0:0:0:0:
380,312,85058,5,8,0:0:0:0:
364,318,85136,1,0,0:0:0:0:
349,325,85213,1,0,0:0:0:0:
334,332,85290,1,0,0:0:0:0:
310,318,85368,5,2,0:0:0:0:
294,324,85445,1,0,0:0:0:0:
279,331,85522,1,0,0:0:0:0:
264,338,85600,1,0,0:0:0:0:
246,314,85677,37,8,0:0:0:0:
230,320,85754,1,0,0:0:0:0:
215,327,85832,1,0,0:0:0:0:
200,334,85909,1,0,0:0:0:0:
148,360,85986,53,0,1:0:0:0:
72,356,86296,1,0,1:0:0:0:
148,360,86605,1,0,1:0:0:0:
72,356,86914,1,0,1:0:0:0:
148,360,87069,1,0,0:0:0:0:
36,288,87223,6,0,L|32:236,1,48.750001859665,0|0,0:0|0:0,0:0:0:0:
12,172,87533,2,0,L|64:168,1,48.750001859665,0|0,1:0|0:0,0:0:0:0:
128,144,87765,1,0,0:0:0:0:
128,144,87842,2,0,L|132:196,1,48.750001859665,0|0,1:0|0:0,0:0:0:0:
152,260,88151,2,0,L|100:264,1,48.750001859665,0|0,1:0|0:0,0:0:0:0:
188,52,88461,69,0,1:0:0:0:
264,48,88770,1,0,1:0:0:0:
188,52,89079,1,0,1:0:0:0:
264,48,89388,2,0,L|316:44,1,48.750001859665,0|0,1:0|0:0,0:0:0:0:
296,108,89620,1,0,0:0:0:0:
300,124,89698,54,0,L|304:188,1,48.750001859665,0|0,0:0|0:0,0:0:0:0:
236,156,89852,2,0,L|240:220,1,48.750001859665,0|0,1:0|0:0,0:0:0:0:
172,184,90162,2,0,L|176:248,1,48.750001859665,0|0,1:0|0:0,0:0:0:0:
217,357,90471,5,0,1:0:0:0:
230,342,90548,1,0,0:0:0:0:
247,335,90626,1,0,0:0:0:0:
267,333,90703,1,0,0:0:0:0:
287,339,90780,1,0,0:0:0:0:
302,352,90857,1,0,0:0:0:0:
312,372,90935,37,0,1:0:0:0:
380,344,91089,1,0,1:0:0:0:
400,340,91167,1,0,0:0:0:0:
420,336,91244,1,0,1:0:0:0:
440,332,91321,1,0,0:0:0:0:
460,328,91399,1,0,1:0:0:0:
392,272,91553,1,0,1:0:0:0:
412,268,91631,1,0,0:0:0:0:
432,264,91708,1,0,1:0:0:0:
452,260,91785,1,0,0:0:0:0:
472,256,91863,1,0,1:0:0:0:
440,108,92017,6,0,L|436:152,1,32.5,0|0,1:0|0:0,0:0:0:0:
444,84,92172,1,0,1:0:0:0:
356,28,92327,1,0,1:0:0:0:
260,36,92481,1,0,1:0:0:0:
200,116,92636,1,0,1:0:0:0:
212,216,92790,1,0,1:0:0:0:
292,272,92945,1,0,1:0:0:0:
384,268,93100,1,0,1:0:0:0:
448,184,93254,1,0,1:0:0:0:
328,168,93409,6,0,L|324:120,3,32.5,0|0|0|0,0:0|0:0|0:0|0:0,0:0:0:0:
316,108,93718,1,0,0:0:0:0:
280,127,93796,1,0,0:0:0:0:
274,165,93873,1,0,0:0:0:0:
296,200,93950,1,0,0:0:0:0:
335,207,94028,1,0,0:0:0:0:
370,188,94105,1,0,0:0:0:0:
376,149,94182,1,0,0:0:0:0:
354,114,94260,1,0,0:0:0:0:
325,135,94337,6,0,L|328:160,8,16.25,0|0|0|0|0|0|0|0|0,0:0|0:0|0:0|0:0|0:0|0:0|0:0|0:0|0:0,0:0:0:0:
256,192,94723,12,4,95883,0:0:0:0:
256,340,96038,5,2,0:0:0:0:
304,308,96193,1,2,0:0:0:0:
284,252,96347,1,2,0:0:0:0:
228,252,96502,1,2,0:0:0:0:
208,308,96656,2,0,P|176:308|140:308,1,65,2|0,0:0|0:0,0:0:0:0:
136,320,97043,1,0,0:0:0:0:
128,332,97120,6,0,P|68:352|12:296,1,146.250005578995,0|0,0:0|0:0,0:0:0:0:
16,240,97430,53,0,0:0:0:0:
20,212,97507,1,0,0:0:0:0:
24,184,97584,1,0,0:0:0:0:
28,156,97662,1,0,0:0:0:0:
32,128,97739,2,0,L|80:128,2,48.75,4|0|0,1:0|0:0|0:0,0:0:0:0:
192,24,98357,38,0,B|208:40|208:40|204:100,1,77.999997619629,0|0,1:0|0:0,0:0:0:0:
176,148,98589,1,0,0:0:0:0:
176,148,98667,2,0,L|180:196,2,38.9999988098145,8|0|0,0:0|0:0|0:0,0:0:0:0:
252,188,98976,5,0,1:0:0:0:
268,184,99053,1,0,0:0:0:0:
284,180,99131,1,0,0:0:0:0:
300,176,99208,1,0,0:0:0:0:
316,172,99285,1,8,0:0:0:0:
352,232,99440,2,0,P|420:208|488:256,1,155.999995239258,0|0,0:0|0:0,0:0:0:0:
308,372,99904,6,0,P|304:336|308:288,1,77.999997619629,8|0,0:0|0:0,0:0:0:0:
416,280,100213,2,0,P|420:316|416:364,1,77.999997619629,0|0,1:0|0:0,0:0:0:0:
417,357,100445,1,0,0:0:0:0:
417,357,100522,1,8,0:0:0:0:
416,280,100677,1,0,0:0:0:0:
308,372,100832,6,0,L|216:376,1,77.999997619629,6|0,1:0|0:0,0:0:0:0:
216,368,101064,1,0,0:0:0:0:
200,360,101141,2,0,B|192:328|192:328|204:292|204:292|196:224,1,116.999996429443,8|0,0:0|0:0,0:0:0:0:
248,204,101450,37,0,1:0:0:0:
248,204,101528,2,0,P|200:176|144:216,1,116.999996429443,0|8,0:0|0:0,0:0:0:0:
148,216,101837,1,2,0:0:0:0:
16,136,101991,5,0,0:0:0:0:
16,136,102069,1,0,1:0:0:0:
4,36,102223,1,2,0:0:0:0:
100,24,102378,1,8,0:0:0:0:
112,124,102533,2,0,B|152:128|152:128|192:112,1,77.999997619629,0|0,0:0|0:0,0:0:0:0:
244,152,102842,2,0,L|300:156,5,38.9999988098145,0|0|8|0|0|0,0:0|0:0|0:0|0:0|0:0|0:0,0:0:0:0:
236,160,103306,1,6,1:0:0:0:
224,272,103461,5,0,0:0:0:0:
240,280,103538,1,0,0:0:0:0:
256,288,103615,1,8,0:0:0:0:
272,296,103693,1,0,0:0:0:0:
288,304,103770,2,0,L|296:404,1,77.999997619629,2|0,2:1|0:0,0:0:0:0:
440,352,104079,6,0,L|484:360,5,38.9999988098145,0|2|8|0|0|0,0:0|0:0|0:0|0:0|0:0|0:0,0:0:0:0:
424,360,104543,2,0,B|396:320|396:320|404:264,1,97.50000371933,6|0,1:0|0:0,0:0:0:0:
437,188,104775,2,0,B|436:236|436:236|396:277,1,97.50000371933,6|0,1:0|0:0,0:0:0:0:
324,319,105007,2,0,B|353:280|353:280|409:270,1,97.50000371933,6|0,1:0|0:0,0:0:0:0:
491,278,105239,2,0,B|444:292|444:292|393:267,1,97.50000371933,6|0,1:0|0:0,0:0:0:0:
331,211,105471,2,0,B|377:226|377:226|403:276,1,97.50000371933,14|0,0:0|0:0,0:0:0:0:
376,16,105780,38,0,L|368:120,1,97.50000371933,4|0,1:0|0:0,0:0:0:0:
312,148,106012,1,2,0:0:0:0:
312,148,106089,2,0,L|240:152,2,38.9999988098145,8|0|0,0:0|0:0|0:0,0:0:0:0:
268,240,106399,5,0,1:0:0:0:
248,236,106476,1,0,0:0:0:0:
228,232,106553,1,0,0:0:0:0:
208,228,106631,1,2,0:0:0:0:
188,224,106708,1,8,0:0:0:0:
132,272,106863,2,0,P|116:348|188:384,1,155.999995239258,0|2,0:0|0:0,0:0:0:0:
176,320,107327,5,8,0:0:0:0:
56,364,107481,2,0,L|8:360,2,38.9999988098145,2|0|0,0:0|0:0|1:0,0:0:0:0:
40,292,107790,1,2,0:0:0:0:
36,276,107868,1,0,0:0:0:0:
32,260,107945,1,8,0:0:0:0:
28,240,108022,1,0,0:0:0:0:
24,220,108100,1,0,0:0:0:0:
0,128,108254,6,0,B|36:120|36:120|64:128|64:128|96:136,1,77.999997619629,4|2,1:0|0:0,0:0:0:0:
120,88,108486,1,0,0:0:0:0:
120,88,108564,2,0,L|112:40,2,38.9999988098145,8|0|0,0:0|0:0|0:0,0:0:0:0:
124,184,108873,37,0,1:0:0:0:
144,192,108950,1,0,0:0:0:0:
164,196,109028,1,0,0:0:0:0:
184,192,109105,1,2,0:0:0:0:
204,184,109182,1,8,0:0:0:0:
264,224,109337,2,0,L|436:236,1,155.999995239258,2|2,0:0|0:0,0:0:0:0:
388,164,109801,5,8,0:0:0:0:
504,232,109955,1,0,0:0:0:0:
392,304,110110,1,0,1:0:0:0:
328,312,110265,1,0,0:0:0:0:
324,320,110342,1,0,1:0:0:0:
264,320,110497,1,0,0:0:0:0:
260,328,110574,1,0,1:0:0:0:
160,372,110729,6,0,L|152:264,1,97.50000371933,2|2,1:0|0:0,0:0:0:0:
152,274,110961,1,0,0:0:0:0:
152,274,111038,2,0,P|80:236|120:168,1,146.250005578995,8|0,1:0|0:0,0:0:0:0:
52,140,111347,6,0,L|4:136,1,48.750001859665,6|0,1:0|0:0,0:0:0:0:
64,72,111502,2,0,L|16:68,1,48.750001859665,0|0,0:0|0:0,0:0:0:0:
192,104,111656,2,0,L|144:100,1,48.750001859665,8|0,0:0|0:0,0:0:0:0:
204,36,111811,2,0,L|156:32,1,48.750001859665,0|0,1:0|0:0,0:0:0:0:
316,92,111966,1,0,1:0:0:0:
252,224,112120,37,0,1:0:0:0:
272,216,112198,1,0,1:0:0:0:
296,208,112275,2,0,L|300:148,3,48.750001859665,0|0|0|0,1:0|1:0|1:0|1:0,0:0:0:0:
360,220,112584,2,0,L|364:160,3,48.750001859665,0|0|0|0,0:0|0:0|0:0|0:0,0:0:0:0:
424,236,112894,2,0,L|428:176,3,48.750001859665,0|0|0|0,0:0|0:0|0:0|0:0,0:0:0:0:
480,352,113203,5,0,0:0:0:0:
480,352,113280,2,0,B|424:336|424:336|364:376,1,116.999996429443,0|0,0:0|0:0,0:0:0:0:
324,336,113512,1,0,0:0:0:0:
296,332,113589,1,0,0:0:0:0:
268,328,113667,1,0,0:0:0:0:
240,324,113744,1,0,0:0:0:0:
212,320,113821,1,0,0:0:0:0:
188,316,113899,2,0,B|132:332|132:332|72:292,1,116.999996429443,0|0,0:0|0:0,0:0:0:0:
128,216,114131,6,0,L|132:252,2,29.2499991073609,0|0|0,0:0|0:0|0:0,0:0:0:0:
20,340,114285,2,0,L|16:304,2,29.2499991073609,0|0|0,0:0|0:0|0:0,0:0:0:0:
0,112,114440,5,0,0:0:0:0:
4,128,114517,2,0,P|56:164|120:132,1,116.999996429443,0|0,0:0|0:0,0:0:0:0:
120,96,114749,2,0,L|128:28,1,58.4999982147217,0|0,0:0|0:0,0:0:0:0:
216,200,114904,37,0,0:0:0:0:
220,216,114981,2,0,P|272:252|336:220,1,116.999996429443,0|0,0:0|0:0,0:0:0:0:
336,184,115213,2,0,L|344:116,1,58.4999982147217
452,292,115368,5,4,0:0:0:0:
256,192,115445,12,2,120626,0:0:0:0:
