osu file format v14

[General]
AudioFilename: mp3.mp3
AudioLeadIn: 0
PreviewTime: 98345
Countdown: 0
SampleSet: Soft
StackLeniency: 0.7
Mode: 0
LetterboxInBreaks: 0
WidescreenStoryboard: 0

[Editor]
Bookmarks: 89686
DistanceSpacing: 0.9
BeatDivisor: 4
GridSize: 4
TimelineZoom: 2.4

[Metadata]
Title:Completeness Under Incompleteness
TitleUnicode:Completeness Under Incompleteness
Artist:Camellia as "Reverse of Riot"
ArtistUnicode:かめりあ as "Reverse of Riot"
Creator:Regou
Version:Dailycare's ADVANCED
Source:SOUND VOLTEX III GRAVITY WARS
Tags:the 5th kac original song contest gravitational radar episode 18 sdvx konami bemani riot destrudo artcore RLC xlni choikapo [ Drop ] Kawaiwkyik Rizia Dailycare Hey lululu HootOwlStar
BeatmapID:1096436
BeatmapSetID:514750

[Difficulty]
HPDrainRate:5
CircleSize:3.8
OverallDifficulty:6.2
ApproachRate:7
SliderMultiplier:1.32
SliderTickRate:1

[Events]
//Background and Video events
0,0,"57194842_p0 (1).jpg",0,0
//Break Periods
2,86206,88643
//Storyboard Layer 0 (Background)
//Storyboard Layer 1 (Fail)
//Storyboard Layer 2 (Pass)
//Storyboard Layer 3 (Foreground)
//Storyboard Sound Samples

[TimingPoints]
626,309.278350515464,4,2,1,30,1,0
626,-200,4,2,1,30,0,0
8976,-133.333333333333,4,2,3,30,0,0
10522,-133.333333333333,4,2,1,50,0,0
17945,-100,4,1,1,50,0,0
20419,-100,4,2,3,60,0,0
21347,-100,4,2,1,60,0,0
40522,-100,4,2,3,60,0,0
41141,-76.9230769230769,4,2,3,60,0,0
41450,-100,4,2,1,60,0,0
41914,-133.333333333333,4,2,1,60,0,0
43924,-100,4,2,1,60,0,0
44388,-133.333333333333,4,2,1,60,0,0
51347,-100,4,2,1,60,0,0
51811,-133.333333333333,4,2,1,60,0,0
53821,-100,4,2,1,60,0,0
54285,-133.333333333333,4,2,1,60,0,0
60007,-100,4,2,3,60,0,0
61244,-100,4,2,1,60,0,0
64028,-100,4,3,1,60,0,0
64646,-100,4,2,1,60,0,0
64955,-133.333333333333,4,2,3,60,0,0
65883,-76.9230769230769,4,2,1,60,0,0
66193,-90.9090909090909,4,2,1,75,0,1
74852,-90.9090909090909,4,2,4,75,0,1
75780,-90.9090909090909,4,2,1,75,0,1
85986,-100,4,2,1,35,0,0
89543,-90.9090909090909,4,2,1,75,0,0
90935,-100,4,2,1,75,0,0
93409,-100,4,1,1,75,0,0
94646,-133.333333333333,4,2,3,60,0,0
95574,-76.9230769230769,4,2,1,60,0,0
95729,-76.9230769230769,4,2,1,15,0,0
95883,-100,4,2,1,75,0,0
98357,-90.9090909090909,4,2,1,75,0,1
112275,-90.9090909090909,4,1,1,75,0,1
115368,-90.9090909090909,4,2,1,75,0,0

[Colours]
Combo1 : 255,94,94
Combo2 : 128,128,128
Combo3 : 242,242,242
Combo4 : 49,131,253
Combo5 : 150,243,254
Combo6 : 255,158,100

[HitObjects]
175,83,626,6,0,B|164:35|86:6|41:44|41:44|18:105|58:142,1,264
62,150,3100,6,0,B|151:168|187:85|187:85|160:138|189:200,1,264,0|0,0:0|0:0,0:0:0:0:
191,199,5574,70,0,B|226:273|226:273|318:285|318:285|358:369,1,264,0|0,0:0|0:0,0:0:0:0:
360,374,8048,6,0,B|414:334|401:278|401:278|355:248|367:191,1,198,0|0,0:0|0:0,0:0:0:0:
369,189,9285,38,0,L|487:200,1,99.0000037765504,0|0,0:0|0:0,0:0:0:0:
369,189,9749,2,0,L|270:179,1,99.0000037765504,0|0,0:0|0:0,0:0:0:0:
185,206,10213,2,0,P|186:237|200:273,1,49.5000018882752,0|0,0:0|0:0,0:0:0:0:
160,338,10522,54,0,P|121:361|58:347,3,99.0000037765504,0|0|0|0,3:0|3:0|3:0|3:0,0:0:0:0:
0,240,11760,2,0,L|114:258,3,99.0000037765504,0|0|0|0,3:0|3:0|3:0|3:0,0:0:0:0:
97,128,12997,6,0,L|0:144,3,99.0000037765504,0|0|0|0,3:0|3:0|3:0|3:0,0:0:0:0:
69,29,14234,2,0,P|117:22|160:46,3,99.0000037765504,0|0|0|0,3:0|3:0|3:0|3:0,0:0:0:0:
199,122,15316,1,0,0:0:0:0:
142,185,15471,70,0,P|112:182|88:177,1,49.5000018882752,0|0,3:0|3:0,0:0:0:0:
10,202,15780,2,0,L|20:264,1,49.5000018882752,0|0,3:0|3:0,0:0:0:0:
70,320,16089,2,0,P|94:315|118:313,1,49.5000018882752,0|0,3:0|3:0,0:0:0:0:
206,333,16399,2,0,L|216:271,1,49.5000018882752,0|0,3:0|3:0,0:0:0:0:
298,284,16708,6,0,L|306:333,1,49.5000018882752,0|0,3:0|3:0,0:0:0:0:
393,313,17017,2,0,P|417:315|442:320,1,49.5000018882752,0|0,3:0|3:0,0:0:0:0:
494,250,17327,2,0,L|502:202,1,49.5000018882752,0|0,3:0|3:0,0:0:0:0:
418,178,17636,2,0,P|394:182|370:185,1,49.5000018882752,0|0,3:0|3:0,0:0:0:0:
313,122,17945,6,0,L|319:73,15,33,0|0|0|0|0|0|0|0|0|0|0|0|0|0|0|0,0:0|0:0|0:0|0:0|0:0|0:0|0:0|0:0|0:0|0:0|0:0|0:0|0:0|0:0|0:0|0:0,0:0:0:0:
332,61,19182,6,0,L|327:25,24,22,0|0|0|0|0|0|0|0|0|0|0|0|0|0|0|0|0|0|0|0|0|0|0|0|0,0:0|0:0|0:0|0:0|0:0|0:0|0:0|0:0|0:0|2:0|0:0|0:0|2:0|0:0|0:0|2:0|0:0|0:0|2:0|0:0|0:0|2:0|0:0|0:0|2:0,0:0:0:0:
361,231,21347,5,0,0:0:0:0:
361,231,21656,22,0,P|322:213|231:259,1,132,4|8,1:0|0:0,0:0:0:0:
208,322,22120,2,0,L|72:307,1,132,0|0,0:0|1:0,0:0:0:0:
2,355,22584,2,0,P|-15:316|-9:284,1,66,8|0,0:0|0:0,0:0:0:0:
36,218,22894,6,0,P|46:165|1:99,1,132,0|8,1:0|0:0,0:0:0:0:
57,35,23357,1,0,0:0:0:0:
57,35,23435,1,0,0:0:0:0:
57,35,23512,2,0,L|143:42,1,66,2|0,0:0|1:0,0:0:0:0:
179,106,23821,2,0,L|244:100,1,66,8|0,0:3|0:0,0:0:0:0:
320,150,24131,70,0,P|353:116|342:19,1,132,0|8,1:0|0:0,0:0:0:0:
438,6,24595,2,0,B|479:74|479:74|450:142,1,132,0|0,0:0|1:0,0:0:0:0:
458,212,25058,2,0,P|424:206|394:197,1,66,8|0,0:0|0:0,0:0:0:0:
320,150,25368,5,0,1:0:0:0:
156,219,25677,2,0,L|168:301,1,66,8|0,0:0|0:0,0:0:0:0:
165,284,25909,2,0,P|117:276|66:270,1,99,0|0,0:0|0:0,0:0:0:0:
0,329,26296,2,0,P|42:356|75:353,1,66,8|0,1:0|0:0,0:0:0:0:
143,375,26605,70,0,P|141:310|195:265,1,132,0|8,1:0|0:0,0:0:0:0:
240,196,27069,2,0,P|313:217|387:235,1,132,0|0,0:0|1:0,0:0:0:0:
446,273,27533,2,0,P|457:235|463:202,1,66,8|0,0:0|0:0,0:0:0:0:
503,131,27842,6,0,P|464:154|370:140,1,132,0|8,1:0|0:0,0:0:0:0:
301,102,28306,1,0,0:0:0:0:
301,102,28383,1,0,0:0:0:0:
301,102,28461,2,0,L|309:18,1,66,0|0,0:0|0:0,0:0:0:0:
386,80,28770,2,0,L|378:164,1,66,8|0,0:0|0:0,0:0:0:0:
404,259,29079,70,0,P|441:253|472:241,1,66,0|0,1:0|0:0,0:0:0:0:
325,220,29388,2,0,P|288:226|257:238,1,66,8|0,0:0|0:0,0:0:0:0:
193,289,29698,2,0,P|228:242|213:159,1,132,0|8,0:0|0:0,0:0:0:0:
152,119,30162,1,0,0:0:0:0:
77,166,30316,22,0,P|45:162|9:155,1,66,0|0,1:0|0:0,0:0:0:0:
78,47,30626,2,0,P|110:40|143:36,1,66,8|0,0:0|0:0,0:0:0:0:
239,118,30935,2,0,P|289:131|363:75,1,132,0|8,1:0|0:0,0:0:0:0:
282,39,31399,1,0,0:0:0:0:
239,118,31553,70,0,B|227:171|227:171|260:255,1,132,4|8,1:0|0:0,0:0:0:0:
221,323,32017,2,0,P|245:293|357:292,1,132,0|0,0:0|1:0,0:0:0:0:
401,336,32481,2,0,P|438:344|467:348,1,66,8|2,0:0|0:0,0:0:0:0:
508,270,32790,70,0,L|521:120,1,132,0|8,0:0|0:0,0:0:0:0:
459,78,33254,1,2,0:0:0:0:
459,78,33332,1,0,0:0:0:0:
459,78,33409,2,0,P|413:82|387:89,1,66,0|0,0:0|1:0,0:0:0:0:
346,163,33718,2,0,P|313:160|280:153,1,66,8|0,0:0|0:0,0:0:0:0:
218,89,34028,6,0,L|229:220,1,132,0|8,1:0|0:0,0:0:0:0:
261,302,34491,2,0,P|203:317|128:268,1,132,0|0,0:0|1:0,0:0:0:0:
57,310,34955,2,0,P|59:273|58:234,1,66,8|0,0:0|0:0,0:0:0:0:
13,171,35265,69,0,1:0:0:0:
94,16,35574,2,0,B|130:11|130:11|176:46,1,66,8|0,0:0|0:0,0:0:0:0:
153,28,35806,2,0,P|150:70|142:157,1,99,0|0,1:0|1:0,0:0:0:0:
188,206,36193,2,0,P|241:198|265:197,1,66,8|0,0:0|0:0,0:0:0:0:
322,141,36502,6,0,P|358:149|443:197,1,132,0|8,1:0|0:0,0:0:0:0:
491,269,36966,2,0,L|496:114,1,132,0|0,0:0|1:0,0:0:0:0:
509,49,37430,2,0,P|474:43|442:40,1,66,8|0,0:0|0:0,0:0:0:0:
356,12,37739,70,0,L|360:143,1,132,0|8,1:0|0:0,0:0:0:0:
302,214,38203,2,0,L|293:322,2,99,0|0|8,0:0|0:0|0:0,0:0:0:0:
221,177,38821,1,0,0:0:0:0:
135,193,38976,38,0,P|86:201|33:158,1,99,0|0,1:0|0:0,0:0:0:0:
29,180,39285,2,0,L|34:131,3,33,8|0|0|0,0:0|0:0|0:0|0:0,0:0:0:0:
52,124,39595,2,0,L|45:36,1,66,0|0,0:0|1:0,0:0:0:0:
126,21,39904,2,0,L|131:86,1,66,8|0,0:0|0:0,0:0:0:0:
191,152,40213,70,0,P|249:158|288:126,1,99,4|0,3:0|0:0,0:0:0:0:
291,137,40522,6,0,P|314:83|296:36,1,99,8|0,3:2|0:0,0:0:0:0:
297,39,40832,70,0,L|417:47,1,99,8|0,3:2|0:0,0:0:0:0:
406,42,41141,6,0,P|401:117|446:169,1,128.699994108582,8|0,3:2|0:0,0:0:0:0:
440,164,41450,6,0,L|512:159,1,66,4|0,0:0|0:0,0:0:0:0:
352,215,41914,2,0,P|340:261|365:302,2,99.0000037765504,0|0|0,0:0|0:0|0:0,0:0:0:0:
440,164,42842,2,0,L|506:160,1,49.5000018882752,0|0,0:0|0:0,0:0:0:0:
259,239,43615,2,0,L|212:235,3,24.7500009441376,0|0|0|0,0:0|0:0|0:0|0:0,0:0:0:0:
223,236,43924,6,0,L|151:231,1,66,0|0,0:0|0:0,0:0:0:0:
311,173,44388,2,0,P|336:132|324:85,2,99.0000037765504,0|0|0,0:0|0:0|0:0,0:0:0:0:
223,236,45316,2,0,L|173:233,1,49.5000018882752,0|0,0:0|0:0,0:0:0:0:
256,4,46089,2,0,L|256:56,1,49.5000018882752,0|0,0:0|0:0,0:0:0:0:
192,115,46399,1,0,0:0:0:0:
123,60,46553,6,0,P|104:92|108:141,4,74.2500028324128,0|0|0|0|0,0:0|0:0|0:0|0:0|0:0,0:0:0:0:
177,200,47790,6,0,P|214:200|254:172,4,74.2500028324128,0|0|0|0|0,0:0|0:0|0:0|0:0|0:0,0:0:0:0:
272,83,49028,70,0,P|253:50|209:29,4,74.2500028324128,0|0|0|0|0,0:0|0:0|0:0|0:0|0:0,0:0:0:0:
123,60,50265,6,0,P|104:92|108:141,4,74.2500028324128,0|0|0|0|0,0:0|0:0|0:0|0:0|0:0,0:0:0:0:
198,16,51347,38,0,L|285:24,1,66,0|0,3:0|0:0,0:0:0:0:
123,60,51811,2,0,L|18:50,2,99.0000037765504,0|0|0,0:0|0:0|0:0,0:0:0:0:
198,16,52739,2,0,L|261:22,1,49.5000018882752,0|0,0:0|0:0,0:0:0:0:
122,147,53512,2,0,L|76:151,3,24.7500009441376,0|0|0|0,0:0|0:0|0:0|0:0,0:0:0:0:
77,152,53821,6,0,L|-10:160,1,66,0|0,0:0|0:0,0:0:0:0:
115,229,54285,2,0,L|220:219,2,99.0000037765504,0|0|0,0:0|0:0|0:0,0:0:0:0:
77,152,55213,2,0,L|14:158,1,49.5000018882752,0|0,0:0|0:0,0:0:0:0:
110,311,55986,2,0,L|173:317,1,49.5000018882752,0|0,0:0|0:0,0:0:0:0:
229,261,56296,1,0,0:0:0:0:
302,311,56450,6,0,P|316:281|312:235,4,74.2500028324128,0|0|0|0|0,0:0|0:0|0:0|0:0|0:0,0:0:0:0:
230,175,57687,6,0,P|197:177|159:204,4,74.2500028324128,0|0|0|0|0,0:0|0:0|0:0|0:0|0:0,0:0:0:0:
148,305,58924,70,0,P|166:332|208:351,4,74.2500028324128,0|0|0|0|0,0:0|0:0|0:0|0:0|0:0,0:0:0:0:
229,261,60007,22,0,L|233:215,16,33,0|0|0|0|0|0|0|0|0|0|0|0|0|0|0|0|0,0:0|0:0|0:0|0:0|0:0|0:0|0:0|0:0|0:0|0:0|0:0|0:0|0:0|0:0|0:0|0:0|0:0,0:0:0:0:
256,192,61321,12,0,63718,0:0:0:0:
229,261,64028,70,0,L|233:215,3,33,0|0|0|0,0:0|0:0|0:0|0:0,0:0:0:0:
245,210,64337,2,0,L|241:164,3,33,0|0|0|0,0:0|0:0|0:0|0:0,0:0:0:0:
227,160,64646,2,0,L|231:114,3,33,0|0|0|0,0:0|0:0|0:0|0:0,0:0:0:0:
245,104,64955,38,0,B|229:73|235:31|235:31|212:96|144:99|144:99|120:108|100:130,1,247.500009441376
97,222,65883,70,0,P|117:169|109:139,1,85.7999960723879,8|0,0:0|0:0,0:0:0:0:
9,197,66193,38,0,P|11:257|24:358,1,145.200004431152,6|8,1:0|0:0,0:0:0:0:
109,366,66656,2,0,P|107:306|94:205,1,145.200004431152,0|0,0:0|1:0,0:0:0:0:
148,151,67120,2,0,L|248:156,1,72.6000022155762,8|0,0:0|0:0,0:0:0:0:
309,180,67430,5,4,1:0:0:0:
309,180,67584,2,0,P|305:142|300:106,1,72.6000022155762,2|8,0:0|0:0,0:0:0:0:
254,33,67894,2,0,P|300:0|389:16,1,145.200004431152,2|0,0:0|1:0,0:0:0:0:
471,2,68357,2,0,P|466:37|462:74,1,72.6000022155762,8|0,0:0|0:0,0:0:0:0:
480,160,68667,5,0,1:0:0:0:
413,218,68821,2,0,L|421:258,2,36.3000011077881,0|2|8,0:0|0:0|0:0,0:0:0:0:
335,177,69131,2,0,L|342:141,2,36.3000011077881,0|2|0,0:0|0:0|0:0,0:0:0:0:
283,246,69440,1,0,1:0:0:0:
197,228,69595,2,0,P|153:232|129:250,1,72.6000022155762,8|0,0:0|0:0,0:0:0:0:
92,326,69904,6,0,B|114:235|114:235|89:182,1,145.200004431152,0|8,1:0|0:0,0:0:0:0:
54,111,70368,1,0,0:0:0:0:
54,111,70445,2,0,L|165:124,1,108.900003323364,0|0,1:0|1:0,0:0:0:0:
243,162,70832,2,0,P|257:120|261:85,1,72.6000022155762,8|2,0:0|0:0,0:0:0:0:
236,10,71141,38,0,P|197:0|83:0,1,145.200004431152,4|8,1:0|0:0,0:0:0:0:
117,80,71605,2,0,P|156:90|270:90,1,145.200004431152,0|0,0:0|1:0,0:0:0:0:
333,139,72069,2,0,L|408:131,1,72.6000022155762,8|0,0:0|0:0,0:0:0:0:
487,99,72378,5,4,1:0:0:0:
487,99,72533,2,0,P|498:137|501:178,1,72.6000022155762,2|8,0:0|0:0,0:0:0:0:
495,256,72842,2,0,P|444:239|369:309,1,145.200004431152,6|0,0:1|1:0,0:0:0:0:
378,376,73306,2,0,L|282:365,1,72.6000022155762,8|0,0:0|0:0,0:0:0:0:
233,315,73615,5,4,1:0:0:0:
150,338,73770,1,2,0:0:0:0:
110,260,73924,2,0,P|104:224|96:182,1,72.6000022155762,8|0,0:0|0:0,0:0:0:0:
129,107,74234,2,0,L|44:100,1,72.6000022155762,0|0,0:0|1:0,0:0:0:0:
186,177,74543,2,0,L|271:170,1,72.6000022155762,8|0,0:0|0:0,0:0:0:0:
331,221,74852,6,0,P|341:180|346:134,1,72.6000022155762,0|0,1:0|0:0,0:0:0:0:
321,67,75162,2,0,P|366:64|425:127,2,108.900003323364,0|8|0,1:0|0:0|1:0,0:0:0:0:
248,11,75780,2,0,L|168:21,1,72.6000022155762,8|0,0:0|0:0,0:0:0:0:
165,33,76012,1,0,0:0:0:0:
153,46,76089,38,0,P|107:44|3:32,1,145.200004431152,6|8,1:0|0:0,0:0:0:0:
18,120,76553,2,0,P|64:122|168:134,1,145.200004431152,2|0,0:1|1:0,0:0:0:0:
235,182,77017,2,0,L|230:261,1,72.6000022155762,10|0,0:0|0:0,0:0:0:0:
249,341,77327,5,4,1:0:0:0:
249,341,77481,2,0,P|212:350|175:353,1,72.6000022155762,2|8,0:0|0:0,0:0:0:0:
96,380,77790,2,0,B|80:307|80:307|131:226,1,145.200004431152,2|0,0:0|1:0,0:0:0:0:
137,162,78254,2,0,P|89:155|58:150,1,72.6000022155762,8|0,0:0|1:0,0:0:0:0:
0,88,78564,5,0,1:0:0:0:
83,59,78718,2,0,L|77:16,2,36.3000011077881,0|2|8,0:0|0:0|0:0,0:0:0:0:
142,126,79028,2,0,L|136:161,2,36.3000011077881,0|2|0,0:0|0:0|0:0,0:0:0:0:
219,81,79337,1,0,1:0:0:0:
287,135,79491,2,0,P|333:131|360:115,1,72.6000022155762,8|0,0:0|0:0,0:0:0:0:
391,38,79801,6,0,L|372:204,1,145.200004431152,0|8,1:0|0:0,0:0:0:0:
403,273,80265,1,0,0:0:0:0:
403,273,80342,2,0,P|450:261|520:305,1,108.900003323364,0|0,1:0|1:0,0:0:0:0:
445,354,80729,2,0,P|408:365|355:350,1,72.6000022155762,8|0,0:0|0:0,0:0:0:0:
307,297,81038,38,0,P|234:303|151:319,1,145.200004431152,6|8,1:0|0:0,0:0:0:0:
123,238,81502,2,0,P|196:232|279:216,1,145.200004431152,2|0,2:0|1:0,0:0:0:0:
347,179,81966,2,0,L|356:97,1,72.6000022155762,8|2,0:0|0:0,0:0:0:0:
431,58,82275,5,2,1:0:0:0:
431,58,82430,2,0,L|438:130,1,72.6000022155762,2|8,0:0|0:0,0:0:0:0:
477,209,82739,2,0,P|431:174|342:181,1,145.200004431152,6|0,1:0|1:0,0:0:0:0:
307,256,83203,2,0,P|269:259|214:263,1,72.6000022155762,8|0,0:0|0:0,0:0:0:0:
161,312,83512,6,0,L|46:306,1,108.900003323364,4|0,1:0|0:0,0:0:0:0:
34,315,83821,2,0,P|22:273|39:234,1,72.6000022155762,8|0,0:0|0:0,0:0:0:0:
19,229,84053,2,0,L|134:235,1,108.900003323364,0|0,1:0|1:0,0:0:0:0:
216,259,84440,2,0,P|224:224|211:190,1,72.6000022155762,8|0,0:0|0:0,0:0:0:0:
133,147,84749,5,4,1:0:0:0:
183,73,84904,1,0,0:0:0:0:
264,117,85058,38,0,L|351:112,1,72.6000022155762,8|0,0:0|0:0,0:0:0:0:
294,198,85368,2,0,L|381:193,1,72.6000022155762,2|0,0:0|0:0,0:0:0:0:
324,279,85677,2,0,L|411:274,1,72.6000022155762,8|0,0:0|0:0,0:0:0:0:
354,360,85986,53,0,1:0:0:0:
354,360,89543,53,0,0:0:0:0:
354,360,89620,1,0,0:0:0:0:
354,360,89698,2,0,L|441:355,1,72.6000022155762,0|0,0:0|1:0,0:0:0:0:
256,292,90162,5,0,1:0:0:0:
158,360,90471,69,0,1:0:0:0:
158,360,90548,1,0,0:0:0:0:
158,360,90626,2,0,L|88:355,3,36.3000011077881,0|0|0|0,0:0|0:0|0:0|0:0,0:0:0:0:
97,362,90935,54,0,P|108:328|107:291,1,66,0|0,1:0|1:0,0:0:0:0:
82,213,91244,2,0,L|14:221,1,66,0|0,1:0|1:0,0:0:0:0:
184,254,91553,6,0,L|249:246,1,66,0|0,1:0|1:0,0:0:0:0:
336,263,91863,2,0,P|347:229|346:192,1,66,0|0,1:0|1:0,0:0:0:0:
263,164,92172,70,0,P|252:130|253:93,1,66,0|0,1:0|1:0,0:0:0:0:
278,15,92481,2,0,L|346:23,1,66,0|0,1:0|1:0,0:0:0:0:
176,56,92790,6,0,L|110:48,1,66,0|0,1:0|1:0,0:0:0:0:
24,65,93100,2,0,P|13:31|14:-6,1,66,0|0,1:0|1:0,0:0:0:0:
108,132,93409,6,0,L|103:172,3,33,0|0|0|0,0:0|0:0|0:0|0:0,0:0:0:0:
79,178,93718,2,0,L|84:218,3,33,0|0|0|0,0:0|0:0|0:0|0:0,0:0:0:0:
108,224,94028,2,0,L|103:264,3,33,0|0|0|0,0:0|0:0|0:0|0:0,0:0:0:0:
78,270,94337,2,0,L|83:310,3,33,0|0|0|0,0:0|0:0|0:0|0:0,0:0:0:0:
96,325,94646,22,0,B|146:333|172:366|172:366|208:333|208:333|258:371|324:343,1,247.500009441376,0|0,0:0|0:0,0:0:0:0:
410,349,95574,70,0,P|367:347|324:340,1,85.7999960723879,0|0,0:0|0:0,0:0:0:0:
270,256,95883,21,0,3:0:0:0:
270,256,97275,70,0,L|273:207,5,33,0|0|0|0|0|0,0:0|0:0|0:0|0:0|0:0|0:0,0:0:0:0:
263,194,97739,2,0,P|319:197|371:203,2,99,4|0|0,1:0|0:0|0:0,0:0:0:0:
186,238,98357,21,0,1:0:0:0:
133,164,98512,1,0,0:0:0:0:
133,164,98589,1,0,0:0:0:0:
133,164,98667,2,0,L|126:88,1,72.6000022155762,8|0,0:0|0:0,0:0:0:0:
52,38,98976,2,0,L|54:1,2,36.3000011077881,0|0|0,1:0|0:0|0:0,0:0:0:0:
11,118,99285,1,8,0:0:0:0:
53,198,99440,6,0,P|66:246|10:341,1,145.200004431152,0|0,0:0|0:0,0:0:0:0:
106,376,99904,2,0,L|195:372,1,72.6000022155762,8|0,0:0|0:0,0:0:0:0:
272,384,100213,2,0,B|298:332|298:332|284:261,1,108.900003323364,0|0,1:0|0:0,0:0:0:0:
288,282,100522,2,0,L|199:278,1,72.6000022155762,8|0,0:0|0:0,0:0:0:0:
139,232,100832,5,6,1:0:0:0:
59,270,100986,1,0,0:0:0:0:
59,270,101064,1,0,0:0:0:0:
59,270,101141,2,0,L|51:181,1,72.6000022155762,8|0,0:0|0:0,0:0:0:0:
50,178,101373,2,0,L|41:66,2,108.900003323364,0|2|2,0:0|0:0|0:0,0:0:0:0:
215,220,102069,6,0,B|196:253|196:253|200:293,1,72.6000022155762,0|2,1:0|0:0,0:0:0:0:
305,182,102378,2,0,B|323:148|323:148|319:108,1,72.6000022155762,8|0,0:0|0:0,0:0:0:0:
230,131,102687,1,0,0:0:0:0:
291,272,102842,1,0,0:0:0:0:
291,272,102919,1,0,0:0:0:0:
291,272,102997,2,0,L|341:265,3,36.3000011077881,8|0|0|0,0:0|0:0|0:0|0:0,0:0:0:0:
354,257,103306,38,0,L|350:374,1,108.900003323364,6|0,1:0|0:0,0:0:0:0:
350,365,103615,2,0,L|428:355,1,72.6000022155762,8|2,0:0|2:1,0:0:0:0:
499,313,103924,2,0,P|511:273|502:230,1,72.6000022155762,0|0,0:0|0:0,0:0:0:0:
427,204,104234,2,0,P|415:164|424:121,1,72.6000022155762,8|0,0:0|0:0,0:0:0:0:
489,51,104543,6,0,L|503:165,1,108.900003323364,6|6,1:0|1:0,0:0:0:0:
338,209,105007,2,0,L|324:100,1,108.900003323364,6|6,1:0|1:0,0:0:0:0:
158,65,105471,2,0,L|168:151,1,72.6000022155762,14|0,0:0|0:0,0:0:0:0:
120,212,105780,5,4,1:0:0:0:
182,273,105935,2,0,P|218:271|258:265,2,72.6000022155762,0|8|0,0:0|0:0|0:0,0:0:0:0:
135,344,106399,2,0,P|99:338|62:336,1,72.6000022155762,0|0,1:0|0:0,0:0:0:0:
0,274,106708,1,8,0:0:0:0:
74,225,106863,6,0,P|99:180|84:74,1,145.200004431152,0|2,0:0|0:0,0:0:0:0:
101,2,107327,2,0,P|56:10|25:28,1,72.6000022155762,8|2,0:0|0:0,0:0:0:0:
179,85,107636,2,0,L|304:91,1,108.900003323364,0|0,1:0|0:0,0:0:0:0:
304,98,107945,2,0,P|323:42|315:5,1,72.6000022155762,8|0,0:0|0:0,0:0:0:0:
410,5,108254,37,4,1:0:0:0:
486,71,108409,1,2,0:0:0:0:
486,71,108486,1,0,0:0:0:0:
486,71,108564,2,0,P|467:127|475:164,1,72.6000022155762,8|0,0:0|0:0,0:0:0:0:
429,221,108873,2,0,P|449:228|479:231,2,36.3000011077881,0|0|0,1:0|0:0|0:0,0:0:0:0:
352,175,109182,1,8,0:0:0:0:
269,205,109337,6,0,L|289:368,1,145.200004431152,2|2,0:0|0:0,0:0:0:0:
374,372,109801,2,0,P|387:334|384:295,1,72.6000022155762,8|0,0:0|0:0,0:0:0:0:
429,221,110110,2,0,P|417:157|455:114,1,108.900003323364,0|0,1:0|1:0,0:0:0:0:
439,123,110419,2,0,L|350:115,1,72.6000022155762,0|0,0:0|1:0,0:0:0:0:
290,66,110729,6,0,P|276:100|278:149,1,72.6000022155762,2|2,1:0|0:0,1:1:0:0:
226,214,111038,2,0,L|100:226,1,108.900003323364,8|0,1:0|0:0,1:1:0:0:
104,234,111347,2,0,L|98:153,2,72.6000022155762,6|0|8,1:0|0:0|0:0,0:0:0:0:
140,316,111811,6,0,P|94:326|21:265,1,145.200004431152,0|0,1:0|1:0,0:0:0:0:
13,252,112198,1,0,1:0:0:0:
6,234,112275,2,0,L|21:165,3,36.3000011077881,0|0|0|0,1:0|1:0|1:0|1:0,0:0:0:0:
7,167,112584,2,0,P|49:162|103:162,1,72.6000022155762,0|0,0:0|0:0,0:0:0:0:
211,103,112894,2,0,P|174:101|138:97,1,72.6000022155762,0|0,0:0|0:0,0:0:0:0:
143,220,113203,37,0,0:0:0:0:
143,220,113280,2,0,L|232:229,1,72.6000022155762,0|0,0:0|0:0,0:0:0:0:
380,154,113667,5,0,0:0:0:0:
380,154,113744,2,0,L|307:161,1,72.6000022155762,0|0,0:0|0:0,0:0:0:0:
158,99,114131,38,0,L|208:104,3,36.3000011077881,0|0|0|0,0:0|0:0|0:0|0:0,0:0:0:0:
211,103,114440,53,0,0:0:0:0:
211,103,114517,2,0,P|220:57|219:11,1,72.6000022155762,0|0,0:0|0:0,0:0:0:0:
301,281,114904,5,0,0:0:0:0:
301,281,114981,2,0,P|292:327|293:373,1,72.6000022155762,0|0,0:0|0:0,0:0:0:0:
256,192,115368,21,4,0:0:0:0:
256,192,115445,12,0,120626,0:0:0:0:
