osu file format v14

[General]
AudioFilename: mp3.mp3
AudioLeadIn: 0
PreviewTime: 98345
Countdown: 0
SampleSet: Soft
StackLeniency: 0.7
Mode: 0
LetterboxInBreaks: 0
WidescreenStoryboard: 0

[Editor]
Bookmarks: 614,10510,21644,31541,41438,51335,61232,76077,85278,105768
DistanceSpacing: 0.9
BeatDivisor: 4
GridSize: 4
TimelineZoom: 1.7

[Metadata]
Title:Completeness Under Incompleteness
TitleUnicode:Completeness Under Incompleteness
Artist:Camellia as "Reverse of Riot"
ArtistUnicode:かめりあ as "Reverse of Riot"
Creator:Regou
Version:Collab NOVICE
Source:SOUND VOLTEX III GRAVITY WARS
Tags:the 5th kac original song contest gravitational radar episode 18 sdvx konami bemani riot destrudo artcore RLC xlni choikapo [ Drop ] Kawaiwkyik Rizia Dailycare Hey lululu HootOwlStar
BeatmapID:1096435
BeatmapSetID:514750

[Difficulty]
HPDrainRate:3
CircleSize:3.5
OverallDifficulty:4
ApproachRate:4
SliderMultiplier:0.999999999999999
SliderTickRate:1

[Events]
//Background and Video events
0,0,"57194842_p0 (1).jpg",0,0
//Break Periods
//Storyboard Layer 0 (Background)
//Storyboard Layer 1 (Fail)
//Storyboard Layer 2 (Pass)
//Storyboard Layer 3 (Foreground)
//Storyboard Sound Samples

[TimingPoints]
626,309.278350515464,4,2,1,30,1,0
8976,-100,4,2,3,30,0,0
10522,-100,4,2,1,50,0,0
15471,-100,4,2,1,50,0,0
16708,-100,4,2,1,50,0,0
17945,-100,4,1,1,50,0,0
19182,-100,4,1,1,50,0,0
20419,-100,4,2,3,60,0,0
21347,-100,4,2,1,60,0,0
21656,-100,4,2,1,60,0,0
40522,-100,4,2,3,60,0,0
41450,-100,4,2,1,60,0,0
56296,-100,4,2,1,60,0,0
57533,-100,4,2,1,60,0,0
58770,-100,4,2,1,60,0,0
60007,-100,4,2,3,60,0,0
61244,-100,4,2,1,60,0,0
64028,-100,4,3,1,60,0,0
64646,-100,4,2,1,60,0,0
64955,-100,4,2,3,60,0,0
65883,-100,4,2,1,60,0,0
66193,-100,4,2,1,75,0,1
74852,-100,4,2,4,75,0,1
75780,-100,4,2,1,75,0,1
85986,-100,4,2,1,35,0,0
89698,-100,4,2,1,75,0,0
90935,-100,4,2,1,75,0,0
92172,-100,4,2,1,75,0,0
93409,-100,4,1,1,75,0,0
95883,-100,4,1,1,75,0,0
96038,-100,4,2,1,75,0,0
97275,-100,4,2,1,75,0,0
98357,-100,4,2,1,75,0,1
112275,-100,4,1,1,75,0,1
115368,-100,4,2,1,75,0,0
120626,-100,4,2,1,75,0,0

[Colours]
Combo1 : 255,94,94
Combo2 : 128,128,128
Combo3 : 242,242,242
Combo4 : 49,131,253
Combo5 : 150,243,254
Combo6 : 255,158,100

[HitObjects]
188,336,626,6,0,P|96:376|104:168,1,400
428,170,3100,6,0,P|494:327|324:336,1,400,0|0,0:0|0:0,0:0:0:0:
254,0,5574,70,0,B|152:208|344:176|252:376,1,400
136,364,8048,6,0,B|72:316|-8:336|-8:336|40:264|40:176,1,300,0|0,0:0|0:0,0:0:0:0:
16,112,9285,2,0,P|55:51|127:47,2,150
63,187,10522,6,0,B|76:287|76:287|55:383,1,200,0|0,3:0|3:0,0:0:0:0:
216,304,11760,2,0,P|277:273|402:335,1,200,0|0,3:0|3:0,0:0:0:0:
407,139,12997,2,0,P|308:113|208:130,1,200,0|0,3:0|3:0,0:0:0:0:
84,254,14234,2,0,B|99:195|99:195|81:121|81:121|101:42,1,200,0|0,3:0|3:0,0:0:0:0:
256,192,15471,12,0,20419,2:0:0:0:
140,104,21656,6,0,P|64:120|-4:80,2,150,4|0|8,1:0|0:0|0:0,0:0:0:0:
220,64,22894,1,0,1:0:0:0:
212,152,23203,2,0,L|208:208,1,50,8|0,0:0|0:0,0:0:0:0:
208,248,23512,2,0,P|264:244|328:248,1,99.9999999999999,2|8,0:0|0:3,0:0:0:0:
376,304,24131,70,0,P|444:344|520:324,2,150,0|0|8,1:0|0:0|0:0,0:0:0:0:
307,245,25368,2,0,L|311:181,2,50,0|0|8,1:0|0:0|0:0,0:0:0:0:
288,332,25986,2,0,P|232:336|176:344,1,99.9999999999999,0|8,0:0|1:0,0:0:0:0:
136,268,26605,6,0,B|88:240|88:240|-8:256,2,150,0|0|8,1:0|0:0|0:0,0:0:0:0:
200,204,27842,1,0,1:0:0:0:
140,140,28151,2,0,L|136:80,1,50,8|0,0:0|0:0,0:0:0:0:
128,44,28461,2,0,P|184:44|232:32,1,99.9999999999999,0|8,0:0|0:0,0:0:0:0:
316,32,29079,70,0,P|400:24|456:128,1,200,0|0,1:0|0:0,0:0:0:0:
460,204,30007,1,8,0:0:0:0:
460,204,30162,1,0,0:0:0:0:
460,204,30316,2,0,L|456:316,1,99.9999999999999,0|8,1:0|0:0,0:0:0:0:
376,260,30935,2,0,L|372:372,1,99.9999999999999,0|8,1:0|0:0,0:0:0:0:
291,321,31553,6,0,P|217:308|148:341,2,150,4|0|8,1:0|0:0|0:0,0:0:0:0:
364,373,32790,1,0,0:0:0:0:
429,311,33100,2,0,L|430:256,1,50,8|2,0:0|0:0,0:0:0:0:
422,216,33409,2,0,P|369:225|317:201,1,99.9999999999999,0|8,0:0|0:0,0:0:0:0:
276,132,34028,70,0,P|205:107|124:136,2,150,0|0|8,1:0|0:0|0:0,0:0:0:0:
326,208,35265,2,0,L|323:269,2,50,0|0|8,1:0|0:0|0:0,0:0:0:0:
388,143,35883,2,0,B|417:160|417:160|428:245,1,99.9999999999999,0|8,0:0|0:0,0:0:0:0:
398,312,36502,6,0,P|359:345|298:345,1,99.9999999999999,0|8,1:0|0:0,0:0:0:0:
235,301,37120,2,0,L|132:308,1,99.9999999999999,0|8,0:0|0:0,0:0:0:0:
59,258,37739,2,0,P|42:211|51:150,1,99.9999999999999,0|8,1:0|0:0,0:0:0:0:
91,84,38357,2,0,B|138:66|138:66|201:85,1,99.9999999999999,0|8,0:0|0:0,0:0:0:0:
244,148,38976,70,0,L|250:267,2,99.9999999999999,0|8|0,1:0|0:0|0:0,0:0:0:0:
292,72,39904,1,8,0:0:0:0:
347,142,40213,2,0,L|350:245,1,99.9999999999999,4|8,3:0|3:2,0:0:0:0:
296,314,40832,1,8,3:2:0:0:
206,318,41141,1,8,3:2:0:0:
116,323,41450,37,4,0:0:0:0:
404,80,43924,5,2,0:0:0:0:
468,316,46399,22,0,B|312:272|360:396|172:332,1,300
144,252,47636,2,0,P|76:260|0:292,2,150
168,164,48873,54,0,P|188:44|332:100,1,300
360,164,50110,2,0,P|420:168|512:144,2,150
360,256,51347,69,0,3:0:0:0:
122,257,53821,5,2,0:0:0:0:
80,61,56296,22,0,B|102:101|85:160|85:160|111:171|120:201|120:201|74:212|46:276|66:318,1,300
150,286,57533,2,0,B|189:295|214:253|214:253|253:304|305:301|305:301|357:260|419:276,1,300
467,203,58770,2,0,P|476:152|292:148,1,300
229,189,60007,2,0,B|177:189|133:210|133:210|81:93|157:21,1,300
256,192,61244,12,0,64955,0:0:0:0:
200,332,66193,70,0,P|132:328|92:328,1,99.9999999999999,6|8,1:0|0:0,0:0:0:0:
60,348,66656,2,0,P|64:292|64:240,1,99.9999999999999,0|0,0:0|1:0,0:0:0:0:
48,204,67120,1,8,0:0:0:0:
20,120,67430,2,0,P|36:52|112:16,2,150,4|0|8,1:0|0:0|0:0,0:0:0:0:
108,108,68667,5,0,1:0:0:0:
88,196,68976,2,0,P|144:200|200:208,1,99.9999999999999,8|0,0:0|0:0,0:0:0:0:
276,188,69595,1,8,0:0:0:0:
276,188,69749,1,0,0:0:0:0:
276,188,69904,2,0,B|284:248|284:248|268:292|268:292|276:356,2,150,0|0|8,1:0|0:0|0:0,0:0:0:0:
260,100,71141,6,0,P|316:96|364:88,1,99.9999999999999,4|8,1:0|0:0,0:0:0:0:
396,64,71605,2,0,P|404:128|412:180,1,99.9999999999999,0|0,0:0|1:0,0:0:0:0:
424,204,72069,1,8,0:0:0:0:
440,292,72378,2,0,B|360:280|388:332|288:312,2,150,4|6|8,1:0|0:1|0:0,0:0:0:0:
492,220,73615,6,0,L|496:112,1,99.9999999999999,4|8,1:0|0:0,0:0:0:0:
432,56,74234,1,0,0:0:0:0:
392,40,74388,1,0,1:0:0:0:
348,48,74543,2,0,P|316:60|300:68,1,50,8|0,0:0|0:0,0:0:0:0:
292,112,74852,2,0,P|212:108|140:100,2,150,0|8|8,1:0|0:0|0:0,0:0:0:0:
368,164,76089,38,0,P|380:217|374:279,1,99.9999999999999,6|8,1:0|0:0,0:0:0:0:
393,301,76553,2,0,P|338:286|277:297,1,99.9999999999999,2|0,0:1|1:0,0:0:0:0:
265,323,77017,1,10,0:0:0:0:
182,285,77327,2,0,B|162:233|162:233|169:135,2,150,4|0|8,1:0|0:0|0:0,0:0:0:0:
258,239,78564,5,0,1:0:0:0:
337,280,78873,2,0,P|391:285|443:276,1,99.9999999999999,8|0,0:0|0:0,0:0:0:0:
493,209,79491,1,8,0:0:0:0:
493,209,79646,1,0,0:0:0:0:
493,209,79801,2,0,B|504:131|504:131|483:54,2,150,0|0|8,1:0|0:0|0:0,0:0:0:0:
420,264,81038,6,0,P|367:256|307:257,1,99.9999999999999,6|8,1:0|0:0,0:0:0:0:
281,274,81502,2,0,P|283:214|277:174,1,99.9999999999999,2|0,2:0|1:0,0:0:0:0:
260,132,81966,1,8,0:0:0:0:
171,148,82275,2,0,B|95:160|95:160|16:146,2,150,2|6|8,1:0|1:0|0:0,0:0:0:0:
203,63,83512,6,0,P|244:42|304:53,1,99.9999999999999,4|8,1:0|0:0,0:0:0:0:
357,114,84131,1,0,0:0:0:0:
375,154,84285,1,0,1:0:0:0:
348,192,84440,2,0,P|352:220|360:252,1,50,8|0,0:0|0:0,0:0:0:0:
348,284,84749,2,0,P|292:300|248:276,1,99.9999999999999,4|8,1:0|0:0,0:0:0:0:
184,340,85368,2,0,P|128:328|76:344,1,99.9999999999999,2|8,0:0|0:0,0:0:0:0:
0,332,85986,6,0,B|-24:160|132:256|108:72,1,300,0|0,1:0|1:0,0:0:0:0:
20,68,87223,2,0,L|12:0,2,50,0|0|0,0:0|0:0|1:0,0:0:0:0:
108,76,87842,2,0,L|100:8,2,50,0|0|0,1:0|0:0|1:0,0:0:0:0:
194,49,88461,6,0,P|274:9|294:165,1,300,0|0,1:0|1:0,0:0:0:0:
282,201,89543,1,0,0:0:0:0:
301,241,89698,54,0,P|305:277|309:305,1,50,0|0,0:0|1:0,0:0:0:0:
384,337,90162,1,0,1:0:0:0:
302,375,90471,2,0,P|242:379|190:387,1,99.9999999999999,0|0,1:0|0:0,0:0:0:0:
189,341,90935,38,0,L|181:237,1,99.9999999999999,0|0,1:0|1:0,0:0:0:0:
153,205,91399,1,0,1:0:0:0:
117,178,91553,2,0,P|89:182|45:194,2,50,0|0|0,1:0|1:0|1:0,0:0:0:0:
139,139,92017,1,0,1:0:0:0:
162,100,92172,6,0,P|218:100|274:88,1,99.9999999999999,0|0,1:0|1:0,0:0:0:0:
293,60,92636,1,0,1:0:0:0:
305,103,92790,2,0,P|313:151|321:195,2,74.9999999999999,0|0|0,1:0|0:0|1:0,0:0:0:0:
256,192,93409,12,4,95883,0:0:0:0:
168,36,97739,21,0,1:0:0:0:
168,36,98357,38,0,P|172:104|176:156,1,99.9999999999999,0|8,1:0|0:0,0:0:0:0:
176,224,98976,2,0,P|236:220|292:208,1,99.9999999999999,0|8,1:0|0:0,0:0:0:0:
312,240,99440,2,0,P|380:224|448:288,1,150,0|8,0:0|0:0,0:0:0:0:
368,320,100213,1,0,1:0:0:0:
368,320,100522,1,8,0:0:0:0:
280,340,100832,6,0,P|224:348|176:356,1,99.9999999999999,6|8,1:0|0:0,0:0:0:0:
92,364,101450,2,0,P|84:308|72:252,1,99.9999999999999,0|8,1:0|0:0,0:0:0:0:
28,188,102069,2,0,P|3:184|-24:184,2,50,0|2|8,1:0|0:0|0:0,0:0:0:0:
68,164,102533,2,0,B|120:160|120:160|164:180|164:180|220:176,1,150,0|8,0:0|0:0,0:0:0:0:
284,120,103306,6,0,P|288:52|228:0,2,150,6|2|8,1:0|2:1|0:0,0:0:0:0:
288,212,104543,6,0,P|284:260|280:288,1,74.9999999999999,6|6,1:0|1:0,0:0:0:0:
276,354,105007,2,0,P|332:362|372:374,1,74.9999999999999,6|6,1:0|1:0,0:0:0:0:
425,383,105471,1,14,0:0:0:0:
425,383,105626,1,0,0:0:0:0:
425,383,105780,38,0,P|433:332|421:281,1,99.9999999999999,4|8,1:0|0:0,0:0:0:0:
391,201,106399,2,0,P|383:150|395:99,1,99.9999999999999,0|8,1:0|0:0,0:0:0:0:
424,71,106863,2,0,P|349:83|266:67,1,150,0|8,0:0|0:0,0:0:0:0:
199,24,107636,1,0,1:0:0:0:
199,24,107945,1,8,0:0:0:0:
113,52,108254,6,0,P|106:104|116:161,1,99.9999999999999,4|8,1:0|0:0,0:0:0:0:
163,225,108873,2,0,L|266:230,1,99.9999999999999,0|8,1:0|0:0,0:0:0:0:
285,190,109337,2,0,P|355:169|405:228,1,150,0|8,0:0|0:0,0:0:0:0:
386,307,110110,1,0,1:0:0:0:
386,307,110419,1,0,0:0:0:0:
313,360,110729,6,0,P|270:345|213:347,1,99.9999999999999,2|8,1:0|1:0,0:0:0:0:
128,365,111347,2,0,P|133:318|125:254,1,99.9999999999999,6|8,1:0|0:0,0:0:0:0:
40,241,111966,2,0,P|17:199|25:133,1,99.9999999999999,0|0,1:0|1:0,0:0:0:0:
56,61,112584,2,0,B|107:57|107:57|156:70,1,99.9999999999999,0|0,0:0|0:0,0:0:0:0:
222,128,113203,5,0,0:0:0:0:
222,128,113512,1,0,0:0:0:0:
213,217,113821,1,0,0:0:0:0:
213,217,114131,1,0,0:0:0:0:
196,305,114440,2,0,P|233:330|302:332,1,99.9999999999999,0|0,0:0|0:0,0:0:0:0:
357,279,115058,2,0,L|410:286,2,50,0|0|4,0:0|0:0|0:0,0:0:0:0:
256,192,115522,12,2,120626,0:0:0:0:
