osu file format v14

[General]
AudioFilename: audio.mp3
AudioLeadIn: 0
PreviewTime: 95883
Countdown: 0
SampleSet: Normal
StackLeniency: 0.7
Mode: 1
LetterboxInBreaks: 0
WidescreenStoryboard: 0

[Editor]
Bookmarks: 626,10522,15471,17945,19182,20419,21347,21656,38976,41450,51347,61244,64955,65883,66193,84595,84749,85986,89698,89852,90162,90471,90935,93409,94028,94182,94337,94491,94646,95574,95883,98357,113048,113203,115368
DistanceSpacing: 2
BeatDivisor: 2
GridSize: 4
TimelineZoom: 1

[Metadata]
Title:Completeness Under Incompleteness
TitleUnicode:Completeness Under Incompleteness
Artist:Camellia as "Reverse of Riot"
ArtistUnicode:かめりあ as "Reverse of Riot"
Creator:404 AccNotFound
Version:kantan
Source:SOUND VOLTEX III GRAVITY WARS
Tags:the 5th kac original song contest gravitational radar episode 18 sdvx konami bemani riot artcore yuzu__rinrin
BeatmapID:1536735
BeatmapSetID:722905

[Difficulty]
HPDrainRate:8
CircleSize:5
OverallDifficulty:3
ApproachRate:5
SliderMultiplier:1.4
SliderTickRate:1

[Events]
//Background and Video events
0,0,"66185078_p10_master1200.jpg",0,100
//Break Periods
//Storyboard Layer 0 (Background)
//Storyboard Layer 1 (Fail)
//Storyboard Layer 2 (Pass)
//Storyboard Layer 3 (Foreground)
//Storyboard Sound Samples

[TimingPoints]
626,309.278350515464,4,1,0,80,1,0
8976,-100,4,1,0,82,0,0
9285,-100,4,1,0,85,0,0
10522,-100,4,1,0,90,0,0
15471,-100,4,1,0,95,0,0
17945,-100,4,1,0,100,0,0
20419,-100,4,1,0,55,0,0
21347,-100,4,1,0,100,0,0
21656,-100,4,1,0,85,0,0
40368,-100,4,1,0,95,0,0
42533,-100,4,1,0,80,0,0
56914,-100,4,1,0,85,0,0
58151,-100,4,1,0,90,0,0
59388,-100,4,1,0,95,0,0
60626,-100,4,1,0,100,0,0
61244,-100,4,1,0,80,0,0
63718,-100,4,1,0,90,0,0
64955,-100,4,1,0,55,0,0
65883,-100,4,1,0,100,0,0
66193,-100,4,1,0,100,0,1
85986,-100,4,1,0,80,0,0
89698,-100,4,1,0,100,0,0
90935,-100,4,1,0,90,0,0
93409,-100,4,1,0,95,0,0
94646,-100,4,1,0,55,0,0
95574,-100,4,1,0,100,0,0
95883,-100,4,1,0,80,0,0
97120,-100,4,1,0,90,0,0
97739,-100,4,1,0,95,0,0
98357,-100,4,1,0,100,0,1
115368,-100,4,1,0,100,0,0

[HitObjects]
312,268,626,5,4,0:0:0:0:
312,268,3100,1,8,0:0:0:0:
296,272,5574,1,0,0:0:0:0:
296,272,8048,1,8,0:0:0:0:
308,148,9285,1,8,0:0:0:0:
332,116,9749,1,8,0:0:0:0:
240,152,10522,1,4,0:0:0:0:
168,156,11760,1,0,0:0:0:0:
228,208,12997,1,8,0:0:0:0:
228,208,14234,1,8,0:0:0:0:
228,208,15471,1,0,0:0:0:0:
228,208,16089,1,0,0:0:0:0:
228,208,16708,1,0,0:0:0:0:
236,152,17327,1,0,0:0:0:0:
228,208,17945,1,8,0:0:0:0:
188,156,18254,1,8,0:0:0:0:
188,156,18564,1,8,0:0:0:0:
40,160,18873,1,8,0:0:0:0:
100,232,19182,2,0,L|536:128,1,420
216,168,21656,1,4,0:0:0:0:
204,172,22275,1,8,0:0:0:0:
216,168,22894,1,0,0:0:0:0:
204,172,24131,1,0,0:0:0:0:
280,148,24749,1,0,0:0:0:0:
204,172,25368,1,8,0:0:0:0:
280,148,26605,1,0,0:0:0:0:
280,148,27223,1,8,0:0:0:0:
280,148,27842,1,0,0:0:0:0:
280,148,29079,1,0,0:0:0:0:
124,144,29698,1,8,0:0:0:0:
280,148,30316,1,0,0:0:0:0:
140,144,30626,1,8,0:0:0:0:
108,176,30935,1,0,0:0:0:0:
192,112,31553,1,12,0:0:0:0:
152,128,32172,1,8,0:0:0:0:
192,160,32790,1,0,0:0:0:0:
192,160,34028,1,0,0:0:0:0:
192,160,34646,1,0,0:0:0:0:
192,160,35265,1,8,0:0:0:0:
192,160,36502,1,0,0:0:0:0:
200,144,37739,1,8,0:0:0:0:
200,148,38976,1,0,0:0:0:0:
212,152,39595,1,0,0:0:0:0:
200,148,40213,1,8,0:0:0:0:
208,112,40522,1,8,0:0:0:0:
200,148,40832,1,8,0:0:0:0:
200,148,41450,1,4,0:0:0:0:
184,192,43924,1,8,0:0:0:0:
200,160,46399,1,0,0:0:0:0:
184,176,47636,1,0,0:0:0:0:
184,176,48873,1,8,0:0:0:0:
221,144,50110,1,8,0:0:0:0:
188,172,51347,1,4,0:0:0:0:
144,160,53821,1,8,0:0:0:0:
180,176,56296,1,0,0:0:0:0:
184,176,57533,1,8,0:0:0:0:
184,176,58770,1,0,0:0:0:0:
184,176,60007,1,8,0:0:0:0:
256,192,61244,12,0,64955,0:0:0:0:
136,184,66193,5,4,0:0:0:0:
140,176,66811,1,8,0:0:0:0:
220,192,67430,1,0,0:0:0:0:
220,192,67739,1,0,0:0:0:0:
220,192,68048,1,8,0:0:0:0:
220,192,68667,1,0,0:0:0:0:
224,192,69285,1,8,0:0:0:0:
240,196,69904,1,0,0:0:0:0:
240,196,71141,1,8,0:0:0:0:
240,196,71760,1,0,0:0:0:0:
240,196,72378,1,8,0:0:0:0:
240,196,72687,1,8,0:0:0:0:
240,196,72997,1,0,0:0:0:0:
240,196,73615,1,8,0:0:0:0:
240,196,74234,1,8,0:0:0:0:
240,196,74852,1,0,0:0:0:0:
240,196,76089,1,4,0:0:0:0:
240,196,76708,1,8,0:0:0:0:
240,196,77327,1,0,0:0:0:0:
240,196,77636,1,0,0:0:0:0:
240,196,77945,1,8,0:0:0:0:
240,196,78564,1,0,0:0:0:0:
240,196,79182,1,0,0:0:0:0:
240,196,79801,1,8,0:0:0:0:
244,196,81038,1,0,0:0:0:0:
244,196,81656,1,0,0:0:0:0:
244,196,82275,1,8,0:0:0:0:
244,196,82584,1,8,0:0:0:0:
244,196,82894,1,8,0:0:0:0:
244,196,83512,1,0,0:0:0:0:
216,52,84131,1,8,0:0:0:0:
86,283,84749,2,0,P|150:138|146:288,1,420
192,100,85986,1,4,0:0:0:0:
200,192,88461,1,0,0:0:0:0:
200,188,89698,1,12,0:0:0:0:
200,188,90162,1,12,0:0:0:0:
216,160,90935,1,4,0:0:0:0:
172,152,91553,1,0,0:0:0:0:
172,152,92172,1,0,0:0:0:0:
180,156,93409,1,0,0:0:0:0:
180,156,93718,1,0,0:0:0:0:
180,156,94028,1,8,0:0:0:0:
179,148,94337,1,8,0:0:0:0:
180,156,94646,1,0,0:0:0:0:
256,192,95883,12,0,97739,0:0:0:0:
244,148,98357,5,4,0:0:0:0:
244,148,98976,1,8,0:0:0:0:
244,148,99595,1,0,0:0:0:0:
152,144,99904,1,0,0:0:0:0:
316,148,100213,1,8,0:0:0:0:
316,148,100832,1,0,0:0:0:0:
316,152,101450,1,8,0:0:0:0:
316,152,102069,1,0,0:0:0:0:
308,156,103306,1,8,0:0:0:0:
308,156,103924,1,8,0:0:0:0:
308,156,104543,1,4,0:0:0:0:
212,132,105007,1,12,0:0:0:0:
308,156,105780,1,4,0:0:0:0:
308,156,106399,1,0,0:0:0:0:
308,156,107017,1,8,0:0:0:0:
308,156,108254,1,0,0:0:0:0:
308,156,108873,1,0,0:0:0:0:
308,156,109491,1,8,0:0:0:0:
184,128,109801,1,8,0:0:0:0:
192,132,110110,1,8,0:0:0:0:
192,132,110729,1,0,0:0:0:0:
176,120,111347,1,0,0:0:0:0:
176,120,111966,1,0,0:0:0:0:
176,120,112275,1,8,0:0:0:0:
120,164,112584,1,0,0:0:0:0:
172,160,113203,1,12,0:0:0:0:
176,156,113667,1,12,0:0:0:0:
112,160,114440,1,4,0:0:0:0:
176,156,114904,1,4,0:0:0:0:
128,160,115368,1,12,0:0:0:0:
