osu file format v14

[General]
AudioFilename: audio.mp3
AudioLeadIn: 0
PreviewTime: 95883
Countdown: 0
SampleSet: Normal
StackLeniency: 0.7
Mode: 1
LetterboxInBreaks: 0
WidescreenStoryboard: 1

[Editor]
Bookmarks: 626,10522,15471,17945,19182,20419,21347,21656,25368,25677,25909,26141,26296,26450,26605,38976,40522,40832,41141,41450,46399,47017,47249,47481,47790,48022,48254,48486,48718,49028,49260,49491,49723,49955,50265,50497,50729,50961,51193,51347,61244,64955,65883,66193,84595,84749,85986,89698,89852,90162,90471,90935,93409,94028,94182,94337,94491,94646,95574,95883,98357,113048,113203,115368
DistanceSpacing: 2
BeatDivisor: 4
GridSize: 4
TimelineZoom: 1

[Metadata]
Title:Completeness Under Incompleteness
TitleUnicode:Completeness Under Incompleteness
Artist:Camellia as "Reverse of Riot"
ArtistUnicode:かめりあ as "Reverse of Riot"
Creator:404 AccNotFound
Version:YAZD
Source:SOUND VOLTEX III GRAVITY WARS
Tags:the 5th kac original song contest gravitational radar episode 18 sdvx konami bemani riot artcore yuzu__rinrin
BeatmapID:1676534
BeatmapSetID:722905

[Difficulty]
HPDrainRate:4.5
CircleSize:5
OverallDifficulty:6
ApproachRate:5
SliderMultiplier:1.4
SliderTickRate:1

[Events]
//Background and Video events
0,0,"66185078_p10_master1200.jpg",0,100
//Break Periods
//Storyboard Layer 0 (Background)
//Storyboard Layer 1 (Fail)
//Storyboard Layer 2 (Pass)
//Storyboard Layer 3 (Foreground)
//Storyboard Sound Samples

[TimingPoints]
626,309.278350515464,4,1,0,80,1,0
8976,-100,4,1,0,82,0,0
9285,-100,4,1,0,85,0,0
10522,-100,4,1,0,90,0,0
15471,-100,4,1,0,95,0,0
17945,-100,4,1,0,100,0,0
20419,-100,4,1,0,55,0,0
21347,-80,4,1,0,100,0,0
21656,-100,4,1,0,85,0,0
40368,-100,4,1,0,95,0,0
42533,-133.333333333333,4,1,0,80,0,0
46553,-142.857142857143,4,1,0,80,0,0
47790,-153.846153846154,4,1,0,80,0,0
49028,-166.666666666667,4,1,0,80,0,0
50265,-181.818181818182,4,1,0,80,0,0
50497,-172.413793103448,4,1,0,80,0,0
50729,-158.730158730159,4,1,0,80,0,0
50961,-144.927536231884,4,1,0,80,0,0
51193,-133.333333333333,4,1,0,80,0,0
51347,-125,4,1,0,80,0,0
56914,-125,4,1,0,85,0,0
58151,-117.647058823529,4,1,0,90,0,0
59388,-111.111111111111,4,1,0,95,0,0
60626,-105.263157894737,4,1,0,100,0,0
61244,-100,4,1,0,80,0,0
63718,-100,4,1,0,90,0,0
64955,-200,4,1,0,55,0,0
65883,-133.333333333333,4,1,0,100,0,0
66193,-100,4,1,0,100,0,1
85986,-100,4,1,0,80,0,0
89698,-83.3333333333333,4,1,0,100,0,0
90471,-100,4,1,0,100,0,0
90935,-100,4,1,0,90,0,0
93409,-100,4,1,0,95,0,0
94646,-100,4,1,0,55,0,0
95574,-133.333333333333,4,1,0,100,0,0
95883,-142.857142857143,4,1,0,80,0,0
97120,-142.857142857143,4,1,0,90,0,0
97739,-142.857142857143,4,1,0,95,0,0
98357,-100,4,1,0,100,0,1
115368,-100,4,1,0,100,0,0

[HitObjects]
288,232,626,5,4,0:0:0:0:
284,224,1863,1,8,0:0:0:0:
288,232,3100,1,0,0:0:0:0:
284,224,4337,1,8,0:0:0:0:
288,232,5574,1,0,0:0:0:0:
284,224,6811,1,8,0:0:0:0:
188,168,8048,1,0,0:0:0:0:
200,112,8976,1,0,0:0:0:0:
200,144,9028,1,0,0:0:0:0:
200,144,9079,1,0,0:0:0:0:
200,144,9131,1,0,0:0:0:0:
200,144,9182,1,0,0:0:0:0:
308,148,9285,1,8,0:0:0:0:
288,152,9440,1,0,0:0:0:0:
244,232,9517,1,8,0:0:0:0:
240,240,9595,1,0,0:0:0:0:
332,116,9749,1,8,0:0:0:0:
120,144,9827,1,8,0:0:0:0:
120,144,9904,1,0,0:0:0:0:
248,156,9981,1,8,0:0:0:0:
232,172,10058,1,0,0:0:0:0:
328,168,10213,1,8,0:0:0:0:
240,152,10522,1,4,0:0:0:0:
228,208,10832,1,0,0:0:0:0:
228,208,11141,1,0,0:0:0:0:
228,208,11450,1,0,0:0:0:0:
228,208,11760,1,0,0:0:0:0:
228,208,12069,1,0,0:0:0:0:
228,208,12378,1,0,0:0:0:0:
228,208,12687,1,0,0:0:0:0:
228,208,12997,1,8,0:0:0:0:
228,208,13306,1,8,0:0:0:0:
228,208,13615,1,8,0:0:0:0:
228,208,13924,1,8,0:0:0:0:
228,208,14234,1,8,0:0:0:0:
228,208,14543,1,8,0:0:0:0:
228,208,14852,1,8,0:0:0:0:
228,208,15162,1,8,0:0:0:0:
228,208,15471,1,0,0:0:0:0:
228,208,15626,1,0,0:0:0:0:
228,208,15780,1,0,0:0:0:0:
228,208,15935,1,0,0:0:0:0:
228,208,16089,1,0,0:0:0:0:
228,208,16244,1,0,0:0:0:0:
228,208,16399,1,0,0:0:0:0:
228,208,16553,1,0,0:0:0:0:
228,208,16708,1,0,0:0:0:0:
228,208,16863,1,0,0:0:0:0:
228,208,17017,1,0,0:0:0:0:
228,208,17172,1,0,0:0:0:0:
228,208,17327,1,0,0:0:0:0:
228,208,17481,1,0,0:0:0:0:
228,208,17636,1,0,0:0:0:0:
228,208,17790,1,0,0:0:0:0:
228,208,17945,1,0,0:0:0:0:
188,156,18022,1,0,0:0:0:0:
188,156,18100,1,0,0:0:0:0:
188,156,18177,1,0,0:0:0:0:
188,156,18254,1,8,0:0:0:0:
188,156,18332,1,8,0:0:0:0:
188,156,18409,1,8,0:0:0:0:
188,156,18486,1,8,0:0:0:0:
188,156,18564,1,0,0:0:0:0:
188,156,18641,1,0,0:0:0:0:
188,156,18718,1,8,0:0:0:0:
188,156,18796,1,0,0:0:0:0:
188,156,18873,1,8,0:0:0:0:
188,156,18950,1,8,0:0:0:0:
188,156,19028,1,8,0:0:0:0:
188,156,19105,1,8,0:0:0:0:
188,156,19182,1,0,0:0:0:0:
360,152,19234,1,0,0:0:0:0:
360,152,19285,1,0,0:0:0:0:
360,152,19337,1,8,0:0:0:0:
360,152,19388,1,8,0:0:0:0:
84,144,19440,1,0,0:0:0:0:
168,52,19491,5,8,0:0:0:0:
168,52,19569,1,8,0:0:0:0:
196,104,19646,1,0,0:0:0:0:
196,104,19723,1,8,0:0:0:0:
196,104,19801,1,0,0:0:0:0:
196,104,19878,1,0,0:0:0:0:
196,104,19955,1,8,0:0:0:0:
196,104,20033,1,0,0:0:0:0:
196,104,20110,1,8,0:0:0:0:
196,104,20187,1,8,0:0:0:0:
196,104,20265,1,8,0:0:0:0:
164,92,20342,1,8,0:0:0:0:
284,140,21347,1,8,0:0:0:0:
200,320,21656,1,4,0:0:0:0:
192,200,21966,1,8,0:0:0:0:
192,200,22430,1,0,0:0:0:0:
192,200,22584,1,8,0:0:0:0:
192,200,22894,1,0,0:0:0:0:
192,200,23203,1,8,0:0:0:0:
304,248,23357,1,0,0:0:0:0:
184,40,23435,1,0,0:0:0:0:
304,248,23512,1,8,0:0:0:0:
304,248,23667,1,0,0:0:0:0:
304,248,23821,1,8,0:0:0:0:
100,116,23976,1,8,0:0:0:0:
304,248,24131,1,0,0:0:0:0:
192,124,24440,1,8,0:0:0:0:
152,120,24903,1,0,0:0:0:0:
192,124,25058,1,8,0:0:0:0:
192,124,25368,1,0,0:0:0:0:
192,124,25677,1,8,0:0:0:0:
220,136,25909,1,0,0:0:0:0:
176,88,26141,1,0,0:0:0:0:
178,121,26296,1,8,0:0:0:0:
140,159,26373,1,0,0:0:0:0:
304,248,26605,1,0,0:0:0:0:
224,148,26914,1,8,0:0:0:0:
224,148,27378,1,0,0:0:0:0:
224,148,27533,1,8,0:0:0:0:
224,148,27842,1,0,0:0:0:0:
224,148,28151,1,8,0:0:0:0:
304,248,28306,1,0,0:0:0:0:
304,248,28383,1,0,0:0:0:0:
304,248,28461,1,8,0:0:0:0:
304,248,28615,1,0,0:0:0:0:
304,248,28770,1,8,0:0:0:0:
304,248,28924,1,8,0:0:0:0:
304,248,29079,1,0,0:0:0:0:
148,128,29285,1,0,0:0:0:0:
204,188,29491,1,8,0:0:0:0:
160,144,29852,1,0,0:0:0:0:
160,144,30007,1,8,0:0:0:0:
168,120,30162,1,0,0:0:0:0:
304,248,30239,1,8,0:0:0:0:
304,248,30316,1,0,0:0:0:0:
140,128,30522,1,8,0:0:0:0:
194,118,30626,1,0,0:0:0:0:
131,69,30780,1,8,0:0:0:0:
124,152,30935,1,0,0:0:0:0:
176,120,31141,1,8,0:0:0:0:
192,116,31244,1,8,0:0:0:0:
204,152,31347,1,8,0:0:0:0:
204,152,31450,1,8,0:0:0:0:
200,320,31553,1,4,0:0:0:0:
192,200,31863,1,8,0:0:0:0:
192,200,32327,1,0,0:0:0:0:
192,200,32481,1,8,0:0:0:0:
192,200,32791,1,0,0:0:0:0:
192,200,33100,1,8,0:0:0:0:
304,248,33254,1,0,0:0:0:0:
304,248,33332,1,0,0:0:0:0:
304,248,33409,1,8,0:0:0:0:
304,248,33564,1,0,0:0:0:0:
304,248,33718,1,8,0:0:0:0:
100,116,33873,1,8,0:0:0:0:
304,248,34028,1,0,0:0:0:0:
192,124,34337,1,8,0:0:0:0:
192,124,34801,1,0,0:0:0:0:
192,124,34955,1,8,0:0:0:0:
192,124,35265,1,0,0:0:0:0:
192,124,35574,5,8,0:0:0:0:
48,184,35729,1,0,0:0:0:0:
192,124,35806,1,0,0:0:0:0:
124,104,35883,1,8,0:0:0:0:
225,133,36115,1,0,0:0:0:0:
202,109,36347,1,0,0:0:0:0:
304,248,36502,1,8,0:0:0:0:
224,148,36811,1,8,0:0:0:0:
164,120,36966,1,0,0:0:0:0:
208,224,37275,1,0,0:0:0:0:
208,224,37430,1,8,0:0:0:0:
164,120,37584,1,0,0:0:0:0:
164,120,37662,1,0,0:0:0:0:
208,224,37739,1,8,0:0:0:0:
208,224,38048,1,8,0:0:0:0:
164,120,38203,1,0,0:0:0:0:
208,224,38512,1,0,0:0:0:0:
208,224,38667,1,8,0:0:0:0:
220,136,38821,1,0,0:0:0:0:
76,196,38899,1,8,0:0:0:0:
192,260,38976,5,0,0:0:0:0:
92,168,39131,1,0,0:0:0:0:
175,62,39208,1,0,0:0:0:0:
188,240,39285,1,8,0:0:0:0:
188,240,39363,1,8,0:0:0:0:
188,240,39440,1,0,0:0:0:0:
188,240,39517,1,8,0:0:0:0:
188,240,39672,1,0,0:0:0:0:
144,88,39749,1,8,0:0:0:0:
234,83,39827,1,0,0:0:0:0:
188,240,39904,1,8,0:0:0:0:
188,240,39981,1,8,0:0:0:0:
188,240,40058,1,0,0:0:0:0:
188,240,40213,1,8,0:0:0:0:
188,240,40368,1,0,0:0:0:0:
188,240,40445,1,0,0:0:0:0:
188,240,40522,1,8,0:0:0:0:
188,240,40600,1,8,0:0:0:0:
188,240,40677,1,0,0:0:0:0:
60,188,40754,1,8,0:0:0:0:
188,240,40832,1,0,0:0:0:0:
188,240,40909,1,0,0:0:0:0:
188,240,40986,1,8,0:0:0:0:
188,240,41064,1,0,0:0:0:0:
188,240,41141,1,8,0:0:0:0:
152,104,41218,1,8,0:0:0:0:
188,240,41296,1,0,0:0:0:0:
188,240,41450,1,12,0:0:0:0:
208,160,42533,1,8,0:0:0:0:
208,160,42842,1,8,0:0:0:0:
208,160,42997,1,8,0:0:0:0:
176,152,43615,1,0,0:0:0:0:
176,152,43693,1,0,0:0:0:0:
176,152,43770,1,0,0:0:0:0:
220,184,43924,1,8,0:0:0:0:
256,216,44079,1,8,0:0:0:0:
256,216,44388,1,0,0:0:0:0:
256,216,44698,1,0,0:0:0:0:
208,164,45007,1,8,0:0:0:0:
224,176,45316,1,0,0:0:0:0:
224,176,45471,1,0,0:0:0:0:
220,160,46089,1,0,0:0:0:0:
232,140,46244,1,8,0:0:0:0:
208,112,46553,1,8,0:0:0:0:
100,232,46785,1,0,0:0:0:0:
196,152,47017,1,8,0:0:0:0:
220,164,47249,1,0,0:0:0:0:
220,164,47481,1,8,0:0:0:0:
160,168,47790,1,8,0:0:0:0:
160,184,48022,1,8,0:0:0:0:
188,180,48254,1,0,0:0:0:0:
220,172,48486,1,0,0:0:0:0:
220,172,48718,1,8,0:0:0:0:
220,200,49028,1,8,0:0:0:0:
192,188,49260,1,0,0:0:0:0:
196,152,49491,1,8,0:0:0:0:
192,188,49723,1,0,0:0:0:0:
192,188,49955,1,8,0:0:0:0:
196,152,50265,1,0,0:0:0:0:
116,148,50497,1,0,0:0:0:0:
188,180,50729,1,0,0:0:0:0:
188,180,50961,1,8,0:0:0:0:
188,180,51193,1,8,0:0:0:0:
220,184,51347,5,4,0:0:0:0:
160,148,52430,1,8,0:0:0:0:
180,136,52739,1,8,0:0:0:0:
160,148,52894,1,8,0:0:0:0:
216,120,53512,1,0,0:0:0:0:
216,120,53589,1,0,0:0:0:0:
216,120,53667,1,0,0:0:0:0:
216,184,53821,1,8,0:0:0:0:
252,188,53976,1,8,0:0:0:0:
252,188,54285,1,0,0:0:0:0:
252,188,54595,1,0,0:0:0:0:
216,184,54904,1,8,0:0:0:0:
120,144,55213,1,0,0:0:0:0:
120,144,55368,1,0,0:0:0:0:
120,144,55986,1,0,0:0:0:0:
120,144,56141,1,8,0:0:0:0:
117,153,56296,1,0,0:0:0:0:
164,104,56914,1,8,0:0:0:0:
164,104,57069,1,0,0:0:0:0:
164,104,57223,1,8,0:0:0:0:
164,104,57378,1,8,0:0:0:0:
216,184,57533,1,0,0:0:0:0:
184,92,58151,1,8,0:0:0:0:
184,96,58306,1,0,0:0:0:0:
184,92,58461,1,0,0:0:0:0:
184,92,58615,1,8,0:0:0:0:
216,184,58770,1,0,0:0:0:0:
184,92,59388,1,8,0:0:0:0:
184,92,59543,1,0,0:0:0:0:
184,92,59698,1,8,0:0:0:0:
184,92,59852,1,8,0:0:0:0:
216,184,60007,1,0,0:0:0:0:
376,152,60626,1,8,0:0:0:0:
256,192,61244,12,0,64646,0:0:0:0:
180,153,64955,5,4,0:0:0:0:
272,196,65883,5,8,0:0:0:0:
272,196,66193,1,12,0:0:0:0:
280,196,66347,1,0,0:0:0:0:
280,196,66424,1,0,0:0:0:0:
280,196,66502,1,8,0:0:0:0:
280,196,66579,1,0,0:0:0:0:
280,196,66656,1,8,0:0:0:0:
284,196,66811,1,0,0:0:0:0:
284,196,66888,1,0,0:0:0:0:
284,196,66966,1,8,0:0:0:0:
284,196,67043,1,8,0:0:0:0:
284,196,67120,1,0,0:0:0:0:
284,196,67198,1,0,0:0:0:0:
280,196,67275,1,8,0:0:0:0:
280,196,67352,1,0,0:0:0:0:
280,196,67430,1,8,0:0:0:0:
300,200,67468,1,8,0:0:0:0:
232,140,67584,1,0,0:0:0:0:
52,152,67622,1,0,0:0:0:0:
300,200,67738,1,8,0:0:0:0:
300,200,67777,1,8,0:0:0:0:
300,200,67893,1,8,0:0:0:0:
288,204,67932,1,8,0:0:0:0:
216,132,68048,1,0,0:0:0:0:
224,196,68203,1,8,0:0:0:0:
148,128,68280,1,0,0:0:0:0:
224,196,68357,1,8,0:0:0:0:
224,196,68512,1,8,0:0:0:0:
224,196,68667,1,0,0:0:0:0:
224,196,68821,1,8,0:0:0:0:
224,196,68899,1,0,0:0:0:0:
224,196,68976,1,8,0:0:0:0:
224,196,69053,1,8,0:0:0:0:
224,196,69131,1,0,0:0:0:0:
224,196,69208,1,0,0:0:0:0:
224,196,69285,1,8,0:0:0:0:
224,196,69363,1,8,0:0:0:0:
224,196,69440,1,0,0:0:0:0:
224,196,69517,1,8,0:0:0:0:
224,196,69595,1,0,0:0:0:0:
224,196,69672,1,0,0:0:0:0:
224,196,69749,1,8,0:0:0:0:
224,196,69827,1,0,0:0:0:0:
224,196,69904,1,8,0:0:0:0:
224,196,69981,1,8,0:0:0:0:
224,196,70058,1,8,0:0:0:0:
128,132,70136,1,8,0:0:0:0:
196,116,70213,1,0,0:0:0:0:
196,116,70290,1,0,0:0:0:0:
196,116,70368,1,0,0:0:0:0:
368,184,70445,1,8,0:0:0:0:
368,184,70522,1,0,0:0:0:0:
304,176,70600,1,0,0:0:0:0:
296,96,70677,1,8,0:0:0:0:
100,176,70754,1,8,0:0:0:0:
100,176,70832,1,0,0:0:0:0:
100,176,70909,1,0,0:0:0:0:
100,176,70986,1,8,0:0:0:0:
100,176,71064,1,8,0:0:0:0:
224,196,71141,1,0,0:0:0:0:
160,160,71296,1,0,0:0:0:0:
160,160,71373,1,0,0:0:0:0:
160,160,71450,1,8,0:0:0:0:
160,160,71528,1,0,0:0:0:0:
160,160,71605,1,8,0:0:0:0:
160,160,71760,1,0,0:0:0:0:
160,160,71837,1,0,0:0:0:0:
160,160,71914,1,8,0:0:0:0:
160,160,71991,1,8,0:0:0:0:
160,160,72069,1,0,0:0:0:0:
160,160,72146,1,0,0:0:0:0:
160,160,72223,1,8,0:0:0:0:
160,160,72301,1,0,0:0:0:0:
160,160,72378,1,8,0:0:0:0:
160,160,72533,1,0,0:0:0:0:
112,136,72610,1,0,0:0:0:0:
160,160,72687,1,8,0:0:0:0:
160,160,72842,1,8,0:0:0:0:
196,124,72997,1,0,0:0:0:0:
160,160,73151,1,8,0:0:0:0:
196,124,73229,1,0,0:0:0:0:
160,160,73306,1,8,0:0:0:0:
160,160,73461,1,0,0:0:0:0:
160,160,73615,1,8,0:0:0:0:
80,256,73770,1,0,0:0:0:0:
84,232,73847,1,8,0:0:0:0:
96,208,73924,1,8,0:0:0:0:
104,196,74002,1,0,0:0:0:0:
120,172,74079,1,0,0:0:0:0:
128,168,74156,1,8,0:0:0:0:
140,152,74234,1,0,0:0:0:0:
152,148,74311,1,0,0:0:0:0:
168,144,74388,1,8,0:0:0:0:
192,144,74466,1,0,0:0:0:0:
212,152,74543,1,8,0:0:0:0:
228,160,74620,1,8,0:0:0:0:
248,176,74698,1,0,0:0:0:0:
264,188,74775,1,0,0:0:0:0:
268,224,74852,1,8,0:0:0:0:
260,248,74930,1,8,0:0:0:0:
248,268,75007,1,0,0:0:0:0:
248,296,75084,1,8,0:0:0:0:
272,304,75162,1,0,0:0:0:0:
344,296,75239,1,0,0:0:0:0:
356,284,75316,1,8,0:0:0:0:
364,272,75394,1,0,0:0:0:0:
376,256,75471,1,8,0:0:0:0:
392,240,75548,1,8,0:0:0:0:
388,208,75626,1,0,0:0:0:0:
376,192,75703,1,0,0:0:0:0:
360,176,75780,1,8,0:0:0:0:
320,152,75857,1,8,0:0:0:0:
276,144,75935,1,0,0:0:0:0:
160,160,76089,1,12,0:0:0:0:
336,204,76244,1,0,0:0:0:0:
336,204,76321,1,0,0:0:0:0:
336,204,76399,1,8,0:0:0:0:
336,204,76476,1,0,0:0:0:0:
336,204,76553,1,8,0:0:0:0:
336,204,76708,1,0,0:0:0:0:
336,204,76785,1,0,0:0:0:0:
336,204,76863,1,8,0:0:0:0:
336,204,76940,1,8,0:0:0:0:
336,204,77017,1,0,0:0:0:0:
336,204,77172,1,8,0:0:0:0:
336,204,77249,1,0,0:0:0:0:
336,204,77327,1,8,0:0:0:0:
80,140,77365,1,8,0:0:0:0:
312,224,77481,1,0,0:0:0:0:
80,140,77520,1,0,0:0:0:0:
312,224,77636,1,8,0:0:0:0:
80,140,77674,1,8,0:0:0:0:
312,224,77790,1,8,0:0:0:0:
80,140,77829,1,8,0:0:0:0:
312,224,77945,1,0,0:0:0:0:
312,224,78100,1,8,0:0:0:0:
224,136,78177,1,0,0:0:0:0:
312,224,78255,1,8,0:0:0:0:
312,224,78409,1,8,0:0:0:0:
176,192,78564,1,0,0:0:0:0:
176,192,78718,1,0,0:0:0:0:
184,204,78796,1,8,0:0:0:0:
184,204,78873,1,8,0:0:0:0:
184,232,78950,1,8,0:0:0:0:
180,220,79028,1,0,0:0:0:0:
200,228,79105,1,0,0:0:0:0:
216,228,79182,1,8,0:0:0:0:
232,208,79260,1,8,0:0:0:0:
224,288,79337,1,0,0:0:0:0:
240,200,79414,1,8,0:0:0:0:
232,180,79491,1,0,0:0:0:0:
200,172,79569,1,0,0:0:0:0:
168,196,79646,1,8,0:0:0:0:
168,212,79723,1,0,0:0:0:0:
176,224,79801,1,8,0:0:0:0:
216,236,79878,1,8,0:0:0:0:
244,216,79955,1,0,0:0:0:0:
252,192,80033,1,8,0:0:0:0:
240,172,80110,1,0,0:0:0:0:
208,164,80187,1,0,0:0:0:0:
148,184,80265,1,8,0:0:0:0:
192,232,80342,1,0,0:0:0:0:
96,188,80419,1,8,0:0:0:0:
216,232,80497,1,8,0:0:0:0:
236,212,80574,1,0,0:0:0:0:
216,172,80651,1,8,0:0:0:0:
88,152,80729,1,8,0:0:0:0:
168,180,80806,1,0,0:0:0:0:
156,216,80883,1,0,0:0:0:0:
168,240,80961,1,8,0:0:0:0:
184,204,81038,1,0,0:0:0:0:
180,232,81193,1,0,0:0:0:0:
180,236,81270,1,0,0:0:0:0:
180,232,81347,1,8,0:0:0:0:
180,232,81424,1,0,0:0:0:0:
180,232,81502,1,8,0:0:0:0:
184,232,81656,1,0,0:0:0:0:
184,232,81734,1,0,0:0:0:0:
184,232,81811,1,0,0:0:0:0:
184,232,81888,1,8,0:0:0:0:
184,232,81966,1,0,0:0:0:0:
180,232,82043,1,0,0:0:0:0:
180,232,82120,1,8,0:0:0:0:
180,232,82198,1,8,0:0:0:0:
180,236,82275,1,8,0:0:0:0:
180,232,82430,1,0,0:0:0:0:
160,88,82507,1,0,0:0:0:0:
184,232,82584,1,8,0:0:0:0:
184,232,82739,1,8,0:0:0:0:
168,88,82894,1,0,0:0:0:0:
180,232,83048,1,8,0:0:0:0:
172,68,83126,1,0,0:0:0:0:
180,232,83203,1,8,0:0:0:0:
180,232,83357,1,8,0:0:0:0:
184,228,83512,1,0,0:0:0:0:
184,224,83667,1,0,0:0:0:0:
184,224,83821,1,8,0:0:0:0:
184,232,83976,1,0,0:0:0:0:
184,232,84053,1,8,0:0:0:0:
184,232,84208,1,8,0:0:0:0:
184,232,84285,1,0,0:0:0:0:
184,228,84440,1,8,0:0:0:0:
320,168,84595,1,8,0:0:0:0:
320,168,84646,1,8,0:0:0:0:
320,168,84698,1,8,0:0:0:0:
320,168,84749,1,0,0:0:0:0:
204,176,84904,1,0,0:0:0:0:
204,176,84981,1,0,0:0:0:0:
264,132,85058,1,8,0:0:0:0:
264,132,85110,1,8,0:0:0:0:
264,132,85162,1,0,0:0:0:0:
264,132,85213,1,0,0:0:0:0:
404,60,85290,1,0,0:0:0:0:
216,216,85368,1,8,0:0:0:0:
216,220,85419,1,0,0:0:0:0:
216,220,85471,1,0,0:0:0:0:
236,164,85522,1,8,0:0:0:0:
224,184,85600,1,0,0:0:0:0:
204,176,85677,1,8,0:0:0:0:
204,176,85729,1,8,0:0:0:0:
204,176,85780,1,8,0:0:0:0:
204,176,85832,1,0,0:0:0:0:
280,184,85909,1,8,0:0:0:0:
264,208,85986,1,4,0:0:0:0:
288,200,86296,1,0,0:0:0:0:
288,200,86605,1,0,0:0:0:0:
288,200,86914,1,8,0:0:0:0:
288,200,87223,1,0,0:0:0:0:
288,200,87533,1,0,0:0:0:0:
288,200,87842,1,8,0:0:0:0:
288,200,88151,1,8,0:0:0:0:
288,200,88461,1,0,0:0:0:0:
124,176,88770,1,0,0:0:0:0:
124,176,89079,1,0,0:0:0:0:
124,176,89388,1,0,0:0:0:0:
124,176,89698,1,4,0:0:0:0:
124,176,89852,1,12,0:0:0:0:
124,176,90162,1,4,0:0:0:0:
124,176,90471,1,8,0:0:0:0:
120,104,90548,1,8,0:0:0:0:
120,104,90626,1,8,0:0:0:0:
120,104,90703,1,0,0:0:0:0:
120,104,90780,1,0,0:0:0:0:
116,96,90857,1,0,0:0:0:0:
124,176,90935,1,12,0:0:0:0:
156,120,91089,1,0,0:0:0:0:
156,120,91167,1,8,0:0:0:0:
156,120,91244,1,8,0:0:0:0:
156,120,91321,1,8,0:0:0:0:
156,120,91399,1,0,0:0:0:0:
156,120,91553,1,8,0:0:0:0:
156,120,91631,1,8,0:0:0:0:
156,120,91708,1,0,0:0:0:0:
156,120,91785,1,0,0:0:0:0:
156,120,91863,1,0,0:0:0:0:
156,120,92017,1,8,0:0:0:0:
156,120,92172,1,0,0:0:0:0:
156,120,92327,5,0,0:0:0:0:
156,120,92404,1,0,0:0:0:0:
156,120,92481,1,8,0:0:0:0:
156,120,92636,1,0,0:0:0:0:
156,120,92790,1,8,0:0:0:0:
156,120,92945,1,0,0:0:0:0:
156,120,93022,1,8,0:0:0:0:
156,120,93177,1,8,0:0:0:0:
156,120,93254,1,0,0:0:0:0:
168,140,93409,5,0,0:0:0:0:
152,116,93486,1,0,0:0:0:0:
152,116,93564,1,0,0:0:0:0:
152,116,93641,1,0,0:0:0:0:
152,116,93718,1,8,0:0:0:0:
152,116,93796,1,8,0:0:0:0:
152,116,93873,1,0,0:0:0:0:
152,116,93950,1,8,0:0:0:0:
192,140,94028,5,0,0:0:0:0:
192,140,94105,1,0,0:0:0:0:
412,136,94182,1,8,0:0:0:0:
384,184,94234,1,0,0:0:0:0:
384,184,94285,1,0,0:0:0:0:
384,184,94337,1,8,0:0:0:0:
396,120,94414,1,0,0:0:0:0:
384,184,94491,1,8,0:0:0:0:
384,184,94543,1,8,0:0:0:0:
384,184,94595,1,8,0:0:0:0:
384,184,94646,1,0,0:0:0:0:
176,128,95574,1,8,0:0:0:0:
256,192,95883,12,0,97739,0:0:0:0:
148,128,98357,5,4,0:0:0:0:
144,172,98512,1,0,0:0:0:0:
148,172,98589,1,8,0:0:0:0:
148,168,98667,1,8,0:0:0:0:
148,168,98744,1,8,0:0:0:0:
148,168,98821,1,0,0:0:0:0:
136,164,98976,1,8,0:0:0:0:
140,160,99053,1,8,0:0:0:0:
140,160,99131,1,0,0:0:0:0:
140,160,99208,1,0,0:0:0:0:
140,160,99285,1,0,0:0:0:0:
140,160,99440,1,8,0:0:0:0:
140,160,99595,1,0,0:0:0:0:
140,160,99749,1,0,0:0:0:0:
140,160,99827,1,0,0:0:0:0:
136,164,99904,1,8,0:0:0:0:
140,160,100058,1,0,0:0:0:0:
140,160,100213,1,8,0:0:0:0:
140,160,100368,1,0,0:0:0:0:
140,160,100445,1,8,0:0:0:0:
140,160,100600,1,8,0:0:0:0:
140,160,100677,1,0,0:0:0:0:
140,160,100832,1,8,0:0:0:0:
220,228,100986,1,0,0:0:0:0:
220,228,101064,1,0,0:0:0:0:
220,228,101141,1,8,0:0:0:0:
144,68,101296,1,0,0:0:0:0:
344,108,101373,1,0,0:0:0:0:
176,184,101450,1,0,0:0:0:0:
344,108,101605,1,8,0:0:0:0:
180,84,101760,1,0,0:0:0:0:
344,108,101837,1,8,0:0:0:0:
208,256,101991,1,8,0:0:0:0:
136,136,102069,1,0,0:0:0:0:
168,120,102223,1,0,0:0:0:0:
116,128,102301,1,0,0:0:0:0:
168,120,102378,1,8,0:0:0:0:
168,120,102533,1,8,0:0:0:0:
100,160,102687,1,0,0:0:0:0:
168,120,102842,1,8,0:0:0:0:
168,120,102919,1,0,0:0:0:0:
168,120,102997,1,8,0:0:0:0:
168,120,103074,1,8,0:0:0:0:
168,120,103151,1,0,0:0:0:0:
168,120,103229,1,8,0:0:0:0:
168,120,103306,1,0,0:0:0:0:
160,116,103461,1,0,0:0:0:0:
164,116,103538,1,0,0:0:0:0:
164,116,103615,1,8,0:0:0:0:
164,116,103693,1,0,0:0:0:0:
164,116,103770,1,8,0:0:0:0:
164,116,103924,1,0,0:0:0:0:
164,116,104079,1,8,0:0:0:0:
168,120,104156,1,8,0:0:0:0:
168,120,104234,1,8,0:0:0:0:
168,120,104311,1,8,0:0:0:0:
164,120,104388,1,8,0:0:0:0:
164,164,104543,1,4,0:0:0:0:
164,164,104775,1,12,0:0:0:0:
164,164,105007,1,12,0:0:0:0:
164,164,105239,1,4,0:0:0:0:
164,164,105471,1,4,0:0:0:0:
164,164,105626,1,12,0:0:0:0:
164,164,105780,1,4,0:0:0:0:
192,140,105935,1,0,0:0:0:0:
216,144,106012,1,0,0:0:0:0:
192,140,106089,1,8,0:0:0:0:
192,140,106244,1,8,0:0:0:0:
208,128,106321,1,0,0:0:0:0:
152,112,106399,1,8,0:0:0:0:
96,172,106476,1,8,0:0:0:0:
192,140,106553,1,0,0:0:0:0:
96,172,106708,1,0,0:0:0:0:
192,140,106863,1,8,0:0:0:0:
188,152,107017,1,0,0:0:0:0:
112,184,107172,1,8,0:0:0:0:
208,148,107249,1,0,0:0:0:0:
112,184,107327,1,8,0:0:0:0:
140,160,107481,1,0,0:0:0:0:
140,160,107636,1,8,0:0:0:0:
140,152,107790,1,0,0:0:0:0:
140,152,107868,1,0,0:0:0:0:
140,152,108022,1,0,0:0:0:0:
140,152,108100,1,8,0:0:0:0:
140,152,108254,1,0,0:0:0:0:
184,156,108409,1,8,0:0:0:0:
184,156,108486,1,8,0:0:0:0:
184,156,108564,1,8,0:0:0:0:
184,156,108641,1,8,0:0:0:0:
184,156,108718,1,0,0:0:0:0:
184,156,108873,1,8,0:0:0:0:
184,156,108950,1,8,0:0:0:0:
184,156,109028,1,0,0:0:0:0:
184,156,109105,1,8,0:0:0:0:
184,156,109182,1,0,0:0:0:0:
184,156,109337,1,8,0:0:0:0:
176,160,109491,1,0,0:0:0:0:
176,160,109646,1,8,0:0:0:0:
176,160,109723,1,0,0:0:0:0:
176,160,109801,1,8,0:0:0:0:
176,160,109955,1,0,0:0:0:0:
176,160,110110,1,12,0:0:0:0:
176,160,110342,1,12,0:0:0:0:
176,160,110574,1,12,0:0:0:0:
176,160,110729,1,4,0:0:0:0:
188,112,110883,1,8,0:0:0:0:
184,96,110961,1,8,0:0:0:0:
160,136,111038,1,8,0:0:0:0:
160,136,111193,1,0,0:0:0:0:
312,120,111244,1,0,0:0:0:0:
320,112,111296,1,0,0:0:0:0:
320,112,111347,1,8,0:0:0:0:
328,116,111502,1,0,0:0:0:0:
168,96,111579,1,8,0:0:0:0:
328,116,111734,1,8,0:0:0:0:
328,116,111811,1,0,0:0:0:0:
328,116,111966,1,0,0:0:0:0:
324,128,112120,1,0,0:0:0:0:
168,96,112198,1,0,0:0:0:0:
324,128,112275,1,8,0:0:0:0:
156,96,112352,1,8,0:0:0:0:
156,96,112430,1,0,0:0:0:0:
324,128,112507,1,8,0:0:0:0:
324,128,112584,1,0,0:0:0:0:
172,80,112662,1,0,0:0:0:0:
324,128,112739,1,8,0:0:0:0:
324,128,112816,1,0,0:0:0:0:
324,128,112894,1,8,0:0:0:0:
172,80,112971,1,8,0:0:0:0:
172,80,113048,1,0,0:0:0:0:
332,116,113100,1,0,0:0:0:0:
332,116,113151,1,0,0:0:0:0:
324,128,113203,1,8,0:0:0:0:
240,104,113357,1,0,0:0:0:0:
284,180,113435,1,8,0:0:0:0:
104,120,113512,1,0,0:0:0:0:
284,180,113589,1,0,0:0:0:0:
284,180,113667,1,8,0:0:0:0:
284,180,113744,1,0,0:0:0:0:
72,144,113821,1,8,0:0:0:0:
284,180,113899,1,8,0:0:0:0:
72,136,113976,1,0,0:0:0:0:
284,180,114053,1,8,0:0:0:0:
124,252,114131,1,0,0:0:0:0:
132,244,114182,1,0,0:0:0:0:
132,244,114234,1,8,0:0:0:0:
128,240,114285,1,8,0:0:0:0:
104,212,114337,1,0,0:0:0:0:
360,136,114440,1,8,0:0:0:0:
324,184,114595,1,0,0:0:0:0:
88,128,114672,1,8,0:0:0:0:
220,136,114749,1,0,0:0:0:0:
144,132,114827,1,0,0:0:0:0:
248,140,114904,1,8,0:0:0:0:
208,232,114981,1,8,0:0:0:0:
144,132,115136,1,8,0:0:0:0:
176,72,115213,1,0,0:0:0:0:
248,140,115368,1,12,0:0:0:0:
