osu file format v14

[General]
AudioFilename: audio.mp3
AudioLeadIn: 0
PreviewTime: 60554
Countdown: 0
SampleSet: Normal
StackLeniency: 0.5
Mode: 0
LetterboxInBreaks: 0
WidescreenStoryboard: 1

[Editor]
DistanceSpacing: 0.8
BeatDivisor: 8
GridSize: 4
TimelineZoom: 4.599998

[Metadata]
Title:Blastix Riotz
TitleUnicode:Blastix Riotz
Artist:Camellia as "Bang Riot"
ArtistUnicode:かめりあ as "Bang Riot"
Creator:RevengeZ
Version:Revenge
Source:SOUND VOLTEX III GRAVITY WARS
Tags:
BeatmapID:1738562
BeatmapSetID:829847

[Difficulty]
HPDrainRate:2
CircleSize:4
OverallDifficulty:7
ApproachRate:9.8
SliderMultiplier:2
SliderTickRate:1

[Events]
//Background and Video events
0,0,"wallhaven-488359.jpg",0,0
//Break Periods
2,61404,67263
//Storyboard Layer 0 (Background)
//Storyboard Layer 1 (Fail)
//Storyboard Layer 2 (Pass)
//Storyboard Layer 3 (Foreground)
//Storyboard Sound Samples

[TimingPoints]
584,234.375,4,1,1,100,1,0
584,-100,4,2,1,70,0,0
1169,-100,4,1,1,80,0,0
2459,-100,4,2,1,70,0,0
3044,-100,4,1,1,80,0,0
4334,-100,4,2,1,70,0,0
4919,-100,4,1,1,80,0,0
6209,-100,4,2,1,70,0,0
8084,-66.6666666666667,4,2,1,70,0,0
11365,-111.111111111111,4,1,1,80,0,0
11834,-66.6666666666667,4,2,1,80,0,0
14646,-133.333333333333,4,2,1,80,0,0
15584,-100,4,2,1,80,0,0
16521,-83.3333333333333,4,1,1,80,0,0
25310,-100,4,1,1,80,0,0
25896,-83.3333333333333,4,1,1,80,0,0
26834,-100,4,1,1,80,0,0
28005,-83.3333333333333,4,1,1,80,0,0
28357,-76.9230769230769,4,1,1,80,0,0
28826,-71.4285714285714,4,1,1,80,0,0
29294,-66.6666666666667,4,1,1,80,0,0
29646,-100,4,1,1,80,0,0
31521,-83.3333333333333,4,1,1,100,0,0
39021,-76.9230769230769,4,1,1,100,0,0
40427,-100,4,1,1,100,0,0
40457,-100,4,1,1,5,0,0
40486,-100,4,1,1,100,0,0
40515,-100,4,1,1,5,0,0
40544,-100,4,1,1,100,0,0
40574,-100,4,1,1,5,0,0
40603,-100,4,1,1,100,0,0
40632,-100,4,1,1,5,0,0
40662,-133.333333333333,4,1,1,100,0,0
40896,-76.9230769230769,4,1,1,100,0,0
42302,-133.333333333333,4,1,1,100,0,0
42771,-76.9230769230769,4,1,1,100,0,0
43709,-100,4,1,1,100,0,0
44646,-66.6666666666667,4,2,1,100,0,0
46521,-100,4,2,1,100,0,0
59646,-90.9090909090909,4,2,1,100,0,0
60584,-133.333333333333,4,2,1,100,0,0
75584,-100,4,2,1,100,0,0
81677,-66.6666666666667,4,2,1,65,0,0
83084,-66.6666666666667,4,2,1,65,0,0
83787,-133.333333333333,4,2,1,65,0,0
84021,-66.6666666666667,4,2,1,65,0,0
84724,-133.333333333333,4,2,1,65,0,0
84959,-66.6666666666667,4,2,1,65,0,0
85662,-133.333333333333,4,2,1,65,0,0
85896,-66.6666666666667,4,2,1,65,0,0
86599,-133.333333333333,4,2,1,65,0,0
86834,-142.857142857143,4,2,1,65,0,0
87302,-125,4,2,1,65,0,0
87771,-111.111111111111,4,2,1,65,0,0
88240,-100,4,2,1,65,0,0
88709,-66.6666666666667,4,2,1,65,0,0
89646,-111.111111111111,4,1,1,100,0,0
90056,-100,4,2,1,100,0,0
91521,-76.9230769230769,4,2,1,100,0,0
107927,-76.9230769230769,4,2,1,100,0,0
108396,-66.6666666666667,4,2,1,100,0,0
115662,-100,4,1,1,5,0,0
115896,-100,4,2,1,100,0,0
116482,-100,4,1,1,70,0,0
117771,-100,4,2,1,70,0,0
118240,-100,4,1,1,70,0,0
119646,-100,4,2,1,70,0,0
120232,-100,4,1,1,70,0,0
121521,-100,4,2,1,70,0,0
122224,-100,4,1,1,70,0,0
123162,-200,4,1,1,70,0,0
123396,-50,4,1,1,70,0,0
125271,-100,4,1,1,70,0,0

[Colours]
Combo1 : 0,0,160
Combo2 : 0,255,255
Combo3 : 0,128,255
Combo4 : 0,128,192
Combo5 : 0,64,128
Combo6 : 0,0,255

[HitObjects]
164,137,584,6,0,L|57:132,2,100,8|0|0,0:0|0:0|0:0,0:0:0:0:
244,211,935,2,0,L|351:216,2,100,8|0|0,0:0|0:0|0:0,0:0:0:0:
111,263,1287,5,0,0:0:0:0:
196,348,1404,1,0,0:0:0:0:
196,348,1462,1,0,0:0:0:0:
196,348,1521,1,0,0:0:0:0:
296,284,1638,5,0,0:0:0:0:
380,368,1755,1,0,0:0:0:0:
472,288,1873,1,0,0:0:0:0:
400,192,1990,1,4,0:0:0:0:
480,104,2107,1,4,0:0:0:0:
404,12,2224,1,4,0:0:0:0:
304,80,2341,1,4,0:0:0:0:
200,20,2459,6,0,B|120:32|120:32|92:56,2,100,8|0|0,0:0|0:0|0:0,0:0:0:0:
328,174,2810,2,0,B|316:94|316:94|292:66,2,100,8|0|0,0:0|0:0|0:0,0:0:0:0:
336,296,3162,5,0,0:0:0:0:
229,344,3279,1,0,0:0:0:0:
229,344,3337,1,0,0:0:0:0:
229,344,3396,1,0,0:0:0:0:
118,306,3513,5,0,0:0:0:0:
64,203,3630,1,0,0:0:0:0:
96,90,3747,1,0,0:0:0:0:
197,30,3864,1,4,0:0:0:0:
304,84,3982,1,0,0:0:0:0:
196,136,4099,1,4,0:0:0:0:
300,192,4216,1,0,0:0:0:0:
192,248,4334,6,0,P|144:272|88:256,2,100,8|0|0,0:0|0:0|0:0,0:0:0:0:
120,96,4685,2,0,P|144:144|128:200,2,100,8|0|0,0:0|0:0|0:0,0:0:0:0:
16,40,5037,5,0,0:0:0:0:
24,159,5154,1,0,0:0:0:0:
24,159,5212,1,0,0:0:0:0:
24,159,5271,1,0,0:0:0:0:
32,279,5388,5,0,0:0:0:0:
108,372,5505,1,0,0:0:0:0:
184,276,5623,1,0,0:0:0:0:
268,368,5740,1,4,0:0:0:0:
340,272,5857,1,4,0:0:0:0:
416,364,5974,1,4,0:0:0:0:
492,272,6091,1,4,0:0:0:0:
416,180,6209,6,0,B|388:128|388:128|404:84,2,100,8|0|0,0:0|0:0|0:0,0:0:0:0:
272,128,6560,2,0,B|300:180|300:180|284:224,2,100,8|0|0,0:0|0:0|0:0,0:0:0:0:
216,44,6912,2,0,B|164:28|164:28|116:40,1,100,0|0,0:0|0:0,0:0:0:0:
40,152,7146,5,4,0:0:0:0:
32,168,7205,1,0,0:0:0:0:
28,184,7263,2,0,P|28:224|44:248,1,50,0|0,0:0|0:0,0:0:0:0:
80,308,7380,5,4,0:0:0:0:
89,322,7439,1,0,0:0:0:0:
101,334,7497,2,0,P|135:354|164:352,1,50,0|0,0:0|0:0,0:0:0:0:
236,352,7615,5,4,0:0:0:0:
252,351,7674,1,0,0:0:0:0:
269,346,7732,2,0,P|303:326|316:300,1,50,0|0,0:0|0:0,0:0:0:0:
344,232,7849,6,0,P|343:192|327:168,3,50,4|0|0|0,0:0|0:0|0:0|0:0,0:0:0:0:
304,64,8084,6,0,B|292:96|292:96|292:116|292:116|284:140|284:140,1,75.0000028610231,0|0,0:0|0:0,0:0:0:0:
244,220,8201,2,0,B|256:188|256:188|256:168|256:168|264:144|264:144,1,75.0000028610231,0|0,0:0|0:0,0:0:0:0:
220,44,8318,6,0,B|208:76|208:76|208:96|208:96|200:120|200:120,1,75.0000028610231,0|0,0:0|0:0,0:0:0:0:
160,200,8435,2,0,B|172:168|172:168|172:148|172:148|180:124|180:124,1,75.0000028610231,0|0,0:0|0:0,0:0:0:0:
136,24,8552,6,0,B|124:56|124:56|124:76|124:76|116:100|116:100,1,75.0000028610231,0|0,0:0|0:0,0:0:0:0:
76,180,8669,2,0,B|88:148|88:148|88:128|88:128|96:104|96:104,1,75.0000028610231,0|0,0:0|0:0,0:0:0:0:
52,0,8787,6,0,B|45:15|45:15|45:25|45:25|42:37|42:37,6,37.5000014305115,8|0|0|0|0|0|0,0:0|0:0|0:0|0:0|0:0|0:0|0:0,0:0:0:0:
250,48,9021,6,0,B|218:60|218:60|198:60|198:60|174:68|174:68,1,75.0000028610231,0|0,0:0|0:0,0:0:0:0:
94,108,9138,2,0,B|126:96|126:96|146:96|146:96|170:88|170:88,1,75.0000028610231,0|0,0:0|0:0,0:0:0:0:
270,132,9255,6,0,B|238:144|238:144|218:144|218:144|194:152|194:152,1,75.0000028610231,0|0,0:0|0:0,0:0:0:0:
114,192,9372,2,0,B|146:180|146:180|166:180|166:180|190:172|190:172,1,75.0000028610231,0|0,0:0|0:0,0:0:0:0:
290,216,9489,6,0,B|258:228|258:228|238:227|238:227|214:236|214:236,1,75.0000028610231,0|0,0:0|0:0,0:0:0:0:
134,276,9606,2,0,B|166:264|166:264|186:264|186:264|210:256|210:256,1,75.0000028610231,0|0,0:0|0:0,0:0:0:0:
314,300,9724,6,0,B|298:306|298:306|288:306|288:306|276:310|276:310,6,37.5000014305115,8|0|0|0|0|0|0,0:0|0:0|0:0|0:0|0:0|0:0|0:0,0:0:0:0:
74,120,9959,6,0,B|86:152|86:152|86:172|86:172|94:196|94:196,1,75.0000028610231,0|0,0:0|0:0,0:0:0:0:
134,276,10076,2,0,B|122:244|122:244|122:224|122:224|114:200|114:200,1,75.0000028610231,0|0,0:0|0:0,0:0:0:0:
158,100,10193,6,0,B|170:132|170:132|170:152|170:152|178:176|178:176,1,75.0000028610231,0|0,0:0|0:0,0:0:0:0:
218,256,10310,2,0,B|206:224|206:224|206:204|206:204|198:180|198:180,1,75.0000028610231,0|0,0:0|0:0,0:0:0:0:
242,80,10427,6,0,B|254:112|254:112|253:132|253:132|262:156|262:156,1,75.0000028610231,0|0,0:0|0:0,0:0:0:0:
302,236,10544,2,0,B|290:204|290:204|290:184|290:184|282:160|282:160,1,75.0000028610231,0|0,0:0|0:0,0:0:0:0:
326,56,10662,6,0,B|332:72|332:72|332:82|332:82|336:94|336:94,6,37.5000014305115,8|0|0|0|0|0|0,0:0|0:0|0:0|0:0|0:0|0:0|0:0,0:0:0:0:
104,91,10896,6,0,B|136:103|136:103|156:103|156:103|180:111|180:111,1,75.0000028610231,0|0,0:0|0:0,0:0:0:0:
260,151,11013,2,0,B|228:139|228:139|208:139|208:139|184:131|184:131,1,75.0000028610231,0|0,0:0|0:0,0:0:0:0:
84,175,11130,6,0,B|116:187|116:187|136:187|136:187|160:195|160:195,1,75.0000028610231,0|0,0:0|0:0,0:0:0:0:
240,235,11247,2,0,B|208:223|208:223|188:223|188:223|164:215|164:215,1,75.0000028610231,0|0,0:0|0:0,0:0:0:0:
64,259,11365,5,4,0:0:0:0:
140,336,11482,1,0,0:0:0:0:
140,336,11541,1,4,0:0:0:0:
248,328,11658,1,0,0:0:0:0:
248,328,11716,1,4,0:0:0:0:
380,132,11834,6,0,B|380:164|380:164|388:184|388:184|388:208,1,75.0000028610231,0|0,0:0|0:0,0:0:0:0:
440,280,11951,2,0,B|408:280|408:280|388:288|388:288|364:288,1,75.0000028610231,0|0,0:0|0:0,0:0:0:0:
284,156,12068,6,0,B|284:188|284:188|292:208|292:208|292:232,1,75.0000028610231,0|0,0:0|0:0,0:0:0:0:
344,304,12185,2,0,B|312:304|312:304|292:312|292:312|268:312,1,75.0000028610231,0|0,0:0|0:0,0:0:0:0:
188,180,12302,6,0,B|188:212|188:212|196:232|196:232|196:256,1,75.0000028610231,0|0,0:0|0:0,0:0:0:0:
248,328,12419,2,0,B|216:328|216:328|196:336|196:336|172:336,1,75.0000028610231,0|0,0:0|0:0,0:0:0:0:
88,204,12537,6,0,B|88:220|88:220|92:230|92:230|92:241,6,37.5000014305115,8|0|0|0|0|0|0,0:0|0:0|0:0|0:0|0:0|0:0|0:0,0:0:0:0:
32,64,12771,6,0,B|64:64|64:64|84:56|84:56|108:56,1,75.0000028610231,0|0,0:0|0:0,0:0:0:0:
216,60,12888,2,0,B|184:60|184:60|164:52|164:52|140:52,1,75.0000028610231,0|0,0:0|0:0,0:0:0:0:
36,140,13005,6,0,B|68:140|68:140|88:132|88:132|112:132,1,75.0000028610231,0|0,0:0|0:0,0:0:0:0:
220,136,13122,2,0,B|188:136|188:136|168:128|168:128|144:128,1,75.0000028610231,0|0,0:0|0:0,0:0:0:0:
44,216,13240,6,0,B|76:216|76:216|96:208|96:208|120:208,1,75.0000028610231,0|0,0:0|0:0,0:0:0:0:
228,212,13357,2,0,B|196:212|196:212|176:204|176:204|154:204,1,75.0000028610231
52,292,13474,6,0,B|68:292|68:292|78:288|78:288|90:288,6,37.5000014305115,8|0|0|0|0|0|0,0:0|0:0|0:0|0:0|0:0|0:0|0:0,0:0:0:0:
126,352,13709,6,0,B|148:352|148:352|168:344|168:344|200:344,1,75.0000028610231,0|0,0:0|0:0,0:0:0:0:
154,204,13826,2,0,B|176:204|176:204|196:212|196:212|228:212,1,75.0000028610231,0|0,0:0|0:0,0:0:0:0:
230,340,13943,6,0,B|252:340|252:340|272:332|272:332|304:332,1,75.0000028610231,0|0,0:0|0:0,0:0:0:0:
258,216,14060,2,0,B|280:216|280:216|300:224|300:224|332:224,1,75.0000028610231,0|0,0:0|0:0,0:0:0:0:
334,328,14177,6,0,B|356:328|356:328|376:320|376:320|408:320,1,75.0000028610231,0|0,0:0|0:0,0:0:0:0:
362,228,14294,2,0,B|384:228|384:228|404:236|404:236|436:236,1,75.0000028610231,0|0,0:0|0:0,0:0:0:0:
484,316,14412,6,0,B|484:332|484:332|488:342|488:342|488:354,6,37.5000014305115,8|0|0|0|0|0|0,0:0|0:0|0:0|0:0|0:0|0:0|0:0,0:0:0:0:
384,42,14646,6,0,B|371:77|386:112|386:112|406:142|406:175|406:175|374:206|375:249|375:249|403:277|407:319,1,300.000011444092,8|0,0:0|0:0,0:0:0:0:
348,352,15173,6,0,L|312:360,1,37.5000014305115,0|0,0:0|0:0,0:0:0:0:
280,344,15291,2,0,L|244:336,1,37.5000014305115,0|0,0:0|0:0,0:0:0:0:
212,348,15408,2,0,L|176:356,1,37.5000014305115,0|0,0:0|0:0,0:0:0:0:
144,356,15525,1,0,0:0:0:0:
32,240,15584,6,0,B|36:256|36:256|124:268,1,100,8|0,0:0|0:0,0:0:0:0:
304,200,15818,2,0,B|300:216|300:216|212:228,1,100,8|0,0:0|0:0,0:0:0:0:
20,144,16052,2,0,B|24:160|24:160|112:172,1,100,8|0,0:0|0:0,0:0:0:0:
296,104,16287,2,0,B|292:120|292:120|204:132,1,100,8|0,0:0|0:0,0:0:0:0:
77,63,16521,5,8,0:0:0:0:
116,180,16638,1,8,0:0:0:0:
116,180,16697,1,8,0:0:0:0:
116,180,16755,1,8,0:0:0:0:
77,63,16873,5,8,0:0:0:0:
209,51,16990,1,8,0:0:0:0:
77,103,17107,5,8,0:0:0:0:
209,91,17224,1,8,0:0:0:0:
77,143,17341,5,8,0:0:0:0:
209,131,17459,1,8,0:0:0:0:
77,183,17576,5,8,0:0:0:0:
209,171,17693,1,8,0:0:0:0:
77,223,17810,5,8,0:0:0:0:
209,211,17927,1,8,0:0:0:0:
77,263,18044,5,8,0:0:0:0:
209,251,18161,1,8,0:0:0:0:
77,303,18279,6,0,L|141:299,2,59.9999981689454,8|0|8,0:0|0:0|0:0,0:0:0:0:
435,303,18513,6,0,L|371:299,4,59.9999981689454,8|0|8|0|8,0:0|0:0|0:0|0:0|0:0,0:0:0:0:
303,251,18865,5,8,0:0:0:0:
435,263,18982,1,8,0:0:0:0:
303,211,19099,5,8,0:0:0:0:
435,223,19216,1,8,0:0:0:0:
303,171,19333,5,8,0:0:0:0:
435,183,19450,1,8,0:0:0:0:
303,131,19568,5,8,0:0:0:0:
435,143,19685,2,0,L|372:136,4,59.9999981689454,8|8|8|0|8,0:0|0:0|0:0|0:0|0:0,0:0:0:0:
303,91,20037,5,8,0:0:0:0:
435,103,20154,2,0,L|372:96,2,59.9999981689454,8|0|8,0:0|0:0|0:0,0:0:0:0:
243,57,20388,2,0,L|306:50,4,59.9999981689454,8|0|8|0|8,0:0|0:0|0:0|0:0|0:0,0:0:0:0:
175,189,20740,5,8,0:0:0:0:
163,57,20857,1,8,0:0:0:0:
215,189,20974,5,8,0:0:0:0:
203,57,21091,1,8,0:0:0:0:
255,189,21208,5,8,0:0:0:0:
243,57,21325,1,8,0:0:0:0:
295,189,21443,5,8,0:0:0:0:
283,57,21560,1,8,0:0:0:0:
335,189,21677,5,8,0:0:0:0:
323,57,21794,1,8,0:0:0:0:
375,189,21912,2,0,L|378:220,8,29.9999990844727,10|0|0|0|0|0|0|0|0,0:0|0:0|0:0|0:0|0:0|0:0|0:0|0:0|0:0,0:0:0:0:
363,57,22263,2,0,L|360:26,8,29.9999990844727,10|0|0|0|0|0|0|0|0,0:0|0:0|0:0|0:0|0:0|0:0|0:0|0:0|0:0,0:0:0:0:
308,160,22615,5,0,0:0:0:0:
308,160,22673,1,0,0:0:0:0:
308,160,22732,1,0,0:0:0:0:
224,112,22849,5,0,0:0:0:0:
224,112,22908,1,0,0:0:0:0:
224,112,22966,1,0,0:0:0:0:
132,168,23084,5,0,0:0:0:0:
79,74,23201,1,0,0:0:0:0:
41,219,23318,1,0,0:0:0:0:
185,257,23494,1,0,0:0:0:0:
224,112,23669,1,0,0:0:0:0:
41,219,23904,6,0,P|41:251|57:275,1,59.9999981689454,0|0,0:0|0:0,0:0:0:0:
136,284,24021,2,0,P|60:268|120:348,1,239.999992675781,0|8,0:0|0:0,0:0:0:0:
224,300,24373,5,0,0:0:0:0:
312,352,24490,1,0,0:0:0:0:
392,292,24607,1,0,0:0:0:0:
488,344,24724,6,0,L|500:280,1,59.9999981689454,0|0,0:0|0:0,0:0:0:0:
480,260,24841,2,0,L|468:196,1,59.9999981689454,0|0,0:0|0:0,0:0:0:0:
488,172,24959,1,0,0:0:0:0:
392,56,25076,5,0,0:0:0:0:
362,59,25134,1,0,0:0:0:0:
332,63,25193,1,4,0:0:0:0:
200,140,25310,5,8,0:0:0:0:
229,136,25368,1,0,0:0:0:0:
259,132,25427,1,0,0:0:0:0:
347,209,25544,6,0,P|275:225|247:309,1,150,8|0,0:0|0:0,0:0:0:0:
321,282,25779,6,0,B|291:252|291:252|285:222|285:222|251:214|251:214|238:192|232:169|232:169|199:139,1,200,0|8,0:0|0:0,0:0:0:0:
176,116,26072,5,0,0:0:0:0:
176,116,26130,1,0,0:0:0:0:
132,200,26248,1,0,0:0:0:0:
60,140,26365,1,4,0:0:0:0:
60,140,26423,1,8,0:0:0:0:
60,140,26482,1,8,0:0:0:0:
8,220,26599,1,0,0:0:0:0:
84,288,26716,5,0,0:0:0:0:
96,300,26775,1,0,0:0:0:0:
108,312,26834,6,0,B|140:304|140:304|164:308|164:308|188:304|188:304|208:308,1,100,10|8,0:0|0:0,0:0:0:0:
384,288,27009,2,0,B|351:285|351:285|328:293|328:293|303:294|303:294|284:301,1,100,0|0,0:0|0:0,0:0:0:0:
108,288,27185,6,0,B|140:285|140:285|163:293|163:293|188:294|188:294|207:301,1,100,10|8,0:0|0:0,0:0:0:0:
384,310,27360,2,0,B|352:301|352:301|327:306|327:306|304:301|304:301|283:305,1,100,0|0,0:0|0:0,0:0:0:0:
205,307,27537,1,8,0:0:0:0:
367,141,27771,5,10,0:0:0:0:
243,57,27888,1,0,0:0:0:0:
243,57,27947,1,0,0:0:0:0:
243,57,28005,2,0,B|231:97|231:97|239:129|239:129|219:181|239:241,1,179.999994506836
311,189,28240,5,10,0:0:0:0:
311,189,28298,1,0,0:0:0:0:
311,189,28357,2,0,B|257:169|213:193|213:193|184:179|184:179|159:205|159:205|139:169|139:169|107:217|107:217|111:181|91:141,1,324.999985122681
32,204,28709,5,10,0:0:0:0:
32,204,28767,1,0,0:0:0:0:
32,204,28826,2,0,B|36:268|80:288|80:288|116:296|148:280|148:280|172:288|172:288|200:276|200:276|232:296|232:296|264:272|264:272|288:288|312:288,1,349.999989318848
384,312,29177,5,10,0:0:0:0:
384,312,29236,1,0,0:0:0:0:
384,312,29294,2,0,B|400:268|400:268|384:240|384:240|400:204|400:204|356:201|324:176|316:136|319:71|371:50|431:60|452:91,1,375.000014305115
401,135,29646,6,0,L|336:111,1,50,10|0,0:0|0:0,0:0:0:0:
238,64,29880,1,10,0:0:0:0:
59,125,29998,2,0,L|115:117,1,50,10|0,0:0|0:0,0:0:0:0:
232,100,30232,1,10,0:0:0:0:
392,152,30349,2,0,L|336:144,1,50,10|0,0:0|0:0,0:0:0:0:
224,136,30584,6,0,L|232:208,1,50,10|0,0:0|0:0,0:0:0:0:
196,160,30759,6,0,L|204:232,1,50,10|0,0:0|0:0,0:0:0:0:
281,309,30935,6,0,L|289:237,1,50,10|0,0:0|0:0,0:0:0:0:
309,333,31111,6,0,L|317:261,1,50,10|0,0:0|0:0,0:0:0:0:
325,157,31287,1,10,0:0:0:0:
71,12,31521,6,0,B|78:40|78:40|71:68|71:68|79:93|79:93|74:119|74:119|88:153|75:189,1,179.999994506836,4|0,0:0|0:0,0:0:0:0:
35,161,31755,2,0,B|29:181|29:181|45:206|45:206|29:235|29:235|57:278|41:341,1,179.999994506836,2|0,0:0|0:0,0:0:0:0:
30,358,31990,6,0,B|62:348|62:348|91:356|91:356|120:349|120:349|147:357,1,119.999996337891,8|8,0:0|0:0,0:0:0:0:
166,333,32166,2,0,B|198:323|198:323|227:331|227:331|256:324|256:324|283:332,1,119.999996337891,8|0,0:0|0:0,0:0:0:0:
301,356,32341,2,0,B|333:346|333:346|362:354|362:354|391:347|391:347|418:355,1,119.999996337891,8|4,0:0|0:0,0:0:0:0:
486,323,32576,5,8,0:0:0:0:
486,323,32634,1,0,0:0:0:0:
486,323,32693,2,0,B|468:273|488:224|488:224|491:181|491:181|476:137,1,179.999994506836,2|0,0:0|0:0,0:0:0:0:
461,111,32927,2,0,B|442:72|453:27|453:27|406:32,1,119.999996337891,8|8,0:0|0:0,0:0:0:0:
350,50,33103,5,0,0:0:0:0:
350,50,33162,2,0,B|315:68|283:49|283:49|255:67|255:67|220:47|174:59,1,179.999994506836,2|0,0:0|0:0,0:0:0:0:
147,68,33396,5,8,0:0:0:0:
36,126,33513,1,4,0:0:0:0:
144,182,33630,1,2,0:0:0:0:
42,253,33748,1,4,0:0:0:0:
42,253,33806,1,0,0:0:0:0:
42,253,33865,1,8,0:0:0:0:
140,312,33982,1,8,0:0:0:0:
140,312,34099,2,0,P|200:312|240:352,1,119.999996337891,2|4,0:0|0:0,0:0:0:0:
172,380,34334,5,8,0:0:0:0:
296,300,34451,1,8,0:0:0:0:
296,300,34509,1,0,0:0:0:0:
296,300,34568,2,0,P|244:248|180:232,1,119.999996337891,2|4,0:0|0:0,0:0:0:0:
120,236,34802,1,8,0:0:0:0:
272,176,34919,1,8,0:0:0:0:
272,176,34978,1,0,0:0:0:0:
272,176,35037,2,0,P|328:216|360:264,1,119.999996337891,2|4,0:0|0:0,0:0:0:0:
488,360,35271,6,0,B|440:360|440:360|404:348|404:348|368:360|368:360|296:344,1,179.999994506836,8|0,0:0|0:0,0:0:0:0:
284,328,35505,2,0,B|216:332|216:332|184:352|184:352|96:356,1,179.999994506836,2|0,0:0|0:0,0:0:0:0:
44,328,35740,6,0,P|8:288|12:224,1,119.999996337891,8|8,0:0|0:0,0:0:0:0:
64,176,35916,2,0,L|50:57,1,119.999996337891,8|0,0:0|0:0,0:0:0:0:
124,64,36091,2,0,P|160:41|246:50,1,119.999996337891,8|8,0:0|0:0,0:0:0:0:
308,122,36326,5,8,0:0:0:0:
308,122,36384,1,0,0:0:0:0:
308,122,36443,2,0,B|444:102|444:102|509:122,1,179.999994506836,2|0,0:0|0:0,0:0:0:0:
504,264,36677,2,0,B|460:256|460:256|436:260|436:260|416:252|416:252|384:251,1,119.999996337891,8|8,0:0|0:0,0:0:0:0:
328,296,36853,5,0,0:0:0:0:
328,296,36912,6,0,B|268:301|268:301|219:286|219:286|147:294,1,179.999994506836,2|0,0:0|0:0,0:0:0:0:
120,312,37146,1,2,0:0:0:0:
36,224,37263,1,4,0:0:0:0:
116,136,37380,1,2,0:0:0:0:
216,204,37498,1,4,0:0:0:0:
216,204,37556,1,0,0:0:0:0:
216,204,37615,1,8,0:0:0:0:
296,112,37732,1,8,0:0:0:0:
400,176,37849,1,2,0:0:0:0:
480,88,37966,2,0,P|440:40|380:28,1,119.999996337891,4|8,0:0|0:0,0:0:0:0:
296,112,38201,5,8,0:0:0:0:
296,112,38259,1,0,0:0:0:0:
296,112,38318,1,2,0:0:0:0:
192,52,38435,1,4,0:0:0:0:
116,144,38552,1,2,0:0:0:0:
12,84,38669,1,2,0:0:0:0:
12,84,38728,1,0,0:0:0:0:
12,84,38787,2,0,L|24:208,1,119.999996337891,2|0,0:0|0:0,0:0:0:0:
124,352,39021,5,10,0:0:0:0:
220,220,39138,2,0,P|224:196|204:216,2,64.9999970245363,2|2|10,0:0|0:0|0:0,0:0:0:0:
396,296,39373,5,2,0:0:0:0:
288,148,39490,2,0,P|284:124|304:144,2,64.9999970245363,10|2|2,0:0|0:0|0:0,0:0:0:0:
116,176,39724,5,10,0:0:0:0:
280,48,39841,2,0,P|320:52|352:68,2,64.9999970245363,2|2|10,0:0|0:0|0:0,0:0:0:0:
120,48,40076,6,0,P|80:52|48:68,2,64.9999970245363,2|2|10,0:0|0:0|0:0,0:0:0:0:
176,139,40309,1,2,0:0:0:0:
177,158,40368,1,2,0:0:0:0:
177,178,40427,2,0,L|152:180,1,25,2|0,0:0|0:0,0:0:0:0:
178,197,40486,2,0,L|202:197,1,25,2|0,0:0|0:0,0:0:0:0:
180,216,40544,2,0,L|148:220,1,25,2|0,0:0|0:0,0:0:0:0:
180,232,40603,2,0,L|204:236,1,25,2|0,0:0|0:0,0:0:0:0:
180,248,40662,2,0,P|196:312|280:336,1,150.000005722046,10|10,0:0|0:0,0:0:0:0:
392,272,41013,6,0,L|460:276,2,64.9999970245363,2|2|10,0:0|0:0|0:0,0:0:0:0:
252,264,41248,1,2,0:0:0:0:
416,176,41365,6,0,L|484:180,2,64.9999970245363,10|2|2,0:0|0:0|0:0,0:0:0:0:
249,160,41600,1,10,0:0:0:0:
440,80,41716,6,0,L|508:84,1,64.9999970245363,2|2,0:0|0:0,0:0:0:0:
246,57,41834,1,10,0:0:0:0:
247,91,41912,1,2,0:0:0:0:
248,126,41990,1,2,0:0:0:0:
249,160,42068,1,10,0:0:0:0:
250,195,42146,1,2,0:0:0:0:
251,230,42224,1,2,0:0:0:0:
252,264,42302,6,0,B|252:312|252:312|224:328,1,75.0000028610231,8|0,0:0|0:0,0:0:0:0:
152,348,42478,1,0,0:0:0:0:
152,348,42537,2,0,L|128:352,6,18.7500007152558,4|0|0|0|0|0|0,0:0|0:0|0:0|0:0|0:0|0:0|0:0,0:0:0:0:
32,352,42771,5,2,0:0:0:0:
132,216,42888,2,0,L|64:224,2,64.9999970245363,2|2|2,0:0|0:0|0:0,0:0:0:0:
0,272,43123,5,2,0:0:0:0:
112,112,43240,2,0,L|44:120,2,64.9999970245363,2|2|2,0:0|0:0|0:0,0:0:0:0:
0,184,43474,5,2,0:0:0:0:
108,28,43591,1,2,0:0:0:0:
108,28,43650,1,0,0:0:0:0:
108,28,43709,6,0,P|144:36|176:60,1,66.6666666666667
176,16,43865,2,0,P|203:40|218:77,1,66.6666666666667,0|0,0:0|0:0,0:0:0:0:
240,32,44021,2,0,P|251:67|246:106,1,66.6666666666667,0|0,0:0|0:0,0:0:0:0:
288,76,44177,2,0,P|280:112|256:143,1,66.6666666666667,0|0,0:0|0:0,0:0:0:0:
304,140,44334,2,0,P|279:167|242:182,1,66.6666666666667,0|0,0:0|0:0,0:0:0:0:
284,204,44490,2,0,P|248:215|209:210,1,66.6666666666667,0|0,0:0|0:0,0:0:0:0:
40,168,44646,6,0,B|56:190|56:190|59:217|59:217|77:234,3,75.0000028610231,8|0|0|0,0:0|0:0|0:0|0:0,0:0:0:0:
128,320,44880,2,0,B|111:297|111:297|108:270|108:270|90:253,3,75.0000028610231,8|0|0|0,0:0|0:0|0:0|0:0,0:0:0:0:
172,124,45115,6,0,B|179:151|179:151|173:177|173:177|183:199,3,75.0000028610231,8|0|0|0,0:0|0:0|0:0|0:0,0:0:0:0:
202,296,45349,2,0,B|194:268|194:268|200:242|200:242|190:220,3,75.0000028610231,8|0|0|0,0:0|0:0|0:0|0:0,0:0:0:0:
360,138,45584,6,0,B|345:134|345:134|333:137|333:137|321:131,5,37.5000014305115,8|0|0|0|0|0,0:0|0:0|0:0|0:0|0:0|0:0,0:0:0:0:
96,112,45818,1,0,0:0:0:0:
228,32,45935,6,0,B|224:46|224:46|227:59|227:59|222:70,5,37.5000014305115,8|0|0|0|0|0,0:0|0:0|0:0|0:0|0:0|0:0,0:0:0:0:
202,296,46169,1,0,0:0:0:0:
202,296,46287,2,0,B|240:312|240:312|304:280,1,112.500004291535,8|0,0:0|0:0,0:0:0:0:
432,208,46521,5,0,0:0:0:0:
433,198,46579,1,0,0:0:0:0:
435,188,46638,1,0,0:0:0:0:
437,178,46696,1,0,0:0:0:0:
439,168,46755,1,0,0:0:0:0:
352,136,46873,5,0,0:0:0:0:
350,126,46932,1,0,0:0:0:0:
348,116,46991,1,0,0:0:0:0:
346,106,47049,1,0,0:0:0:0:
344,96,47108,1,0,0:0:0:0:
72,56,47576,5,0,0:0:0:0:
81,56,47634,1,0,0:0:0:0:
91,57,47693,1,0,0:0:0:0:
101,58,47751,1,0,0:0:0:0:
111,59,47810,1,0,0:0:0:0:
208,130,47927,5,0,0:0:0:0:
198,130,47985,1,0,0:0:0:0:
188,131,48044,1,0,0:0:0:0:
178,132,48102,1,0,0:0:0:0:
168,133,48161,1,0,0:0:0:0:
252,212,48279,5,0,0:0:0:0:
242,213,48337,1,0,0:0:0:0:
232,214,48396,1,0,0:0:0:0:
222,215,48454,1,0,0:0:0:0:
212,216,48513,1,0,0:0:0:0:
202,217,48571,1,0,0:0:0:0:
192,218,48630,1,0,0:0:0:0:
128,136,48748,5,0,0:0:0:0:
138,136,48806,1,0,0:0:0:0:
148,135,48865,1,0,0:0:0:0:
158,134,48923,1,0,0:0:0:0:
168,133,48982,1,0,0:0:0:0:
268,104,49334,5,0,0:0:0:0:
284,100,49802,1,0,0:0:0:0:
340,24,50271,5,0,0:0:0:0:
330,23,50329,1,0,0:0:0:0:
320,21,50388,1,0,0:0:0:0:
310,19,50446,1,0,0:0:0:0:
300,17,50505,1,0,0:0:0:0:
268,104,50623,5,0,0:0:0:0:
258,106,50682,1,0,0:0:0:0:
248,108,50741,1,0,0:0:0:0:
238,110,50799,1,0,0:0:0:0:
228,112,50858,1,0,0:0:0:0:
188,384,51326,5,0,0:0:0:0:
188,374,51384,1,0,0:0:0:0:
189,364,51443,1,0,0:0:0:0:
190,354,51501,1,0,0:0:0:0:
191,344,51560,1,0,0:0:0:0:
262,248,51677,5,0,0:0:0:0:
262,258,51735,1,0,0:0:0:0:
263,268,51794,1,0,0:0:0:0:
264,278,51852,1,0,0:0:0:0:
265,288,51911,1,0,0:0:0:0:
344,204,52029,5,0,0:0:0:0:
345,213,52087,1,0,0:0:0:0:
346,223,52146,1,0,0:0:0:0:
347,233,52204,1,0,0:0:0:0:
348,243,52263,1,0,0:0:0:0:
349,253,52321,1,0,0:0:0:0:
350,263,52380,1,0,0:0:0:0:
268,328,52498,5,0,0:0:0:0:
268,318,52556,1,0,0:0:0:0:
267,308,52615,1,0,0:0:0:0:
266,298,52673,1,0,0:0:0:0:
265,288,52732,1,0,0:0:0:0:
248,100,53084,5,8,0:0:0:0:
248,100,53142,2,0,L|252:160,1,50,0|0,0:0|0:0,0:0:0:0:
172,136,53259,2,0,L|176:196,1,50,0|8,0:0|0:0,0:0:0:0:
96,248,53436,5,8,0:0:0:0:
96,248,53494,2,0,L|92:308,1,50,0|0,0:0|0:0,0:0:0:0:
172,284,53611,2,0,L|168:344,1,50,0|8,0:0|0:0,0:0:0:0:
300,284,53787,6,0,L|303:333,1,50,8|0,0:0|0:0,0:0:0:0:
376,248,53904,2,0,L|379:297,1,50,0|0,0:0|0:0,0:0:0:0:
444,198,54021,5,0,0:0:0:0:
454,197,54079,1,0,0:0:0:0:
464,196,54138,1,0,0:0:0:0:
473,195,54196,1,0,0:0:0:0:
483,194,54255,1,0,0:0:0:0:
408,116,54373,5,0,0:0:0:0:
398,117,54431,1,0,0:0:0:0:
388,118,54490,1,0,0:0:0:0:
378,119,54548,1,0,0:0:0:0:
368,120,54607,1,0,0:0:0:0:
248,134,54724,5,8,0:0:0:0:
508,108,54900,1,8,0:0:0:0:
316,40,55076,5,0,0:0:0:0:
316,49,55134,1,0,0:0:0:0:
317,59,55193,1,0,0:0:0:0:
318,69,55251,1,0,0:0:0:0:
319,79,55310,1,0,0:0:0:0:
244,184,55427,5,0,0:0:0:0:
245,174,55486,1,0,0:0:0:0:
246,164,55545,1,0,0:0:0:0:
247,154,55603,1,0,0:0:0:0:
248,144,55662,1,0,0:0:0:0:
152,184,55779,5,0,0:0:0:0:
152,193,55837,1,0,0:0:0:0:
153,203,55896,1,0,0:0:0:0:
154,213,55954,1,0,0:0:0:0:
155,223,56013,1,0,0:0:0:0:
155,233,56072,1,0,0:0:0:0:
156,243,56131,1,0,0:0:0:0:
68,312,56248,5,0,0:0:0:0:
69,302,56307,1,0,0:0:0:0:
70,292,56365,1,0,0:0:0:0:
70,282,56424,1,0,0:0:0:0:
71,272,56482,1,0,0:0:0:0:
84,128,56834,5,0,0:0:0:0:
96,108,57302,1,0,0:0:0:0:
160,68,57771,5,0,0:0:0:0:
160,59,57829,1,0,0:0:0:0:
161,49,57888,1,0,0:0:0:0:
162,39,57946,1,0,0:0:0:0:
163,29,58005,1,0,0:0:0:0:
242,105,58123,5,0,0:0:0:0:
241,115,58181,1,0,0:0:0:0:
240,125,58240,1,0,0:0:0:0:
239,135,58298,1,0,0:0:0:0:
238,145,58357,1,0,0:0:0:0:
224,265,58474,5,8,0:0:0:0:
250,5,58650,1,8,0:0:0:0:
318,197,58826,5,8,0:0:0:0:
308,196,58884,1,0,0:0:0:0:
298,195,58943,1,0,0:0:0:0:
288,194,59001,1,0,0:0:0:0:
278,194,59060,1,0,0:0:0:0:
174,269,59177,5,0,0:0:0:0:
184,268,59236,1,0,0:0:0:0:
194,267,59295,1,0,0:0:0:0:
204,266,59353,1,0,0:0:0:0:
214,265,59412,1,0,0:0:0:0:
174,361,59529,6,0,L|112:356,3,50,0|0|8|0,0:0|0:0|0:0|0:0,0:0:0:0:
48,272,59763,2,0,L|110:267,3,55.0000016784668,0|0|8|0,0:0|0:0|0:0|0:0,0:0:0:0:
192,184,59998,2,0,L|130:179,3,55.0000016784668,0|0|8|0,0:0|0:0|0:0|0:0,0:0:0:0:
48,92,60232,2,0,L|110:87,3,55.0000016784668,0|0|8|0,0:0|0:0|0:0|0:0,0:0:0:0:
212,12,60466,2,0,L|150:7,2,55.0000016784668,0|0|8,0:0|0:0|0:0,0:0:0:0:
40,264,68201,5,0,0:0:0:0:
93,329,68318,1,0,0:0:0:0:
146,261,68436,1,0,0:0:0:0:
204,326,68553,1,0,0:0:0:0:
255,259,68669,1,0,0:0:0:0:
308,323,68904,1,0,0:0:0:0:
361,259,69373,6,0,B|370:224|370:224|359:207|359:207|369:180|369:180|359:151|359:151|365:123|365:123|358:95|358:95|365:63|365:63|363:39,1,225.000008583069,0|0,0:0|0:0,0:0:0:0:
472,120,70076,5,0,0:0:0:0:
419,55,70193,1,0,0:0:0:0:
366,123,70311,1,0,0:0:0:0:
308,58,70428,1,0,0:0:0:0:
257,125,70544,1,0,0:0:0:0:
204,61,70779,1,0,0:0:0:0:
151,125,71013,1,0,0:0:0:0:
200,200,71248,1,0,0:0:0:0:
151,125,71599,6,0,P|60:124|108:208,1,225.000008583069,0|0,0:0|0:0,0:0:0:0:
160,280,72126,5,0,0:0:0:0:
248,248,72302,1,0,0:0:0:0:
400,216,72654,5,0,0:0:0:0:
312,184,72771,1,0,0:0:0:0:
252,100,73123,6,0,B|156:156|156:156|56:96,1,225.000008583069,0|0,0:0|0:0,0:0:0:0:
160,48,73826,5,0,0:0:0:0:
268,24,74001,1,0,0:0:0:0:
336,104,74177,1,0,0:0:0:0:
224,248,74412,5,0,0:0:0:0:
220,160,74646,1,0,0:0:0:0:
256,192,74705,12,0,75349,0:0:0:0:
120,336,75584,6,0,L|108:232,2,100,8|0|0,0:0|0:0|0:0,0:0:0:0:
16,192,75935,1,8,0:0:0:0:
120,140,76052,1,0,0:0:0:0:
212,216,76169,2,0,B|252:252|252:252|260:312,2,100,0|0|0,0:0|0:0|0:0,0:0:0:0:
128,148,76521,5,0,0:0:0:0:
128,148,76580,1,0,0:0:0:0:
128,148,76638,1,0,0:0:0:0:
208,60,76755,1,0,0:0:0:0:
208,60,76873,2,0,P|272:56|308:80,1,100,0|0,0:0|0:0,0:0:0:0:
384,176,77107,2,0,L|396:280,2,100,0|0|0,0:0|0:0|0:0,0:0:0:0:
301,73,77459,6,0,P|256:52|208:60,2,100,8|0|0,0:0|0:0|0:0,0:0:0:0:
244,140,77810,1,8,0:0:0:0:
148,184,77927,1,0,0:0:0:0:
72,108,78044,1,0,0:0:0:0:
72,108,78162,2,0,B|48:136|48:136|48:204,1,100,0|0,0:0|0:0,0:0:0:0:
52,308,78396,5,0,0:0:0:0:
52,308,78455,1,0,0:0:0:0:
52,308,78513,1,0,0:0:0:0:
132,364,78630,1,0,0:0:0:0:
200,292,78748,1,0,0:0:0:0:
276,356,78865,1,0,0:0:0:0:
344,280,78982,1,0,0:0:0:0:
424,340,79099,1,0,0:0:0:0:
488,264,79216,1,0,0:0:0:0:
488,264,79334,6,0,P|468:212|428:200,2,100,8|0|0,0:0|0:0|0:0,0:0:0:0:
250,281,79685,2,0,P|302:265|350:285,1,100,8|0,0:0|0:0,0:0:0:0:
168,348,79919,2,0,P|144:296|152:248,2,100,0|0|0,0:0|0:0|0:0,0:0:0:0:
224,176,80271,5,0,0:0:0:0:
224,176,80330,1,0,0:0:0:0:
224,176,80388,1,0,0:0:0:0:
172,92,80505,1,0,0:0:0:0:
72,92,80623,1,0,0:0:0:0:
12,172,80740,1,0,0:0:0:0:
12,172,80857,2,0,B|0:224|0:224|20:272,2,100,0|0|0,0:0|0:0|0:0,0:0:0:0:
192,256,81209,1,8,0:0:0:0:
192,256,81326,2,0,B|140:244|140:244|92:264,2,100,0|0|0,0:0|0:0|0:0,0:0:0:0:
412,372,81677,6,0,P|380:372|352:368,1,37.5000014305115,8|0,0:0|0:0,0:0:0:0:
248,372,81794,2,0,P|280:372|308:368,1,37.5000014305115,8|0,0:0|0:0,0:0:0:0:
412,300,81912,6,0,P|380:300|352:296,1,37.5000014305115,8|0,0:0|0:0,0:0:0:0:
248,300,82029,2,0,P|280:300|308:296,1,37.5000014305115,8|0,0:0|0:0,0:0:0:0:
412,228,82146,6,0,P|380:228|352:224,1,37.5000014305115,8|0,0:0|0:0,0:0:0:0:
248,228,82263,2,0,P|280:228|308:224,1,37.5000014305115,8|0,0:0|0:0,0:0:0:0:
412,156,82380,6,0,P|380:156|352:152,1,37.5000014305115,8|0,0:0|0:0,0:0:0:0:
248,156,82497,2,0,P|280:156|308:152,1,37.5000014305115,8|0,0:0|0:0,0:0:0:0:
412,84,82615,6,0,P|380:84|352:80,1,37.5000014305115,8|0,0:0|0:0,0:0:0:0:
248,84,82732,2,0,P|280:84|308:80,1,37.5000014305115,8|0,0:0|0:0,0:0:0:0:
388,4,82849,1,8,0:0:0:0:
56,96,83084,5,8,0:0:0:0:
56,96,83259,1,0,0:0:0:0:
56,96,83435,2,0,P|28:168|56:240,1,150.000005722046,8|0,0:0|0:0,0:0:0:0:
229,239,83611,2,0,P|177:179|101:171,1,150.000005722046,8|0,0:0|0:0,0:0:0:0:
16,320,83787,2,0,P|92:308|140:247,1,150.000005722046,8|8,0:0|0:0,0:0:0:0:
208,48,84197,5,0,0:0:0:0:
208,48,84373,2,0,L|356:80,1,150.000005722046,8|0,0:0|0:0,0:0:0:0:
300,292,84549,2,0,L|268:145,1,150.000005722046,8|0,0:0|0:0,0:0:0:0:
476,88,84724,2,0,L|364:188,1,149.999995422363,8|8,0:0|0:0,0:0:0:0:
56,281,85134,5,0,0:0:0:0:
56,281,85310,2,0,P|28:209|56:137,1,150.000005722046,8|0,0:0|0:0,0:0:0:0:
228,137,85486,2,0,P|179:197|103:208,1,150.000005722046,8|0,0:0|0:0,0:0:0:0:
21,52,85662,2,0,P|96:65|142:128,1,150.000005722046,8|8,0:0|0:0,0:0:0:0:
208,329,86072,5,0,0:0:0:0:
208,329,86248,2,0,L|356:297,1,150.000005722046,8|0,0:0|0:0,0:0:0:0:
300,85,86424,2,0,L|268:231,1,150.000005722046,8|0,0:0|0:0,0:0:0:0:
452,272,86599,2,0,L|367:195,1,112.500004291535,8|0,0:0|0:0,0:0:0:0:
192,56,86834,6,0,P|207:89|201:120,1,69.9999978637696,8|0,0:0|0:0,0:0:0:0:
192,56,87009,2,0,P|188:93|167:116,1,69.9999978637696,8|0,0:0|0:0,0:0:0:0:
192,56,87185,2,0,P|180:70|166:75,1,34.9999989318848,8|0,0:0|0:0,0:0:0:0:
56,164,87302,6,0,P|37:202|45:237,1,80,8|0,0:0|0:0,0:0:0:0:
56,164,87477,2,0,P|58:205|83:232,1,80,8|0,0:0|0:0,0:0:0:0:
56,164,87653,2,0,P|67:181|84:186,1,40,8|0,0:0|0:0,0:0:0:0:
292,288,87771,6,0,P|248:308|208:299,1,89.9999972534181,8|0,0:0|0:0,0:0:0:0:
292,288,87946,2,0,P|244:283|213:256,1,89.9999972534181,8|0,0:0|0:0,0:0:0:0:
292,288,88122,2,0,P|272:274|266:255,1,44.999998626709,8|0,0:0|0:0,0:0:0:0:
300,96,88240,6,0,P|347:71|391:81,1,100,8|0,0:0|0:0,0:0:0:0:
300,96,88415,2,0,P|352:100|386:130,1,100,8|0,0:0|0:0,0:0:0:0:
300,96,88591,2,0,P|321:109|327:131,1,50,8|0,0:0|0:0,0:0:0:0:
416,328,88709,6,0,L|492:320,1,75.0000028610231,0|0,0:0|0:0,0:0:0:0:
400,224,88826,2,0,L|476:232,1,75.0000028610231
312,344,88943,6,0,L|388:336,1,75.0000028610231,0|0,0:0|0:0,0:0:0:0:
296,208,89060,2,0,L|372:216,1,75.0000028610231
212,364,89177,6,0,L|288:356,1,75.0000028610231,0|0,0:0|0:0,0:0:0:0:
196,192,89294,2,0,L|272:200,1,75.0000028610231
112,376,89412,6,0,L|188:368,1,75.0000028610231,0|0,0:0|0:0,0:0:0:0:
96,176,89529,2,0,L|172:184,1,75.0000028610231
24,328,89646,5,0,0:0:0:0:
32,328,90584,6,0,L|48:208,1,100,8|0,0:0|0:0,0:0:0:0:
116,72,90818,2,0,L|132:192,1,100,8|0,0:0|0:0,0:0:0:0:
204,328,91052,2,0,L|220:208,1,100,8|0,0:0|0:0,0:0:0:0:
288,72,91286,2,0,L|304:192,1,100,8|0,0:0|0:0,0:0:0:0:
320,320,91521,5,0,0:0:0:0:
404,128,91638,1,0,0:0:0:0:
436,280,91755,1,0,0:0:0:0:
436,280,91814,1,0,0:0:0:0:
436,280,91873,1,0,0:0:0:0:
217,228,91990,2,0,B|281:208|281:208|341:228,1,129.999994049073,0|0,0:0|0:0,0:0:0:0:
128,320,92224,5,0,0:0:0:0:
109,315,92282,1,0,0:0:0:0:
90,311,92341,1,0,0:0:0:0:
0,240,92459,5,0,0:0:0:0:
18,235,92517,1,0,0:0:0:0:
37,231,92576,1,0,0:0:0:0:
208,132,92693,2,0,P|152:151|84:135,1,129.999994049073,0|0,0:0|0:0,0:0:0:0:
144,64,92927,5,0,0:0:0:0:
144,64,92986,1,0,0:0:0:0:
144,64,93044,1,0,0:0:0:0:
272,68,93162,2,0,P|291:124|275:192,1,129.999994049073,0|0,0:0|0:0,0:0:0:0:
220,296,93396,5,0,0:0:0:0:
220,296,93455,1,0,0:0:0:0:
220,296,93513,1,0,0:0:0:0:
208,132,93630,1,0,0:0:0:0:
316,348,93748,1,0,0:0:0:0:
124,240,93865,6,0,P|88:248|56:264,2,64.9999970245363,0|0|0,0:0|0:0|0:0,0:0:0:0:
328,201,94099,2,0,P|363:209|395:225,2,64.9999970245363,0|0|0,0:0|0:0|0:0,0:0:0:0:
132,160,94334,6,0,P|56:168|8:196,1,129.999994049073,0|0,0:0|0:0,0:0:0:0:
220,252,94568,2,0,P|215:214|201:190,2,64.9999970245363,0|0|0,0:0|0:0|0:0,0:0:0:0:
80,332,94802,2,0,P|132:353|197:321,1,129.999994049073,0|0,0:0|0:0,0:0:0:0:
128,244,95037,2,0,L|136:300,4,32.4999985122681,0|0|0|0|0,0:0|0:0|0:0|0:0|0:0,0:0:0:0:
124,216,95271,6,0,L|108:80,1,129.999994049073,0|0,0:0|0:0,0:0:0:0:
100,4,95505,1,0,0:0:0:0:
100,4,95564,1,0,0:0:0:0:
100,4,95623,1,0,0:0:0:0:
40,152,95740,2,0,L|176:136,1,129.999994049073,0|0,0:0|0:0,0:0:0:0:
323,111,95974,6,0,L|388:104,2,64.9999970245363,0|0|0,0:0|0:0|0:0,0:0:0:0:
233,129,96209,2,0,L|168:136,2,64.9999970245363,0|0|0,0:0|0:0|0:0,0:0:0:0:
372,192,96443,6,0,B|396:256|396:256|380:320,2,129.999994049073,0|0|0,0:0|0:0|0:0,0:0:0:0:
188,268,96794,2,0,B|252:244|252:244|315:260,2,129.999994049073,0|0|0,0:0|0:0|0:0,0:0:0:0:
84,320,97146,6,0,B|108:332|108:332|92:220,1,129.999994049073,0|0,0:0|0:0,0:0:0:0:
32,152,97380,2,0,P|84:184|128:140,1,129.999994049073,0|0,0:0|0:0,0:0:0:0:
112,60,97615,1,0,0:0:0:0:
112,60,97732,2,0,P|148:116|204:100,2,129.999994049073,0|0|0,0:0|0:0|0:0,0:0:0:0:
280,76,98084,5,8,0:0:0:0:
280,76,98142,1,0,0:0:0:0:
372,128,98259,5,8,0:0:0:0:
372,128,98318,1,0,0:0:0:0:
280,180,98435,5,8,0:0:0:0:
280,180,98494,1,0,0:0:0:0:
372,228,98611,5,8,0:0:0:0:
372,228,98669,1,0,0:0:0:0:
280,276,98787,5,8,0:0:0:0:
280,276,98845,1,0,0:0:0:0:
372,328,99021,6,0,P|440:272|364:232,1,194.999991073609,0|0,0:0|0:0,0:0:0:0:
340,236,99255,2,0,P|308:244|280:260,2,64.9999970245363,0|0|0,0:0|0:0|0:0,0:0:0:0:
272,148,99490,2,0,P|248:170|232:198,2,64.9999970245363,0|0|0,0:0|0:0|0:0,0:0:0:0:
164,120,99724,2,0,P|154:151|154:183,2,64.9999970245363,0|0|0,0:0|0:0|0:0,0:0:0:0:
56,152,99959,2,0,P|71:215|103:270,1,129.999994049073,0|0,0:0|0:0,0:0:0:0:
168,344,100193,5,0,0:0:0:0:
168,344,100251,1,0,0:0:0:0:
168,344,100310,1,0,0:0:0:0:
217,199,100427,1,0,0:0:0:0:
340,292,100544,5,0,0:0:0:0:
340,292,100603,1,0,0:0:0:0:
340,292,100662,2,0,L|368:328,6,32.4999985122681,0|0|0|0|0|0|0,0:0|0:0|0:0|0:0|0:0|0:0|0:0,0:0:0:0:
316,260,100896,2,0,P|272:204|196:208,2,129.999994049073,0|0|0,0:0|0:0|0:0,0:0:0:0:
236,280,101248,5,0,0:0:0:0:
372,140,101365,5,0,0:0:0:0:
377,123,101443,5,0,0:0:0:0:
389,136,101521,5,0,0:0:0:0:
364,142,101599,5,0,0:0:0:0:
378,115,101677,5,0,0:0:0:0:
394,140,101755,5,0,0:0:0:0:
364,142,101834,6,0,L|300:152,1,64.9999970245363,0|0,0:0|0:0,0:0:0:0:
168,220,102009,2,0,L|232:230,1,64.9999970245363,0|0,0:0|0:0,0:0:0:0:
384,276,102185,2,0,L|320:286,1,64.9999970245363,0|0,0:0|0:0,0:0:0:0:
184,340,102361,2,0,L|216:335,14,32.4999985122681,0|0|0|0|0|0|0|0|0|0|0|0|0|0|0,0:0|0:0|0:0|0:0|0:0|0:0|0:0|0:0|0:0|0:0|0:0|0:0|0:0|0:0|0:0,0:0:0:0:
72,300,102889,5,0,0:0:0:0:
72,300,102947,2,0,B|60:256|60:256|76:224|76:224|60:188|60:188|96:136|68:80|68:80|92:48|92:48,1,259.999988098145,0|0,0:0|0:0,0:0:0:0:
4,124,103240,5,0,0:0:0:0:
4,124,103298,1,0,0:0:0:0:
4,124,103357,2,0,B|60:160|124:128|124:128|168:156|168:156|240:116|312:152,1,324.999985122681,0|0,0:0|0:0,0:0:0:0:
244,220,103709,5,0,0:0:0:0:
244,220,103767,1,0,0:0:0:0:
244,220,103826,2,0,B|256:184|256:184|224:160|224:160|244:124|244:124|192:84|192:84|268:44|332:84|332:84,1,324.999985122681,0|0,0:0|0:0,0:0:0:0:
412,152,104177,6,0,B|420:176|420:176|408:204|408:204|448:208|476:228|492:268|492:312|440:360|376:332|376:332|328:296|268:324,1,389.999982147218,0|0,0:0|0:0,0:0:0:0:
160,332,104646,1,0,0:0:0:0:
147,333,104704,1,0,0:0:0:0:
134,334,104763,1,0,0:0:0:0:
121,336,104821,1,0,0:0:0:0:
108,337,104880,1,0,0:0:0:0:
152,248,104998,5,0,0:0:0:0:
165,249,105056,1,0,0:0:0:0:
178,250,105115,1,0,0:0:0:0:
191,252,105173,1,0,0:0:0:0:
204,253,105232,1,0,0:0:0:0:
332,344,105349,5,0,0:0:0:0:
240,132,105584,1,0,0:0:0:0:
242,151,105642,1,0,0:0:0:0:
244,170,105701,1,0,0:0:0:0:
247,190,105759,1,0,0:0:0:0:
249,209,105818,1,0,0:0:0:0:
136,164,105935,5,0,0:0:0:0:
138,144,105993,1,0,0:0:0:0:
140,125,106052,1,0,0:0:0:0:
143,106,106110,1,0,0:0:0:0:
145,86,106169,1,0,0:0:0:0:
288,20,106287,5,0,0:0:0:0:
360,192,106521,1,0,0:0:0:0:
347,192,106579,1,0,0:0:0:0:
334,192,106638,1,0,0:0:0:0:
321,192,106696,1,0,0:0:0:0:
308,192,106755,1,0,0:0:0:0:
295,192,106813,1,0,0:0:0:0:
282,192,106872,1,0,0:0:0:0:
269,192,106931,1,0,0:0:0:0:
256,192,106989,1,0,0:0:0:0:
243,192,107048,1,0,0:0:0:0:
230,192,107106,1,0,0:0:0:0:
217,192,107165,1,0,0:0:0:0:
204,192,107224,1,0,0:0:0:0:
191,192,107282,1,0,0:0:0:0:
178,192,107341,1,0,0:0:0:0:
165,192,107399,1,0,0:0:0:0:
156,192,107459,5,0,0:0:0:0:
360,192,107693,1,0,0:0:0:0:
256,352,107927,6,0,B|240:304|240:304|272:304|272:304|240:256|240:256|272:256|272:256|240:208|240:208|272:208|272:208|240:160|240:160|272:160|272:160|240:112|240:112|272:112|272:112|256:80,1,454.999979171754,0|0,0:0|0:0,0:0:0:0:
102,4,108396,5,0,0:0:0:0:
124,30,108454,1,0,0:0:0:0:
155,45,108513,1,0,0:0:0:0:
189,49,108571,1,0,0:0:0:0:
223,47,108630,1,0,0:0:0:0:
260,32,108689,1,0,0:0:0:0:
299,29,108747,1,0,0:0:0:0:
337,39,108806,1,0,0:0:0:0:
367,65,108864,5,0,0:0:0:0:
379,108,108923,1,0,0:0:0:0:
372,152,108982,1,0,0:0:0:0:
348,190,109040,1,0,0:0:0:0:
304,202,109099,1,0,0:0:0:0:
260,191,109157,1,0,0:0:0:0:
215,198,109216,1,0,0:0:0:0:
181,228,109275,1,0,0:0:0:0:
165,270,109333,5,0,0:0:0:0:
177,313,109392,1,0,0:0:0:0:
214,337,109450,1,0,0:0:0:0:
258,345,109509,1,0,0:0:0:0:
301,334,109567,1,0,0:0:0:0:
337,307,109626,1,0,0:0:0:0:
381,300,109685,1,0,0:0:0:0:
424,310,109743,1,0,0:0:0:0:
459,337,109802,6,0,L|468:263,1,75.0000028610231,0|0,0:0|0:0,0:0:0:0:
394,230,109919,2,0,L|403:156,1,75.0000028610231,0|0,0:0|0:0,0:0:0:0:
480,184,110036,2,0,L|489:109,1,75.0000028610231,0|0,0:0|0:0,0:0:0:0:
416,76,110153,2,0,L|425:2,1,75.0000028610231,0|0,0:0|0:0,0:0:0:0:
304,92,110271,6,0,L|313:166,1,75.0000028610231,0|0,0:0|0:0,0:0:0:0:
304,300,110388,1,0,0:0:0:0:
277,325,110446,1,0,0:0:0:0:
241,336,110505,1,0,0:0:0:0:
205,328,110563,1,0,0:0:0:0:
176,304,110623,1,0,0:0:0:0:
149,278,110681,1,0,0:0:0:0:
113,267,110740,1,0,0:0:0:0:
77,275,110798,5,0,0:0:0:0:
48,299,110857,1,0,0:0:0:0:
40,320,110916,1,0,0:0:0:0:
76,328,110974,1,0,0:0:0:0:
111,318,111033,1,0,0:0:0:0:
138,292,111091,1,0,0:0:0:0:
150,257,111150,1,0,0:0:0:0:
144,220,111209,6,0,P|136:212|128:204,8,18.7500007152558,0|0|0|0|0|0|0|0|0,0:0|0:0|0:0|0:0|0:0|0:0|0:0|0:0|0:0,0:0:0:0:
48,176,111443,6,0,P|56:168|64:160,8,18.7500007152558,0|0|0|0|0|0|0|0|0,0:0|0:0|0:0|0:0|0:0|0:0|0:0|0:0|0:0,0:0:0:0:
156,68,111677,6,0,P|200:64|232:88,1,75.0000028610231,0|0,0:0|0:0,0:0:0:0:
286,35,111794,2,0,P|318:66|320:106,1,75.0000028610231,0|0,0:0|0:0,0:0:0:0:
395,115,111912,2,0,P|391:159|362:186,1,75.0000028610231,0|0,0:0|0:0,0:0:0:0:
404,249,112029,2,0,P|368:274|328:270,1,75.0000028610231,0|0,0:0|0:0,0:0:0:0:
236,197,112146,5,0,0:0:0:0:
200,185,112204,1,0,0:0:0:0:
163,188,112263,1,0,0:0:0:0:
130,206,112321,1,0,0:0:0:0:
107,235,112380,2,0,P|88:272|88:308,1,75.0000028610231,0|0,0:0|0:0,0:0:0:0:
64,376,112498,6,0,P|32:356|12:325,1,75.0000028610231,0|0,0:0|0:0,0:0:0:0:
0,240,112615,2,0,P|0:202|17:169,1,75.0000028610231,0|0,0:0|0:0,0:0:0:0:
84,108,112732,2,0,P|116:90|153:88,1,75.0000028610231,0|0,0:0|0:0,0:0:0:0:
240,112,112849,2,0,P|271:131|291:162,1,75.0000028610231,0|0,0:0|0:0,0:0:0:0:
300,252,112966,2,0,P|299:289|282:322,1,75.0000028610231,0|0,0:0|0:0,0:0:0:0:
134,304,113084,5,0,0:0:0:0:
109,272,113143,1,0,0:0:0:0:
102,232,113201,1,0,0:0:0:0:
114,193,113260,1,0,0:0:0:0:
145,167,113319,1,0,0:0:0:0:
158,128,113377,1,0,0:0:0:0:
153,88,113436,1,0,0:0:0:0:
127,57,113494,1,0,0:0:0:0:
107,104,113553,5,0,0:0:0:0:
119,142,113612,1,0,0:0:0:0:
146,172,113670,1,0,0:0:0:0:
184,185,113729,1,0,0:0:0:0:
220,166,113787,1,0,0:0:0:0:
258,151,113846,1,0,0:0:0:0:
298,148,113905,1,0,0:0:0:0:
335,163,113963,1,0,0:0:0:0:
357,196,114022,6,0,L|432:188,1,75.0000028610231,0|0,0:0|0:0,0:0:0:0:
496,112,114139,2,0,L|422:119,1,75.0000028610231,0|0,0:0|0:0,0:0:0:0:
346,210,114256,6,0,L|421:202,1,75.0000028610231,0|0,0:0|0:0,0:0:0:0:
500,94,114373,2,0,L|426:101,1,75.0000028610231,0|0,0:0|0:0,0:0:0:0:
288,72,114490,5,0,0:0:0:0:
255,89,114548,1,0,0:0:0:0:
232,118,114607,1,0,0:0:0:0:
223,155,114665,1,0,0:0:0:0:
229,191,114724,1,0,0:0:0:0:
235,235,114782,1,0,0:0:0:0:
220,276,114841,1,0,0:0:0:0:
185,305,114900,1,0,0:0:0:0:
148,308,114959,6,0,P|112:304|96:296,4,37.5000014305115,0|0|0|0|0,0:0|0:0|0:0|0:0|0:0,0:0:0:0:
56,260,115134,6,0,P|41:226|40:208,4,37.5000014305115,0|0|0|0|0,0:0|0:0|0:0|0:0|0:0,0:0:0:0:
24,156,115310,6,0,P|45:126|60:116,4,37.5000014305115,0|0|0|0|0,0:0|0:0|0:0|0:0|0:0,0:0:0:0:
104,84,115486,6,0,P|140:88|156:96,4,37.5000014305115,0|0|0|0|0,0:0|0:0|0:0|0:0|0:0,0:0:0:0:
192,144,115662,6,0,P|195:152|195:156,12,12.5,0|0|0|0|0|0|0|0|0|0|0|0|0,0:0|0:0|0:0|0:0|0:0|0:0|0:0|0:0|0:0|0:0|0:0|0:0|0:0,0:0:0:0:
164,137,115896,6,0,L|57:132,2,100,8|0|0,0:0|0:0|0:0,0:0:0:0:
244,211,116247,2,0,L|351:216,2,100,8|0|0,0:0|0:0|0:0,0:0:0:0:
111,263,116599,5,0,0:0:0:0:
196,348,116716,1,0,0:0:0:0:
196,348,116774,1,0,0:0:0:0:
196,348,116833,1,0,0:0:0:0:
296,284,116950,5,0,0:0:0:0:
380,368,117067,1,0,0:0:0:0:
472,288,117185,1,0,0:0:0:0:
400,192,117302,1,4,0:0:0:0:
480,104,117419,1,4,0:0:0:0:
404,12,117536,1,4,0:0:0:0:
304,80,117653,1,4,0:0:0:0:
200,20,117771,6,0,B|120:32|120:32|92:56,2,100,8|0|0,0:0|0:0|0:0,0:0:0:0:
328,174,118122,2,0,B|316:94|316:94|292:66,2,100,8|0|0,0:0|0:0|0:0,0:0:0:0:
336,296,118474,5,0,0:0:0:0:
229,344,118591,1,0,0:0:0:0:
229,344,118649,1,0,0:0:0:0:
229,344,118708,1,0,0:0:0:0:
118,306,118825,5,0,0:0:0:0:
64,203,118942,1,0,0:0:0:0:
96,90,119059,1,0,0:0:0:0:
197,30,119176,1,4,0:0:0:0:
304,84,119294,1,0,0:0:0:0:
196,136,119411,1,4,0:0:0:0:
300,192,119528,1,0,0:0:0:0:
192,248,119646,6,0,P|144:272|88:256,2,100,8|0|0,0:0|0:0|0:0,0:0:0:0:
120,96,119997,2,0,P|144:144|128:200,2,100,8|0|0,0:0|0:0|0:0,0:0:0:0:
16,40,120349,5,0,0:0:0:0:
24,159,120466,1,0,0:0:0:0:
24,159,120524,1,0,0:0:0:0:
24,159,120583,1,0,0:0:0:0:
32,279,120700,5,0,0:0:0:0:
108,372,120817,1,0,0:0:0:0:
184,276,120935,1,0,0:0:0:0:
268,368,121052,1,4,0:0:0:0:
340,272,121169,5,4,0:0:0:0:
416,364,121286,1,4,0:0:0:0:
492,272,121403,1,4,0:0:0:0:
504,108,121521,5,8,0:0:0:0:
494,104,121579,1,0,0:0:0:0:
483,102,121638,1,0,0:0:0:0:
474,102,121696,1,0,0:0:0:0:
464,105,121755,1,0,0:0:0:0:
455,108,121813,1,0,0:0:0:0:
446,114,121872,1,8,0:0:0:0:
441,122,121931,1,0,0:0:0:0:
435,130,121989,1,0,0:0:0:0:
431,139,122048,1,0,0:0:0:0:
429,149,122106,1,0,0:0:0:0:
430,160,122165,1,0,0:0:0:0:
434,180,122224,5,0,0:0:0:0:
447,236,122283,1,0,0:0:0:0:
429,293,122341,1,0,0:0:0:0:
383,326,122400,1,0,0:0:0:0:
326,337,122458,1,0,0:0:0:0:
270,318,122517,1,0,0:0:0:0:
232,276,122576,1,0,0:0:0:0:
221,220,122634,1,0,0:0:0:0:
239,165,122693,5,0,0:0:0:0:
248,97,122751,1,0,0:0:0:0:
215,36,122810,1,0,0:0:0:0:
154,2,122869,1,0,0:0:0:0:
85,2,122927,1,0,0:0:0:0:
29,42,122986,1,0,0:0:0:0:
4,106,123044,1,0,0:0:0:0:
13,173,123103,1,0,0:0:0:0:
59,224,123162,2,0,P|80:244|92:276,1,50,0|0,0:0|0:0,0:0:0:0:
160,284,123396,6,0,B|164:320|164:320|158:347|158:347|160:384,1,100,8|0,0:0|0:0,0:0:0:0:
352,284,123513,2,0,B|348:320|348:320|354:347|354:347|352:384,1,100,0|0,0:0|0:0,0:0:0:0:
152,160,123630,6,0,B|156:196|156:196|150:223|150:223|152:260,1,100,0|0,0:0|0:0,0:0:0:0:
360,160,123748,2,0,B|356:196|356:196|362:223|362:223|360:260,1,100,0|0,0:0|0:0,0:0:0:0:
144,36,123865,6,0,B|148:72|148:72|142:99|142:99|144:136,1,100,0|0,0:0|0:0,0:0:0:0:
368,36,123983,2,0,B|364:72|364:72|370:99|370:99|368:136,1,100,0|0,0:0|0:0,0:0:0:0:
136,8,124099,6,0,B|117:6|117:6|104:9|104:9|86:8,6,50,0|0|0|0|0|0|0,0:0|0:0|0:0|0:0|0:0|0:0|0:0,0:0:0:0:
512,80,124334,6,0,B|476:76|476:76|449:82|449:82|412:80,1,100,8|0,0:0|0:0,0:0:0:0:
0,80,124451,2,0,B|36:76|36:76|63:82|63:82|100:80,1,100,0|0,0:0|0:0,0:0:0:0:
512,192,124568,6,0,B|476:188|476:188|449:194|449:194|412:192,1,100,0|0,0:0|0:0,0:0:0:0:
0,192,124685,2,0,B|36:188|36:188|63:194|63:194|100:192,1,100,0|0,0:0|0:0,0:0:0:0:
512,304,124802,6,0,B|476:300|476:300|449:306|449:306|412:304,1,100,0|0,0:0|0:0,0:0:0:0:
0,304,124919,2,0,B|36:300|36:300|63:306|63:306|100:304,1,100,0|0,0:0|0:0,0:0:0:0:
256,334,125037,6,0,B|257:352|257:352|254:366|254:366|256:384,6,50,0|0|0|0|0|0|0,0:0|0:0|0:0|0:0|0:0|0:0|0:0,0:0:0:0:
212,204,125271,2,0,B|192:52|192:52|228:36|272:40|296:72|284:116|244:132|244:132|312:176,1,400,8|0,0:0|0:0,0:0:0:0:
