osu file format v14

[General]
AudioFilename: riotzz.mp3
AudioLeadIn: 0
PreviewTime: 89939
Countdown: 0
SampleSet: Normal
StackLeniency: 0.7
Mode: 3
LetterboxInBreaks: 0
SpecialStyle: 0
WidescreenStoryboard: 0

[Editor]
DistanceSpacing: 0.8
BeatDivisor: 4
GridSize: 32
TimelineZoom: 1.7

[Metadata]
Title:Blastix Riotz
TitleUnicode:Blastix Riotz
Artist:Camellia as "Bang Riot"
ArtistUnicode:かめりあ as "Bang Riot"
Creator:Fresh Chicken
Version:BASIC
Source:SOUND VOLTEX III GRAVITY WARS
Tags:SDVX RIOT DESTRUDO GRAVITATIONAL RADAR EPISODE 06 KONAMI Speedcore Shirou iJinjin
BeatmapID:770125
BeatmapSetID:349208

[Difficulty]
HPDrainRate:6
CircleSize:4
OverallDifficulty:7
ApproachRate:5
SliderMultiplier:1.4
SliderTickRate:1

[Events]
//Background and Video events
0,0,"RIOT.jpg",0,0
//Break Periods
//Storyboard Layer 0 (Background)
//Storyboard Layer 1 (Fail)
//Storyboard Layer 2 (Pass)
//Storyboard Layer 3 (Foreground)
//Storyboard Sound Samples

[TimingPoints]
584,234.375,4,1,1,40,1,0
91521,-100,4,1,1,40,0,1
107459,-100,4,1,1,40,0,0
108396,-100,4,1,1,40,0,1
111209,-100,4,1,1,40,0,0
112146,-100,4,1,1,40,0,1
115896,-100,4,1,1,40,0,0

[HitObjects]
64,192,584,5,12,0:0:0:0:
448,192,584,1,0,0:0:0:0:
448,192,935,1,12,0:0:0:0:
64,192,935,1,0,0:0:0:0:
448,192,2459,1,12,0:0:0:0:
64,192,2459,1,0,0:0:0:0:
448,192,2810,1,12,0:0:0:0:
64,192,2810,1,0,0:0:0:0:
448,192,4334,1,12,0:0:0:0:
64,192,4334,1,0,0:0:0:0:
448,192,4685,1,12,0:0:0:0:
64,192,4685,1,0,0:0:0:0:
448,192,6209,1,12,0:0:0:0:
64,192,6209,1,0,0:0:0:0:
448,192,6560,1,12,0:0:0:0:
64,192,6560,1,0,0:0:0:0:
320,192,7146,1,0,0:0:0:0:
320,192,7380,1,0,0:0:0:0:
192,192,7615,1,0,0:0:0:0:
192,192,8084,128,0,8787:0:0:0:0:
64,192,8084,128,0,8787:0:0:0:0:
320,192,8962,128,0,9724:0:0:0:0:
448,192,8962,128,0,9724:0:0:0:0:
64,192,9959,128,0,10662:0:0:0:0:
192,192,9959,128,0,10662:0:0:0:0:
320,192,10837,128,0,11365:0:0:0:0:
448,192,10837,128,0,11365:0:0:0:0:
320,192,11834,128,0,12537:0:0:0:0:
64,192,11834,128,0,12537:0:0:0:0:
64,192,12712,128,0,13474:0:0:0:0:
448,192,12712,128,0,13474:0:0:0:0:
448,192,13709,128,0,14412:0:0:0:0:
192,192,13709,128,0,14412:0:0:0:0:
320,192,14646,1,12,0:0:0:0:
64,192,14646,1,0,0:0:0:0:
448,192,16521,1,12,0:0:0:0:
192,192,16521,1,0,0:0:0:0:
64,192,16755,1,0,0:0:0:0:
320,192,16990,1,0,0:0:0:0:
448,192,17224,1,0,0:0:0:0:
64,192,17459,1,0,0:0:0:0:
192,192,17693,1,0,0:0:0:0:
320,192,17927,1,0,0:0:0:0:
64,192,18162,1,0,0:0:0:0:
448,192,18396,1,12,0:0:0:0:
192,192,18630,1,0,0:0:0:0:
64,192,18865,1,0,0:0:0:0:
192,192,19099,1,0,0:0:0:0:
448,192,19334,1,0,0:0:0:0:
64,192,19568,1,0,0:0:0:0:
320,192,19802,1,0,0:0:0:0:
192,192,20037,1,0,0:0:0:0:
64,192,20271,1,12,0:0:0:0:
448,192,20505,1,0,0:0:0:0:
320,192,20740,1,0,0:0:0:0:
192,192,20974,1,0,0:0:0:0:
64,192,21209,1,0,0:0:0:0:
320,192,21443,1,0,0:0:0:0:
448,192,21677,1,0,0:0:0:0:
320,192,21912,128,8,22146:0:0:0:0:
192,192,22263,128,0,22498:0:0:0:0:
320,192,22615,1,0,0:0:0:0:
448,192,22849,1,0,0:0:0:0:
64,192,23201,1,10,0:0:0:0:
448,192,23318,1,10,0:0:0:0:
192,192,23494,1,10,0:0:0:0:
320,192,23669,1,10,0:0:0:0:
448,192,23904,1,10,0:0:0:0:
192,192,24021,1,4,0:0:0:0:
64,192,24021,1,8,0:0:0:0:
320,192,24255,1,0,0:0:0:0:
448,192,24490,1,0,0:0:0:0:
64,192,24724,1,0,0:0:0:0:
320,192,24959,1,0,0:0:0:0:
448,192,25193,1,0,0:0:0:0:
64,192,25427,1,0,0:0:0:0:
448,192,25544,1,0,0:0:0:0:
192,192,25779,1,12,0:0:0:0:
320,192,25896,1,0,0:0:0:0:
64,192,26130,1,0,0:0:0:0:
448,192,26365,1,0,0:0:0:0:
192,192,26599,1,0,0:0:0:0:
448,192,26834,128,8,27419:0:0:0:0:
320,192,27537,128,0,27771:0:0:0:0:
64,192,27771,1,8,0:0:0:0:
448,192,28240,1,8,0:0:0:0:
64,192,28709,1,8,0:0:0:0:
448,192,29177,1,0,0:0:0:0:
64,192,29412,1,0,0:0:0:0:
448,192,29646,1,0,0:0:0:0:
192,192,29880,1,2,0:0:0:0:
320,192,30232,1,2,0:0:0:0:
64,192,30584,1,2,0:0:0:0:
192,192,30759,1,2,0:0:0:0:
320,192,30935,1,2,0:0:0:0:
448,192,31111,1,2,0:0:0:0:
192,192,31287,1,4,0:0:0:0:
64,192,31521,1,4,0:0:0:0:
320,192,31755,1,12,0:0:0:0:
64,192,31990,1,0,0:0:0:0:
192,192,32224,1,12,0:0:0:0:
64,192,32459,1,8,0:0:0:0:
448,192,32693,1,12,0:0:0:0:
192,192,32927,1,0,0:0:0:0:
320,192,33162,1,12,0:0:0:0:
448,192,33396,1,8,0:0:0:0:
192,192,33630,1,12,0:0:0:0:
320,192,33865,1,8,0:0:0:0:
64,192,34099,1,12,0:0:0:0:
192,192,34334,1,8,0:0:0:0:
448,192,34568,1,12,0:0:0:0:
64,192,34802,1,8,0:0:0:0:
320,192,35037,1,12,0:0:0:0:
192,192,35271,1,12,0:0:0:0:
448,192,35505,1,12,0:0:0:0:
64,192,35740,1,0,0:0:0:0:
320,192,35974,1,12,0:0:0:0:
64,192,36209,1,8,0:0:0:0:
448,192,36443,1,12,0:0:0:0:
192,192,36677,1,0,0:0:0:0:
320,192,36912,1,12,0:0:0:0:
448,192,37146,1,8,0:0:0:0:
320,192,37380,1,12,0:0:0:0:
192,192,37615,1,8,0:0:0:0:
64,192,37849,1,12,0:0:0:0:
192,192,38084,1,8,0:0:0:0:
448,192,38318,1,12,0:0:0:0:
320,192,38552,1,8,0:0:0:0:
64,192,38787,1,12,0:0:0:0:
448,192,39021,1,8,0:0:0:0:
320,192,39255,1,8,0:0:0:0:
192,192,39490,1,8,0:0:0:0:
64,192,39724,1,8,0:0:0:0:
192,192,39959,1,8,0:0:0:0:
320,192,40193,1,8,0:0:0:0:
448,192,40427,128,8,40896:0:0:0:0:
64,192,40896,1,8,0:0:0:0:
192,192,41130,1,8,0:0:0:0:
320,192,41365,1,8,0:0:0:0:
448,192,41599,1,8,0:0:0:0:
320,192,41834,128,8,42302:0:0:0:0:
64,192,42537,128,0,42771:0:0:0:0:
192,192,42771,1,8,0:0:0:0:
320,192,43005,1,8,0:0:0:0:
448,192,43240,1,8,0:0:0:0:
320,192,43474,1,8,0:0:0:0:
64,192,43709,128,8,44177:0:0:0:0:
448,192,44177,128,8,44646:0:0:0:0:
320,192,44646,1,8,0:0:0:0:
64,192,44880,1,8,0:0:0:0:
448,192,45115,1,8,0:0:0:0:
192,192,45349,1,8,0:0:0:0:
64,192,45584,1,2,0:0:0:0:
192,192,45935,1,10,0:0:0:0:
320,192,46287,1,10,0:0:0:0:
448,192,46521,128,8,46755:0:0:0:0:
320,192,46873,128,8,47107:0:0:0:0:
64,192,47576,128,8,47810:0:0:0:0:
192,192,47927,128,8,48162:0:0:0:0:
320,192,48279,128,8,48630:0:0:0:0:
448,192,48748,128,8,48982:0:0:0:0:
192,192,49334,128,0,50271:0:0:0:0:
448,192,50271,128,8,50505:0:0:0:0:
320,192,50623,128,8,50857:0:0:0:0:
192,192,51326,128,8,51560:0:0:0:0:
64,192,51677,128,8,51912:0:0:0:0:
448,192,52029,128,8,52380:0:0:0:0:
320,192,52498,128,8,52732:0:0:0:0:
64,192,53084,1,4,0:0:0:0:
320,192,53318,1,4,0:0:0:0:
192,192,53435,1,4,0:0:0:0:
320,192,53669,1,4,0:0:0:0:
448,192,53787,1,4,0:0:0:0:
64,192,54021,128,8,54255:0:0:0:0:
192,192,54373,128,8,54607:0:0:0:0:
448,192,55076,128,8,55310:0:0:0:0:
320,192,55427,128,8,55662:0:0:0:0:
192,192,55779,128,8,56130:0:0:0:0:
64,192,56248,128,8,56482:0:0:0:0:
320,192,56834,128,0,57771:0:0:0:0:
192,192,57771,128,8,58005:0:0:0:0:
320,192,58123,128,8,58357:0:0:0:0:
448,192,58826,128,8,59060:0:0:0:0:
64,192,59177,128,8,59412:0:0:0:0:
320,192,59529,128,8,60584:0:0:0:0:
64,192,60584,1,0,0:0:0:0:
448,192,60584,1,0,0:0:0:0:
320,192,61990,1,0,0:0:0:0:
448,192,62459,1,0,0:0:0:0:
64,192,64334,1,0,0:0:0:0:
192,192,66209,1,0,0:0:0:0:
448,192,68084,1,0,0:0:0:0:
320,192,69490,1,0,0:0:0:0:
64,192,69959,1,0,0:0:0:0:
192,192,71834,1,0,0:0:0:0:
320,192,73709,1,0,0:0:0:0:
448,192,75584,1,12,0:0:0:0:
64,192,75584,1,0,0:0:0:0:
448,192,75935,1,12,0:0:0:0:
64,192,75935,1,0,0:0:0:0:
320,192,77459,1,12,0:0:0:0:
192,192,77459,1,0,0:0:0:0:
320,192,77810,1,12,0:0:0:0:
192,192,77810,1,0,0:0:0:0:
448,192,79334,1,12,0:0:0:0:
192,192,79334,1,0,0:0:0:0:
448,192,79685,1,12,0:0:0:0:
192,192,79685,1,0,0:0:0:0:
320,192,81209,1,12,0:0:0:0:
64,192,81209,1,0,0:0:0:0:
320,192,81560,1,12,0:0:0:0:
64,192,81560,1,0,0:0:0:0:
448,192,83084,1,8,0:0:0:0:
192,192,83435,128,12,83787:0:0:0:0:
448,192,83787,1,12,0:0:0:0:
64,192,84021,1,8,0:0:0:0:
320,192,84373,128,12,84724:0:0:0:0:
64,192,84724,1,12,0:0:0:0:
448,192,84959,1,8,0:0:0:0:
64,192,85310,128,12,85662:0:0:0:0:
320,192,85662,1,12,0:0:0:0:
192,192,85896,1,8,0:0:0:0:
448,192,86248,128,12,86599:0:0:0:0:
192,192,86599,1,12,0:0:0:0:
448,192,86834,128,12,87185:0:0:0:0:
192,192,87185,1,12,0:0:0:0:
64,192,87302,128,12,87654:0:0:0:0:
320,192,87654,1,12,0:0:0:0:
192,192,87771,128,12,88123:0:0:0:0:
448,192,88123,1,12,0:0:0:0:
320,192,88240,128,12,88591:0:0:0:0:
64,192,88591,1,12,0:0:0:0:
192,192,88709,128,12,89646:0:0:0:0:
320,192,89646,1,12,0:0:0:0:
448,192,89646,1,0,0:0:0:0:
448,192,91521,1,14,0:0:0:0:
64,192,91521,1,14,0:0:0:0:
192,192,91755,1,0,0:0:0:0:
320,192,91990,1,0,0:0:0:0:
64,192,92224,1,0,0:0:0:0:
192,192,92459,1,0,0:0:0:0:
448,192,92693,1,0,0:0:0:0:
64,192,92927,1,0,0:0:0:0:
320,192,93162,1,0,0:0:0:0:
64,192,93396,1,0,0:0:0:0:
448,192,93630,1,0,0:0:0:0:
192,192,93865,1,0,0:0:0:0:
320,192,94099,1,0,0:0:0:0:
448,192,94334,1,0,0:0:0:0:
320,192,94568,1,0,0:0:0:0:
192,192,94802,1,0,0:0:0:0:
64,192,95037,128,0,95271:0:0:0:0:
448,192,95271,1,14,0:0:0:0:
192,192,95505,1,0,0:0:0:0:
320,192,95740,1,0,0:0:0:0:
64,192,95974,1,0,0:0:0:0:
448,192,96209,1,0,0:0:0:0:
320,192,96443,1,0,0:0:0:0:
192,192,96677,1,0,0:0:0:0:
64,192,96912,1,0,0:0:0:0:
448,192,97146,128,8,97615:0:0:0:0:
64,192,97615,128,8,98084:0:0:0:0:
448,192,98084,1,2,0:0:0:0:
320,192,98259,1,2,0:0:0:0:
192,192,98435,1,2,0:0:0:0:
64,192,98611,1,2,0:0:0:0:
192,192,98787,1,0,0:0:0:0:
320,192,99021,128,0,99255:0:0:0:0:
192,192,99255,1,14,0:0:0:0:
64,192,99255,1,0,0:0:0:0:
448,192,99490,1,0,0:0:0:0:
64,192,99724,1,0,0:0:0:0:
320,192,99959,1,0,0:0:0:0:
192,192,100193,1,0,0:0:0:0:
320,192,100427,1,0,0:0:0:0:
448,192,100544,1,0,0:0:0:0:
64,192,100662,128,0,100896:0:0:0:0:
448,192,100896,1,0,0:0:0:0:
64,192,101130,1,0,0:0:0:0:
448,192,101365,128,0,101834:0:0:0:0:
64,192,101834,1,8,0:0:0:0:
192,192,102009,1,8,0:0:0:0:
320,192,102185,1,8,0:0:0:0:
448,192,102302,128,0,102771:0:0:0:0:
64,192,102771,1,0,0:0:0:0:
192,192,103240,1,0,0:0:0:0:
320,192,103709,1,0,0:0:0:0:
448,192,104177,1,0,0:0:0:0:
64,192,104646,128,8,104880:0:0:0:0:
192,192,104998,128,8,105232:0:0:0:0:
448,192,105584,128,8,105818:0:0:0:0:
320,192,105935,128,8,106169:0:0:0:0:
192,192,106521,128,0,107459:0:0:0:0:
320,192,106521,128,0,107459:0:0:0:0:
448,192,108396,1,0,0:0:0:0:
64,192,108396,1,0,0:0:0:0:
320,192,108630,1,0,0:0:0:0:
192,192,108748,1,0,0:0:0:0:
64,192,108982,1,0,0:0:0:0:
192,192,109099,1,0,0:0:0:0:
320,192,109216,1,0,0:0:0:0:
448,192,109451,1,0,0:0:0:0:
320,192,109568,1,0,0:0:0:0:
192,192,109685,1,0,0:0:0:0:
64,192,109919,1,0,0:0:0:0:
448,192,110037,1,0,0:0:0:0:
64,192,110154,1,0,0:0:0:0:
320,192,110271,1,0,0:0:0:0:
192,192,110505,1,0,0:0:0:0:
64,192,110623,1,0,0:0:0:0:
192,192,110857,1,0,0:0:0:0:
320,192,110974,1,0,0:0:0:0:
448,192,111091,1,0,0:0:0:0:
448,192,112146,1,0,0:0:0:0:
64,192,112146,1,0,0:0:0:0:
320,192,112380,1,0,0:0:0:0:
192,192,112498,1,0,0:0:0:0:
448,192,112732,1,0,0:0:0:0:
320,192,112849,1,0,0:0:0:0:
192,192,112966,1,0,0:0:0:0:
64,192,113201,1,0,0:0:0:0:
192,192,113318,1,0,0:0:0:0:
320,192,113435,1,0,0:0:0:0:
448,192,113669,1,0,0:0:0:0:
192,192,113787,1,0,0:0:0:0:
320,192,113904,1,0,0:0:0:0:
64,192,114021,1,0,0:0:0:0:
192,192,114373,1,0,0:0:0:0:
320,192,114724,1,0,0:0:0:0:
448,192,114959,1,0,0:0:0:0:
320,192,115134,1,0,0:0:0:0:
192,192,115310,1,0,0:0:0:0:
64,192,115427,128,0,115662:0:0:0:0:
448,192,115662,128,0,115896:0:0:0:0:
192,192,115896,1,12,0:0:0:0:
64,192,115896,1,0,0:0:0:0:
192,192,116248,1,12,0:0:0:0:
64,192,116248,1,0,0:0:0:0:
320,192,117771,1,12,0:0:0:0:
448,192,117771,1,0,0:0:0:0:
320,192,118123,1,12,0:0:0:0:
448,192,118123,1,0,0:0:0:0:
320,192,119646,1,12,0:0:0:0:
192,192,119646,1,0,0:0:0:0:
320,192,119998,1,12,0:0:0:0:
192,192,119998,1,0,0:0:0:0:
448,192,121521,1,12,0:0:0:0:
64,192,121521,1,0,0:0:0:0:
448,192,121873,1,12,0:0:0:0:
64,192,121873,1,0,0:0:0:0:
448,192,123396,128,0,124099:0:0:0:0:
320,192,123396,128,0,124099:0:0:0:0:
64,192,124275,128,8,125037:0:0:0:0:
192,192,124275,128,0,125037:0:0:0:0:
320,192,125037,128,8,125271:0:0:0:0:
64,192,125271,1,8,0:0:0:0:
448,192,125271,1,4,0:0:0:0:
