osu file format v14

[General]
AudioFilename: riotzz.mp3
AudioLeadIn: 0
PreviewTime: 89939
Countdown: 0
SampleSet: Normal
StackLeniency: 0.7
Mode: 3
LetterboxInBreaks: 0
SpecialStyle: 0
WidescreenStoryboard: 0

[Editor]
Bookmarks: 107751
DistanceSpacing: 0.8
BeatDivisor: 4
GridSize: 32
TimelineZoom: 2

[Metadata]
Title:Blastix Riotz
TitleUnicode:Blastix Riotz
Artist:Camellia as "Bang Riot"
ArtistUnicode:かめりあ as "Bang Riot"
Creator:Fresh Chicken
Version:ADVANCED
Source:SOUND VOLTEX III GRAVITY WARS
Tags:SDVX RIOT DESTRUDO GRAVITATIONAL RADAR EPISODE 06 KONAMI Speedcore Shirou iJinjin
BeatmapID:770124
BeatmapSetID:349208

[Difficulty]
HPDrainRate:7.5
CircleSize:4
OverallDifficulty:7.5
ApproachRate:5
SliderMultiplier:1.4
SliderTickRate:1

[Events]
//Background and Video events
0,0,"RIOT.jpg",0,0
//Break Periods
//Storyboard Layer 0 (Background)
//Storyboard Layer 1 (Fail)
//Storyboard Layer 2 (Pass)
//Storyboard Layer 3 (Foreground)
//Storyboard Sound Samples

[TimingPoints]
584,234.375,4,1,1,40,1,0
91521,-100,4,1,1,40,0,1
107459,-100,4,1,1,40,0,0
108396,-100,4,1,1,40,0,1
111209,-100,4,1,1,40,0,0
112146,-100,4,1,1,40,0,1
115896,-100,4,1,1,40,0,0

[HitObjects]
448,192,584,5,12,0:0:0:0:
64,192,584,1,0,0:0:0:0:
320,192,701,1,0,0:0:0:0:
192,192,818,1,0,0:0:0:0:
448,192,935,1,12,0:0:0:0:
64,192,935,1,0,0:0:0:0:
320,192,1052,1,0,0:0:0:0:
192,192,1169,1,0,0:0:0:0:
64,192,1287,1,0,0:0:0:0:
448,192,1404,1,0,0:0:0:0:
192,192,1521,1,0,0:0:0:0:
320,192,1755,1,0,0:0:0:0:
64,192,1990,1,0,0:0:0:0:
448,192,2107,1,0,0:0:0:0:
320,192,2224,1,0,0:0:0:0:
192,192,2341,1,0,0:0:0:0:
64,192,2459,1,12,0:0:0:0:
448,192,2459,1,0,0:0:0:0:
192,192,2576,1,0,0:0:0:0:
320,192,2693,1,0,0:0:0:0:
64,192,2810,1,12,0:0:0:0:
448,192,2810,1,0,0:0:0:0:
192,192,2927,1,0,0:0:0:0:
320,192,3044,1,0,0:0:0:0:
448,192,3162,1,0,0:0:0:0:
64,192,3279,1,0,0:0:0:0:
320,192,3396,1,0,0:0:0:0:
64,192,3513,1,0,0:0:0:0:
192,192,3630,1,0,0:0:0:0:
320,192,3748,1,0,0:0:0:0:
448,192,3865,1,0,0:0:0:0:
320,192,3982,1,0,0:0:0:0:
192,192,4099,1,0,0:0:0:0:
64,192,4216,1,0,0:0:0:0:
192,192,4334,1,12,0:0:0:0:
448,192,4334,1,0,0:0:0:0:
320,192,4451,1,0,0:0:0:0:
192,192,4568,1,0,0:0:0:0:
64,192,4685,1,12,0:0:0:0:
448,192,4685,1,0,0:0:0:0:
192,192,4802,1,0,0:0:0:0:
320,192,4919,1,0,0:0:0:0:
448,192,5037,1,0,0:0:0:0:
64,192,5154,1,0,0:0:0:0:
192,192,5271,1,0,0:0:0:0:
448,192,5505,1,0,0:0:0:0:
320,192,5740,1,0,0:0:0:0:
192,192,5857,1,0,0:0:0:0:
64,192,5974,1,0,0:0:0:0:
192,192,6091,1,0,0:0:0:0:
448,192,6209,1,12,0:0:0:0:
64,192,6209,1,0,0:0:0:0:
320,192,6326,1,0,0:0:0:0:
192,192,6443,1,0,0:0:0:0:
448,192,6560,1,12,0:0:0:0:
64,192,6560,1,0,0:0:0:0:
320,192,6677,1,0,0:0:0:0:
192,192,6794,1,0,0:0:0:0:
448,192,6912,1,0,0:0:0:0:
192,192,7029,1,0,0:0:0:0:
320,192,7146,1,0,0:0:0:0:
448,192,7205,1,0,0:0:0:0:
320,192,7263,1,0,0:0:0:0:
192,192,7380,1,0,0:0:0:0:
64,192,7439,1,0,0:0:0:0:
192,192,7498,1,0,0:0:0:0:
448,192,7615,1,0,0:0:0:0:
320,192,7673,1,0,0:0:0:0:
192,192,7732,1,0,0:0:0:0:
64,192,7791,1,0,0:0:0:0:
448,192,8084,1,0,0:0:0:0:
320,192,8142,1,0,0:0:0:0:
192,192,8201,1,0,0:0:0:0:
64,192,8259,1,0,0:0:0:0:
448,192,8318,1,0,0:0:0:0:
320,192,8376,1,0,0:0:0:0:
192,192,8435,1,0,0:0:0:0:
64,192,8494,1,0,0:0:0:0:
448,192,8552,1,0,0:0:0:0:
320,192,8611,1,0,0:0:0:0:
192,192,8669,1,0,0:0:0:0:
64,192,8728,1,0,0:0:0:0:
448,192,8787,128,0,8962:0:0:0:0:
64,192,8962,1,0,0:0:0:0:
192,192,9021,1,0,0:0:0:0:
320,192,9080,1,0,0:0:0:0:
448,192,9138,1,0,0:0:0:0:
64,192,9197,1,0,0:0:0:0:
192,192,9255,1,0,0:0:0:0:
320,192,9314,1,0,0:0:0:0:
448,192,9373,1,0,0:0:0:0:
64,192,9431,1,0,0:0:0:0:
192,192,9490,1,0,0:0:0:0:
320,192,9548,1,0,0:0:0:0:
448,192,9607,1,0,0:0:0:0:
64,192,9666,1,0,0:0:0:0:
192,192,9724,128,0,9959:0:0:0:0:
448,192,9959,1,0,0:0:0:0:
320,192,10017,1,0,0:0:0:0:
192,192,10076,1,0,0:0:0:0:
64,192,10134,1,0,0:0:0:0:
448,192,10193,1,0,0:0:0:0:
320,192,10251,1,0,0:0:0:0:
192,192,10310,1,0,0:0:0:0:
64,192,10369,1,0,0:0:0:0:
448,192,10427,1,0,0:0:0:0:
320,192,10486,1,0,0:0:0:0:
192,192,10544,1,0,0:0:0:0:
64,192,10603,1,0,0:0:0:0:
448,192,10662,128,0,10837:0:0:0:0:
64,192,10837,1,0,0:0:0:0:
192,192,10896,1,0,0:0:0:0:
320,192,10955,1,0,0:0:0:0:
448,192,11013,1,0,0:0:0:0:
64,192,11072,1,0,0:0:0:0:
192,192,11130,1,0,0:0:0:0:
448,192,11189,1,0,0:0:0:0:
320,192,11248,1,0,0:0:0:0:
192,192,11306,1,0,0:0:0:0:
64,192,11365,1,0,0:0:0:0:
192,192,11482,1,4,0:0:0:0:
320,192,11541,1,4,0:0:0:0:
192,192,11658,1,4,0:0:0:0:
320,192,11716,1,4,0:0:0:0:
64,192,11834,1,0,0:0:0:0:
192,192,11892,1,0,0:0:0:0:
448,192,11951,1,0,0:0:0:0:
320,192,12009,1,0,0:0:0:0:
64,192,12068,1,0,0:0:0:0:
192,192,12126,1,0,0:0:0:0:
448,192,12185,1,0,0:0:0:0:
320,192,12244,1,0,0:0:0:0:
64,192,12302,1,0,0:0:0:0:
192,192,12361,1,0,0:0:0:0:
448,192,12419,1,0,0:0:0:0:
320,192,12478,1,0,0:0:0:0:
64,192,12537,128,8,12712:0:0:0:0:
192,192,12712,1,0,0:0:0:0:
320,192,12771,1,0,0:0:0:0:
448,192,12830,1,0,0:0:0:0:
192,192,12888,1,0,0:0:0:0:
64,192,12947,1,0,0:0:0:0:
320,192,13005,1,0,0:0:0:0:
448,192,13064,1,0,0:0:0:0:
192,192,13123,1,0,0:0:0:0:
64,192,13181,1,0,0:0:0:0:
320,192,13240,1,0,0:0:0:0:
448,192,13298,1,0,0:0:0:0:
192,192,13357,1,0,0:0:0:0:
64,192,13416,1,0,0:0:0:0:
448,192,13474,128,8,13709:0:0:0:0:
64,192,13709,1,0,0:0:0:0:
192,192,13767,1,0,0:0:0:0:
320,192,13826,1,0,0:0:0:0:
64,192,13884,1,0,0:0:0:0:
192,192,13943,1,0,0:0:0:0:
320,192,14001,1,0,0:0:0:0:
448,192,14060,1,0,0:0:0:0:
320,192,14119,1,0,0:0:0:0:
192,192,14177,1,0,0:0:0:0:
448,192,14236,1,0,0:0:0:0:
320,192,14294,1,0,0:0:0:0:
192,192,14353,1,0,0:0:0:0:
64,192,14412,128,8,14646:0:0:0:0:
320,192,14646,1,0,0:0:0:0:
448,192,14646,1,12,0:0:0:0:
448,192,15584,1,0,0:0:0:0:
320,192,15818,1,0,0:0:0:0:
192,192,16052,1,0,0:0:0:0:
64,192,16287,1,0,0:0:0:0:
448,192,16521,1,8,0:0:0:0:
64,192,16521,1,4,0:0:0:0:
192,192,16638,1,0,0:0:0:0:
320,192,16697,1,0,0:0:0:0:
448,192,16755,1,0,0:0:0:0:
320,192,16814,1,0,0:0:0:0:
192,192,16873,1,0,0:0:0:0:
448,192,16990,1,0,0:0:0:0:
64,192,16990,1,0,0:0:0:0:
192,192,17107,1,0,0:0:0:0:
448,192,17224,1,0,0:0:0:0:
64,192,17224,1,0,0:0:0:0:
320,192,17341,1,0,0:0:0:0:
192,192,17459,1,0,0:0:0:0:
64,192,17459,1,0,0:0:0:0:
192,192,17576,1,0,0:0:0:0:
448,192,17693,1,0,0:0:0:0:
320,192,17693,1,0,0:0:0:0:
320,192,17810,1,0,0:0:0:0:
64,192,17927,1,0,0:0:0:0:
448,192,17927,1,0,0:0:0:0:
192,192,18044,1,0,0:0:0:0:
64,192,18162,1,0,0:0:0:0:
448,192,18162,1,0,0:0:0:0:
320,192,18279,1,0,0:0:0:0:
64,192,18396,1,12,0:0:0:0:
448,192,18396,1,0,0:0:0:0:
320,192,18513,1,0,0:0:0:0:
192,192,18572,1,0,0:0:0:0:
64,192,18630,1,0,0:0:0:0:
192,192,18689,1,0,0:0:0:0:
320,192,18748,1,0,0:0:0:0:
64,192,18865,1,0,0:0:0:0:
192,192,18865,1,0,0:0:0:0:
448,192,18982,1,0,0:0:0:0:
320,192,19099,1,0,0:0:0:0:
192,192,19099,1,0,0:0:0:0:
64,192,19216,1,0,0:0:0:0:
448,192,19334,1,0,0:0:0:0:
320,192,19334,1,0,0:0:0:0:
64,192,19451,1,0,0:0:0:0:
320,192,19568,1,0,0:0:0:0:
192,192,19568,1,0,0:0:0:0:
448,192,19685,1,0,0:0:0:0:
320,192,19744,1,0,0:0:0:0:
192,192,19802,1,0,0:0:0:0:
64,192,19861,1,0,0:0:0:0:
192,192,19919,1,0,0:0:0:0:
448,192,20037,1,0,0:0:0:0:
320,192,20095,1,0,0:0:0:0:
192,192,20154,1,0,0:0:0:0:
64,192,20212,1,0,0:0:0:0:
320,192,20271,1,12,0:0:0:0:
192,192,20271,1,0,0:0:0:0:
448,192,20388,1,0,0:0:0:0:
64,192,20447,1,0,0:0:0:0:
192,192,20505,1,0,0:0:0:0:
320,192,20564,1,0,0:0:0:0:
448,192,20623,1,0,0:0:0:0:
192,192,20740,1,0,0:0:0:0:
64,192,20740,1,0,0:0:0:0:
448,192,20857,1,0,0:0:0:0:
64,192,20974,1,0,0:0:0:0:
320,192,20974,1,0,0:0:0:0:
192,192,21091,1,0,0:0:0:0:
448,192,21209,1,0,0:0:0:0:
320,192,21209,1,0,0:0:0:0:
64,192,21326,1,0,0:0:0:0:
192,192,21443,1,0,0:0:0:0:
448,192,21443,1,0,0:0:0:0:
320,192,21560,1,0,0:0:0:0:
448,192,21677,1,0,0:0:0:0:
64,192,21677,1,0,0:0:0:0:
192,192,21794,1,0,0:0:0:0:
64,192,21912,128,8,22146:0:0:0:0:
448,192,22263,128,0,22498:0:0:0:0:
320,192,22498,1,0,0:0:0:0:
64,192,22615,1,0,0:0:0:0:
192,192,22673,1,0,0:0:0:0:
320,192,22732,1,0,0:0:0:0:
448,192,22791,1,0,0:0:0:0:
64,192,22849,1,0,0:0:0:0:
192,192,22966,1,0,0:0:0:0:
320,192,23025,1,0,0:0:0:0:
448,192,23084,1,0,0:0:0:0:
192,192,23201,1,10,0:0:0:0:
64,192,23201,1,0,0:0:0:0:
320,192,23318,1,10,0:0:0:0:
448,192,23318,1,0,0:0:0:0:
320,192,23494,1,10,0:0:0:0:
192,192,23494,1,0,0:0:0:0:
192,192,23669,1,10,0:0:0:0:
64,192,23669,1,0,0:0:0:0:
320,192,23787,1,0,0:0:0:0:
448,192,23904,1,10,0:0:0:0:
192,192,23904,1,0,0:0:0:0:
320,192,24021,1,4,0:0:0:0:
64,192,24021,1,8,0:0:0:0:
320,192,24255,1,0,0:0:0:0:
192,192,24255,1,0,0:0:0:0:
448,192,24373,1,0,0:0:0:0:
192,192,24490,1,0,0:0:0:0:
64,192,24490,1,0,0:0:0:0:
320,192,24607,1,0,0:0:0:0:
64,192,24724,1,0,0:0:0:0:
192,192,24783,1,0,0:0:0:0:
320,192,24841,1,0,0:0:0:0:
448,192,24900,1,0,0:0:0:0:
192,192,24959,1,0,0:0:0:0:
64,192,24959,1,0,0:0:0:0:
448,192,25076,1,0,0:0:0:0:
320,192,25134,1,0,0:0:0:0:
192,192,25193,1,0,0:0:0:0:
64,192,25310,1,0,0:0:0:0:
192,192,25369,1,0,0:0:0:0:
320,192,25427,1,0,0:0:0:0:
64,192,25544,1,12,0:0:0:0:
448,192,25544,1,0,0:0:0:0:
320,192,25779,1,12,0:0:0:0:
448,192,25779,1,0,0:0:0:0:
64,192,25896,1,0,0:0:0:0:
320,192,26013,1,0,0:0:0:0:
192,192,26072,1,0,0:0:0:0:
64,192,26130,1,0,0:0:0:0:
320,192,26248,1,0,0:0:0:0:
192,192,26248,1,0,0:0:0:0:
448,192,26365,1,0,0:0:0:0:
320,192,26423,1,0,0:0:0:0:
192,192,26482,1,0,0:0:0:0:
320,192,26599,1,0,0:0:0:0:
64,192,26599,1,0,0:0:0:0:
192,192,26716,1,0,0:0:0:0:
320,192,26775,1,0,0:0:0:0:
448,192,26834,1,8,0:0:0:0:
192,192,26951,1,8,0:0:0:0:
192,192,27185,1,8,0:0:0:0:
320,192,27302,1,8,0:0:0:0:
64,192,27537,128,0,27771:0:0:0:0:
448,192,27537,1,0,0:0:0:0:
192,192,27771,1,8,0:0:0:0:
320,192,27888,1,8,0:0:0:0:
320,192,28240,1,8,0:0:0:0:
192,192,28298,1,8,0:0:0:0:
64,192,28357,1,8,0:0:0:0:
64,192,28709,1,8,0:0:0:0:
192,192,28767,1,8,0:0:0:0:
320,192,28826,1,8,0:0:0:0:
448,192,28884,1,8,0:0:0:0:
448,192,29177,1,0,0:0:0:0:
320,192,29236,1,0,0:0:0:0:
192,192,29294,1,0,0:0:0:0:
64,192,29353,1,0,0:0:0:0:
448,192,29412,1,0,0:0:0:0:
320,192,29470,1,0,0:0:0:0:
192,192,29529,1,0,0:0:0:0:
64,192,29587,1,0,0:0:0:0:
192,192,29646,1,0,0:0:0:0:
320,192,29646,1,0,0:0:0:0:
448,192,29705,1,0,0:0:0:0:
64,192,29763,1,0,0:0:0:0:
192,192,29880,1,2,0:0:0:0:
448,192,29880,1,0,0:0:0:0:
64,192,29998,1,0,0:0:0:0:
192,192,30056,1,0,0:0:0:0:
320,192,30232,1,2,0:0:0:0:
64,192,30232,1,0,0:0:0:0:
448,192,30349,1,0,0:0:0:0:
320,192,30408,1,0,0:0:0:0:
192,192,30584,1,2,0:0:0:0:
64,192,30642,1,2,0:0:0:0:
320,192,30759,1,2,0:0:0:0:
192,192,30818,1,2,0:0:0:0:
448,192,30935,1,2,0:0:0:0:
320,192,30994,1,2,0:0:0:0:
64,192,31111,1,2,0:0:0:0:
448,192,31169,1,2,0:0:0:0:
320,192,31287,1,4,0:0:0:0:
192,192,31287,1,0,0:0:0:0:
448,192,31521,1,4,0:0:0:0:
192,192,31521,1,8,0:0:0:0:
320,192,31755,1,12,0:0:0:0:
64,192,31755,1,0,0:0:0:0:
320,192,31931,1,8,0:0:0:0:
448,192,31931,1,0,0:0:0:0:
320,192,32107,1,8,0:0:0:0:
192,192,32107,1,0,0:0:0:0:
192,192,32283,1,0,0:0:0:0:
64,192,32283,1,0,0:0:0:0:
320,192,32459,1,8,0:0:0:0:
64,192,32459,1,0,0:0:0:0:
192,192,32576,1,8,0:0:0:0:
320,192,32576,1,0,0:0:0:0:
192,192,32693,1,12,0:0:0:0:
448,192,32693,1,0,0:0:0:0:
320,192,32869,1,8,0:0:0:0:
192,192,32869,1,0,0:0:0:0:
320,192,33044,1,8,0:0:0:0:
448,192,33044,1,0,0:0:0:0:
64,192,33162,1,12,0:0:0:0:
192,192,33220,1,0,0:0:0:0:
320,192,33279,1,0,0:0:0:0:
448,192,33337,1,0,0:0:0:0:
64,192,33396,1,8,0:0:0:0:
192,192,33396,1,0,0:0:0:0:
448,192,33513,1,0,0:0:0:0:
192,192,33630,1,12,0:0:0:0:
64,192,33630,1,0,0:0:0:0:
320,192,33689,1,0,0:0:0:0:
448,192,33748,1,0,0:0:0:0:
64,192,33865,1,8,0:0:0:0:
192,192,33865,1,0,0:0:0:0:
64,192,33982,1,8,0:0:0:0:
320,192,34099,1,12,0:0:0:0:
448,192,34099,1,0,0:0:0:0:
192,192,34158,1,0,0:0:0:0:
64,192,34216,1,0,0:0:0:0:
320,192,34334,1,8,0:0:0:0:
192,192,34334,1,0,0:0:0:0:
64,192,34451,1,0,0:0:0:0:
448,192,34568,1,12,0:0:0:0:
192,192,34568,1,0,0:0:0:0:
64,192,34685,1,0,0:0:0:0:
192,192,34744,1,0,0:0:0:0:
320,192,34802,1,8,0:0:0:0:
448,192,34802,1,0,0:0:0:0:
64,192,34919,1,8,0:0:0:0:
448,192,35037,1,12,0:0:0:0:
192,192,35037,1,0,0:0:0:0:
64,192,35154,1,0,0:0:0:0:
192,192,35154,1,0,0:0:0:0:
320,192,35271,1,12,0:0:0:0:
448,192,35271,1,0,0:0:0:0:
448,192,35505,1,12,0:0:0:0:
320,192,35505,1,0,0:0:0:0:
192,192,35681,1,8,0:0:0:0:
64,192,35681,1,0,0:0:0:0:
192,192,35857,1,8,0:0:0:0:
64,192,35857,1,0,0:0:0:0:
192,192,36033,1,0,0:0:0:0:
64,192,36033,1,0,0:0:0:0:
320,192,36209,1,8,0:0:0:0:
448,192,36209,1,0,0:0:0:0:
320,192,36326,1,8,0:0:0:0:
448,192,36326,1,0,0:0:0:0:
448,192,36443,1,12,0:0:0:0:
320,192,36443,1,0,0:0:0:0:
192,192,36619,1,8,0:0:0:0:
64,192,36619,1,0,0:0:0:0:
192,192,36794,1,8,0:0:0:0:
64,192,36794,1,0,0:0:0:0:
192,192,36970,1,0,0:0:0:0:
64,192,36970,1,0,0:0:0:0:
320,192,37146,1,8,0:0:0:0:
192,192,37146,1,0,0:0:0:0:
320,192,37263,1,0,0:0:0:0:
448,192,37380,1,12,0:0:0:0:
64,192,37439,1,0,0:0:0:0:
448,192,37498,1,0,0:0:0:0:
320,192,37615,1,8,0:0:0:0:
192,192,37615,1,0,0:0:0:0:
192,192,37732,1,8,0:0:0:0:
64,192,37849,1,12,0:0:0:0:
448,192,37908,1,0,0:0:0:0:
64,192,37966,1,0,0:0:0:0:
448,192,38084,1,8,0:0:0:0:
320,192,38142,1,0,0:0:0:0:
192,192,38201,1,8,0:0:0:0:
448,192,38318,1,12,0:0:0:0:
320,192,38435,1,0,0:0:0:0:
192,192,38494,1,0,0:0:0:0:
64,192,38552,1,8,0:0:0:0:
192,192,38611,1,0,0:0:0:0:
320,192,38669,1,0,0:0:0:0:
64,192,38787,1,12,0:0:0:0:
192,192,38845,1,0,0:0:0:0:
320,192,38904,1,0,0:0:0:0:
448,192,38962,1,0,0:0:0:0:
192,192,39021,1,8,0:0:0:0:
64,192,39021,1,0,0:0:0:0:
64,192,39138,1,0,0:0:0:0:
192,192,39197,1,0,0:0:0:0:
448,192,39255,1,8,0:0:0:0:
192,192,39373,1,0,0:0:0:0:
64,192,39373,1,0,0:0:0:0:
448,192,39490,1,8,0:0:0:0:
320,192,39548,1,0,0:0:0:0:
64,192,39607,1,0,0:0:0:0:
320,192,39724,1,8,0:0:0:0:
448,192,39724,1,0,0:0:0:0:
64,192,39841,1,0,0:0:0:0:
192,192,39900,1,0,0:0:0:0:
320,192,39959,1,8,0:0:0:0:
448,192,40076,1,0,0:0:0:0:
320,192,40134,1,0,0:0:0:0:
192,192,40193,1,8,0:0:0:0:
448,192,40310,1,0,0:0:0:0:
64,192,40369,1,0,0:0:0:0:
320,192,40427,128,8,40662:0:0:0:0:
192,192,40662,128,0,40896:0:0:0:0:
448,192,40896,1,0,0:0:0:0:
64,192,40896,1,8,0:0:0:0:
320,192,41013,1,0,0:0:0:0:
192,192,41072,1,0,0:0:0:0:
448,192,41130,1,8,0:0:0:0:
320,192,41248,1,0,0:0:0:0:
64,192,41248,1,0,0:0:0:0:
192,192,41365,1,8,0:0:0:0:
320,192,41423,1,0,0:0:0:0:
64,192,41482,1,0,0:0:0:0:
448,192,41599,1,8,0:0:0:0:
192,192,41599,1,0,0:0:0:0:
320,192,41716,1,0,0:0:0:0:
192,192,41775,1,0,0:0:0:0:
64,192,41834,1,8,0:0:0:0:
320,192,41912,1,4,0:0:0:0:
192,192,41990,1,4,0:0:0:0:
448,192,42068,1,4,0:0:0:0:
64,192,42146,1,4,0:0:0:0:
320,192,42224,1,4,0:0:0:0:
192,192,42302,128,8,42537:0:0:0:0:
320,192,42537,128,0,42771:0:0:0:0:
64,192,42771,1,8,0:0:0:0:
448,192,42771,1,0,0:0:0:0:
192,192,42888,1,0,0:0:0:0:
320,192,42947,1,0,0:0:0:0:
448,192,43005,1,8,0:0:0:0:
448,192,43123,1,0,0:0:0:0:
64,192,43123,1,0,0:0:0:0:
320,192,43240,1,8,0:0:0:0:
192,192,43298,1,0,0:0:0:0:
64,192,43357,1,0,0:0:0:0:
192,192,43474,1,8,0:0:0:0:
320,192,43474,1,0,0:0:0:0:
448,192,43591,1,0,0:0:0:0:
64,192,43650,1,0,0:0:0:0:
192,192,43709,1,8,0:0:0:0:
320,192,43787,1,8,0:0:0:0:
448,192,43865,1,8,0:0:0:0:
64,192,43943,1,8,0:0:0:0:
192,192,44021,1,8,0:0:0:0:
320,192,44099,1,8,0:0:0:0:
192,192,44177,1,8,0:0:0:0:
320,192,44255,1,8,0:0:0:0:
448,192,44334,1,8,0:0:0:0:
64,192,44412,1,8,0:0:0:0:
320,192,44490,1,8,0:0:0:0:
192,192,44568,1,8,0:0:0:0:
448,192,44646,1,8,0:0:0:0:
64,192,44646,1,0,0:0:0:0:
192,192,44705,1,0,0:0:0:0:
320,192,44763,1,0,0:0:0:0:
448,192,44822,1,0,0:0:0:0:
64,192,44880,1,8,0:0:0:0:
192,192,44939,1,0,0:0:0:0:
320,192,44998,1,0,0:0:0:0:
448,192,45056,1,0,0:0:0:0:
64,192,45115,1,8,0:0:0:0:
192,192,45173,1,0,0:0:0:0:
320,192,45232,1,0,0:0:0:0:
448,192,45291,1,0,0:0:0:0:
64,192,45349,1,8,0:0:0:0:
192,192,45408,1,0,0:0:0:0:
320,192,45466,1,0,0:0:0:0:
448,192,45525,1,0,0:0:0:0:
64,192,45584,1,2,0:0:0:0:
192,192,45584,1,8,0:0:0:0:
448,192,45701,1,0,0:0:0:0:
320,192,45759,1,0,0:0:0:0:
192,192,45818,1,0,0:0:0:0:
64,192,45876,1,0,0:0:0:0:
320,192,45935,1,10,0:0:0:0:
448,192,45935,1,0,0:0:0:0:
64,192,46052,1,0,0:0:0:0:
192,192,46111,1,0,0:0:0:0:
320,192,46169,1,0,0:0:0:0:
448,192,46228,1,0,0:0:0:0:
192,192,46287,1,10,0:0:0:0:
64,192,46287,1,0,0:0:0:0:
448,192,46521,1,8,0:0:0:0:
320,192,46580,1,8,0:0:0:0:
192,192,46638,1,8,0:0:0:0:
64,192,46697,1,8,0:0:0:0:
448,192,46755,1,8,0:0:0:0:
64,192,46873,1,8,0:0:0:0:
192,192,46931,1,8,0:0:0:0:
320,192,46990,1,8,0:0:0:0:
448,192,47048,1,8,0:0:0:0:
64,192,47107,1,8,0:0:0:0:
448,192,47224,128,0,47459:0:0:0:0:
448,192,47576,1,8,0:0:0:0:
320,192,47634,1,8,0:0:0:0:
192,192,47693,1,8,0:0:0:0:
64,192,47751,1,8,0:0:0:0:
448,192,47810,1,8,0:0:0:0:
64,192,47927,1,8,0:0:0:0:
192,192,47986,1,8,0:0:0:0:
320,192,48044,1,8,0:0:0:0:
448,192,48103,1,8,0:0:0:0:
64,192,48162,1,8,0:0:0:0:
448,192,48279,1,8,0:0:0:0:
320,192,48337,1,8,0:0:0:0:
192,192,48396,1,8,0:0:0:0:
64,192,48455,1,8,0:0:0:0:
192,192,48513,1,8,0:0:0:0:
320,192,48572,1,8,0:0:0:0:
448,192,48630,1,8,0:0:0:0:
64,192,48748,1,8,0:0:0:0:
192,192,48806,1,8,0:0:0:0:
320,192,48865,1,8,0:0:0:0:
448,192,48923,1,8,0:0:0:0:
64,192,48982,1,8,0:0:0:0:
320,192,49099,128,0,49334:0:0:0:0:
192,192,49334,128,0,50271:0:0:0:0:
448,192,50271,1,8,0:0:0:0:
320,192,50330,1,8,0:0:0:0:
192,192,50388,1,8,0:0:0:0:
64,192,50447,1,8,0:0:0:0:
448,192,50505,1,8,0:0:0:0:
64,192,50623,1,8,0:0:0:0:
192,192,50681,1,8,0:0:0:0:
320,192,50740,1,8,0:0:0:0:
448,192,50798,1,8,0:0:0:0:
64,192,50857,1,8,0:0:0:0:
320,192,50974,128,0,51209:0:0:0:0:
64,192,51326,1,8,0:0:0:0:
192,192,51384,1,8,0:0:0:0:
320,192,51443,1,8,0:0:0:0:
448,192,51501,1,8,0:0:0:0:
64,192,51560,1,8,0:0:0:0:
448,192,51677,1,8,0:0:0:0:
320,192,51736,1,8,0:0:0:0:
192,192,51794,1,8,0:0:0:0:
64,192,51853,1,8,0:0:0:0:
448,192,51912,1,8,0:0:0:0:
64,192,52029,1,8,0:0:0:0:
192,192,52087,1,8,0:0:0:0:
320,192,52146,1,8,0:0:0:0:
448,192,52205,1,8,0:0:0:0:
320,192,52263,1,8,0:0:0:0:
192,192,52322,1,8,0:0:0:0:
64,192,52380,1,8,0:0:0:0:
448,192,52498,1,8,0:0:0:0:
320,192,52556,1,8,0:0:0:0:
192,192,52615,1,8,0:0:0:0:
64,192,52673,1,8,0:0:0:0:
448,192,52732,1,8,0:0:0:0:
192,192,52849,128,0,53084:0:0:0:0:
448,192,53084,1,4,0:0:0:0:
320,192,53142,1,4,0:0:0:0:
64,192,53201,1,0,0:0:0:0:
192,192,53259,1,0,0:0:0:0:
448,192,53318,1,4,0:0:0:0:
320,192,53435,1,4,0:0:0:0:
192,192,53494,1,4,0:0:0:0:
64,192,53552,1,0,0:0:0:0:
320,192,53611,1,0,0:0:0:0:
448,192,53669,1,4,0:0:0:0:
192,192,53787,1,4,0:0:0:0:
320,192,53845,1,4,0:0:0:0:
448,192,53904,1,0,0:0:0:0:
64,192,53962,1,0,0:0:0:0:
192,192,54021,1,8,0:0:0:0:
320,192,54080,1,8,0:0:0:0:
448,192,54138,1,8,0:0:0:0:
64,192,54197,1,8,0:0:0:0:
192,192,54255,1,8,0:0:0:0:
448,192,54373,1,8,0:0:0:0:
320,192,54431,1,8,0:0:0:0:
192,192,54490,1,8,0:0:0:0:
64,192,54548,1,8,0:0:0:0:
320,192,54607,1,8,0:0:0:0:
448,192,54724,1,12,0:0:0:0:
64,192,54724,1,0,0:0:0:0:
192,192,54900,1,12,0:0:0:0:
448,192,54900,1,0,0:0:0:0:
320,192,55076,1,8,0:0:0:0:
192,192,55134,1,8,0:0:0:0:
64,192,55193,1,8,0:0:0:0:
320,192,55251,1,8,0:0:0:0:
448,192,55310,1,8,0:0:0:0:
320,192,55427,1,8,0:0:0:0:
192,192,55486,1,8,0:0:0:0:
64,192,55544,1,8,0:0:0:0:
448,192,55603,1,8,0:0:0:0:
320,192,55662,1,8,0:0:0:0:
64,192,55779,1,8,0:0:0:0:
192,192,55837,1,8,0:0:0:0:
320,192,55896,1,8,0:0:0:0:
448,192,55955,1,8,0:0:0:0:
320,192,56013,1,8,0:0:0:0:
192,192,56072,1,8,0:0:0:0:
64,192,56130,1,8,0:0:0:0:
448,192,56248,1,8,0:0:0:0:
320,192,56306,1,8,0:0:0:0:
192,192,56365,1,8,0:0:0:0:
64,192,56423,1,8,0:0:0:0:
320,192,56482,1,8,0:0:0:0:
448,192,56599,128,0,56834:0:0:0:0:
192,192,56834,128,0,57771:0:0:0:0:
448,192,57771,1,8,0:0:0:0:
320,192,57830,1,8,0:0:0:0:
192,192,57888,1,8,0:0:0:0:
320,192,57947,1,8,0:0:0:0:
448,192,58005,1,8,0:0:0:0:
64,192,58123,1,8,0:0:0:0:
192,192,58181,1,8,0:0:0:0:
320,192,58240,1,8,0:0:0:0:
192,192,58298,1,8,0:0:0:0:
64,192,58357,1,8,0:0:0:0:
192,192,58474,1,12,0:0:0:0:
320,192,58474,1,0,0:0:0:0:
448,192,58650,1,12,0:0:0:0:
64,192,58650,1,0,0:0:0:0:
64,192,58826,1,8,0:0:0:0:
192,192,58884,1,8,0:0:0:0:
320,192,58943,1,8,0:0:0:0:
192,192,59001,1,8,0:0:0:0:
64,192,59060,1,8,0:0:0:0:
448,192,59177,1,8,0:0:0:0:
320,192,59236,1,8,0:0:0:0:
192,192,59294,1,8,0:0:0:0:
320,192,59353,1,8,0:0:0:0:
448,192,59412,1,8,0:0:0:0:
64,192,59529,1,8,0:0:0:0:
192,192,59587,1,8,0:0:0:0:
320,192,59646,1,8,0:0:0:0:
192,192,59705,1,8,0:0:0:0:
64,192,59763,1,8,0:0:0:0:
192,192,59880,1,4,0:0:0:0:
320,192,59880,1,0,0:0:0:0:
64,192,59998,1,8,0:0:0:0:
448,192,59998,1,0,0:0:0:0:
320,192,60115,1,8,0:0:0:0:
192,192,60115,1,4,0:0:0:0:
448,192,60349,1,4,0:0:0:0:
64,192,60349,1,0,0:0:0:0:
192,192,60466,1,4,0:0:0:0:
320,192,60525,1,0,0:0:0:0:
448,192,60584,1,0,0:0:0:0:
64,192,60584,1,0,0:0:0:0:
192,192,60701,1,0,0:0:0:0:
64,192,60818,1,0,0:0:0:0:
320,192,60935,1,0,0:0:0:0:
448,192,61052,1,0,0:0:0:0:
320,192,61169,1,0,0:0:0:0:
192,192,61404,1,0,0:0:0:0:
448,192,61873,1,0,0:0:0:0:
64,192,62224,1,0,0:0:0:0:
448,192,62576,1,0,0:0:0:0:
320,192,62693,1,0,0:0:0:0:
192,192,62810,1,0,0:0:0:0:
64,192,62927,1,0,0:0:0:0:
192,192,63044,1,0,0:0:0:0:
320,192,63279,1,0,0:0:0:0:
448,192,63513,1,0,0:0:0:0:
320,192,63748,1,0,0:0:0:0:
192,192,64099,1,0,0:0:0:0:
64,192,64490,1,0,0:0:0:0:
192,192,64646,1,0,0:0:0:0:
320,192,64802,1,0,0:0:0:0:
448,192,65154,1,0,0:0:0:0:
192,192,65271,1,0,0:0:0:0:
64,192,65623,1,0,0:0:0:0:
448,192,65974,1,0,0:0:0:0:
320,192,66365,1,0,0:0:0:0:
192,192,66521,1,0,0:0:0:0:
320,192,66677,1,0,0:0:0:0:
192,192,67029,1,0,0:0:0:0:
320,192,67146,1,0,0:0:0:0:
448,192,67498,1,0,0:0:0:0:
192,192,67849,1,0,0:0:0:0:
64,192,68201,1,0,0:0:0:0:
192,192,68318,1,0,0:0:0:0:
320,192,68435,1,0,0:0:0:0:
448,192,68552,1,0,0:0:0:0:
320,192,68669,1,0,0:0:0:0:
192,192,68904,1,0,0:0:0:0:
448,192,69373,1,0,0:0:0:0:
64,192,69724,1,0,0:0:0:0:
448,192,70076,1,0,0:0:0:0:
320,192,70193,1,0,0:0:0:0:
192,192,70310,1,0,0:0:0:0:
64,192,70427,1,0,0:0:0:0:
192,192,70544,1,0,0:0:0:0:
320,192,70779,1,0,0:0:0:0:
64,192,71013,1,0,0:0:0:0:
448,192,71248,1,0,0:0:0:0:
192,192,71599,1,0,0:0:0:0:
448,192,71990,1,0,0:0:0:0:
320,192,72146,1,0,0:0:0:0:
192,192,72302,1,0,0:0:0:0:
64,192,72654,1,0,0:0:0:0:
192,192,72771,1,0,0:0:0:0:
320,192,73123,1,0,0:0:0:0:
448,192,73474,1,0,0:0:0:0:
64,192,73865,1,0,0:0:0:0:
192,192,74021,1,0,0:0:0:0:
320,192,74177,1,0,0:0:0:0:
448,192,74412,1,0,0:0:0:0:
320,192,74646,128,0,75349:0:0:0:0:
448,192,75584,1,12,0:0:0:0:
64,192,75584,1,0,0:0:0:0:
320,192,75701,1,0,0:0:0:0:
192,192,75818,1,0,0:0:0:0:
448,192,75935,1,12,0:0:0:0:
64,192,75935,1,0,0:0:0:0:
320,192,76052,1,0,0:0:0:0:
192,192,76169,1,0,0:0:0:0:
64,192,76287,1,0,0:0:0:0:
192,192,76404,1,0,0:0:0:0:
320,192,76521,1,0,0:0:0:0:
64,192,76638,1,0,0:0:0:0:
192,192,76755,1,0,0:0:0:0:
448,192,76873,1,0,0:0:0:0:
320,192,76990,1,0,0:0:0:0:
192,192,77107,1,0,0:0:0:0:
320,192,77224,1,0,0:0:0:0:
192,192,77341,1,0,0:0:0:0:
64,192,77459,1,12,0:0:0:0:
448,192,77459,1,0,0:0:0:0:
192,192,77576,1,0,0:0:0:0:
320,192,77693,1,0,0:0:0:0:
64,192,77810,1,12,0:0:0:0:
448,192,77810,1,0,0:0:0:0:
192,192,77927,1,0,0:0:0:0:
320,192,78044,1,0,0:0:0:0:
448,192,78162,1,0,0:0:0:0:
320,192,78279,1,0,0:0:0:0:
192,192,78396,1,0,0:0:0:0:
64,192,78513,1,0,0:0:0:0:
320,192,78630,1,0,0:0:0:0:
448,192,78748,1,0,0:0:0:0:
192,192,78865,1,0,0:0:0:0:
448,192,78982,1,0,0:0:0:0:
320,192,79099,1,0,0:0:0:0:
192,192,79216,1,0,0:0:0:0:
448,192,79334,1,12,0:0:0:0:
64,192,79334,1,0,0:0:0:0:
192,192,79451,1,0,0:0:0:0:
320,192,79568,1,0,0:0:0:0:
192,192,79685,1,12,0:0:0:0:
448,192,79685,1,0,0:0:0:0:
64,192,79802,1,0,0:0:0:0:
320,192,79919,1,0,0:0:0:0:
448,192,80037,1,0,0:0:0:0:
320,192,80154,1,0,0:0:0:0:
192,192,80271,1,0,0:0:0:0:
64,192,80388,1,0,0:0:0:0:
448,192,80505,1,0,0:0:0:0:
64,192,80623,1,0,0:0:0:0:
320,192,80740,1,0,0:0:0:0:
192,192,80857,1,0,0:0:0:0:
448,192,80974,1,0,0:0:0:0:
192,192,81091,1,0,0:0:0:0:
448,192,81209,1,12,0:0:0:0:
64,192,81209,1,0,0:0:0:0:
320,192,81326,1,0,0:0:0:0:
192,192,81443,1,0,0:0:0:0:
64,192,81560,1,12,0:0:0:0:
320,192,81560,1,0,0:0:0:0:
448,192,81677,1,0,0:0:0:0:
192,192,81794,1,0,0:0:0:0:
448,192,81912,1,0,0:0:0:0:
192,192,82029,1,0,0:0:0:0:
320,192,82146,1,0,0:0:0:0:
192,192,82263,1,0,0:0:0:0:
320,192,82380,1,0,0:0:0:0:
64,192,82498,1,0,0:0:0:0:
320,192,82615,1,0,0:0:0:0:
64,192,82732,1,0,0:0:0:0:
320,192,82849,1,0,0:0:0:0:
64,192,83084,1,8,0:0:0:0:
192,192,83084,1,0,0:0:0:0:
192,192,83259,1,8,0:0:0:0:
320,192,83259,1,0,0:0:0:0:
448,192,83435,1,12,0:0:0:0:
320,192,83435,1,0,0:0:0:0:
320,192,83611,1,12,0:0:0:0:
192,192,83611,1,0,0:0:0:0:
192,192,83787,1,12,0:0:0:0:
64,192,83787,1,0,0:0:0:0:
448,192,84021,1,8,0:0:0:0:
320,192,84021,1,0,0:0:0:0:
320,192,84197,1,8,0:0:0:0:
192,192,84197,1,0,0:0:0:0:
64,192,84373,1,12,0:0:0:0:
192,192,84373,1,0,0:0:0:0:
192,192,84548,1,12,0:0:0:0:
320,192,84548,1,0,0:0:0:0:
64,192,84724,1,12,0:0:0:0:
448,192,84724,1,0,0:0:0:0:
192,192,84959,1,8,0:0:0:0:
320,192,84959,1,0,0:0:0:0:
64,192,85134,1,8,0:0:0:0:
192,192,85134,1,0,0:0:0:0:
320,192,85310,1,12,0:0:0:0:
448,192,85310,1,0,0:0:0:0:
320,192,85486,1,12,0:0:0:0:
192,192,85486,1,0,0:0:0:0:
192,192,85662,1,12,0:0:0:0:
64,192,85662,1,0,0:0:0:0:
320,192,85896,1,8,0:0:0:0:
192,192,85896,1,0,0:0:0:0:
320,192,86072,1,8,0:0:0:0:
448,192,86072,1,0,0:0:0:0:
192,192,86248,1,12,0:0:0:0:
64,192,86248,1,0,0:0:0:0:
320,192,86423,1,12,0:0:0:0:
192,192,86423,1,0,0:0:0:0:
64,192,86599,1,12,0:0:0:0:
448,192,86599,1,0,0:0:0:0:
320,192,86834,1,12,0:0:0:0:
448,192,86834,1,0,0:0:0:0:
320,192,87009,1,12,0:0:0:0:
192,192,87009,1,0,0:0:0:0:
192,192,87185,1,12,0:0:0:0:
64,192,87185,1,0,0:0:0:0:
320,192,87302,1,12,0:0:0:0:
448,192,87302,1,0,0:0:0:0:
320,192,87478,1,12,0:0:0:0:
192,192,87478,1,0,0:0:0:0:
192,192,87654,1,12,0:0:0:0:
64,192,87654,1,0,0:0:0:0:
320,192,87771,1,12,0:0:0:0:
448,192,87771,1,0,0:0:0:0:
64,192,87947,1,12,0:0:0:0:
192,192,87947,1,0,0:0:0:0:
320,192,88123,1,12,0:0:0:0:
448,192,88123,1,0,0:0:0:0:
448,192,88240,1,12,0:0:0:0:
320,192,88240,1,0,0:0:0:0:
192,192,88416,1,12,0:0:0:0:
64,192,88416,1,0,0:0:0:0:
448,192,88591,1,12,0:0:0:0:
320,192,88591,1,0,0:0:0:0:
64,192,88709,1,12,0:0:0:0:
192,192,88767,1,12,0:0:0:0:
320,192,88826,1,12,0:0:0:0:
448,192,88884,1,12,0:0:0:0:
64,192,88943,1,12,0:0:0:0:
192,192,89001,1,12,0:0:0:0:
320,192,89060,1,12,0:0:0:0:
448,192,89119,1,12,0:0:0:0:
64,192,89177,1,12,0:0:0:0:
192,192,89236,1,12,0:0:0:0:
320,192,89294,1,12,0:0:0:0:
448,192,89353,1,12,0:0:0:0:
64,192,89412,1,12,0:0:0:0:
192,192,89470,1,12,0:0:0:0:
320,192,89529,1,12,0:0:0:0:
448,192,89587,1,12,0:0:0:0:
64,192,89646,128,12,90584:0:0:0:0:
448,192,90584,1,0,0:0:0:0:
320,192,90818,1,0,0:0:0:0:
192,192,91052,1,0,0:0:0:0:
64,192,91287,1,0,0:0:0:0:
448,192,91521,1,14,0:0:0:0:
64,192,91521,1,14,0:0:0:0:
192,192,91638,1,0,0:0:0:0:
320,192,91697,1,0,0:0:0:0:
448,192,91755,1,0,0:0:0:0:
320,192,91873,1,0,0:0:0:0:
192,192,91873,1,0,0:0:0:0:
64,192,91990,1,0,0:0:0:0:
192,192,92048,1,0,0:0:0:0:
320,192,92107,1,0,0:0:0:0:
448,192,92224,1,0,0:0:0:0:
64,192,92224,1,0,0:0:0:0:
448,192,92341,1,0,0:0:0:0:
320,192,92400,1,0,0:0:0:0:
192,192,92459,1,0,0:0:0:0:
64,192,92576,1,0,0:0:0:0:
192,192,92634,1,0,0:0:0:0:
320,192,92693,1,0,0:0:0:0:
448,192,92810,1,0,0:0:0:0:
320,192,92869,1,0,0:0:0:0:
192,192,92927,1,0,0:0:0:0:
320,192,93044,1,0,0:0:0:0:
192,192,93103,1,0,0:0:0:0:
64,192,93162,1,0,0:0:0:0:
448,192,93220,1,0,0:0:0:0:
192,192,93279,1,0,0:0:0:0:
320,192,93337,1,0,0:0:0:0:
448,192,93396,1,0,0:0:0:0:
64,192,93396,1,0,0:0:0:0:
192,192,93513,1,0,0:0:0:0:
448,192,93572,1,0,0:0:0:0:
64,192,93630,1,0,0:0:0:0:
320,192,93748,1,0,0:0:0:0:
192,192,93748,1,0,0:0:0:0:
320,192,93865,1,0,0:0:0:0:
64,192,93923,1,0,0:0:0:0:
448,192,93982,1,0,0:0:0:0:
320,192,94099,1,0,0:0:0:0:
192,192,94099,1,0,0:0:0:0:
64,192,94216,1,0,0:0:0:0:
192,192,94275,1,0,0:0:0:0:
448,192,94334,1,0,0:0:0:0:
192,192,94451,1,0,0:0:0:0:
320,192,94509,1,0,0:0:0:0:
64,192,94568,1,0,0:0:0:0:
320,192,94685,1,0,0:0:0:0:
192,192,94744,1,0,0:0:0:0:
448,192,94802,1,0,0:0:0:0:
192,192,94919,1,0,0:0:0:0:
64,192,94919,1,0,0:0:0:0:
448,192,95037,1,0,0:0:0:0:
192,192,95095,1,0,0:0:0:0:
320,192,95154,1,0,0:0:0:0:
192,192,95212,1,0,0:0:0:0:
448,192,95271,1,14,0:0:0:0:
64,192,95271,1,0,0:0:0:0:
192,192,95388,1,0,0:0:0:0:
320,192,95447,1,0,0:0:0:0:
448,192,95505,1,0,0:0:0:0:
192,192,95623,1,0,0:0:0:0:
64,192,95623,1,0,0:0:0:0:
320,192,95740,1,0,0:0:0:0:
192,192,95798,1,0,0:0:0:0:
64,192,95857,1,0,0:0:0:0:
320,192,95974,1,0,0:0:0:0:
192,192,95974,1,0,0:0:0:0:
448,192,96091,1,0,0:0:0:0:
320,192,96150,1,0,0:0:0:0:
64,192,96209,1,0,0:0:0:0:
320,192,96326,1,0,0:0:0:0:
192,192,96384,1,0,0:0:0:0:
320,192,96443,1,0,0:0:0:0:
448,192,96560,1,0,0:0:0:0:
64,192,96560,1,0,0:0:0:0:
320,192,96677,1,0,0:0:0:0:
192,192,96794,1,0,0:0:0:0:
320,192,96853,1,0,0:0:0:0:
192,192,96912,128,0,97146:0:0:0:0:
320,192,97146,1,8,0:0:0:0:
448,192,97146,1,0,0:0:0:0:
448,192,97322,1,8,0:0:0:0:
320,192,97322,1,0,0:0:0:0:
448,192,97498,1,8,0:0:0:0:
320,192,97498,1,0,0:0:0:0:
192,192,97615,1,8,0:0:0:0:
64,192,97615,1,4,0:0:0:0:
192,192,97791,1,8,0:0:0:0:
64,192,97791,1,4,0:0:0:0:
192,192,97966,1,8,0:0:0:0:
64,192,97966,1,4,0:0:0:0:
448,192,98084,1,2,0:0:0:0:
320,192,98142,1,2,0:0:0:0:
192,192,98259,1,2,0:0:0:0:
320,192,98318,1,2,0:0:0:0:
192,192,98435,1,2,0:0:0:0:
64,192,98494,1,2,0:0:0:0:
320,192,98611,1,2,0:0:0:0:
192,192,98669,1,2,0:0:0:0:
320,192,98787,1,0,0:0:0:0:
448,192,98787,1,0,0:0:0:0:
448,192,99021,1,0,0:0:0:0:
320,192,99080,1,0,0:0:0:0:
192,192,99138,1,0,0:0:0:0:
64,192,99197,1,0,0:0:0:0:
448,192,99255,1,14,0:0:0:0:
320,192,99255,1,14,0:0:0:0:
320,192,99373,1,0,0:0:0:0:
64,192,99373,1,0,0:0:0:0:
448,192,99490,1,0,0:0:0:0:
320,192,99548,1,0,0:0:0:0:
192,192,99607,1,0,0:0:0:0:
320,192,99724,1,0,0:0:0:0:
64,192,99724,1,0,0:0:0:0:
192,192,99841,1,0,0:0:0:0:
320,192,99900,1,0,0:0:0:0:
448,192,99959,1,0,0:0:0:0:
64,192,100076,1,0,0:0:0:0:
192,192,100134,1,0,0:0:0:0:
320,192,100193,1,0,0:0:0:0:
192,192,100310,1,0,0:0:0:0:
320,192,100369,1,0,0:0:0:0:
448,192,100427,1,0,0:0:0:0:
64,192,100544,1,0,0:0:0:0:
192,192,100544,1,0,0:0:0:0:
320,192,100662,128,0,100896:0:0:0:0:
448,192,100896,1,0,0:0:0:0:
64,192,100896,1,0,0:0:0:0:
192,192,101013,1,0,0:0:0:0:
320,192,101072,1,0,0:0:0:0:
448,192,101130,1,0,0:0:0:0:
320,192,101248,1,0,0:0:0:0:
192,192,101248,1,0,0:0:0:0:
64,192,101365,1,0,0:0:0:0:
320,192,101443,1,0,0:0:0:0:
192,192,101521,1,0,0:0:0:0:
448,192,101599,1,0,0:0:0:0:
64,192,101677,1,0,0:0:0:0:
320,192,101755,1,0,0:0:0:0:
192,192,101834,1,8,0:0:0:0:
64,192,101834,1,2,0:0:0:0:
192,192,102009,1,8,0:0:0:0:
64,192,102009,1,2,0:0:0:0:
192,192,102185,1,8,0:0:0:0:
64,192,102185,1,2,0:0:0:0:
448,192,102302,1,0,0:0:0:0:
320,192,102419,128,8,102537:0:0:0:0:
192,192,102537,1,0,0:0:0:0:
64,192,102654,128,8,102771:0:0:0:0:
448,192,102771,1,0,0:0:0:0:
192,192,102771,1,0,0:0:0:0:
320,192,102888,1,0,0:0:0:0:
192,192,102947,1,0,0:0:0:0:
64,192,103005,128,0,103240:0:0:0:0:
192,192,103240,1,0,0:0:0:0:
320,192,103298,1,0,0:0:0:0:
448,192,103357,1,0,0:0:0:0:
64,192,103357,1,0,0:0:0:0:
192,192,103474,1,0,0:0:0:0:
192,192,103591,1,0,0:0:0:0:
448,192,103709,1,0,0:0:0:0:
320,192,103709,1,0,0:0:0:0:
64,192,103826,1,0,0:0:0:0:
448,192,103884,1,0,0:0:0:0:
320,192,104177,1,0,0:0:0:0:
192,192,104294,1,0,0:0:0:0:
64,192,104412,1,0,0:0:0:0:
320,192,104646,1,8,0:0:0:0:
448,192,104705,1,8,0:0:0:0:
320,192,104763,1,8,0:0:0:0:
192,192,104822,1,8,0:0:0:0:
64,192,104880,1,8,0:0:0:0:
192,192,104998,1,8,0:0:0:0:
64,192,105056,1,8,0:0:0:0:
192,192,105115,1,8,0:0:0:0:
320,192,105173,1,8,0:0:0:0:
448,192,105232,1,8,0:0:0:0:
64,192,105349,128,10,105584:0:0:0:0:
448,192,105584,1,8,0:0:0:0:
320,192,105642,1,8,0:0:0:0:
192,192,105701,1,8,0:0:0:0:
320,192,105759,1,8,0:0:0:0:
448,192,105818,1,8,0:0:0:0:
64,192,105935,1,8,0:0:0:0:
192,192,105994,1,8,0:0:0:0:
320,192,106052,1,8,0:0:0:0:
192,192,106111,1,8,0:0:0:0:
64,192,106169,1,8,0:0:0:0:
448,192,106287,128,0,106521:0:0:0:0:
64,192,106521,1,0,0:0:0:0:
192,192,106580,1,0,0:0:0:0:
320,192,106638,1,0,0:0:0:0:
448,192,106697,1,0,0:0:0:0:
64,192,106755,1,0,0:0:0:0:
192,192,106814,1,0,0:0:0:0:
320,192,106873,1,0,0:0:0:0:
64,192,106931,1,0,0:0:0:0:
448,192,106990,1,0,0:0:0:0:
320,192,107048,1,0,0:0:0:0:
192,192,107107,1,0,0:0:0:0:
64,192,107166,1,0,0:0:0:0:
448,192,107224,1,0,0:0:0:0:
320,192,107283,1,0,0:0:0:0:
192,192,107341,1,0,0:0:0:0:
448,192,107400,1,0,0:0:0:0:
64,192,107459,1,0,0:0:0:0:
448,192,107693,1,0,0:0:0:0:
64,192,107927,128,0,108396:0:0:0:0:
448,192,108396,1,0,0:0:0:0:
320,192,108455,1,0,0:0:0:0:
192,192,108513,1,0,0:0:0:0:
64,192,108572,1,0,0:0:0:0:
448,192,108630,1,0,0:0:0:0:
320,192,108689,1,0,0:0:0:0:
192,192,108748,1,0,0:0:0:0:
64,192,108806,1,0,0:0:0:0:
448,192,108865,1,0,0:0:0:0:
320,192,108923,1,0,0:0:0:0:
192,192,108982,1,0,0:0:0:0:
64,192,109041,1,0,0:0:0:0:
448,192,109099,1,0,0:0:0:0:
320,192,109158,1,0,0:0:0:0:
192,192,109216,1,0,0:0:0:0:
64,192,109275,1,0,0:0:0:0:
448,192,109334,1,0,0:0:0:0:
320,192,109392,1,0,0:0:0:0:
192,192,109451,1,0,0:0:0:0:
64,192,109509,1,0,0:0:0:0:
448,192,109568,1,0,0:0:0:0:
320,192,109626,1,0,0:0:0:0:
192,192,109685,1,0,0:0:0:0:
64,192,109744,1,0,0:0:0:0:
448,192,109802,1,0,0:0:0:0:
320,192,109861,1,0,0:0:0:0:
192,192,109919,1,0,0:0:0:0:
64,192,109978,1,0,0:0:0:0:
448,192,110037,1,0,0:0:0:0:
320,192,110095,1,0,0:0:0:0:
192,192,110154,1,0,0:0:0:0:
64,192,110212,1,0,0:0:0:0:
448,192,110271,1,0,0:0:0:0:
320,192,110330,1,0,0:0:0:0:
192,192,110388,1,0,0:0:0:0:
64,192,110447,1,0,0:0:0:0:
448,192,110505,1,0,0:0:0:0:
320,192,110564,1,0,0:0:0:0:
192,192,110623,1,0,0:0:0:0:
64,192,110681,1,0,0:0:0:0:
448,192,110740,1,0,0:0:0:0:
320,192,110798,1,0,0:0:0:0:
192,192,110857,1,0,0:0:0:0:
64,192,110916,1,0,0:0:0:0:
448,192,110974,1,0,0:0:0:0:
320,192,111033,1,0,0:0:0:0:
192,192,111091,1,0,0:0:0:0:
64,192,111150,1,0,0:0:0:0:
448,192,111209,128,8,111326:0:0:0:0:
320,192,111326,1,8,0:0:0:0:
192,192,111326,1,0,0:0:0:0:
64,192,111443,128,8,111560:0:0:0:0:
320,192,111560,1,8,0:0:0:0:
192,192,111560,1,0,0:0:0:0:
192,192,111794,1,0,0:0:0:0:
64,192,111912,1,0,0:0:0:0:
448,192,111912,1,0,0:0:0:0:
320,192,112029,1,0,0:0:0:0:
64,192,112146,1,0,0:0:0:0:
192,192,112205,1,0,0:0:0:0:
320,192,112263,1,0,0:0:0:0:
448,192,112322,1,0,0:0:0:0:
64,192,112380,1,0,0:0:0:0:
192,192,112439,1,0,0:0:0:0:
320,192,112498,1,0,0:0:0:0:
448,192,112556,1,0,0:0:0:0:
64,192,112615,1,0,0:0:0:0:
192,192,112673,1,0,0:0:0:0:
320,192,112732,1,0,0:0:0:0:
448,192,112791,1,0,0:0:0:0:
64,192,112849,1,0,0:0:0:0:
192,192,112908,1,0,0:0:0:0:
320,192,112966,1,0,0:0:0:0:
448,192,113025,1,0,0:0:0:0:
64,192,113084,1,0,0:0:0:0:
192,192,113142,1,0,0:0:0:0:
320,192,113201,1,0,0:0:0:0:
448,192,113259,1,0,0:0:0:0:
64,192,113318,1,0,0:0:0:0:
192,192,113376,1,0,0:0:0:0:
320,192,113435,1,0,0:0:0:0:
448,192,113494,1,0,0:0:0:0:
64,192,113552,1,0,0:0:0:0:
192,192,113611,1,0,0:0:0:0:
320,192,113669,1,0,0:0:0:0:
448,192,113728,1,0,0:0:0:0:
64,192,113787,1,0,0:0:0:0:
192,192,113845,1,0,0:0:0:0:
320,192,113904,1,0,0:0:0:0:
448,192,113962,1,0,0:0:0:0:
64,192,114021,1,0,0:0:0:0:
192,192,114080,1,0,0:0:0:0:
320,192,114138,1,0,0:0:0:0:
448,192,114197,1,0,0:0:0:0:
64,192,114255,1,0,0:0:0:0:
192,192,114314,1,0,0:0:0:0:
320,192,114373,1,0,0:0:0:0:
448,192,114431,1,0,0:0:0:0:
64,192,114490,1,0,0:0:0:0:
192,192,114548,1,0,0:0:0:0:
320,192,114607,1,0,0:0:0:0:
448,192,114666,1,0,0:0:0:0:
64,192,114724,1,0,0:0:0:0:
192,192,114783,1,0,0:0:0:0:
320,192,114841,1,0,0:0:0:0:
448,192,114900,1,0,0:0:0:0:
64,192,114959,128,0,115134:0:0:0:0:
192,192,115134,128,0,115310:0:0:0:0:
320,192,115310,128,0,115427:0:0:0:0:
448,192,115427,128,0,115662:0:0:0:0:
192,192,115662,128,0,115896:0:0:0:0:
448,192,115896,1,12,0:0:0:0:
64,192,115896,1,0,0:0:0:0:
320,192,116013,1,0,0:0:0:0:
192,192,116130,1,0,0:0:0:0:
448,192,116248,1,12,0:0:0:0:
64,192,116248,1,0,0:0:0:0:
320,192,116365,1,0,0:0:0:0:
192,192,116482,1,0,0:0:0:0:
64,192,116599,1,0,0:0:0:0:
320,192,116716,1,0,0:0:0:0:
64,192,116834,1,0,0:0:0:0:
192,192,117068,1,0,0:0:0:0:
320,192,117302,1,0,0:0:0:0:
64,192,117419,1,0,0:0:0:0:
448,192,117537,1,0,0:0:0:0:
192,192,117654,1,0,0:0:0:0:
64,192,117771,1,12,0:0:0:0:
448,192,117771,1,0,0:0:0:0:
192,192,117888,1,0,0:0:0:0:
320,192,118005,1,0,0:0:0:0:
64,192,118123,1,12,0:0:0:0:
448,192,118123,1,0,0:0:0:0:
192,192,118240,1,0,0:0:0:0:
320,192,118357,1,0,0:0:0:0:
448,192,118474,1,0,0:0:0:0:
192,192,118591,1,0,0:0:0:0:
448,192,118709,1,0,0:0:0:0:
192,192,118826,1,0,0:0:0:0:
320,192,118943,1,0,0:0:0:0:
64,192,119060,1,0,0:0:0:0:
192,192,119177,1,0,0:0:0:0:
320,192,119294,1,0,0:0:0:0:
64,192,119412,1,0,0:0:0:0:
448,192,119529,1,0,0:0:0:0:
192,192,119646,1,12,0:0:0:0:
320,192,119646,1,0,0:0:0:0:
448,192,119763,1,0,0:0:0:0:
64,192,119880,1,0,0:0:0:0:
320,192,119998,1,12,0:0:0:0:
192,192,119998,1,0,0:0:0:0:
64,192,120115,1,0,0:0:0:0:
448,192,120232,1,0,0:0:0:0:
320,192,120349,1,0,0:0:0:0:
64,192,120466,1,0,0:0:0:0:
192,192,120584,1,0,0:0:0:0:
320,192,120818,1,0,0:0:0:0:
192,192,121052,1,0,0:0:0:0:
448,192,121169,1,0,0:0:0:0:
64,192,121287,1,0,0:0:0:0:
320,192,121404,1,0,0:0:0:0:
448,192,121521,1,12,0:0:0:0:
64,192,121521,1,0,0:0:0:0:
320,192,121638,1,0,0:0:0:0:
192,192,121755,1,0,0:0:0:0:
448,192,121873,1,12,0:0:0:0:
64,192,121873,1,0,0:0:0:0:
320,192,121990,1,0,0:0:0:0:
192,192,122107,1,0,0:0:0:0:
64,192,122224,1,0,0:0:0:0:
320,192,122341,1,0,0:0:0:0:
192,192,122459,1,0,0:0:0:0:
448,192,122576,1,0,0:0:0:0:
64,192,122693,1,0,0:0:0:0:
320,192,122810,1,0,0:0:0:0:
192,192,122927,1,0,0:0:0:0:
448,192,123044,1,0,0:0:0:0:
320,192,123162,1,0,0:0:0:0:
64,192,123396,1,0,0:0:0:0:
192,192,123455,1,0,0:0:0:0:
448,192,123513,1,0,0:0:0:0:
320,192,123572,1,0,0:0:0:0:
64,192,123630,1,0,0:0:0:0:
192,192,123689,1,0,0:0:0:0:
448,192,123748,1,0,0:0:0:0:
320,192,123806,1,0,0:0:0:0:
64,192,123865,1,0,0:0:0:0:
192,192,123923,1,0,0:0:0:0:
448,192,123982,1,0,0:0:0:0:
320,192,124041,1,0,0:0:0:0:
64,192,124099,128,8,124275:0:0:0:0:
192,192,124275,1,8,0:0:0:0:
320,192,124334,1,0,0:0:0:0:
448,192,124392,1,0,0:0:0:0:
192,192,124451,1,0,0:0:0:0:
64,192,124509,1,0,0:0:0:0:
320,192,124568,1,0,0:0:0:0:
448,192,124626,1,0,0:0:0:0:
192,192,124685,1,0,0:0:0:0:
64,192,124744,1,0,0:0:0:0:
320,192,124802,1,0,0:0:0:0:
448,192,124861,1,0,0:0:0:0:
192,192,124919,1,0,0:0:0:0:
64,192,124978,1,0,0:0:0:0:
320,192,125037,128,8,125271:0:0:0:0:
448,192,125271,1,8,0:0:0:0:
320,192,125564,1,0,0:0:0:0:
192,192,125798,1,0,0:0:0:0:
64,192,126033,1,0,0:0:0:0:
448,192,126267,1,0,0:0:0:0:
64,192,126267,1,0,0:0:0:0:
