osu file format v14

[General]
AudioFilename: Blastix Riotz.mp3
AudioLeadIn: 0
PreviewTime: 16469
Countdown: 1
SampleSet: Normal
StackLeniency: 0.2
Mode: 0
LetterboxInBreaks: 0
WidescreenStoryboard: 0

[Editor]
Bookmarks: 8032,16469,31469,46469,60532,75532,91469
DistanceSpacing: 0.3
BeatDivisor: 3
GridSize: 4
TimelineZoom: 6.099997

[Metadata]
Title:Blastix Riotz
TitleUnicode:Blastix Riotz
Artist:Camellia as "Bang Riot"
ArtistUnicode:かめりあ as "Bang Riot"
Creator:BluOxy
Version:MASTER
Source:SOUND VOLTEX III GRAVITY WARS
Tags:konami sdvx
BeatmapID:1486137
BeatmapSetID:702326

[Difficulty]
HPDrainRate:6.5
CircleSize:4
OverallDifficulty:7
ApproachRate:9.6
SliderMultiplier:1.6
SliderTickRate:1

[Events]
//Background and Video events
0,0,"l_100.jpg",0,0
//Break Periods
2,97685,107835
//Storyboard Layer 0 (Background)
//Storyboard Layer 1 (Fail)
//Storyboard Layer 2 (Pass)
//Storyboard Layer 3 (Foreground)
//Storyboard Sound Samples

[TimingPoints]
532,234.375,4,1,0,80,1,0
7797,-66.6666666666667,4,1,0,80,0,0
8032,-100,4,1,0,80,0,0
14360,-66.6666666666667,4,1,0,80,0,0
14594,-200,4,1,0,80,0,0
15532,-100,4,1,0,80,0,0
16469,-100,4,1,0,80,0,0
22856,-100,4,1,0,5,0,0
22914,-100,4,1,0,80,0,0
23090,-100,4,1,0,5,0,0
23149,-100,4,1,0,80,0,0
23207,-100,4,1,0,5,0,0
23266,-100,4,1,0,80,0,0
23383,-100,4,1,0,5,0,0
23442,-100,4,1,0,80,0,0
23559,-100,4,1,0,5,0,0
23617,-100,4,1,0,80,0,0
23676,-100,4,1,0,5,0,0
23735,-100,4,1,0,80,0,0
23969,-66.6666666666667,4,1,0,80,0,0
24203,-100,4,1,0,80,0,0
27485,-66.6666666666667,4,1,0,80,0,0
27719,-100,4,1,0,80,0,0
28657,-88.4955752212389,4,1,0,80,0,0
29125,-100,4,1,0,80,0,0
31235,-66.6666666666667,4,1,0,80,0,0
31469,-83.3333333333333,4,1,0,80,0,0
32407,-66.6666666666667,4,1,0,80,0,0
32875,-83.3333333333333,4,1,0,80,0,0
33344,-100,4,1,0,80,0,0
35219,-83.3333333333333,4,1,0,80,0,0
38969,-83.3333333333333,4,1,0,80,0,0
40610,-66.6666666666667,4,1,0,80,0,0
40844,-83.3333333333333,4,1,0,80,0,0
43657,-66.6666666666667,4,2,0,80,0,0
44594,-83.3333333333333,4,1,0,80,0,0
46469,-100,4,1,0,80,0,0
49282,-200,4,1,0,80,0,0
50219,-100,4,1,0,80,0,0
54672,-66.6666666666667,4,1,0,80,0,0
54907,-100,4,1,0,80,0,0
56782,-200,4,1,0,80,0,0
57719,-100,4,1,0,80,0,0
58422,-66.6666666666667,4,1,0,80,0,0
58657,-100,4,1,0,80,0,0
60532,-200,4,2,0,80,0,0
61703,-200,4,2,0,5,0,0
61821,-200,4,2,0,80,0,0
62114,-200,4,2,0,5,0,0
62172,-200,4,2,0,80,0,0
62348,-200,4,2,0,5,0,0
62407,-200,4,2,0,80,0,0
63110,-200,4,2,0,5,0,0
63227,-200,4,2,0,80,0,0
63344,-200,4,2,0,5,0,0
63461,-200,4,2,0,80,0,0
63578,-200,4,2,0,5,0,0
63696,-200,4,2,0,80,0,0
63930,-200,4,2,0,5,0,0
64047,-200,4,2,0,80,0,0
64223,-200,4,2,0,5,0,0
64282,-200,4,2,0,80,0,0
65043,-200,4,2,0,5,0,0
65102,-200,4,2,0,80,0,0
65453,-200,4,2,0,5,0,0
65571,-200,4,2,0,80,0,0
65805,-200,4,2,0,5,0,0
65922,-200,4,2,0,80,0,0
66098,-200,4,2,0,5,0,0
66157,-200,4,2,0,80,0,0
66918,-200,4,2,0,5,0,0
66977,-200,4,2,0,80,0,0
68735,-200,4,2,0,5,0,0
68852,-200,4,2,0,80,0,0
69203,-200,4,2,0,5,0,0
69321,-200,4,2,0,80,0,0
69614,-200,4,2,0,5,0,0
69672,-200,4,2,0,80,0,0
69789,-200,4,2,0,5,0,0
69907,-200,4,2,0,80,0,0
70610,-200,4,2,0,5,0,0
70727,-200,4,2,0,80,0,0
70844,-200,4,2,0,5,0,0
70961,-200,4,2,0,80,0,0
71078,-200,4,2,0,5,0,0
71196,-200,4,2,0,80,0,0
71430,-200,4,2,0,5,0,0
71547,-200,4,2,0,80,0,0
71723,-200,4,2,0,5,0,0
71782,-200,4,2,0,80,0,0
72543,-200,4,2,0,5,0,0
72602,-200,4,2,0,80,0,0
73598,-200,4,2,0,5,0,0
73657,-200,4,2,0,80,0,0
74242,-200,4,2,0,5,0,0
74360,-200,4,2,0,80,0,0
74477,-200,4,2,0,5,0,0
74594,-100,4,2,0,80,0,0
74887,-200,4,2,0,5,0,0
74946,-100,4,2,0,80,0,0
75532,-100,4,1,0,80,0,0
82797,-66.6666666666667,4,1,0,80,0,0
83032,-66.6666666666667,4,1,0,80,0,0
86782,-66.6666666666667,4,1,0,80,0,0
87250,-61.7283950617284,4,1,0,80,0,0
87719,-57.1428571428571,4,1,0,80,0,0
88188,-53.475935828877,4,1,0,80,0,0
88657,-50,4,1,0,80,0,0
89594,-200,4,1,0,80,0,0
90532,-100,4,1,0,80,0,0
91235,-66.6666666666667,4,1,0,80,0,0
91469,-83.3333333333333,4,1,0,80,0,1
94985,-66.6666666666667,4,1,0,80,0,1
95219,-83.3333333333333,4,1,0,80,0,1
96860,-55.5555555555556,4,1,0,80,0,1
97094,-83.3333333333333,4,1,0,80,0,1
102719,-100,4,1,0,80,0,1
102953,-100,4,1,0,80,0,0
103188,-100,4,1,0,80,0,1
103422,-100,4,1,0,80,0,0
103657,-100,4,1,0,80,0,1
103891,-100,4,1,0,80,0,0
104594,-100,4,1,0,80,0,1
107407,-100,4,1,0,80,0,0
108344,-100,4,1,0,80,0,1
115844,-100,4,1,0,80,0,0
123110,-66.6666666666667,4,1,0,80,0,0
123344,-100,4,1,0,80,0,0
124985,-50,4,1,0,80,0,0
125219,-100,4,1,0,80,0,0

[Colours]
Combo1 : 152,88,1
Combo2 : 255,128,64
Combo3 : 255,128,0
Combo4 : 227,114,0

[HitObjects]
234,93,532,6,0,L|318:100,1,80
393,108,766,1,0,0:0:0:0:
462,251,883,2,0,L|378:244,1,80
303,236,1117,1,0,0:0:0:0:
336,309,1235,1,0,0:0:0:0:
256,303,1352,5,0,0:0:0:0:
256,303,1410,1,0,0:0:0:0:
256,303,1469,2,0,P|261:347|290:380,1,80
414,321,1703,2,0,P|409:277|380:244,1,80
274,166,1938,1,0,0:0:0:0:
336,309,2055,1,0,0:0:0:0:
227,233,2172,1,0,0:0:0:0:
357,174,2289,1,0,0:0:0:0:
122,78,2407,6,0,P|108:119|118:163,1,80
143,228,2641,1,0,0:0:0:0:
357,174,2758,2,0,P|371:133|361:89,1,80
336,24,2992,1,0,0:0:0:0:
287,88,3110,1,0,0:0:0:0:
256,14,3227,5,0,0:0:0:0:
256,14,3285,1,0,0:0:0:0:
256,14,3344,2,0,L|165:6,1,80
34,147,3578,2,0,L|113:154,1,80
189,126,3754,1,0,0:0:0:0:
189,126,3813,2,0,B|177:164|177:164|188:215,1,80
217,276,4047,1,0,0:0:0:0:
26,231,4164,1,0,0:0:0:0:
217,276,4282,6,0,P|174:277|139:287,1,80
66,320,4516,1,0,0:0:0:0:
261,213,4633,2,0,P|304:212|339:202,1,80
412,169,4867,1,0,0:0:0:0:
402,248,4985,1,0,0:0:0:0:
479,224,5102,5,0,0:0:0:0:
479,224,5160,1,0,0:0:0:0:
479,224,5219,2,0,L|466:303,1,80
318,360,5453,2,0,L|330:280,1,80
347,119,5688,1,0,0:0:0:0:
329,280,5805,1,0,0:0:0:0:
273,152,5922,1,0,0:0:0:0:
412,169,6039,1,0,0:0:0:0:
263,231,6157,6,0,P|222:214|181:211,1,80
107,221,6391,1,0,0:0:0:0:
347,119,6508,2,0,P|388:136|429:139,1,80
502,128,6742,1,0,0:0:0:0:
279,69,6860,1,0,0:0:0:0:
339,201,6977,6,0,L|333:257,2,40
279,69,7211,2,0,L|283:29,2,40
209,303,7446,1,0,0:0:0:0:
121,95,7563,1,0,0:0:0:0:
273,152,7680,1,0,0:0:0:0:
15,230,7797,6,0,B|108:178|94:241|187:195,1,180.000006866455
273,152,8032,5,0,0:0:0:0:
263,169,8090,1,0,0:0:0:0:
258,188,8149,1,0,0:0:0:0:
258,207,8207,1,0,0:0:0:0:
263,226,8266,1,0,0:0:0:0:
271,243,8324,1,0,0:0:0:0:
278,261,8383,1,0,0:0:0:0:
281,280,8442,1,0,0:0:0:0:
278,299,8500,6,0,L|227:291,2,40
338,200,8735,2,0,L|373:193,4,20
195,100,8969,5,0,0:0:0:0:
213,110,9028,1,0,0:0:0:0:
233,115,9086,1,0,0:0:0:0:
254,115,9145,1,0,0:0:0:0:
274,110,9203,1,0,0:0:0:0:
293,101,9262,1,0,0:0:0:0:
311,94,9321,1,0,0:0:0:0:
332,91,9379,1,0,0:0:0:0:
352,94,9438,6,0,L|343:148,2,40
243,36,9672,2,0,L|235:-1,4,20
130,159,9907,5,0,0:0:0:0:
140,141,9965,1,0,0:0:0:0:
145,121,10024,1,0,0:0:0:0:
145,100,10082,1,0,0:0:0:0:
140,80,10141,1,0,0:0:0:0:
131,61,10199,1,0,0:0:0:0:
124,43,10258,1,0,0:0:0:0:
121,22,10317,1,0,0:0:0:0:
124,2,10375,6,0,L|178:10,2,40
66,111,10610,2,0,L|28:118,4,20
208,213,10844,5,0,0:0:0:0:
190,203,10903,1,0,0:0:0:0:
170,198,10961,1,0,0:0:0:0:
149,198,11020,1,0,0:0:0:0:
129,203,11078,1,0,0:0:0:0:
110,212,11137,1,0,0:0:0:0:
92,219,11196,1,0,0:0:0:0:
71,222,11254,1,0,0:0:0:0:
51,219,11313,6,0,L|62:127,1,80
160,277,11489,2,0,L|172:181,1,80
258,331,11664,2,0,L|263:287,1,40
272,205,11782,5,0,0:0:0:0:
290,215,11840,1,0,0:0:0:0:
310,220,11899,1,0,0:0:0:0:
331,220,11957,1,0,0:0:0:0:
351,215,12016,1,0,0:0:0:0:
370,206,12074,1,0,0:0:0:0:
388,199,12133,1,0,0:0:0:0:
409,196,12192,1,0,0:0:0:0:
429,199,12250,6,0,L|420:253,2,40
320,141,12485,2,0,L|312:104,4,20
334,298,12719,5,0,0:0:0:0:
316,288,12778,1,0,0:0:0:0:
296,283,12836,1,0,0:0:0:0:
275,283,12895,1,0,0:0:0:0:
255,288,12953,1,0,0:0:0:0:
236,297,13012,1,0,0:0:0:0:
218,304,13071,1,0,0:0:0:0:
197,307,13129,1,0,0:0:0:0:
177,304,13188,6,0,L|186:250,2,40
286,362,13422,2,0,L|294:399,4,20
13,181,13657,5,0,0:0:0:0:
42,194,13715,1,0,0:0:0:0:
75,194,13774,1,0,0:0:0:0:
105,182,13832,1,0,0:0:0:0:
130,161,13891,1,0,0:0:0:0:
160,149,13949,1,0,0:0:0:0:
192,145,14008,1,0,0:0:0:0:
224,151,14067,1,0,0:0:0:0:
251,169,14125,6,0,L|244:208,2,40
62,113,14360,6,0,L|54:71,4,30.0000011444092
97,370,14594,6,0,B|115:312|115:312|102:270|102:270|114:216,1,160
117,212,15121,1,0,0:0:0:0:
118,207,15180,1,0,0:0:0:0:
119,202,15239,1,0,0:0:0:0:
120,197,15297,1,0,0:0:0:0:
121,192,15356,1,0,0:0:0:0:
122,187,15414,1,0,0:0:0:0:
123,182,15473,1,0,0:0:0:0:
123,178,15532,6,0,P|86:192|42:191,1,80
213,224,15766,2,0,P|250:210|294:211,1,80
146,248,16000,2,0,P|160:285|159:329,1,80
195,154,16235,2,0,P|181:117|182:73,1,80
203,0,16469,5,0,0:0:0:0:
39,121,16586,1,0,0:0:0:0:
39,121,16645,1,0,0:0:0:0:
39,121,16703,2,0,L|121:129,1,80
317,86,16938,1,0,0:0:0:0:
230,215,17055,1,0,0:0:0:0:
337,194,17172,1,0,0:0:0:0:
207,108,17289,1,0,0:0:0:0:
425,171,17407,6,0,P|427:210|411:247,1,80
206,374,17641,2,0,P|202:334|218:293,1,80
337,194,17875,1,0,0:0:0:0:
337,194,17934,1,0,0:0:0:0:
337,194,17992,1,0,0:0:0:0:
292,351,18110,1,0,0:0:0:0:
258,134,18227,1,0,0:0:0:0:
483,92,18344,5,0,0:0:0:0:
352,27,18461,1,0,0:0:0:0:
352,27,18520,1,0,0:0:0:0:
352,27,18578,2,0,L|342:118,1,80
337,194,18813,1,0,0:0:0:0:
139,249,18930,1,0,0:0:0:0:
211,121,19047,1,0,0:0:0:0:
269,325,19164,1,0,0:0:0:0:
76,301,19282,6,0,P|60:270|61:223,1,80
258,179,19516,2,0,P|274:210|273:257,1,80
196,341,19750,2,0,L|184:295,2,40
387,224,19985,2,0,L|381:274,2,40
140,140,20219,5,0,0:0:0:0:
361,56,20336,1,0,0:0:0:0:
361,56,20395,1,0,0:0:0:0:
361,56,20453,2,0,L|276:49,1,80
67,93,20688,1,0,0:0:0:0:
228,123,20805,1,0,0:0:0:0:
132,188,20922,1,0,0:0:0:0:
162,27,21039,1,0,0:0:0:0:
27,286,21157,5,0,0:0:0:0:
147,107,21274,1,0,0:0:0:0:
195,316,21391,1,0,0:0:0:0:
129,206,21508,1,0,0:0:0:0:
312,121,21625,2,0,P|319:161|323:206,1,80
322,295,21860,6,0,L|294:289,4,20
474,327,22094,6,0,P|471:299|470:272,1,40
469,56,22211,6,0,L|489:59,4,20
460,55,22387,1,0,0:0:0:0:
452,54,22446,1,0,0:0:0:0:
444,53,22504,1,0,0:0:0:0:
436,51,22563,1,0,0:0:0:0:
428,50,22621,1,0,0:0:0:0:
420,49,22680,1,0,0:0:0:0:
413,48,22739,1,0,0:0:0:0:
403,48,22797,6,0,L|407:77|407:101,1,40
330,306,22914,1,0,0:0:0:0:
330,306,22973,1,0,0:0:0:0:
330,306,23032,2,0,P|343:287|356:270,1,40
479,204,23149,2,0,P|451:202|435:199,1,40
324,122,23266,6,0,P|344:158|363:204,1,80
424,360,23442,2,0,P|426:319|433:272,1,80
508,98,23617,2,0,P|490:118|482:133,1,40
439,199,23735,1,0,0:0:0:0:
411,15,23852,1,0,0:0:0:0:
36,142,23969,6,0,B|133:122|117:181|212:162,1,180.000006866455
229,154,24203,5,0,0:0:0:0:
71,221,24321,1,0,0:0:0:0:
185,77,24438,1,0,0:0:0:0:
167,246,24555,1,0,0:0:0:0:
96,62,24672,1,0,0:0:0:0:
96,62,24731,1,0,0:0:0:0:
96,62,24789,6,0,L|87:15,2,40
255,247,25024,2,0,L|300:262,2,40
30,295,25258,2,0,L|-6:326,2,40
133,238,25492,6,0,L|147:320,1,80
117,128,25727,1,0,0:0:0:0:
216,164,25844,5,0,0:0:0:0:
206,65,25961,1,0,0:0:0:0:
206,65,26020,1,0,0:0:0:0:
206,65,26078,1,0,0:0:0:0:
325,159,26196,5,0,0:0:0:0:
340,60,26313,1,0,0:0:0:0:
340,60,26371,1,0,0:0:0:0:
340,60,26430,1,0,0:0:0:0:
431,186,26547,5,0,0:0:0:0:
471,94,26664,1,0,0:0:0:0:
471,94,26723,1,0,0:0:0:0:
471,94,26782,6,0,L|415:100,1,40
285,163,26899,2,0,L|324:158,1,40
417,226,27016,2,0,L|412:186,1,40
343,32,27133,2,0,L|349:88,1,40
338,239,27250,5,0,0:0:0:0:
423,19,27367,1,0,0:0:0:0:
8,106,27485,2,0,B|97:145|98:86|188:124,1,180.000006866455
200,132,27719,5,0,0:0:0:0:
179,26,27836,1,0,0:0:0:0:
501,24,27953,2,0,L|422:37,1,80
39,183,28188,5,0,0:0:0:0:
39,183,28246,1,0,0:0:0:0:
39,183,28305,1,0,0:0:0:0:
147,199,28422,2,0,L|226:212,1,80
455,300,28657,5,0,0:0:0:0:
455,300,28715,1,0,0:0:0:0:
455,300,28774,2,0,B|361:280|368:338|277:318,1,180.800000551758
204,368,29125,5,0,0:0:0:0:
195,349,29184,1,0,0:0:0:0:
191,329,29242,1,0,0:0:0:0:
191,308,29301,1,0,0:0:0:0:
197,288,29360,2,0,L|149:297,1,40
43,274,29477,2,0,L|86:268,1,40
232,200,29594,5,0,0:0:0:0:
220,201,29653,1,0,0:0:0:0:
208,203,29711,1,0,0:0:0:0:
196,205,29770,1,0,0:0:0:0:
185,207,29828,2,0,L|134:214,1,40
171,130,29946,5,0,0:0:0:0:
159,131,30004,1,0,0:0:0:0:
147,133,30063,1,0,0:0:0:0:
135,135,30121,1,0,0:0:0:0:
124,137,30180,2,0,L|73:144,1,40
104,59,30297,5,0,0:0:0:0:
92,60,30356,1,0,0:0:0:0:
80,62,30414,1,0,0:0:0:0:
68,64,30473,1,0,0:0:0:0:
57,66,30532,1,0,0:0:0:0:
45,67,30590,1,0,0:0:0:0:
33,69,30649,1,0,0:0:0:0:
21,71,30707,1,0,0:0:0:0:
9,73,30766,6,0,L|22:24,1,40
201,6,30883,2,0,L|190:44,1,40
84,142,31000,2,0,L|97:93,1,40
276,75,31117,2,0,L|265:113,1,40
145,212,31235,6,0,B|231:174|232:233|321:194,1,180.800000551758
407,155,31469,6,0,P|399:205|394:255,1,95.9999970703126
383,345,31703,2,0,L|420:341,4,23.9999992675781
185,382,31938,6,0,P|189:334|197:286,1,95.9999970703126
106,328,32114,2,0,P|110:280|118:232,1,95.9999970703126
28,275,32289,2,0,P|34:230|38:193,1,47.9999985351563
44,141,32407,5,0,0:0:0:0:
103,351,32524,1,0,0:0:0:0:
386,212,32641,2,0,B|300:174|299:233|210:194,1,180.800000551758
131,135,32875,5,0,0:0:0:0:
196,286,32992,1,0,0:0:0:0:
259,44,33110,1,0,0:0:0:0:
259,44,33168,1,0,0:0:0:0:
259,44,33227,1,0,0:0:0:0:
259,44,33285,1,0,0:0:0:0:
259,44,33344,6,0,P|262:82|248:133,1,80
210,194,33578,1,0,0:0:0:0:
44,150,33696,2,0,P|41:112|55:61,1,80
93,0,33930,1,0,0:0:0:0:
121,208,34047,1,0,0:0:0:0:
409,104,34164,6,0,L|322:96,1,80
178,78,34399,1,0,0:0:0:0:
63,282,34516,2,0,L|150:273,1,80
394,244,34750,5,0,0:0:0:0:
234,263,34867,1,0,0:0:0:0:
305,172,34985,1,0,0:0:0:0:
325,332,35102,1,0,0:0:0:0:
464,191,35219,6,0,P|477:236|471:284,1,95.9999970703126
437,364,35453,2,0,L|473:372,4,23.9999992675781
173,328,35688,2,0,P|160:283|166:235,1,95.9999970703126
293,76,35864,2,0,L|304:171,1,95.9999970703126
316,255,36039,1,0,0:0:0:0:
316,255,36098,1,0,0:0:0:0:
316,255,36157,5,0,0:0:0:0:
414,126,36274,1,0,0:0:0:0:
118,114,36391,2,0,P|160:108|221:93,1,95.9999970703126
364,25,36625,5,0,0:0:0:0:
242,213,36742,1,0,0:0:0:0:
480,167,36860,2,0,P|433:155|385:148,1,95.9999970703126
44,180,37094,5,0,0:0:0:0:
44,170,37153,1,0,0:0:0:0:
42,160,37211,1,0,0:0:0:0:
41,150,37270,1,0,0:0:0:0:
40,140,37328,2,0,L|34:89,1,47.9999985351563
150,167,37446,5,0,0:0:0:0:
150,158,37504,1,0,0:0:0:0:
152,149,37563,1,0,0:0:0:0:
154,140,37621,1,0,0:0:0:0:
155,131,37680,2,0,L|163:80,1,47.9999985351563
228,234,37797,5,0,0:0:0:0:
234,226,37856,1,0,0:0:0:0:
242,218,37914,2,0,L|272:175,1,47.9999985351563
357,210,38032,5,0,0:0:0:0:
315,3,38149,1,0,0:0:0:0:
265,288,38266,2,0,P|239:243|214:204,1,95.9999970703126
339,133,38500,1,0,0:0:0:0:
339,133,38559,1,0,0:0:0:0:
339,133,38617,2,0,L|331:75,1,47.9999985351563
486,234,38735,1,0,0:0:0:0:
486,234,38793,1,0,0:0:0:0:
486,234,38852,2,0,L|492:187,1,47.9999985351563
326,314,38969,5,0,0:0:0:0:
493,350,39086,1,0,0:0:0:0:
493,350,39145,1,0,0:0:0:0:
493,350,39203,1,0,0:0:0:0:
245,329,39321,5,0,0:0:0:0:
414,300,39438,1,0,0:0:0:0:
414,300,39496,1,0,0:0:0:0:
414,300,39555,1,0,0:0:0:0:
171,274,39672,5,0,0:0:0:0:
394,378,39789,1,0,0:0:0:0:
394,378,39848,1,0,0:0:0:0:
394,378,39907,1,0,0:0:0:0:
88,293,40024,5,0,0:0:0:0:
88,293,40082,1,0,0:0:0:0:
88,293,40141,1,0,0:0:0:0:
286,200,40258,1,0,0:0:0:0:
286,200,40317,1,0,0:0:0:0:
286,200,40375,6,0,L|273:259,1,47.9999985351563
177,321,40492,2,0,L|170:273,1,47.9999985351563
50,130,40610,6,0,B|136:92|137:151|226:112,1,180.800000551758
242,103,40844,5,0,0:0:0:0:
109,208,40961,1,0,0:0:0:0:
109,208,41020,1,0,0:0:0:0:
109,208,41078,1,0,0:0:0:0:
372,104,41196,5,0,0:0:0:0:
174,37,41313,1,0,0:0:0:0:
174,37,41371,1,0,0:0:0:0:
174,37,41430,1,0,0:0:0:0:
454,72,41547,5,0,0:0:0:0:
224,189,41664,1,0,0:0:0:0:
224,189,41723,1,0,0:0:0:0:
224,189,41782,6,0,L|239:255,1,63.9999980468751
366,225,41938,2,0,L|301:204,1,63.9999980468751
263,330,42094,2,0,L|312:284,1,63.9999980468751
450,206,42250,5,0,0:0:0:0:
87,328,42367,1,0,0:0:0:0:
87,328,42426,1,0,0:0:0:0:
87,328,42485,2,0,L|121:319,6,23.9999992675781
1,282,42719,5,0,0:0:0:0:
193,314,42836,1,0,0:0:0:0:
193,314,42895,1,0,0:0:0:0:
193,314,42953,1,0,0:0:0:0:
7,371,43071,5,0,0:0:0:0:
197,230,43188,1,0,0:0:0:0:
197,230,43246,1,0,0:0:0:0:
197,230,43305,1,0,0:0:0:0:
17,113,43422,1,0,0:0:0:0:
96,297,43539,1,0,0:0:0:0:
98,62,43657,6,4,B|128:46|128:46|148:5,2,80.0000030517579
96,157,43891,2,4,B|66:173|66:173|46:214,2,80.0000030517579
15,113,44125,6,0,B|68:45|152:57|183:120|183:120|194:105|194:105|220:166|311:187|365:138,1,420.000016021729,4|0,0:0|0:0,0:0:0:0:
502,86,44594,5,0,0:0:0:0:
501,100,44653,1,0,0:0:0:0:
500,114,44711,2,0,L|491:186,1,47.9999985351563
398,308,44828,1,0,0:0:0:0:
397,294,44887,1,0,0:0:0:0:
396,280,44945,2,0,L|387:208,1,47.9999985351563
312,10,45063,5,0,0:0:0:0:
310,23,45122,1,0,0:0:0:0:
309,37,45180,1,0,0:0:0:0:
307,51,45239,1,0,0:0:0:0:
306,65,45297,1,0,0:0:0:0:
304,79,45356,1,0,0:0:0:0:
303,93,45414,1,0,0:0:0:0:
301,107,45473,1,0,0:0:0:0:
299,118,45532,5,0,0:0:0:0:
303,117,45590,1,0,0:0:0:0:
308,116,45649,1,0,0:0:0:0:
313,115,45707,1,0,0:0:0:0:
317,114,45766,2,0,L|385:101,1,47.9999985351563
359,190,45883,5,0,0:0:0:0:
366,188,45941,1,0,0:0:0:0:
374,187,46000,1,0,0:0:0:0:
381,186,46058,1,0,0:0:0:0:
390,184,46117,2,0,L|463:171,1,47.9999985351563
414,261,46235,5,0,0:0:0:0:
426,258,46293,1,0,0:0:0:0:
438,256,46352,1,0,0:0:0:0:
449,254,46410,1,0,0:0:0:0:
461,252,46469,6,0,L|453:301,4,40
326,361,46821,1,0,0:0:0:0:
326,361,46879,1,0,0:0:0:0:
326,361,46938,1,0,0:0:0:0:
326,361,46996,1,0,0:0:0:0:
326,361,47055,2,0,B|265:299|181:305|181:305|214:279|214:235,1,240
162,134,47524,6,0,L|170:85,4,40
95,238,47875,2,0,L|103:287,4,40
0,133,48227,1,0,0:0:0:0:
0,133,48285,1,0,0:0:0:0:
0,133,48344,6,0,L|44:139,4,40
157,25,48696,1,0,0:0:0:0:
157,25,48754,1,0,0:0:0:0:
157,25,48813,1,0,0:0:0:0:
157,25,48871,1,0,0:0:0:0:
157,25,48930,2,0,B|162:67|133:97|133:97|203:84|257:113,1,200
269,120,49282,6,0,L|262:67,1,40
410,16,49516,2,0,L|415:55,1,40
375,243,49750,1,0,0:0:0:0:
372,224,49867,1,0,0:0:0:0:
368,204,49985,1,0,0:0:0:0:
365,184,50102,1,0,0:0:0:0:
360,161,50219,6,0,L|410:167,4,40
472,279,50571,1,0,0:0:0:0:
472,279,50629,1,0,0:0:0:0:
472,279,50688,1,0,0:0:0:0:
472,279,50746,1,0,0:0:0:0:
472,279,50805,2,0,B|382:268|327:335|327:335|305:300|262:288,1,240
166,255,51274,6,0,L|159:215,4,40
90,319,51625,2,0,L|97:358,4,40
28,237,51977,1,0,0:0:0:0:
28,237,52035,1,0,0:0:0:0:
28,237,52094,6,0,L|67:230,4,40
305,131,52446,1,0,0:0:0:0:
305,131,52504,1,0,0:0:0:0:
305,131,52563,1,0,0:0:0:0:
305,131,52621,1,0,0:0:0:0:
305,131,52680,6,0,B|264:139|230:117|230:117|197:57|127:57,1,200
51,75,53032,5,0,0:0:0:0:
52,82,53090,1,0,0:0:0:0:
53,89,53149,1,0,0:0:0:0:
53,96,53207,1,0,0:0:0:0:
55,103,53266,1,0,0:0:0:0:
197,140,53383,5,0,0:0:0:0:
196,147,53441,1,0,0:0:0:0:
195,154,53500,1,0,0:0:0:0:
195,161,53558,1,0,0:0:0:0:
193,169,53617,1,0,0:0:0:0:
51,218,53735,5,0,0:0:0:0:
52,225,53793,1,0,0:0:0:0:
53,232,53852,1,0,0:0:0:0:
53,239,53910,1,0,0:0:0:0:
54,248,53969,6,0,L|7:240,4,40
163,317,54321,1,0,0:0:0:0:
163,317,54379,1,0,0:0:0:0:
163,317,54438,1,0,0:0:0:0:
163,317,54496,1,0,0:0:0:0:
163,317,54555,2,0,L|169:253,1,53.3333333333333
383,239,54711,6,0,B|333:259|304:229|304:229|277:201|235:212,1,160.000006103516
152,179,55024,6,0,L|143:125,4,40
249,292,55375,2,0,L|240:346,4,40
363,132,55727,1,0,0:0:0:0:
363,132,55785,1,0,0:0:0:0:
363,132,55844,6,0,L|316:125,4,40
156,47,56196,1,0,0:0:0:0:
156,47,56254,1,0,0:0:0:0:
156,47,56313,1,0,0:0:0:0:
156,47,56371,1,0,0:0:0:0:
156,47,56430,2,0,B|268:85|266:2|386:46,1,200
370,43,56782,6,0,L|364:0,1,40
476,144,57016,2,0,L|486:95,1,40
290,288,57250,1,0,0:0:0:0:
287,269,57367,1,0,0:0:0:0:
283,249,57485,1,0,0:0:0:0:
280,229,57602,1,0,0:0:0:0:
275,206,57719,6,0,L|325:212,4,40
444,324,58071,1,0,0:0:0:0:
444,324,58129,1,0,0:0:0:0:
444,324,58188,1,0,0:0:0:0:
444,324,58246,1,0,0:0:0:0:
444,324,58305,2,0,L|379:336,1,53.3333333333333
12,288,58422,6,0,B|44:311|86:296|86:296|126:280|165:302,1,160.000006103516
304,348,58774,6,0,L|309:301,4,40
199,193,59125,2,0,L|204:233,4,40
328,60,59477,1,0,0:0:0:0:
328,60,59535,1,0,0:0:0:0:
328,60,59594,5,0,0:0:0:0:
312,71,59652,1,0,0:0:0:0:
294,81,59711,1,0,0:0:0:0:
275,86,59769,1,0,0:0:0:0:
256,90,59828,1,0,0:0:0:0:
235,92,59886,1,0,0:0:0:0:
216,90,59945,1,0,0:0:0:0:
196,85,60004,1,0,0:0:0:0:
176,79,60063,1,0,0:0:0:0:
157,74,60122,1,0,0:0:0:0:
137,72,60181,1,0,0:0:0:0:
117,73,60239,1,0,0:0:0:0:
98,77,60297,1,0,0:0:0:0:
78,84,60356,1,0,0:0:0:0:
60,94,60415,1,0,0:0:0:0:
44,104,60473,1,0,0:0:0:0:
30,118,60532,6,0,L|35:67,1,40
131,9,60766,2,0,L|127:48,1,40
111,172,61000,1,0,0:0:0:0:
238,68,61117,1,0,0:0:0:0:
238,68,61352,2,0,L|220:199,1,120
66,281,61821,6,0,B|116:264|114:289|169:272,1,100
183,266,62172,2,0,B|172:304|172:304|184:340,1,60
184,332,62407,5,0,0:0:0:0:
220,315,62524,1,0,0:0:0:0:
259,310,62641,1,0,0:0:0:0:
298,317,62758,1,0,0:0:0:0:
332,336,62875,1,0,0:0:0:0:
359,365,62992,6,0,L|376:322,1,40
338,201,63227,2,0,L|323:238,1,40
457,334,63461,2,0,L|471:296,1,40
449,131,63696,6,0,L|418:209,1,80
266,151,64047,2,0,L|293:88,1,60
296,81,64282,6,0,L|272:85,1,20
190,95,64399,1,0,0:0:0:0:
389,44,64574,1,0,0:0:0:0:
322,238,64750,2,0,B|268:230|274:254|219:246,1,100
203,240,65102,1,0,0:0:0:0:
121,279,65219,6,0,L|111:191,1,80
39,244,65571,2,0,L|48:323,1,80
212,347,65922,2,0,L|202:272,1,60
200,265,66157,6,0,L|225:270,1,20
304,287,66274,1,0,0:0:0:0:
126,353,66449,1,0,0:0:0:0:
35,205,66625,2,0,B|71:219|71:219|130:200,1,100
150,193,66977,1,0,0:0:0:0:
235,171,67094,6,0,L|223:253,1,80
404,335,67446,2,0,L|415:255,1,80
336,52,67797,2,0,L|324:143,1,80
324,141,68090,1,0,0:0:0:0:
322,151,68149,6,0,L|367:144,1,40
488,168,68383,2,0,L|448:174,1,40
253,228,68617,2,0,P|277:229|292:232,1,40
512,263,68852,2,0,B|443:262|458:288|396:287,1,120
207,326,69321,6,0,P|257:325|310:345,1,100
320,352,69672,2,0,L|313:298,1,40
373,208,69907,5,0,0:0:0:0:
338,227,70024,1,0,0:0:0:0:
298,233,70141,1,0,0:0:0:0:
258,226,70258,1,0,0:0:0:0:
222,208,70375,1,0,0:0:0:0:
194,179,70492,6,0,L|186:230,1,40
126,349,70727,2,0,L|119:309,1,40
250,305,70961,6,0,L|210:297,1,40
23,205,71196,2,0,L|102:192,1,80
339,107,71547,2,0,L|280:98,1,60
259,95,71782,6,0,L|264:119,1,20
277,199,71899,1,0,0:0:0:0:
419,79,72074,1,0,0:0:0:0:
381,283,72250,2,0,L|399:179,1,100
403,164,72602,1,0,0:0:0:0:
453,322,72719,6,0,P|416:309|376:307,1,80
240,340,73071,2,0,P|269:314|291:280,1,80
331,145,73422,2,0,P|338:183|357:217,1,60
359,218,73657,6,0,L|337:211,1,20
255,193,73774,1,0,0:0:0:0:
326,376,73949,1,0,0:0:0:0:
444,235,74125,2,0,L|483:229,1,40
197,335,74360,2,0,L|158:341,1,40
326,376,74594,6,0,B|276:269|353:288|303:176,1,200
291,163,74946,5,0,0:0:0:0:
399,315,75063,5,0,0:0:0:0:
499,89,75180,5,0,0:0:0:0:
499,89,75532,6,0,L|406:76,1,80
340,67,75766,1,0,0:0:0:0:
196,190,75883,2,0,L|289:203,1,80
355,212,76117,1,0,0:0:0:0:
302,272,76235,1,0,0:0:0:0:
327,141,76352,1,0,0:0:0:0:
223,275,76469,5,0,0:0:0:0:
223,275,76528,1,0,0:0:0:0:
223,275,76586,1,0,0:0:0:0:
457,275,76703,2,0,P|417:282|380:297,1,80
292,347,76938,5,0,0:0:0:0:
227,188,77055,1,0,0:0:0:0:
182,301,77172,1,0,0:0:0:0:
341,236,77289,1,0,0:0:0:0:
0,222,77407,6,0,P|34:238|76:243,1,80
155,231,77641,1,0,0:0:0:0:
322,122,77758,2,0,P|287:105|245:100,1,80
167,113,77993,1,0,0:0:0:0:
194,38,78110,1,0,0:0:0:0:
217,175,78227,1,0,0:0:0:0:
8,140,78344,6,0,L|91:128,1,80
353,14,78578,2,0,L|273:25,1,80
114,52,78813,1,0,0:0:0:0:
293,162,78930,1,0,0:0:0:0:
102,338,79047,1,0,0:0:0:0:
102,338,79106,1,0,0:0:0:0:
102,338,79164,1,0,0:0:0:0:
102,338,79223,1,0,0:0:0:0:
102,338,79282,6,0,P|99:293|109:258,1,80
140,185,79516,1,0,0:0:0:0:
350,221,79633,2,0,P|352:265|342:300,1,80
312,370,79867,1,0,0:0:0:0:
185,292,79985,2,0,L|275:280,1,80
432,142,80219,5,0,0:0:0:0:
432,142,80278,1,0,0:0:0:0:
432,142,80336,1,0,0:0:0:0:
270,199,80453,2,0,L|288:100,1,80
300,42,80688,5,0,0:0:0:0:
349,168,80805,1,0,0:0:0:0:
221,74,80922,1,0,0:0:0:0:
377,12,81039,1,0,0:0:0:0:
98,235,81157,6,0,P|137:232|177:243,1,80
249,277,81391,1,0,0:0:0:0:
511,145,81508,2,0,P|471:147|432:137,1,80
357,104,81742,6,0,L|351:85,1,20
351,112,81860,2,0,L|345:93,1,20
347,117,81977,2,0,L|341:98,1,20
209,196,82094,6,0,L|199:165,1,20
148,5,82211,2,0,L|156:32,1,20
111,176,82328,2,0,L|132:151,1,20
245,27,82445,2,0,L|225:47,1,20
83,81,82563,2,0,L|114:87,1,20
279,122,82680,2,0,L|251:115,1,20
12,251,82797,6,0,P|79:245|178:299,1,180.000006866455
252,351,83032,6,0,P|230:290|248:233,1,120.000004577637
420,224,83207,2,0,P|442:285|424:342,1,120.000004577637
319,289,83383,6,0,L|355:286,1,30.0000011444092
457,134,83559,2,0,L|423:136,1,30.0000011444092
29,100,83735,2,0,B|86:95|86:95|102:81|102:81|112:104|112:104|130:90|130:90|184:85,1,180.000006866455
376,50,83969,6,0,P|322:17|265:29,1,120.000004577637
237,169,84145,2,0,P|291:202|348:190,1,120.000004577637
311,94,84321,6,0,L|305:125,1,30.0000011444092
179,315,84496,2,0,L|175:285,1,30.0000011444092
118,63,84672,1,0,0:0:0:0:
81,256,84789,1,0,0:0:0:0:
13,22,84907,6,0,P|1:83|28:138,1,120.000004577637
197,111,85082,2,0,P|209:50|182:-5,1,120.000004577637
88,67,85258,6,0,L|118:63,1,30.0000011444092
320,138,85434,2,0,L|290:142,1,30.0000011444092
38,205,85610,2,0,B|70:200|70:200|90:178|90:178|123:174|144:196|144:196|203:187,1,180.000006866455
401,212,85844,6,0,P|346:200|288:229,1,120.000004577637
309,379,86020,2,0,P|364:391|422:362,1,120.000004577637
354,281,86196,6,0,L|358:318,1,30.0000011444092
470,152,86371,2,0,L|474:115,1,30.0000011444092
270,57,86547,1,0,0:0:0:0:
270,57,86606,1,0,0:0:0:0:
270,57,86664,1,0,0:0:0:0:
270,57,86723,1,0,0:0:0:0:
270,57,86782,6,0,P|306:86|390:92,1,120.000004577637
462,67,86957,2,0,B|455:120|455:120|462:132|462:132|453:196,1,120.000004577637
356,238,87133,2,0,L|366:175,1,60.0000022888184
495,293,87250,6,0,P|459:264|376:255,1,129.600003164063
279,303,87426,2,0,B|272:250|272:250|279:236|279:236|272:175,1,129.600003164063
179,138,87602,2,0,L|187:208,1,64.8000015820313
119,382,87719,6,0,P|115:314|102:233,1,140.000001335144
77,18,87895,2,0,P|74:87|60:168,1,140.000001335144
12,282,88071,2,0,P|5:237|-3:205,1,70.000000667572
167,54,88188,6,0,P|169:126|190:212,1,149.599997032471
261,383,88364,2,0,P|264:313|280:231,1,149.599997032471
337,97,88539,2,0,P|344:142|355:188,1,74.7999985162354
456,219,88657,5,0,0:0:0:0:
433,207,88715,1,0,0:0:0:0:
411,200,88774,1,0,0:0:0:0:
387,199,88832,1,0,0:0:0:0:
365,209,88891,1,0,0:0:0:0:
349,225,88949,1,0,0:0:0:0:
336,246,89008,1,0,0:0:0:0:
328,269,89067,1,0,0:0:0:0:
320,291,89125,1,0,0:0:0:0:
309,313,89184,1,0,0:0:0:0:
296,332,89242,1,0,0:0:0:0:
278,349,89301,1,0,0:0:0:0:
256,360,89360,1,0,0:0:0:0:
233,364,89418,1,0,0:0:0:0:
209,362,89477,1,0,0:0:0:0:
187,356,89535,1,0,0:0:0:0:
173,341,89594,6,0,B|145:271|145:271|148:263|148:263|119:192,1,160
114,186,90121,1,0,0:0:0:0:
112,182,90180,1,0,0:0:0:0:
111,179,90238,1,0,0:0:0:0:
109,176,90297,1,0,0:0:0:0:
108,172,90355,1,0,0:0:0:0:
106,169,90414,1,0,0:0:0:0:
105,166,90473,1,0,0:0:0:0:
103,161,90532,6,0,P|138:180|182:183,1,80
314,79,90766,2,0,P|280:99|258:132,1,80
281,310,91000,2,0,P|280:270|264:234,1,80
63,89,91235,6,0,B|78:67|35:25|68:7|68:7|84:36|19:59|23:83,1,180.000006866455
25,161,91469,5,0,0:0:0:0:
182,12,91586,1,0,0:0:0:0:
182,12,91645,1,0,0:0:0:0:
182,12,91703,2,0,B|160:58|160:58|164:110,1,95.9999970703126
346,245,91938,1,0,0:0:0:0:
346,245,91997,1,0,0:0:0:0:
346,245,92055,2,0,B|368:199|368:199|364:147,1,95.9999970703126
229,178,92231,1,0,0:0:0:0:
229,178,92289,2,0,L|285:187,1,47.9999985351563
459,266,92407,5,0,0:0:0:0:
273,360,92524,1,0,0:0:0:0:
273,360,92582,1,0,0:0:0:0:
273,360,92641,2,0,P|251:313|254:264,1,95.9999970703126
358,380,92875,1,0,0:0:0:0:
466,87,92992,1,0,0:0:0:0:
466,87,93050,1,0,0:0:0:0:
466,87,93109,2,0,P|488:134|485:183,1,95.9999970703126
346,245,93344,5,0,0:0:0:0:
512,296,93461,1,0,0:0:0:0:
512,296,93520,1,0,0:0:0:0:
512,296,93578,2,0,L|409:308,1,95.9999970703126
130,292,93813,1,0,0:0:0:0:
130,292,93872,1,0,0:0:0:0:
130,292,93930,1,0,0:0:0:0:
231,244,94047,1,0,0:0:0:0:
149,384,94164,1,0,0:0:0:0:
92,153,94282,5,0,0:0:0:0:
92,153,94340,1,0,0:0:0:0:
92,153,94399,6,0,L|106:205,1,47.9999985351563
247,335,94516,1,0,0:0:0:0:
247,335,94574,1,0,0:0:0:0:
247,335,94633,2,0,L|231:283,1,47.9999985351563
11,253,94750,1,0,0:0:0:0:
326,319,94867,1,0,0:0:0:0:
273,34,94985,6,0,B|218:97|276:169|276:169|296:147,1,180.000006866455
359,73,95219,5,0,0:0:0:0:
428,253,95336,1,0,0:0:0:0:
428,253,95395,1,0,0:0:0:0:
428,253,95453,2,0,L|387:153,1,95.9999970703126
319,357,95688,1,0,0:0:0:0:
319,357,95746,1,0,0:0:0:0:
319,357,95805,2,0,P|325:307|353:255,1,95.9999970703126
503,186,95981,1,0,0:0:0:0:
503,186,96040,2,0,P|480:162|460:147,1,47.9999985351563
274,89,96157,5,0,0:0:0:0:
448,71,96274,1,0,0:0:0:0:
448,71,96333,1,0,0:0:0:0:
448,71,96391,2,0,P|487:40|508:0,1,95.9999970703126
386,169,96625,1,0,0:0:0:0:
386,169,96684,1,0,0:0:0:0:
386,169,96742,2,0,L|366:116,1,47.9999985351563
341,36,96860,6,0,L|326:-4,6,35.9999989013672
292,178,97094,6,0,L|323:268,1,63.9999980468751
440,296,97250,2,0,L|367:285,1,63.9999980468751,0|0,0:3|0:3,0:3:0:0:
262,365,97407,2,0,L|304:313,1,63.9999980468751
256,88,108344,5,0,0:0:0:0:
256,92,108403,1,0,0:0:0:0:
256,96,108461,1,0,0:0:0:0:
256,100,108520,1,0,0:0:0:0:
256,104,108578,1,0,0:0:0:0:
256,108,108637,1,0,0:0:0:0:
256,112,108696,1,0,0:0:0:0:
256,116,108754,1,0,0:0:0:0:
256,120,108813,1,0,0:0:0:0:
256,124,108872,1,0,0:0:0:0:
256,128,108930,1,0,0:0:0:0:
256,132,108989,1,0,0:0:0:0:
256,136,109047,1,0,0:0:0:0:
256,140,109106,1,0,0:0:0:0:
256,144,109165,1,0,0:0:0:0:
256,148,109223,1,0,0:0:0:0:
256,152,109282,1,0,0:0:0:0:
256,156,109341,1,0,0:0:0:0:
256,160,109399,1,0,0:0:0:0:
256,164,109458,1,0,0:0:0:0:
256,168,109516,1,0,0:0:0:0:
256,172,109575,1,0,0:0:0:0:
256,176,109634,1,0,0:0:0:0:
256,180,109692,1,0,0:0:0:0:
256,184,109751,1,0,0:0:0:0:
256,188,109810,1,0,0:0:0:0:
256,192,109868,1,0,0:0:0:0:
256,196,109927,1,0,0:0:0:0:
256,200,109985,1,0,0:0:0:0:
256,204,110044,1,0,0:0:0:0:
256,208,110103,1,0,0:0:0:0:
256,212,110161,1,0,0:0:0:0:
256,216,110219,1,0,0:0:0:0:
256,220,110278,1,0,0:0:0:0:
256,224,110336,1,0,0:0:0:0:
256,228,110395,1,0,0:0:0:0:
256,232,110453,1,0,0:0:0:0:
256,236,110512,1,0,0:0:0:0:
256,240,110571,1,0,0:0:0:0:
256,244,110629,1,0,0:0:0:0:
256,248,110688,1,0,0:0:0:0:
256,252,110747,1,0,0:0:0:0:
256,256,110805,1,0,0:0:0:0:
256,260,110864,1,0,0:0:0:0:
256,264,110922,1,0,0:0:0:0:
256,268,110981,1,0,0:0:0:0:
256,272,111040,1,0,0:0:0:0:
256,276,111098,1,0,0:0:0:0:
256,280,111157,1,0,0:0:0:0:
256,56,112094,5,0,0:0:0:0:
256,60,112153,1,0,0:0:0:0:
256,64,112211,1,0,0:0:0:0:
256,68,112270,1,0,0:0:0:0:
256,72,112328,1,0,0:0:0:0:
256,76,112387,1,0,0:0:0:0:
256,80,112446,1,0,0:0:0:0:
256,84,112504,1,0,0:0:0:0:
256,88,112563,1,0,0:0:0:0:
256,92,112622,1,0,0:0:0:0:
256,96,112680,1,0,0:0:0:0:
256,100,112739,1,0,0:0:0:0:
256,104,112797,1,0,0:0:0:0:
256,108,112856,1,0,0:0:0:0:
256,112,112915,1,0,0:0:0:0:
256,116,112973,1,0,0:0:0:0:
256,120,113032,1,0,0:0:0:0:
256,124,113091,1,0,0:0:0:0:
256,128,113149,1,0,0:0:0:0:
256,132,113208,1,0,0:0:0:0:
256,136,113266,1,0,0:0:0:0:
256,140,113325,1,0,0:0:0:0:
256,144,113384,1,0,0:0:0:0:
256,148,113442,1,0,0:0:0:0:
256,152,113501,1,0,0:0:0:0:
256,156,113560,1,0,0:0:0:0:
256,160,113618,1,0,0:0:0:0:
256,164,113677,1,0,0:0:0:0:
256,168,113735,1,0,0:0:0:0:
256,172,113794,1,0,0:0:0:0:
256,176,113853,1,0,0:0:0:0:
256,180,113911,1,0,0:0:0:0:
256,184,113969,1,0,0:0:0:0:
256,188,114028,1,0,0:0:0:0:
256,192,114086,1,0,0:0:0:0:
256,196,114145,1,0,0:0:0:0:
256,200,114203,1,0,0:0:0:0:
256,204,114262,1,0,0:0:0:0:
256,208,114321,1,0,0:0:0:0:
256,212,114379,1,0,0:0:0:0:
256,216,114438,1,0,0:0:0:0:
256,220,114497,1,0,0:0:0:0:
256,224,114555,1,0,0:0:0:0:
256,228,114614,1,0,0:0:0:0:
256,232,114672,1,0,0:0:0:0:
256,236,114731,1,0,0:0:0:0:
256,240,114790,1,0,0:0:0:0:
256,244,114848,1,0,0:0:0:0:
256,248,114907,1,0,0:0:0:0:
256,252,114966,1,0,0:0:0:0:
256,256,115024,1,0,0:0:0:0:
256,260,115083,1,0,0:0:0:0:
256,264,115141,1,0,0:0:0:0:
256,268,115200,1,0,0:0:0:0:
256,272,115259,1,0,0:0:0:0:
256,276,115317,1,0,0:0:0:0:
256,280,115376,1,0,0:0:0:0:
256,284,115435,1,0,0:0:0:0:
256,288,115493,1,0,0:0:0:0:
256,292,115552,1,0,0:0:0:0:
256,296,115610,1,0,0:0:0:0:
256,300,115669,1,0,0:0:0:0:
256,304,115728,1,0,0:0:0:0:
256,308,115786,1,0,0:0:0:0:
278,93,115844,6,0,L|194:100,1,80
119,108,116078,1,0,0:0:0:0:
50,251,116195,2,0,L|134:244,1,80
209,236,116429,1,0,0:0:0:0:
176,309,116547,1,0,0:0:0:0:
256,303,116664,5,0,0:0:0:0:
256,303,116722,1,0,0:0:0:0:
256,303,116781,2,0,P|251:347|222:380,1,80
98,321,117015,2,0,P|103:277|132:244,1,80
238,166,117250,1,0,0:0:0:0:
176,309,117367,1,0,0:0:0:0:
285,233,117484,1,0,0:0:0:0:
155,174,117601,1,0,0:0:0:0:
390,78,117719,6,0,P|404:119|394:163,1,80
369,228,117953,1,0,0:0:0:0:
155,174,118070,2,0,P|141:133|151:89,1,80
176,24,118304,1,0,0:0:0:0:
225,88,118422,1,0,0:0:0:0:
256,14,118539,5,0,0:0:0:0:
256,14,118597,1,0,0:0:0:0:
256,14,118656,2,0,L|347:6,1,80
478,147,118890,2,0,L|399:154,1,80
323,126,119066,1,0,0:0:0:0:
323,126,119125,2,0,B|335:164|335:164|324:215,1,80
295,276,119359,1,0,0:0:0:0:
486,231,119476,1,0,0:0:0:0:
295,276,119594,6,0,P|338:277|373:287,1,80
446,320,119828,1,0,0:0:0:0:
251,213,119945,2,0,P|208:212|173:202,1,80
100,169,120179,1,0,0:0:0:0:
110,248,120297,1,0,0:0:0:0:
33,224,120414,1,0,0:0:0:0:
33,224,120472,1,0,0:0:0:0:
33,224,120531,6,0,L|46:303,1,80
194,360,120765,2,0,L|182:280,1,80
165,119,121000,1,0,0:0:0:0:
182,280,121117,1,0,0:0:0:0:
239,152,121234,1,0,0:0:0:0:
100,169,121351,1,0,0:0:0:0:
249,231,121469,6,0,P|290:214|331:211,1,80
405,221,121703,1,0,0:0:0:0:
165,119,121820,2,0,P|124:136|83:139,1,80
10,128,122054,1,0,0:0:0:0:
233,69,122172,1,0,0:0:0:0:
173,201,122289,2,0,L|179:257,2,40
233,69,122523,2,0,L|229:29,2,40
299,295,122758,1,0,0:0:0:0:
391,95,122875,5,0,0:0:0:0:
239,152,122992,1,0,0:0:0:0:
501,203,123110,2,0,B|409:175|420:228|320:194,1,180.000006866455
178,298,123344,5,0,0:0:0:0:
196,288,123403,1,0,0:0:0:0:
216,283,123461,1,0,0:0:0:0:
237,283,123520,1,0,0:0:0:0:
257,288,123578,1,0,0:0:0:0:
276,297,123637,1,0,0:0:0:0:
294,304,123696,1,0,0:0:0:0:
315,307,123754,1,0,0:0:0:0:
335,304,123813,6,0,L|326:250,2,40
226,362,124047,2,0,L|218:399,4,20
499,181,124282,5,0,0:0:0:0:
470,194,124340,1,0,0:0:0:0:
437,194,124399,1,0,0:0:0:0:
407,182,124457,1,0,0:0:0:0:
382,161,124516,1,0,0:0:0:0:
352,149,124574,1,0,0:0:0:0:
320,145,124633,1,0,0:0:0:0:
288,151,124692,1,0,0:0:0:0:
261,169,124750,6,0,L|268:208,2,40
450,113,124985,6,0,L|459:68,4,40
221,49,125219,5,0,0:0:0:0:
140,256,125453,6,0,P|103:242|59:243,1,80
230,210,125688,2,0,P|267:224|311:223,1,80
157,185,125922,2,0,P|171:148|170:104,1,80
207,280,126157,2,0,P|193:317|194:361,1,80
