osu file format v14

[General]
AudioFilename: audio.mp3
AudioLeadIn: 0
PreviewTime: 261643
Countdown: 0
SampleSet: Drum
StackLeniency: 0.7
Mode: 3
LetterboxInBreaks: 0
SpecialStyle: 0
WidescreenStoryboard: 0

[Editor]
DistanceSpacing: 1.4
BeatDivisor: 8
GridSize: 8
TimelineZoom: 2.9

[Metadata]
Title:AZISAI (Long ver.)
TitleUnicode:紫陽花 -AZISAI- (Long ver.)
Artist:Camellia vs. Expander
ArtistUnicode:Camellia vs. Expander
Creator:Nicknem_
Version:Sincerity Hydrangea
Source:beatmania IIDX 23 copula
Tags:bemani konami oriental techdance electronic camellia cametek かめりあ かめるかめりあ kamelcamellia masaya oya sota fujimori hydrangea iidx beatnationrecords beatnationrhyze long version extended instrumental
BeatmapID:3650421
BeatmapSetID:1782485

[Difficulty]
HPDrainRate:9
CircleSize:4
OverallDifficulty:7.5
ApproachRate:5
SliderMultiplier:1.4
SliderTickRate:1

[Events]
//Background and Video events
0,0,"bg.jpg",0,0
//Break Periods
//Storyboard Layer 0 (Background)
//Storyboard Layer 1 (Fail)
//Storyboard Layer 2 (Pass)
//Storyboard Layer 3 (Foreground)
//Storyboard Layer 4 (Overlay)
//Storyboard Sound Samples
Sample,48169,0,"Growl3.wav",70
Sample,51653,0,"boom.wav",70
Sample,64040,0,"crash.wav",70
Sample,76427,0,"F6S.wav",70
Sample,88814,0,"boom.wav",70
Sample,122191,0,"snare.wav",70
Sample,125482,0,"snare.wav",70
Sample,127030,0,"snare.wav",70
Sample,129072,0,"boom.wav",70
Sample,136814,0,"clock.wav",70
Sample,139911,0,"kick.wav",90
Sample,141459,0,"boom.wav",70
Sample,208040,0,"kick.wav",70
Sample,209588,0,"crash.wav",70
Sample,219943,0,"kick.wav",70
Sample,220137,0,"kick.wav",70
Sample,220717,0,"kick.wav",70
Sample,220911,0,"kick.wav",70
Sample,221975,0,"F6S.wav",70
Sample,234363,0,"boom.wav",70
Sample,274234,0,"kick.wav",70
Sample,294256,0,"snare.wav",70
Sample,298127,0,"snare.wav",70
Sample,317395,0,"kick.wav",70
Sample,322621,0,"boom.wav",70
Sample,324169,0,"boom.wav",70

[TimingPoints]
2095,387.096774193548,4,3,1,50,1,0
91901,-100,4,3,1,50,0,1
115127,-100,4,3,1,50,0,0
153836,-100,4,3,1,50,0,1
177062,-100,4,3,1,50,0,0
262224,-100,4,3,1,50,0,1
286998,-100,4,3,1,50,0,0

[HitObjects]
64,192,2094,5,0,0:0:0:70:kick.wav
448,192,2094,1,0,0:0:0:0:
192,192,2094,1,0,0:0:0:70:crash.wav
320,192,2288,1,0,0:0:0:0:
192,192,2353,1,0,0:0:0:0:
64,192,2417,1,0,0:0:0:0:
320,192,2482,1,0,0:0:0:0:
448,192,2578,1,0,0:0:0:0:
192,192,2675,1,0,0:0:0:0:
320,192,2740,1,0,0:0:0:0:
448,192,2804,1,0,0:0:0:0:
64,192,2869,1,0,0:0:0:0:
192,192,2869,1,0,0:0:0:0:
448,192,3062,1,0,0:0:0:0:
192,192,3256,1,0,0:0:0:0:
64,192,3449,1,0,0:0:0:0:
320,192,3643,1,0,0:0:0:0:
448,192,3643,128,0,3740:0:0:0:0:
320,192,3836,1,0,0:0:0:0:
192,192,4030,1,0,0:0:0:0:
64,192,4224,1,0,0:0:0:0:
448,192,4417,1,0,0:0:0:0:
320,192,4611,1,0,0:0:0:0:
192,192,4804,1,0,0:0:0:0:
64,192,4998,1,0,0:0:0:0:
448,192,5191,1,0,0:0:0:0:
320,192,5385,1,0,0:0:0:0:
192,192,5578,1,0,0:0:0:0:
64,192,5772,1,0,0:0:0:0:
448,192,5965,1,0,0:0:0:0:
320,192,6159,1,0,0:0:0:0:
192,192,6353,1,0,0:0:0:0:
64,192,6546,1,0,0:0:0:0:
320,192,6740,1,0,0:0:0:0:
448,192,6740,128,0,6836:0:0:0:0:
320,192,6933,1,0,0:0:0:0:
192,192,7127,1,0,0:0:0:0:
64,192,7320,1,0,0:0:0:0:
192,192,7385,1,0,0:0:0:0:
448,192,7449,1,0,0:0:0:0:
192,192,7514,1,0,0:0:0:0:
320,192,7514,1,0,0:0:0:0:
64,192,7578,1,0,0:0:0:0:
448,192,7643,1,0,0:0:0:0:
192,192,7707,1,0,0:0:0:0:
320,192,7772,1,0,0:0:0:0:
448,192,7836,1,0,0:0:0:0:
64,192,7901,1,0,0:0:0:0:
448,192,8094,1,0,0:0:0:0:
192,192,8288,1,0,0:0:0:0:
320,192,8288,1,0,0:0:0:0:
64,192,8482,1,0,0:0:0:0:
448,192,8675,1,0,0:0:0:0:
320,192,8869,1,0,0:0:0:0:
448,192,8933,1,0,0:0:0:0:
192,192,8998,1,0,0:0:0:0:
64,192,9062,1,0,0:0:0:0:
192,192,9127,1,0,0:0:0:0:
320,192,9191,1,0,0:0:0:0:
448,192,9256,1,0,0:0:0:0:
64,192,9320,1,0,0:0:0:0:
192,192,9385,1,0,0:0:0:0:
320,192,9449,1,0,0:0:0:0:
192,192,9643,1,0,0:0:0:0:
64,192,9836,1,0,0:0:0:0:
448,192,9836,128,0,9933:0:0:0:0:
320,192,10030,1,0,0:0:0:0:
192,192,10224,1,0,0:0:0:0:
64,192,10417,1,0,0:0:0:0:
448,192,10611,1,0,0:0:0:0:
320,192,10804,1,0,0:0:0:0:
192,192,10998,1,0,0:0:0:0:
64,192,11191,1,0,0:0:0:0:
448,192,11385,1,0,0:0:0:0:
320,192,11578,1,0,0:0:0:0:
192,192,11772,1,0,0:0:0:0:
64,192,11965,1,0,0:0:0:0:
448,192,12159,1,0,0:0:0:0:
320,192,12353,1,0,0:0:0:0:
192,192,12546,1,0,0:0:0:0:
64,192,12740,1,0,0:0:0:0:
320,192,12933,1,0,0:0:0:0:
448,192,12933,128,0,13030:0:0:0:0:
320,192,13127,1,0,0:0:0:0:
192,192,13320,1,0,0:0:0:0:
64,192,13514,1,0,0:0:0:0:
192,192,13707,128,0,13804:0:0:0:0:
320,192,13707,1,0,0:0:0:0:
320,192,13901,1,0,0:0:0:0:
192,192,14094,1,0,0:0:0:0:
64,192,14288,1,0,0:0:0:0:
64,192,14482,128,0,14578:0:0:0:0:
448,192,14482,1,0,0:0:0:0:
320,192,14675,1,0,0:0:0:0:
192,192,14869,1,0,0:0:0:0:
64,192,15062,1,0,0:0:0:0:
448,192,15256,1,0,0:0:0:0:
320,192,15449,1,0,0:0:0:0:
192,192,15643,1,0,0:0:0:0:
64,192,15836,1,0,0:0:0:0:
320,192,16030,1,0,0:0:0:0:
448,192,16030,128,0,16127:0:0:0:0:
320,192,16224,1,0,0:0:0:0:
192,192,16417,1,0,0:0:0:0:
64,192,16611,1,0,0:0:0:0:
448,192,16804,1,0,0:0:0:0:
320,192,16998,1,0,0:0:0:0:
192,192,17191,1,0,0:0:0:0:
64,192,17385,1,0,0:0:0:0:
448,192,17578,1,0,0:0:0:0:
320,192,17772,1,0,0:0:0:0:
192,192,17965,1,0,0:0:0:0:
64,192,18159,1,0,0:0:0:0:
448,192,18353,1,0,0:0:0:0:
320,192,18546,1,0,0:0:0:0:
192,192,18740,1,0,0:0:0:0:
64,192,18933,1,0,0:0:0:0:
192,192,19127,1,0,0:0:0:0:
448,192,19127,128,0,19224:0:0:0:0:
320,192,19320,1,0,0:0:0:0:
192,192,19514,1,0,0:0:0:0:
64,192,19707,1,0,0:0:0:0:
192,192,19901,128,0,19998:0:0:0:0:
448,192,19901,1,0,0:0:0:0:
320,192,20094,1,0,0:0:0:0:
192,192,20288,1,0,0:0:0:0:
64,192,20482,1,0,0:0:0:0:
64,192,20675,128,0,20772:0:0:0:0:
448,192,20675,1,0,0:0:0:0:
320,192,20869,1,0,0:0:0:0:
192,192,21062,1,0,0:0:0:0:
64,192,21256,1,0,0:0:0:0:
448,192,21449,1,0,0:0:0:0:
320,192,21643,1,0,0:0:0:0:
192,192,21836,1,0,0:0:0:0:
64,192,22030,1,0,0:0:0:0:
320,192,22224,1,0,0:0:0:0:
448,192,22224,128,0,22320:0:0:0:0:
320,192,22417,1,0,0:0:0:0:
192,192,22611,1,0,0:0:0:0:
64,192,22804,1,0,0:0:0:0:
448,192,22998,1,0,0:0:0:0:
320,192,23191,1,0,0:0:0:0:
192,192,23385,1,0,0:0:0:0:
64,192,23578,1,0,0:0:0:0:
448,192,23772,1,0,0:0:0:0:
320,192,23965,1,0,0:0:0:0:
192,192,24159,1,0,0:0:0:0:
64,192,24353,1,0,0:0:0:0:
448,192,24546,1,0,0:0:0:0:
320,192,24740,1,0,0:0:0:0:
192,192,24933,1,0,0:0:0:0:
64,192,25127,1,0,0:0:0:0:
320,192,25320,1,0,0:0:0:0:
448,192,25320,128,0,25417:0:0:0:0:
320,192,25514,1,0,0:0:0:0:
192,192,25707,1,0,0:0:0:0:
64,192,25901,1,0,0:0:0:0:
192,192,26094,128,0,26191:0:0:0:0:
448,192,26094,1,0,0:0:0:0:
320,192,26288,1,0,0:0:0:0:
192,192,26482,1,0,0:0:0:0:
64,192,26675,1,0,0:0:0:0:
64,192,26869,128,0,26965:0:0:0:0:
192,192,26869,1,0,0:0:0:0:
320,192,27062,1,0,0:0:0:0:
192,192,27256,1,0,0:0:0:0:
64,192,27449,1,0,0:0:0:0:
448,192,27643,1,0,0:0:0:0:
320,192,27836,1,0,0:0:0:0:
192,192,28030,1,0,0:0:0:0:
64,192,28224,1,0,0:0:0:0:
192,192,28417,1,0,0:0:0:0:
448,192,28417,128,0,28514:0:0:0:0:
320,192,28611,1,0,0:0:0:0:
192,192,28804,1,0,0:0:0:0:
64,192,28998,1,0,0:0:0:0:
320,192,29191,128,0,29288:0:0:0:0:
448,192,29191,1,0,0:0:0:0:
320,192,29385,1,0,0:0:0:0:
192,192,29578,1,0,0:0:0:0:
64,192,29772,1,0,0:0:0:0:
320,192,29965,1,0,0:0:0:0:
448,192,29965,128,0,30062:0:0:0:0:
320,192,30159,1,0,0:0:0:0:
192,192,30353,1,0,0:0:0:0:
64,192,30546,1,0,0:0:0:0:
448,192,30740,1,0,0:0:0:0:
320,192,30933,1,0,0:0:0:0:
192,192,31127,1,0,0:0:0:0:
64,192,31320,1,0,0:0:0:0:
320,192,31514,1,0,0:0:0:0:
448,192,31514,128,0,31611:0:0:0:0:
320,192,31707,1,0,0:0:0:0:
192,192,31901,1,0,0:0:0:0:
64,192,32094,1,0,0:0:0:0:
192,192,32288,128,0,32385:0:0:0:0:
320,192,32288,1,0,0:0:0:0:
448,192,32482,1,0,0:0:0:0:
320,192,32675,1,0,0:0:0:0:
192,192,32869,1,0,0:0:0:0:
64,192,33062,128,0,33159:0:0:0:0:
192,192,33062,1,0,0:0:0:0:
320,192,33256,1,0,0:0:0:20:drum.wav
64,192,33353,1,0,0:0:0:20:drum.wav
192,192,33449,1,0,0:0:0:20:drum.wav
320,192,33643,1,0,0:0:0:25:drum.wav
448,192,33740,1,0,0:0:0:25:drum.wav
64,192,33836,1,0,0:0:0:25:drum.wav
448,192,34030,1,0,0:0:0:30:drum.wav
192,192,34127,1,0,0:0:0:30:drum.wav
320,192,34224,1,0,0:0:0:30:drum.wav
192,192,34417,1,0,0:0:0:35:drum.wav
320,192,34514,1,0,0:0:0:35:drum.wav
64,192,34611,1,0,0:0:0:35:drum.wav
448,192,34611,128,0,34707:0:0:0:35:kick.wav
192,192,34804,1,0,0:0:0:40:drum.wav
64,192,34901,1,0,0:0:0:40:drum.wav
320,192,34998,1,0,0:0:0:40:drum.wav
448,192,34998,1,0,0:0:0:40:kick.wav
192,192,35191,1,0,0:0:0:45:drum.wav
320,192,35288,1,0,0:0:0:45:drum.wav
64,192,35385,128,0,35482:0:0:0:45:drum.wav
448,192,35385,1,0,0:0:0:45:kick.wav
192,192,35578,1,0,0:0:0:50:drum.wav
320,192,35675,1,0,0:0:0:50:drum.wav
64,192,35772,1,0,0:0:0:50:drum.wav
448,192,35772,1,0,0:0:0:50:kick.wav
320,192,35965,1,0,0:0:0:55:drum.wav
448,192,36062,1,0,0:0:0:55:drum.wav
64,192,36159,1,0,0:0:0:55:drum.wav
192,192,36159,128,0,36256:0:0:0:55:kick.wav
448,192,36353,1,0,0:0:0:60:drum.wav
64,192,36449,1,0,0:0:0:60:drum.wav
192,192,36546,1,0,0:0:0:60:drum.wav
320,192,36546,1,0,0:0:0:60:kick.wav
448,192,36643,1,0,0:0:0:0:
64,192,36740,1,0,0:0:0:65:drum.wav
320,192,36836,1,0,0:0:0:65:drum.wav
192,192,36933,1,0,0:0:0:65:drum.wav
448,192,36933,1,0,0:0:0:65:kick.wav
64,192,37030,1,0,0:0:0:0:
320,192,37127,1,0,0:0:0:70:drum.wav
448,192,37224,1,0,0:0:0:70:drum.wav
64,192,37320,1,0,0:0:0:70:drum.wav
192,192,37320,1,0,0:0:0:70:kick.wav
448,192,37417,1,0,0:0:0:0:
320,192,37514,1,0,0:0:0:70:drum.wav
192,192,37611,1,0,0:0:0:70:drum.wav
64,192,37707,1,0,0:0:0:70:drum.wav
448,192,37707,1,0,0:0:0:70:kick.wav
320,192,37772,1,0,0:0:0:0:
192,192,37836,1,0,0:0:0:0:
64,192,37901,1,0,0:0:0:0:
448,192,37965,1,0,0:0:0:0:
320,192,38030,1,0,0:0:0:0:
192,192,38094,1,0,0:0:0:0:
320,192,38159,1,0,0:0:0:0:
448,192,38224,1,0,0:0:0:0:
64,192,38288,1,0,0:0:0:0:
192,192,38353,1,0,0:0:0:0:
320,192,38417,1,0,0:0:0:0:
192,192,38482,1,0,0:0:0:0:
448,192,38578,1,0,0:0:0:0:
320,192,38675,1,0,0:0:0:0:
64,192,38772,1,0,0:0:0:0:
192,192,38869,1,0,0:0:0:0:
448,192,38869,128,0,39256:0:0:0:0:
64,192,39256,1,0,0:0:0:70:kick.wav
192,192,39256,1,0,0:0:0:70:crash.wav
320,192,39256,1,0,0:0:0:0:
320,192,39353,1,0,0:0:0:0:
448,192,39353,1,0,0:0:0:0:
64,192,39546,1,0,0:0:0:0:
192,192,39546,1,0,0:0:0:0:
64,192,39643,1,0,0:0:0:70:kick.wav
320,192,39643,1,0,0:0:0:0:
448,192,39643,1,0,0:0:0:0:
192,192,39836,1,0,0:0:0:0:
320,192,39836,1,0,0:0:0:0:
64,192,39933,1,0,0:0:0:0:
448,192,39933,1,0,0:0:0:0:
64,192,40030,1,0,0:0:0:70:kick.wav
192,192,40030,1,0,0:0:0:0:
320,192,40030,1,0,0:0:0:0:
192,192,40127,1,0,0:0:0:0:
448,192,40127,1,0,0:0:0:0:
320,192,40320,1,0,0:0:0:0:
448,192,40320,1,0,0:0:0:0:
64,192,40417,1,0,0:0:0:70:kick.wav
192,192,40417,1,0,0:0:0:0:
448,192,40417,1,0,0:0:0:0:
192,192,40514,1,0,0:0:0:0:
320,192,40514,1,0,0:0:0:0:
64,192,40707,1,0,0:0:0:0:
320,192,40707,1,0,0:0:0:0:
192,192,40804,1,0,0:0:0:70:kick.wav
320,192,40804,1,0,0:0:0:0:
448,192,40804,1,0,0:0:0:0:
64,192,40901,1,0,0:0:0:0:
192,192,40901,1,0,0:0:0:0:
64,192,41094,1,0,0:0:0:0:
448,192,41094,1,0,0:0:0:0:
192,192,41191,1,0,0:0:0:70:kick.wav
320,192,41191,1,0,0:0:0:0:
448,192,41191,1,0,0:0:0:0:
192,192,41385,1,0,0:0:0:0:
448,192,41385,1,0,0:0:0:0:
64,192,41482,1,0,0:0:0:0:
320,192,41482,1,0,0:0:0:0:
64,192,41578,1,0,0:0:0:70:kick.wav
192,192,41578,1,0,0:0:0:0:
448,192,41578,1,0,0:0:0:0:
192,192,41675,1,0,0:0:0:0:
320,192,41675,1,0,0:0:0:0:
64,192,41869,1,0,0:0:0:0:
192,192,41869,1,0,0:0:0:0:
64,192,41965,1,0,0:0:0:70:kick.wav
320,192,41965,1,0,0:0:0:0:
448,192,41965,1,0,0:0:0:0:
192,192,42062,1,0,0:0:0:0:
448,192,42062,1,0,0:0:0:0:
64,192,42256,1,0,0:0:0:0:
448,192,42256,1,0,0:0:0:0:
192,192,42353,1,0,0:0:0:70:kick.wav
320,192,42353,1,0,0:0:0:0:
448,192,42353,1,0,0:0:0:0:
64,192,42449,1,0,0:0:0:0:
192,192,42449,1,0,0:0:0:0:
320,192,42546,1,0,0:0:0:0:
192,192,42643,1,0,0:0:0:0:
448,192,42643,1,0,0:0:0:0:
64,192,42740,1,0,0:0:0:70:kick.wav
192,192,42740,1,0,0:0:0:0:
320,192,42740,1,0,0:0:0:0:
448,192,42836,1,0,0:0:0:0:
64,192,42933,1,0,0:0:0:0:
192,192,42933,1,0,0:0:0:0:
320,192,43030,1,0,0:0:0:0:
448,192,43030,1,0,0:0:0:0:
64,192,43127,1,0,0:0:0:70:kick.wav
192,192,43127,1,0,0:0:0:0:
320,192,43127,1,0,0:0:0:0:
64,192,43224,1,0,0:0:0:0:
448,192,43224,1,0,0:0:0:0:
192,192,43320,1,0,0:0:0:0:
64,192,43417,1,0,0:0:0:0:
320,192,43417,1,0,0:0:0:0:
192,192,43514,1,0,0:0:0:70:kick.wav
320,192,43514,1,0,0:0:0:0:
448,192,43514,1,0,0:0:0:0:
64,192,43611,1,0,0:0:0:0:
192,192,43707,1,0,0:0:0:0:
320,192,43707,1,0,0:0:0:0:
192,192,43804,1,0,0:0:0:0:
448,192,43804,1,0,0:0:0:0:
64,192,43901,1,0,0:0:0:70:kick.wav
320,192,43901,1,0,0:0:0:0:
448,192,43901,1,0,0:0:0:0:
64,192,43998,1,0,0:0:0:0:
192,192,44094,1,0,0:0:0:0:
320,192,44094,1,0,0:0:0:0:
320,192,44191,1,0,0:0:0:0:
448,192,44191,1,0,0:0:0:0:
448,192,44288,1,0,0:0:0:70:kick.wav
192,192,44288,1,0,0:0:0:0:
64,192,44288,1,0,0:0:0:0:
192,192,44385,1,0,0:0:0:0:
320,192,44482,1,0,0:0:0:0:
448,192,44482,1,0,0:0:0:0:
64,192,44578,1,0,0:0:0:70:kick.wav
192,192,44578,1,0,0:0:0:0:
64,192,44675,1,0,0:0:0:70:kick.wav
320,192,44675,1,0,0:0:0:0:
448,192,44675,1,0,0:0:0:0:
448,192,44772,1,0,0:0:0:0:
192,192,44869,1,0,0:0:0:0:
320,192,44917,1,0,0:0:0:0:
192,192,44965,1,0,0:0:0:0:
320,192,45062,1,0,0:0:0:0:
448,192,45062,1,0,0:0:0:0:
192,192,45111,1,0,0:0:0:0:
64,192,45159,1,0,0:0:0:0:
448,192,45207,1,0,0:0:0:0:
320,192,45256,1,0,0:0:0:0:
192,192,45304,1,0,0:0:0:0:
64,192,45353,1,0,0:0:0:0:
192,192,45449,1,0,0:0:0:70:kick.wav
320,192,45449,1,0,0:0:0:70:crash.wav
448,192,45449,1,0,0:0:0:0:
64,192,45546,1,0,0:0:0:0:
192,192,45546,1,0,0:0:0:0:
448,192,45643,1,0,0:0:0:0:
192,192,45740,1,0,0:0:0:70:kick.wav
320,192,45740,1,0,0:0:0:0:
64,192,45836,1,0,0:0:0:70:kick.wav
192,192,45836,1,0,0:0:0:0:
448,192,45836,1,0,0:0:0:0:
320,192,45933,1,0,0:0:0:0:
64,192,46030,1,0,0:0:0:0:
448,192,46030,1,0,0:0:0:0:
192,192,46127,1,0,0:0:0:70:kick.wav
320,192,46127,1,0,0:0:0:0:
64,192,46224,1,0,0:0:0:70:kick.wav
320,192,46224,1,0,0:0:0:0:
448,192,46224,1,0,0:0:0:0:
64,192,46320,1,0,0:0:0:0:
192,192,46417,1,0,0:0:0:70:kick.wav
320,192,46417,1,0,0:0:0:0:
448,192,46417,1,0,0:0:0:0:
320,192,46514,1,0,0:0:0:70:kick.wav
64,192,46611,128,0,46998:0:0:0:70:Growl.wav
448,192,46611,1,0,0:0:0:0:
192,192,46675,128,0,46933:0:0:0:0:
320,192,46740,128,0,46869:0:0:0:0:
192,192,46998,1,0,0:0:0:70:kick.wav
320,192,46998,1,0,0:0:0:70:crash.wav
448,192,46998,1,0,0:0:0:0:
64,192,47094,1,0,0:0:0:0:
448,192,47094,1,0,0:0:0:0:
192,192,47191,1,0,0:0:0:0:
64,192,47288,1,0,0:0:0:70:kick.wav
320,192,47288,1,0,0:0:0:0:
64,192,47385,1,0,0:0:0:70:kick.wav
192,192,47385,1,0,0:0:0:0:
448,192,47385,1,0,0:0:0:0:
448,192,47482,1,0,0:0:0:0:
64,192,47578,1,0,0:0:0:0:
192,192,47675,1,0,0:0:0:70:kick.wav
320,192,47675,1,0,0:0:0:0:
64,192,47772,1,0,0:0:0:70:kick.wav
320,192,47772,1,0,0:0:0:0:
448,192,47772,1,0,0:0:0:0:
64,192,47901,1,0,0:0:0:70:kick.wav
320,192,47901,1,0,0:0:0:0:
448,192,47901,1,0,0:0:0:0:
64,192,48030,1,0,0:0:0:70:kick.wav
320,192,48030,1,0,0:0:0:0:
448,192,48030,1,0,0:0:0:0:
192,192,48159,128,0,48224:0:0:0:70:kick.wav
192,192,48288,128,0,48353:0:0:0:70:Growl3.wav
192,192,48417,128,0,48482:0:0:0:70:Growl3.wav
64,192,48546,1,0,0:0:0:70:kick.wav
320,192,48546,1,0,0:0:0:70:crash.wav
448,192,48546,1,0,0:0:0:0:
64,192,48643,1,0,0:0:0:0:
192,192,48643,1,0,0:0:0:0:
320,192,48740,1,0,0:0:0:0:
192,192,48836,1,0,0:0:0:70:kick.wav
448,192,48836,1,0,0:0:0:0:
64,192,48933,128,0,49030:0:0:0:70:kick.wav
192,192,48933,128,0,49030:0:0:0:70:Growl3.wav
320,192,48933,1,0,0:0:0:0:
64,192,49127,128,0,49224:0:0:0:70:Growl3.wav
192,192,49127,128,0,49224:0:0:0:0:
64,192,49320,1,0,0:0:0:70:kick.wav
192,192,49320,1,0,0:0:0:0:
448,192,49320,1,0,0:0:0:0:
320,192,49417,1,0,0:0:0:0:
448,192,49417,1,0,0:0:0:0:
192,192,49514,1,0,0:0:0:0:
64,192,49611,1,0,0:0:0:70:kick.wav
320,192,49611,1,0,0:0:0:0:
64,192,49707,1,0,0:0:0:70:kick.wav
448,192,49707,128,0,50094:0:0:0:70:Growl.wav
320,192,49772,128,0,50030:0:0:0:0:
192,192,49836,128,0,49965:0:0:0:0:
64,192,50094,128,0,50191:0:0:0:70:kick.wav
192,192,50143,128,0,50191:0:0:0:0:
192,192,50385,128,0,50482:0:0:0:55:kick.wav
320,192,50433,128,0,50482:0:0:0:0:
320,192,50578,1,0,0:0:0:70:kick.wav
448,192,50675,1,0,0:0:0:70:kick.wav
64,192,50724,1,0,0:0:0:70:kick.wav
448,192,50772,1,0,0:0:0:70:kick.wav
64,192,50820,1,0,0:0:0:70:kick.wav
192,192,50869,1,0,0:0:0:70:kick.wav
320,192,50869,1,0,0:0:0:0:
64,192,50998,1,0,0:0:0:70:kick.wav
320,192,50998,1,0,0:0:0:0:
192,192,51127,1,0,0:0:0:70:kick.wav
448,192,51127,1,0,0:0:0:0:
64,192,51256,128,0,51449:0:0:0:70:kick.wav
320,192,51256,1,0,0:0:0:0:
192,192,51353,128,0,51449:0:0:0:0:
448,192,51449,128,0,51643:0:0:0:70:kick.wav
320,192,51546,128,0,51643:0:0:0:0:
64,192,51643,1,0,0:0:0:70:kick.wav
192,192,51643,1,0,0:0:0:70:crash.wav
64,192,51836,1,0,0:0:0:0:
192,192,51836,1,0,0:0:0:0:
320,192,51901,1,0,0:0:0:0:
448,192,51965,1,0,0:0:0:0:
64,192,52030,1,0,0:0:0:70:kick.wav
192,192,52030,1,0,0:0:0:0:
320,192,52224,1,0,0:0:0:0:
448,192,52224,1,0,0:0:0:0:
64,192,52288,1,0,0:0:0:0:
192,192,52353,1,0,0:0:0:0:
320,192,52417,1,0,0:0:0:70:kick.wav
448,192,52417,1,0,0:0:0:0:
64,192,52611,1,0,0:0:0:0:
192,192,52707,1,0,0:0:0:70:kick.wav
448,192,52707,1,0,0:0:0:0:
64,192,52804,1,0,0:0:0:70:kick.wav
320,192,52804,1,0,0:0:0:0:
320,192,52998,1,0,0:0:0:0:
448,192,52998,1,0,0:0:0:0:
192,192,53062,1,0,0:0:0:0:
64,192,53127,1,0,0:0:0:0:
320,192,53191,1,0,0:0:0:70:kick.wav
448,192,53191,1,0,0:0:0:0:
64,192,53385,1,0,0:0:0:0:
448,192,53433,1,0,0:0:0:0:
192,192,53482,1,0,0:0:0:70:kick.wav
320,192,53482,1,0,0:0:0:0:
64,192,53578,1,0,0:0:0:70:kick.wav
192,192,53578,1,0,0:0:0:0:
448,192,53772,1,0,0:0:0:0:
64,192,53820,1,0,0:0:0:0:
192,192,53869,1,0,0:0:0:70:kick.wav
320,192,53869,1,0,0:0:0:0:
320,192,53965,1,0,0:0:0:70:kick.wav
448,192,53965,1,0,0:0:0:0:
64,192,54159,1,0,0:0:0:0:
192,192,54159,1,0,0:0:0:0:
320,192,54353,1,0,0:0:0:70:kick.wav
448,192,54353,1,0,0:0:0:0:
192,192,54417,1,0,0:0:0:0:
64,192,54482,1,0,0:0:0:0:
320,192,54546,1,0,0:0:0:0:
448,192,54546,1,0,0:0:0:0:
192,192,54643,1,0,0:0:0:70:kick.wav
64,192,54740,1,0,0:0:0:70:kick.wav
192,192,54740,1,0,0:0:0:0:
320,192,54933,1,0,0:0:0:0:
192,192,55030,1,0,0:0:0:70:kick.wav
448,192,55030,1,0,0:0:0:0:
64,192,55127,1,0,0:0:0:70:kick.wav
320,192,55127,1,0,0:0:0:0:
64,192,55320,1,0,0:0:0:0:
192,192,55417,1,0,0:0:0:70:kick.wav
320,192,55417,1,0,0:0:0:0:
64,192,55514,1,0,0:0:0:70:kick.wav
448,192,55514,1,0,0:0:0:0:
192,192,55707,1,0,0:0:0:0:
320,192,55804,1,0,0:0:0:70:kick.wav
448,192,55804,1,0,0:0:0:0:
64,192,55901,1,0,0:0:0:70:kick.wav
192,192,55901,1,0,0:0:0:0:
320,192,56094,1,0,0:0:0:0:
64,192,56191,1,0,0:0:0:70:kick.wav
192,192,56191,1,0,0:0:0:0:
320,192,56288,1,0,0:0:0:70:kick.wav
448,192,56288,1,0,0:0:0:0:
192,192,56482,1,0,0:0:0:0:
320,192,56578,1,0,0:0:0:70:kick.wav
448,192,56578,1,0,0:0:0:0:
64,192,56675,1,0,0:0:0:70:kick.wav
192,192,56675,1,0,0:0:0:0:
64,192,56869,1,0,0:0:0:0:
192,192,56965,1,0,0:0:0:70:kick.wav
320,192,56965,1,0,0:0:0:0:
64,192,57062,1,0,0:0:0:70:kick.wav
448,192,57062,1,0,0:0:0:0:
320,192,57159,1,0,0:0:0:0:
192,192,57256,1,0,0:0:0:0:
64,192,57353,1,0,0:0:0:70:kick.wav
448,192,57353,1,0,0:0:0:0:
320,192,57449,1,0,0:0:0:0:
192,192,57546,1,0,0:0:0:70:kick.wav
448,192,57546,1,0,0:0:0:0:
64,192,57643,1,0,0:0:0:70:kick.wav
320,192,57643,1,0,0:0:0:0:
448,192,57707,1,0,0:0:0:0:
192,192,57772,1,0,0:0:0:0:
64,192,57836,1,0,0:0:0:70:kick.wav
320,192,57836,1,0,0:0:0:0:
320,192,58030,1,0,0:0:0:0:
448,192,58030,1,0,0:0:0:0:
192,192,58094,1,0,0:0:0:0:
320,192,58159,1,0,0:0:0:0:
64,192,58224,1,0,0:0:0:70:kick.wav
192,192,58224,1,0,0:0:0:0:
64,192,58417,1,0,0:0:0:0:
448,192,58417,1,0,0:0:0:0:
320,192,58482,1,0,0:0:0:0:
192,192,58546,1,0,0:0:0:0:
320,192,58611,1,0,0:0:0:70:kick.wav
448,192,58611,1,0,0:0:0:0:
192,192,58804,1,0,0:0:0:0:
64,192,58901,1,0,0:0:0:70:kick.wav
448,192,58901,1,0,0:0:0:0:
192,192,58998,1,0,0:0:0:70:kick.wav
320,192,58998,1,0,0:0:0:0:
64,192,59191,1,0,0:0:0:0:
448,192,59191,1,0,0:0:0:0:
320,192,59256,1,0,0:0:0:0:
192,192,59320,1,0,0:0:0:0:
64,192,59385,1,0,0:0:0:70:kick.wav
320,192,59385,1,0,0:0:0:0:
64,192,59627,1,0,0:0:0:0:
448,192,59627,1,0,0:0:0:0:
192,192,59675,1,0,0:0:0:70:kick.wav
320,192,59724,1,0,0:0:0:0:
64,192,59772,1,0,0:0:0:70:kick.wav
448,192,59772,1,0,0:0:0:0:
64,192,60014,1,0,0:0:0:0:
448,192,60014,1,0,0:0:0:0:
320,192,60062,1,0,0:0:0:70:kick.wav
192,192,60111,1,0,0:0:0:0:
64,192,60159,1,0,0:0:0:70:kick.wav
448,192,60159,1,0,0:0:0:0:
64,192,60353,1,0,0:0:0:0:
320,192,60449,1,0,0:0:0:70:kick.wav
448,192,60449,1,0,0:0:0:0:
64,192,60546,1,0,0:0:0:70:kick.wav
192,192,60546,1,0,0:0:0:0:
320,192,60611,1,0,0:0:0:0:
448,192,60675,1,0,0:0:0:0:
64,192,60740,1,0,0:0:0:0:
192,192,60740,1,0,0:0:0:0:
320,192,60836,1,0,0:0:0:0:
192,192,60933,1,0,0:0:0:70:snaredrum.wav
320,192,60933,1,0,0:0:0:70:kick.wav
448,192,60933,1,0,0:0:0:70:crash.wav
64,192,61127,1,0,0:0:0:0:
192,192,61224,1,0,0:0:0:70:drum.wav
320,192,61224,1,0,0:0:0:0:
192,192,61417,1,0,0:0:0:70:drum.wav
448,192,61417,1,0,0:0:0:0:
64,192,61514,1,0,0:0:0:0:
320,192,61514,1,0,0:0:0:0:
192,192,61562,1,0,0:0:0:0:
320,192,61611,1,0,0:0:0:70:drum.wav
64,192,61707,1,0,0:0:0:70:drum.wav
448,192,61707,1,0,0:0:0:0:
320,192,61901,1,0,0:0:0:0:
64,192,61998,1,0,0:0:0:70:drum.wav
192,192,61998,1,0,0:0:0:0:
64,192,62191,1,0,0:0:0:70:drum.wav
448,192,62191,1,0,0:0:0:0:
192,192,62288,1,0,0:0:0:70:drum.wav
320,192,62288,1,0,0:0:0:0:
64,192,62482,1,0,0:0:0:70:drum.wav
448,192,62482,1,0,0:0:0:0:
192,192,62675,1,0,0:0:0:0:
64,192,62772,1,0,0:0:0:70:drum.wav
320,192,62772,1,0,0:0:0:0:
64,192,62965,1,0,0:0:0:70:drum.wav
448,192,62965,1,0,0:0:0:0:
320,192,63062,1,0,0:0:0:0:
64,192,63159,1,0,0:0:0:70:drum.wav
192,192,63159,1,0,0:0:0:0:
64,192,63256,1,0,0:0:0:70:drum.wav
320,192,63256,1,0,0:0:0:70:kick.wav
448,192,63256,1,0,0:0:0:0:
192,192,63320,1,0,0:0:0:70:drum.wav
448,192,63385,1,0,0:0:0:70:drum.wav
320,192,63449,1,0,0:0:0:70:drum.wav
64,192,63514,1,0,0:0:0:70:drum.wav
448,192,63578,1,0,0:0:0:70:drum.wav
192,192,63643,1,0,0:0:0:70:drum.wav
448,192,63740,1,0,0:0:0:0:
192,192,63836,1,0,0:0:0:70:drum.wav
320,192,63836,1,0,0:0:0:0:
64,192,64030,128,0,64224:0:0:0:70:drum.wav
192,192,64030,128,0,64127:0:0:0:70:kick.wav
448,192,64127,128,0,64417:0:0:0:0:
320,192,64175,128,0,64369:0:0:0:0:
192,192,64224,128,0,64320:0:0:0:0:
64,192,64320,128,0,64514:0:0:0:0:
192,192,64369,128,0,64562:0:0:0:0:
320,192,64417,128,0,64611:0:0:0:0:
448,192,64465,128,0,64659:0:0:0:0:
192,192,64611,1,0,0:0:0:0:
320,192,64659,1,0,0:0:0:0:
64,192,64707,1,0,0:0:0:70:kick.wav
448,192,64707,1,0,0:0:0:0:
64,192,64804,1,0,0:0:0:70:snaredrum.wav
192,192,64804,1,0,0:0:0:70:kick.wav
448,192,64804,1,0,0:0:0:0:
320,192,64901,128,0,64998:0:0:0:0:
192,192,64998,128,0,65094:0:0:0:0:
64,192,65191,128,0,65288:0:0:0:0:
448,192,65191,1,0,0:0:0:0:
320,192,65240,1,0,0:0:0:0:
192,192,65288,1,0,0:0:0:0:
64,192,65385,1,0,0:0:0:0:
448,192,65385,128,0,65482:0:0:0:0:
192,192,65433,1,0,0:0:0:0:
320,192,65482,1,0,0:0:0:0:
64,192,65578,1,0,0:0:0:70:hihat.wav
448,192,65578,1,0,0:0:0:0:
192,192,65675,1,0,0:0:0:0:
320,192,65675,1,0,0:0:0:0:
448,192,65772,1,0,0:0:0:0:
64,192,65869,1,0,0:0:0:70:kick.wav
192,192,65869,1,0,0:0:0:0:
320,192,65869,1,0,0:0:0:0:
64,192,65965,128,0,66062:0:0:0:0:
448,192,65965,1,0,0:0:0:0:
320,192,66159,1,0,0:0:0:70:kick.wav
448,192,66159,1,0,0:0:0:0:
192,192,66207,1,0,0:0:0:70:kick.wav
64,192,66256,1,0,0:0:0:70:kick.wav
448,192,66256,1,0,0:0:0:0:
192,192,66353,1,0,0:0:0:70:snaredrum.wav
320,192,66353,1,0,0:0:0:70:kick.wav
448,192,66353,1,0,0:0:0:0:
192,192,66449,1,0,0:0:0:0:
64,192,66546,1,0,0:0:0:0:
320,192,66546,1,0,0:0:0:0:
448,192,66643,1,0,0:0:0:0:
192,192,66740,1,0,0:0:0:0:
320,192,66740,1,0,0:0:0:0:
320,192,66836,1,0,0:0:0:0:
64,192,66933,1,0,0:0:0:0:
192,192,66933,1,0,0:0:0:0:
64,192,67030,1,0,0:0:0:0:
192,192,67127,128,0,67369:0:0:0:70:kick.wav
448,192,67127,1,0,0:0:0:0:
320,192,67224,128,0,67320:0:0:0:0:
64,192,67272,128,0,67417:0:0:0:0:
448,192,67320,128,0,67417:0:0:0:0:
320,192,67369,128,0,67465:0:0:0:0:
192,192,67417,128,0,67514:0:0:0:0:
64,192,67465,128,0,67562:0:0:0:0:
448,192,67514,128,0,67707:0:0:0:0:
320,192,67562,128,0,67707:0:0:0:0:
192,192,67611,128,0,67707:0:0:0:0:
64,192,67707,1,0,0:0:0:0:
192,192,67756,1,0,0:0:0:0:
320,192,67804,1,0,0:0:0:70:kick.wav
448,192,67804,1,0,0:0:0:0:
64,192,67901,1,0,0:0:0:70:snaredrum.wav
320,192,67901,1,0,0:0:0:70:kick.wav
448,192,67901,1,0,0:0:0:0:
192,192,67998,1,0,0:0:0:0:
64,192,68094,1,0,0:0:0:0:
192,192,68094,1,0,0:0:0:0:
320,192,68191,1,0,0:0:0:0:
64,192,68288,1,0,0:0:0:0:
448,192,68288,1,0,0:0:0:0:
320,192,68336,1,0,0:0:0:0:
192,192,68385,1,0,0:0:0:0:
64,192,68482,1,0,0:0:0:0:
448,192,68482,1,0,0:0:0:0:
192,192,68530,1,0,0:0:0:0:
320,192,68578,1,0,0:0:0:0:
64,192,68675,1,0,0:0:0:70:kick.wav
192,192,68675,1,0,0:0:0:0:
448,192,68675,1,0,0:0:0:0:
320,192,68772,1,0,0:0:0:0:
64,192,68869,1,0,0:0:0:0:
192,192,68869,1,0,0:0:0:0:
192,192,69062,1,0,0:0:0:70:kick.wav
320,192,69062,1,0,0:0:0:0:
448,192,69062,1,0,0:0:0:0:
64,192,69159,1,0,0:0:0:0:
320,192,69256,1,0,0:0:0:0:
448,192,69256,1,0,0:0:0:0:
192,192,69353,1,0,0:0:0:0:
64,192,69449,1,0,0:0:0:70:snaredrum.wav
320,192,69449,1,0,0:0:0:70:kick.wav
448,192,69449,1,0,0:0:0:0:
192,192,69643,1,0,0:0:0:70:kick.wav
320,192,69643,1,0,0:0:0:0:
64,192,69740,1,0,0:0:0:70:drum.wav
192,192,69740,1,0,0:0:0:0:
448,192,69740,1,0,0:0:0:0:
320,192,69933,1,0,0:0:0:70:kick.wav
448,192,69933,1,0,0:0:0:0:
64,192,70030,1,0,0:0:0:70:drum.wav
192,192,70030,1,0,0:0:0:0:
320,192,70030,1,0,0:0:0:0:
64,192,70224,128,0,70417:0:0:0:70:drum.wav
320,192,70224,1,0,0:0:0:40:kick.wav
448,192,70224,1,0,0:0:0:0:
192,192,70417,1,0,0:0:0:0:
448,192,70417,1,0,0:0:0:0:
320,192,70514,1,0,0:0:0:0:
64,192,70611,128,0,70804:0:0:0:70:kick.wav
448,192,70611,1,0,0:0:0:40:crash.wav
192,192,70707,128,0,70804:0:0:0:0:
320,192,70756,128,0,70853:0:0:0:0:
448,192,70804,128,0,70901:0:0:0:0:
64,192,70853,128,0,70949:0:0:0:0:
192,192,70901,128,0,70998:0:0:0:0:
64,192,70998,1,0,0:0:0:70:snaredrum.wav
320,192,70998,1,0,0:0:0:70:kick.wav
448,192,70998,1,0,0:0:0:0:
192,192,71094,128,0,71191:0:0:0:0:
320,192,71191,128,0,71288:0:0:0:0:
64,192,71385,1,0,0:0:0:0:
448,192,71385,128,0,71482:0:0:0:0:
192,192,71433,1,0,0:0:0:0:
320,192,71482,1,0,0:0:0:0:
64,192,71578,128,0,71675:0:0:0:0:
448,192,71578,1,0,0:0:0:0:
320,192,71627,1,0,0:0:0:0:
192,192,71675,1,0,0:0:0:0:
64,192,71772,1,0,0:0:0:70:hihat.wav
320,192,71772,1,0,0:0:0:0:
320,192,71869,1,0,0:0:0:0:
320,192,71965,128,0,72159:0:0:0:0:
64,192,72062,1,0,0:0:0:70:kick.wav
192,192,72062,1,0,0:0:0:0:
448,192,72159,1,0,0:0:0:0:
192,192,72256,1,0,0:0:0:0:
320,192,72353,1,0,0:0:0:70:kick.wav
448,192,72353,1,0,0:0:0:0:
64,192,72401,1,0,0:0:0:70:kick.wav
192,192,72449,1,0,0:0:0:70:kick.wav
64,192,72546,1,0,0:0:0:70:snaredrum.wav
192,192,72546,1,0,0:0:0:70:kick.wav
448,192,72546,1,0,0:0:0:0:
320,192,72643,1,0,0:0:0:0:
192,192,72691,1,0,0:0:0:0:
64,192,72740,1,0,0:0:0:0:
448,192,72740,1,0,0:0:0:0:
192,192,72836,1,0,0:0:0:0:
320,192,72933,1,0,0:0:0:0:
448,192,72933,1,0,0:0:0:0:
64,192,73030,1,0,0:0:0:0:
192,192,73127,1,0,0:0:0:0:
320,192,73127,1,0,0:0:0:0:
448,192,73224,1,0,0:0:0:0:
192,192,73320,128,0,73417:0:0:0:70:crash.wav
320,192,73320,128,0,73514:0:0:0:0:
64,192,73320,1,0,0:0:0:70:kick.wav
448,192,73417,128,0,73514:0:0:0:0:
64,192,73465,128,0,73562:0:0:0:0:
192,192,73514,128,0,73611:0:0:0:0:
320,192,73562,128,0,73659:0:0:0:0:
448,192,73611,128,0,73707:0:0:0:0:
64,192,73707,1,0,0:0:0:70:snaredrum.wav
192,192,73707,1,0,0:0:0:70:kick.wav
320,192,73707,1,0,0:0:0:0:
448,192,73901,1,0,0:0:0:0:
64,192,73998,1,0,0:0:0:70:kick.wav
192,192,73998,1,0,0:0:0:0:
320,192,74094,1,0,0:0:0:0:
192,192,74191,1,0,0:0:0:0:
320,192,74288,1,0,0:0:0:70:kick.wav
448,192,74288,1,0,0:0:0:0:
64,192,74385,1,0,0:0:0:0:
64,192,74482,1,0,0:0:0:70:snaredrum.wav
192,192,74482,128,0,74578:0:0:0:70:kick.wav
320,192,74482,1,0,0:0:0:0:
448,192,74578,128,0,74675:0:0:0:0:
320,192,74627,128,0,74724:0:0:0:0:
64,192,74675,1,0,0:0:0:0:
192,192,74675,128,0,74869:0:0:0:0:
448,192,74724,128,0,74820:0:0:0:0:
320,192,74772,128,0,74869:0:0:0:0:
64,192,74869,1,0,0:0:0:70:kick.wav
448,192,74869,1,0,0:0:0:70:crash.wav
320,192,74965,1,0,0:0:0:0:
192,192,75014,1,0,0:0:0:0:
320,192,75062,1,0,0:0:0:0:
448,192,75159,1,0,0:0:0:0:
320,192,75207,1,0,0:0:0:0:
64,192,75256,1,0,0:0:0:0:
192,192,75256,1,0,0:0:0:0:
320,192,75353,1,0,0:0:0:0:
64,192,75449,1,0,0:0:0:0:
448,192,75449,1,0,0:0:0:0:
192,192,75546,1,0,0:0:0:0:
64,192,75643,1,0,0:0:0:0:
320,192,75643,1,0,0:0:0:0:
192,192,75691,1,0,0:0:0:0:
448,192,75740,1,0,0:0:0:0:
192,192,75836,1,0,0:0:0:0:
320,192,75836,1,0,0:0:0:0:
64,192,75933,1,0,0:0:0:0:
320,192,76030,1,0,0:0:0:0:
448,192,76030,1,0,0:0:0:0:
192,192,76078,1,0,0:0:0:0:
64,192,76127,1,0,0:0:0:0:
320,192,76175,1,0,0:0:0:0:
448,192,76224,1,0,0:0:0:0:
192,192,76320,1,0,0:0:0:0:
64,192,76417,1,0,0:0:0:70:kick.wav
448,192,76417,1,0,0:0:0:70:boom.wav
192,192,76611,1,0,0:0:0:0:
320,192,76707,1,0,0:0:0:0:
64,192,76901,1,0,0:0:0:0:
192,192,76998,1,0,0:0:0:0:
192,192,77191,1,0,0:0:0:0:
320,192,77288,1,0,0:0:0:0:
64,192,77578,1,0,0:0:0:70:D#6S_Eb6S.wav
320,192,77578,1,0,0:0:0:0:
448,192,77675,1,0,0:0:0:0:
192,192,77772,1,0,0:0:0:70:F6S.wav
320,192,77772,1,0,0:0:0:0:
64,192,77965,1,0,0:0:0:70:C#6S_Db6S.wav
192,192,77965,1,0,0:0:0:0:
320,192,78159,1,0,0:0:0:0:
448,192,78207,1,0,0:0:0:0:
448,192,78353,1,0,0:0:0:0:
320,192,78449,1,0,0:0:0:0:
448,192,78546,1,0,0:0:0:0:
320,192,78643,1,0,0:0:0:0:
448,192,78740,128,0,78933:0:0:0:0:
320,192,78836,128,0,78933:0:0:0:0:
64,192,78933,128,0,79127:0:0:0:0:
192,192,79030,128,0,79127:0:0:0:0:
320,192,79127,1,0,0:0:0:70:A#5S_Bb5S.wav
448,192,79127,1,0,0:0:0:0:
192,192,79320,1,0,0:0:0:70:C#6S_Db6S.wav
320,192,79320,1,0,0:0:0:0:
64,192,79514,1,0,0:0:0:70:D#6S_Eb6S.wav
448,192,79514,1,0,0:0:0:0:
192,192,79611,1,0,0:0:0:0:
320,192,79707,1,0,0:0:0:0:
192,192,79804,1,0,0:0:0:0:
320,192,79901,1,0,0:0:0:70:G#6S_Ab6S.wav
448,192,79901,1,0,0:0:0:0:
64,192,79998,1,0,0:0:0:0:
320,192,80094,1,0,0:0:0:0:
192,192,80159,1,0,0:0:0:0:
64,192,80224,1,0,0:0:0:0:
320,192,80288,1,0,0:0:0:70:F6S.wav
448,192,80288,1,0,0:0:0:0:
192,192,80385,1,0,0:0:0:0:
320,192,80482,1,0,0:0:0:0:
448,192,80578,1,0,0:0:0:0:
320,192,80627,1,0,0:0:0:0:
64,192,80675,1,0,0:0:0:70:D#6S_Eb6S.wav
192,192,80675,1,0,0:0:0:0:
448,192,80772,1,0,0:0:0:0:
320,192,80869,1,0,0:0:0:0:
192,192,80965,1,0,0:0:0:0:
64,192,81062,1,0,0:0:0:70:F6S.wav
448,192,81062,1,0,0:0:0:0:
320,192,81111,1,0,0:0:0:0:
192,192,81159,1,0,0:0:0:0:
64,192,81256,1,0,0:0:0:0:
192,192,81320,1,0,0:0:0:0:
320,192,81385,1,0,0:0:0:0:
448,192,81449,1,0,0:0:0:0:
448,192,81546,1,0,0:0:0:0:
192,192,81643,1,0,0:0:0:0:
192,192,81740,1,0,0:0:0:0:
320,192,81836,1,0,0:0:0:0:
320,192,81933,1,0,0:0:0:0:
64,192,82030,1,0,0:0:0:70:D#6S_Eb6S.wav
192,192,82127,1,0,0:0:0:0:
448,192,82224,128,0,82417:0:0:0:0:
64,192,82611,1,0,0:0:0:70:F6S.wav
192,192,82611,1,0,0:0:0:0:
320,192,82804,1,0,0:0:0:0:
192,192,82901,1,0,0:0:0:0:
320,192,83094,1,0,0:0:0:0:
64,192,83191,1,0,0:0:0:0:
320,192,83385,1,0,0:0:0:0:
192,192,83482,1,0,0:0:0:0:
448,192,83578,1,0,0:0:0:0:
320,192,83675,1,0,0:0:0:0:
64,192,83772,1,0,0:0:0:70:D#6S_Eb6S.wav
192,192,83772,1,0,0:0:0:0:
192,192,83965,1,0,0:0:0:70:F6S.wav
320,192,83965,1,0,0:0:0:0:
64,192,84014,1,0,0:0:0:0:
448,192,84062,1,0,0:0:0:0:
64,192,84159,1,0,0:0:0:70:C#6S_Db6S.wav
192,192,84159,1,0,0:0:0:0:
320,192,84207,1,0,0:0:0:0:
448,192,84256,1,0,0:0:0:0:
192,192,84304,1,0,0:0:0:0:
320,192,84353,1,0,0:0:0:0:
64,192,84449,1,0,0:0:0:0:
192,192,84546,1,0,0:0:0:0:
448,192,84643,1,0,0:0:0:0:
320,192,84740,128,0,84933:0:0:0:0:
64,192,84933,1,0,0:0:0:0:
192,192,85030,1,0,0:0:0:0:
320,192,85127,1,0,0:0:0:0:
320,192,85224,1,0,0:0:0:0:
64,192,85320,1,0,0:0:0:70:A#5S_Bb5S.wav
192,192,85320,1,0,0:0:0:0:
192,192,85514,1,0,0:0:0:70:C#6S_Db6S.wav
320,192,85514,1,0,0:0:0:0:
320,192,85707,1,0,0:0:0:70:D#6S_Eb6S.wav
448,192,85707,1,0,0:0:0:0:
192,192,85804,1,0,0:0:0:0:
64,192,85901,1,0,0:0:0:0:
320,192,85901,1,0,0:0:0:0:
448,192,85998,1,0,0:0:0:0:
192,192,86094,1,0,0:0:0:70:G#6S_Ab6S.wav
320,192,86094,1,0,0:0:0:0:
64,192,86191,1,0,0:0:0:0:
320,192,86288,1,0,0:0:0:0:
448,192,86288,1,0,0:0:0:0:
64,192,86385,1,0,0:0:0:0:
192,192,86482,1,0,0:0:0:70:F6S.wav
320,192,86482,1,0,0:0:0:0:
64,192,86578,1,0,0:0:0:0:
192,192,86675,1,0,0:0:0:0:
448,192,86675,1,0,0:0:0:0:
320,192,86772,1,0,0:0:0:0:
64,192,86869,1,0,0:0:0:70:G#6S_Ab6S.wav
192,192,86869,1,0,0:0:0:0:
320,192,86965,1,0,0:0:0:0:
64,192,87062,1,0,0:0:0:0:
448,192,87062,1,0,0:0:0:0:
192,192,87159,1,0,0:0:0:0:
64,192,87256,1,0,0:0:0:40:drum.wav
448,192,87256,1,0,0:0:0:70:A#6S_Bb6S.wav
192,192,87304,1,0,0:0:0:40:drum.wav
320,192,87353,1,0,0:0:0:40:drum.wav
448,192,87401,1,0,0:0:0:40:drum.wav
64,192,87449,1,0,0:0:0:45:drum.wav
192,192,87498,1,0,0:0:0:45:drum.wav
320,192,87546,1,0,0:0:0:45:drum.wav
448,192,87594,1,0,0:0:0:45:drum.wav
64,192,87643,1,0,0:0:0:50:drum.wav
192,192,87691,1,0,0:0:0:50:drum.wav
320,192,87740,1,0,0:0:0:50:drum.wav
448,192,87788,1,0,0:0:0:50:drum.wav
64,192,87836,1,0,0:0:0:55:drum.wav
192,192,87885,1,0,0:0:0:55:drum.wav
320,192,87933,1,0,0:0:0:55:drum.wav
448,192,87982,1,0,0:0:0:55:drum.wav
192,192,88030,1,0,0:0:0:60:drum.wav
64,192,88078,1,0,0:0:0:60:drum.wav
320,192,88127,1,0,0:0:0:60:drum.wav
192,192,88175,1,0,0:0:0:60:drum.wav
448,192,88224,1,0,0:0:0:65:drum.wav
320,192,88272,1,0,0:0:0:65:drum.wav
192,192,88320,1,0,0:0:0:65:drum.wav
64,192,88369,1,0,0:0:0:65:drum.wav
448,192,88417,1,0,0:0:0:70:drum.wav
320,192,88465,1,0,0:0:0:70:drum.wav
192,192,88514,1,0,0:0:0:70:drum.wav
64,192,88562,1,0,0:0:0:70:drum.wav
448,192,88611,1,0,0:0:0:70:drum.wav
320,192,88659,1,0,0:0:0:70:drum.wav
192,192,88707,1,0,0:0:0:70:drum.wav
64,192,88756,1,0,0:0:0:70:drum.wav
320,192,88804,1,0,0:0:0:70:drum.wav
448,192,88804,128,0,88998:0:0:0:70:crash.wav
192,192,88998,1,0,0:0:0:0:
320,192,89094,1,0,0:0:0:0:
64,192,89191,1,0,0:0:0:0:
192,192,89385,1,0,0:0:0:0:
448,192,89433,1,0,0:0:0:0:
320,192,89482,1,0,0:0:0:0:
192,192,89530,1,0,0:0:0:0:
448,192,89578,1,0,0:0:0:0:
64,192,89675,1,0,0:0:0:0:
192,192,89772,1,0,0:0:0:0:
192,192,89869,1,0,0:0:0:0:
448,192,89965,128,0,90159:0:0:0:0:
64,192,90159,128,0,90353:0:0:0:0:
320,192,90353,128,0,90546:0:0:0:0:
448,192,90546,1,0,0:0:0:0:
192,192,90643,1,0,0:0:0:0:
64,192,90933,1,0,0:0:0:0:
192,192,90982,1,0,0:0:0:0:
448,192,91030,1,0,0:0:0:0:
320,192,91078,1,0,0:0:0:0:
64,192,91127,1,0,0:0:0:0:
192,192,91127,1,0,0:0:0:0:
320,192,91224,1,0,0:0:0:0:
448,192,91320,128,0,91514:0:0:0:0:
320,192,91514,1,0,0:0:0:70:bass.wav
192,192,91562,1,0,0:0:0:0:
320,192,91611,1,0,0:0:0:0:
64,192,91707,1,0,0:0:0:0:
448,192,91707,1,0,0:0:0:0:
192,192,91804,1,0,0:0:0:0:
64,192,91901,1,0,0:0:0:70:kick.wav
320,192,91901,1,0,0:0:0:70:crash.wav
448,192,91901,1,0,0:0:0:70:boom.wav
192,192,92094,1,0,0:0:0:0:
320,192,92094,128,0,92288:0:0:0:0:
64,192,92288,1,0,0:0:0:70:kick.wav
192,192,92288,1,0,0:0:0:0:
448,192,92288,1,0,0:0:0:0:
320,192,92336,1,0,0:0:0:0:
64,192,92385,128,0,92482:0:0:0:0:
320,192,92482,1,0,0:0:0:0:
448,192,92482,128,0,92675:0:0:0:0:
64,192,92675,128,0,92869:0:0:0:70:kick.wav
192,192,92675,1,0,0:0:0:0:
320,192,92675,1,0,0:0:0:0:
192,192,92869,1,0,0:0:0:0:
448,192,92869,1,0,0:0:0:0:
320,192,92917,1,0,0:0:0:0:
448,192,92965,128,0,93062:0:0:0:0:
64,192,93062,1,0,0:0:0:70:kick.wav
192,192,93062,128,0,93256:0:0:0:0:
320,192,93062,1,0,0:0:0:0:
64,192,93256,128,0,93353:0:0:0:0:
320,192,93256,1,0,0:0:0:0:
448,192,93353,128,0,93449:0:0:0:0:
64,192,93449,1,0,0:0:0:70:kick.wav
192,192,93449,128,0,93643:0:0:0:0:
320,192,93449,1,0,0:0:0:0:
64,192,93643,1,0,0:0:0:0:
448,192,93643,1,0,0:0:0:0:
192,192,93691,1,0,0:0:0:0:
320,192,93740,128,0,93836:0:0:0:0:
64,192,93836,1,0,0:0:0:70:kick.wav
192,192,93836,1,0,0:0:0:0:
448,192,93836,128,0,94030:0:0:0:0:
64,192,94030,1,0,0:0:0:0:
192,192,94030,1,0,0:0:0:0:
320,192,94127,1,0,0:0:0:0:
64,192,94224,128,0,94417:0:0:0:70:kick.wav
192,192,94224,1,0,0:0:0:0:
448,192,94224,1,0,0:0:0:0:
320,192,94417,1,0,0:0:0:0:
448,192,94417,1,0,0:0:0:0:
192,192,94514,1,0,0:0:0:0:
64,192,94611,1,0,0:0:0:70:kick.wav
320,192,94611,128,0,94804:0:0:0:0:
448,192,94611,1,0,0:0:0:0:
192,192,94804,1,0,0:0:0:0:
448,192,94804,128,0,94998:0:0:0:0:
64,192,94998,1,0,0:0:0:70:kick.wav
192,192,94998,1,0,0:0:0:0:
320,192,94998,1,0,0:0:0:0:
192,192,95191,128,0,95385:0:0:0:0:
448,192,95191,1,0,0:0:0:0:
64,192,95385,1,0,0:0:0:70:kick.wav
320,192,95385,1,0,0:0:0:0:
448,192,95385,1,0,0:0:0:0:
192,192,95433,1,0,0:0:0:0:
448,192,95482,128,0,95578:0:0:0:0:
64,192,95578,128,0,95772:0:0:0:0:
192,192,95578,1,0,0:0:0:0:
192,192,95772,1,0,0:0:0:70:kick.wav
320,192,95772,1,0,0:0:0:0:
448,192,95772,128,0,95965:0:0:0:0:
64,192,95965,1,0,0:0:0:0:
320,192,95965,1,0,0:0:0:0:
192,192,96014,1,0,0:0:0:0:
64,192,96062,128,0,96159:0:0:0:0:
192,192,96159,128,0,96353:0:0:0:70:kick.wav
320,192,96159,1,0,0:0:0:0:
448,192,96159,1,0,0:0:0:0:
64,192,96353,1,0,0:0:0:0:
320,192,96353,128,0,96449:0:0:0:0:
192,192,96449,128,0,96546:0:0:0:0:
64,192,96546,1,0,0:0:0:70:kick.wav
320,192,96546,1,0,0:0:0:0:
448,192,96546,1,0,0:0:0:0:
192,192,96594,1,0,0:0:0:0:
320,192,96643,128,0,96740:0:0:0:0:
64,192,96740,128,0,96933:0:0:0:0:
192,192,96740,1,0,0:0:0:0:
448,192,96836,128,0,96933:0:0:0:0:
192,192,96933,1,0,0:0:0:70:kick.wav
320,192,96933,128,0,97127:0:0:0:0:
64,192,97030,128,0,97127:0:0:0:0:
192,192,97127,1,0,0:0:0:0:
448,192,97127,128,0,97320:0:0:0:0:
320,192,97224,128,0,97320:0:0:0:0:
64,192,97320,1,0,0:0:0:70:kick.wav
192,192,97320,128,0,97514:0:0:0:0:
320,192,97514,1,0,0:0:0:0:
448,192,97514,128,0,97707:0:0:0:0:
192,192,97707,1,0,0:0:0:70:kick.wav
320,192,97707,1,0,0:0:0:0:
64,192,97756,1,0,0:0:0:0:
448,192,97804,1,0,0:0:0:0:
64,192,97901,128,0,97998:0:0:0:0:
192,192,97901,1,0,0:0:0:0:
320,192,97998,128,0,98094:0:0:0:0:
64,192,98094,1,0,0:0:0:70:kick.wav
192,192,98094,1,0,0:0:0:0:
448,192,98094,128,0,98482:0:0:0:0:
192,192,98288,1,0,0:0:0:0:
320,192,98288,1,0,0:0:0:0:
64,192,98385,1,0,0:0:0:0:
192,192,98482,1,0,0:0:0:70:kick.wav
320,192,98482,1,0,0:0:0:0:
192,192,98675,1,0,0:0:0:0:
320,192,98724,1,0,0:0:0:0:
192,192,98772,1,0,0:0:0:0:
64,192,98869,128,0,99256:0:0:0:70:kick.wav
320,192,98869,1,0,0:0:0:0:
448,192,98869,1,0,0:0:0:0:
192,192,99062,1,0,0:0:0:0:
448,192,99062,1,0,0:0:0:0:
320,192,99159,1,0,0:0:0:0:
192,192,99256,1,0,0:0:0:70:kick.wav
448,192,99256,1,0,0:0:0:0:
320,192,99449,1,0,0:0:0:0:
192,192,99498,1,0,0:0:0:0:
320,192,99546,1,0,0:0:0:0:
64,192,99643,1,0,0:0:0:70:kick.wav
192,192,99643,1,0,0:0:0:0:
448,192,99643,128,0,99836:0:0:0:0:
320,192,99740,1,0,0:0:0:0:
64,192,99836,1,0,0:0:0:0:
192,192,99836,128,0,100030:0:0:0:0:
448,192,99933,1,0,0:0:0:0:
64,192,100030,1,0,0:0:0:70:kick.wav
320,192,100030,128,0,100224:0:0:0:0:
448,192,100127,1,0,0:0:0:0:
64,192,100224,128,0,100417:0:0:0:0:
192,192,100224,1,0,0:0:0:0:
320,192,100320,1,0,0:0:0:0:
192,192,100417,1,0,0:0:0:70:kick.wav
448,192,100417,1,0,0:0:0:0:
192,192,100611,128,0,100804:0:0:0:0:
320,192,100611,1,0,0:0:0:0:
64,192,100707,1,0,0:0:0:0:
320,192,100804,128,0,100998:0:0:0:70:kick.wav
448,192,100804,1,0,0:0:0:0:
64,192,100901,1,0,0:0:0:0:
192,192,100998,1,0,0:0:0:0:
448,192,100998,128,0,101191:0:0:0:0:
64,192,101191,1,0,0:0:0:70:kick.wav
192,192,101191,1,0,0:0:0:0:
320,192,101191,1,0,0:0:0:0:
192,192,101385,128,0,101482:0:0:0:0:
320,192,101385,128,0,101482:0:0:0:0:
448,192,101482,1,0,0:0:0:0:
320,192,101530,1,0,0:0:0:0:
64,192,101578,1,0,0:0:0:70:kick.wav
192,192,101578,1,0,0:0:0:0:
320,192,101675,1,0,0:0:0:0:
64,192,101772,128,0,101869:0:0:0:0:
448,192,101772,128,0,101869:0:0:0:0:
192,192,101869,1,0,0:0:0:0:
64,192,101965,1,0,0:0:0:70:kick.wav
320,192,101965,1,0,0:0:0:0:
448,192,101965,1,0,0:0:0:0:
448,192,102062,1,0,0:0:0:0:
192,192,102159,128,0,102256:0:0:0:0:
320,192,102159,128,0,102256:0:0:0:0:
64,192,102256,1,0,0:0:0:0:
192,192,102353,1,0,0:0:0:70:kick.wav
320,192,102353,1,0,0:0:0:0:
448,192,102353,1,0,0:0:0:0:
192,192,102449,1,0,0:0:0:0:
64,192,102546,128,0,102643:0:0:0:0:
320,192,102546,128,0,102643:0:0:0:0:
192,192,102643,1,0,0:0:0:0:
64,192,102740,1,0,0:0:0:70:snaredrum.wav
320,192,102740,1,0,0:0:0:70:kick.wav
448,192,102740,1,0,0:0:0:0:
192,192,102836,1,0,0:0:0:0:
320,192,102933,1,0,0:0:0:0:
192,192,103030,1,0,0:0:0:0:
64,192,103127,1,0,0:0:0:70:snaredrum.wav
192,192,103127,1,0,0:0:0:70:kick.wav
320,192,103127,1,0,0:0:0:0:
448,192,103224,1,0,0:0:0:0:
320,192,103320,1,0,0:0:0:0:
64,192,103417,1,0,0:0:0:70:snaredrum.wav
192,192,103417,1,0,0:0:0:70:kick.wav
64,192,103514,1,0,0:0:0:70:snaredrum.wav
320,192,103514,1,0,0:0:0:70:kick.wav
448,192,103514,1,0,0:0:0:0:
320,192,103611,1,0,0:0:0:0:
192,192,103707,128,0,103804:0:0:0:70:kick.wav
448,192,103707,1,0,0:0:0:0:
64,192,103804,1,0,0:0:0:70:snaredrum.wav
320,192,103804,1,0,0:0:0:70:kick.wav
64,192,103901,1,0,0:0:0:70:snaredrum.wav
192,192,103901,1,0,0:0:0:70:kick.wav
320,192,103949,1,0,0:0:0:0:
448,192,103998,1,0,0:0:0:0:
192,192,104094,1,0,0:0:0:0:
320,192,104094,1,0,0:0:0:0:
320,192,104191,1,0,0:0:0:0:
64,192,104288,1,0,0:0:0:70:kick.wav
192,192,104288,1,0,0:0:0:70:boom.wav
448,192,104288,1,0,0:0:0:70:crash.wav
448,192,104482,128,0,104675:0:0:0:0:
320,192,104675,1,0,0:0:0:0:
192,192,104724,1,0,0:0:0:0:
320,192,104772,1,0,0:0:0:0:
64,192,104869,1,0,0:0:0:0:
448,192,105062,128,0,105256:0:0:0:0:
192,192,105256,1,0,0:0:0:0:
320,192,105304,1,0,0:0:0:0:
192,192,105353,1,0,0:0:0:0:
448,192,105449,1,0,0:0:0:0:
64,192,105643,1,0,0:0:0:70:kick.wav
448,192,105643,1,0,0:0:0:0:
192,192,105740,1,0,0:0:0:70:kick.wav
320,192,105740,1,0,0:0:0:0:
64,192,105836,1,0,0:0:0:70:kick.wav
320,192,105836,1,0,0:0:0:0:
448,192,105836,1,0,0:0:0:0:
64,192,106127,1,0,0:0:0:70:kick.wav
192,192,106127,1,0,0:0:0:0:
448,192,106127,1,0,0:0:0:0:
64,192,106417,1,0,0:0:0:70:kick.wav
192,192,106417,1,0,0:0:0:0:
320,192,106417,1,0,0:0:0:0:
448,192,106514,1,0,0:0:0:0:
192,192,106707,1,0,0:0:0:70:kick.wav
320,192,106707,1,0,0:0:0:0:
448,192,106707,1,0,0:0:0:0:
64,192,106804,1,0,0:0:0:0:
64,192,106998,1,0,0:0:0:70:kick.wav
192,192,106998,1,0,0:0:0:0:
448,192,106998,1,0,0:0:0:0:
320,192,107094,1,0,0:0:0:0:
64,192,107191,1,0,0:0:0:0:
448,192,107191,1,0,0:0:0:0:
192,192,107288,1,0,0:0:0:0:
64,192,107385,1,0,0:0:0:70:kick.wav
320,192,107385,1,0,0:0:0:70:crash.wav
448,192,107385,1,0,0:0:0:70:boom.wav
192,192,107578,1,0,0:0:0:0:
320,192,107578,128,0,107772:0:0:0:0:
64,192,107772,1,0,0:0:0:70:kick.wav
192,192,107772,1,0,0:0:0:0:
448,192,107772,1,0,0:0:0:0:
320,192,107820,1,0,0:0:0:0:
64,192,107869,128,0,107965:0:0:0:0:
320,192,107965,1,0,0:0:0:0:
448,192,107965,128,0,108159:0:0:0:0:
64,192,108159,128,0,108353:0:0:0:70:kick.wav
192,192,108159,1,0,0:0:0:0:
320,192,108159,1,0,0:0:0:0:
192,192,108353,1,0,0:0:0:0:
448,192,108353,1,0,0:0:0:0:
320,192,108401,1,0,0:0:0:0:
192,192,108449,128,0,108546:0:0:0:0:
64,192,108546,128,0,108740:0:0:0:70:kick.wav
320,192,108546,1,0,0:0:0:0:
448,192,108546,1,0,0:0:0:0:
192,192,108740,128,0,108836:0:0:0:0:
320,192,108740,1,0,0:0:0:0:
448,192,108836,128,0,108933:0:0:0:0:
64,192,108933,1,0,0:0:0:70:kick.wav
320,192,108933,1,0,0:0:0:0:
192,192,108982,1,0,0:0:0:0:
448,192,109030,128,0,109127:0:0:0:0:
64,192,109127,1,0,0:0:0:0:
192,192,109127,128,0,109320:0:0:0:0:
320,192,109224,128,0,109320:0:0:0:0:
64,192,109320,128,0,109514:0:0:0:70:kick.wav
448,192,109320,1,0,0:0:0:0:
192,192,109417,128,0,109514:0:0:0:0:
320,192,109514,128,0,109707:0:0:0:70:kick.wav
448,192,109514,1,0,0:0:0:0:
192,192,109611,128,0,109707:0:0:0:70:kick.wav
64,192,109707,1,0,0:0:0:70:kick.wav
448,192,109707,128,0,109901:0:0:0:0:
320,192,109804,1,0,0:0:0:0:
64,192,109901,128,0,110094:0:0:0:0:
192,192,109901,1,0,0:0:0:0:
320,192,109998,1,0,0:0:0:70:kick.wav
448,192,109998,1,0,0:0:0:0:
192,192,110094,1,0,0:0:0:0:
320,192,110143,1,0,0:0:0:0:
192,192,110191,128,0,110288:0:0:0:0:
64,192,110288,128,0,110385:0:0:0:70:kick.wav
320,192,110288,1,0,0:0:0:0:
448,192,110385,128,0,110482:0:0:0:0:
64,192,110482,1,0,0:0:0:70:kick.wav
192,192,110482,1,0,0:0:0:70:crash.wav
320,192,110482,1,0,0:0:0:70:boom.wav
448,192,110578,1,0,0:0:0:0:
64,192,110675,1,0,0:0:0:0:
192,192,110772,1,0,0:0:0:0:
64,192,110869,1,0,0:0:0:70:kick.wav
320,192,110869,1,0,0:0:0:0:
448,192,110869,1,0,0:0:0:0:
192,192,110965,1,0,0:0:0:0:
64,192,111062,1,0,0:0:0:0:
448,192,111062,1,0,0:0:0:0:
320,192,111111,1,0,0:0:0:0:
192,192,111159,1,0,0:0:0:0:
64,192,111256,1,0,0:0:0:70:kick.wav
192,192,111256,1,0,0:0:0:0:
448,192,111256,1,0,0:0:0:0:
320,192,111353,1,0,0:0:0:0:
448,192,111449,1,0,0:0:0:0:
64,192,111546,1,0,0:0:0:70:kick.wav
192,192,111546,1,0,0:0:0:0:
320,192,111546,1,0,0:0:0:0:
448,192,111643,1,0,0:0:0:0:
64,192,111740,1,0,0:0:0:0:
320,192,111740,1,0,0:0:0:0:
64,192,111836,1,0,0:0:0:70:kick.wav
192,192,111836,1,0,0:0:0:0:
448,192,111836,1,0,0:0:0:0:
320,192,111885,1,0,0:0:0:0:
192,192,111933,1,0,0:0:0:0:
64,192,112030,1,0,0:0:0:0:
448,192,112030,1,0,0:0:0:0:
320,192,112127,1,0,0:0:0:70:kick.wav
192,192,112175,1,0,0:0:0:70:kick.wav
64,192,112224,1,0,0:0:0:70:kick.wav
448,192,112224,1,0,0:0:0:0:
192,192,112320,1,0,0:0:0:70:kick.wav
320,192,112320,1,0,0:0:0:0:
192,192,112417,1,0,0:0:0:70:kick.wav
320,192,112417,1,0,0:0:0:0:
448,192,112417,1,0,0:0:0:0:
64,192,112514,1,0,0:0:0:0:
192,192,112611,1,0,0:0:0:0:
448,192,112611,1,0,0:0:0:0:
320,192,112707,1,0,0:0:0:0:
64,192,112804,1,0,0:0:0:70:kick.wav
192,192,112804,1,0,0:0:0:0:
448,192,112804,1,0,0:0:0:0:
320,192,112901,1,0,0:0:0:0:
64,192,112998,1,0,0:0:0:0:
192,192,113094,1,0,0:0:0:70:kick.wav
320,192,113094,1,0,0:0:0:0:
448,192,113094,1,0,0:0:0:0:
64,192,113191,1,0,0:0:0:0:
320,192,113288,1,0,0:0:0:0:
64,192,113385,1,0,0:0:0:70:kick.wav
192,192,113385,1,0,0:0:0:0:
448,192,113385,1,0,0:0:0:0:
192,192,113578,1,0,0:0:0:70:kick.wav
320,192,113578,1,0,0:0:0:70:crash.wav
448,192,113578,1,0,0:0:0:0:
192,192,113772,128,0,113869:0:0:0:0:
320,192,113772,128,0,113869:0:0:0:0:
64,192,113869,1,0,0:0:0:70:kick.wav
448,192,113869,1,0,0:0:0:0:
192,192,113965,1,0,0:0:0:0:
320,192,113965,1,0,0:0:0:0:
320,192,114062,1,0,0:0:0:0:
64,192,114159,128,0,114256:0:0:0:70:kick.wav
448,192,114159,128,0,114256:0:0:0:0:
192,192,114256,1,0,0:0:0:0:
320,192,114256,1,0,0:0:0:0:
64,192,114353,1,0,0:0:0:70:kick.wav
448,192,114353,1,0,0:0:0:0:
64,192,114449,1,0,0:0:0:0:
192,192,114546,128,0,114643:0:0:0:0:
320,192,114546,128,0,114643:0:0:0:0:
64,192,114643,1,0,0:0:0:70:kick.wav
448,192,114643,1,0,0:0:0:0:
192,192,114740,1,0,0:0:0:0:
320,192,114740,1,0,0:0:0:0:
192,192,114836,1,0,0:0:0:0:
64,192,114933,128,0,115030:0:0:0:70:kick.wav
448,192,114933,128,0,115030:0:0:0:0:
192,192,115030,1,0,0:0:0:70:kick.wav
320,192,115030,1,0,0:0:0:0:
64,192,115127,1,0,0:0:0:70:kick.wav
320,192,115127,1,0,0:0:0:70:crash.wav
448,192,115127,1,0,0:0:0:70:boom.wav
192,192,115514,1,0,0:0:0:0:
320,192,115578,1,0,0:0:0:0:
192,192,115643,1,0,0:0:0:0:
64,192,115707,1,0,0:0:0:0:
320,192,115707,1,0,0:0:0:0:
192,192,115756,1,0,0:0:0:0:
448,192,115804,1,0,0:0:0:0:
320,192,115853,1,0,0:0:0:0:
64,192,115901,1,0,0:0:0:0:
192,192,115901,1,0,0:0:0:0:
448,192,115949,1,0,0:0:0:0:
320,192,115998,1,0,0:0:0:0:
192,192,116094,1,0,0:0:0:0:
64,192,116191,1,0,0:0:0:0:
320,192,116288,1,0,0:0:0:70:kick.wav
448,192,116288,128,0,116385:0:0:0:0:
64,192,116385,128,0,116482:0:0:0:0:
192,192,116482,128,0,116578:0:0:0:0:
320,192,116578,128,0,116675:0:0:0:0:
64,192,116675,1,0,0:0:0:70:kick.wav
192,192,116675,128,0,117062:0:0:0:70:crash.wav
448,192,116675,1,0,0:0:0:70:boom.wav
448,192,116869,1,0,0:0:0:0:
320,192,116869,1,0,0:0:0:0:
64,192,116965,1,0,0:0:0:70:snare.wav
320,192,117062,1,0,0:0:0:70:kick.wav
448,192,117062,1,0,0:0:0:0:
64,192,117256,1,0,0:0:0:0:
192,192,117256,1,0,0:0:0:0:
320,192,117353,1,0,0:0:0:0:
64,192,117449,1,0,0:0:0:70:kick.wav
192,192,117449,1,0,0:0:0:0:
448,192,117449,128,0,117643:0:0:0:0:
64,192,117643,1,0,0:0:0:0:
320,192,117643,1,0,0:0:0:0:
192,192,117740,1,0,0:0:0:70:snare.wav
320,192,117740,1,0,0:0:0:0:
448,192,117740,1,0,0:0:0:0:
64,192,117836,128,0,118030:0:0:0:70:kick.wav
448,192,117836,1,0,0:0:0:0:
192,192,117933,1,0,0:0:0:0:
320,192,118030,1,0,0:0:0:0:
448,192,118030,1,0,0:0:0:0:
320,192,118127,1,0,0:0:0:0:
64,192,118224,1,0,0:0:0:70:kick.wav
192,192,118224,1,0,0:0:0:0:
64,192,118417,1,0,0:0:0:0:
192,192,118417,1,0,0:0:0:0:
320,192,118514,1,0,0:0:0:0:
448,192,118514,1,0,0:0:0:0:
64,192,118611,1,0,0:0:0:70:kick.wav
192,192,118611,1,0,0:0:0:70:snare.wav
320,192,118659,1,0,0:0:0:0:
448,192,118707,1,0,0:0:0:0:
192,192,118804,1,0,0:0:0:0:
320,192,118804,1,0,0:0:0:0:
64,192,118901,1,0,0:0:0:0:
192,192,118998,1,0,0:0:0:70:kick.wav
448,192,118998,1,0,0:0:0:0:
320,192,119094,1,0,0:0:0:0:
192,192,119191,1,0,0:0:0:0:
448,192,119191,1,0,0:0:0:0:
64,192,119288,1,0,0:0:0:70:snare.wav
320,192,119288,1,0,0:0:0:0:
448,192,119288,1,0,0:0:0:0:
192,192,119385,128,0,119578:0:0:0:70:kick.wav
320,192,119385,128,0,119482:0:0:0:0:
64,192,119578,1,0,0:0:0:0:
320,192,119578,1,0,0:0:0:0:
448,192,119675,1,0,0:0:0:70:kick.wav
192,192,119675,1,0,0:0:0:0:
64,192,119772,1,0,0:0:0:70:kick.wav
192,192,119772,1,0,0:0:0:0:
320,192,119772,128,0,120159:0:0:0:0:
64,192,119965,1,0,0:0:0:0:
448,192,119965,1,0,0:0:0:0:
192,192,120062,1,0,0:0:0:0:
64,192,120159,1,0,0:0:0:70:snare.wav
448,192,120159,1,0,0:0:0:0:
192,192,120256,1,0,0:0:0:0:
64,192,120353,1,0,0:0:0:0:
448,192,120353,1,0,0:0:0:0:
320,192,120449,1,0,0:0:0:0:
64,192,120546,1,0,0:0:0:70:kick.wav
192,192,120546,1,0,0:0:0:0:
448,192,120546,128,0,120740:0:0:0:0:
320,192,120643,1,0,0:0:0:0:
64,192,120740,1,0,0:0:0:0:
192,192,120740,1,0,0:0:0:0:
64,192,120836,1,0,0:0:0:70:snare.wav
320,192,120836,1,0,0:0:0:0:
448,192,120836,1,0,0:0:0:0:
192,192,120933,128,0,121127:0:0:0:70:kick.wav
320,192,120933,1,0,0:0:0:0:
448,192,121030,1,0,0:0:0:0:
64,192,121127,1,0,0:0:0:0:
320,192,121224,1,0,0:0:0:0:
192,192,121320,1,0,0:0:0:70:kick.wav
448,192,121320,1,0,0:0:0:0:
320,192,121417,1,0,0:0:0:0:
192,192,121465,1,0,0:0:0:0:
64,192,121514,1,0,0:0:0:0:
192,192,121611,1,0,0:0:0:0:
320,192,121707,1,0,0:0:0:70:snare.wav
448,192,121707,1,0,0:0:0:0:
192,192,121756,1,0,0:0:0:0:
64,192,121804,1,0,0:0:0:0:
448,192,121901,1,0,0:0:0:0:
192,192,121965,1,0,0:0:0:0:
320,192,122030,1,0,0:0:0:0:
64,192,122094,1,0,0:0:0:70:kick.wav
448,192,122094,1,0,0:0:0:0:
192,192,122159,1,0,0:0:0:0:
320,192,122224,1,0,0:0:0:0:
448,192,122288,1,0,0:0:0:0:
192,192,122353,1,0,0:0:0:0:
64,192,122417,1,0,0:0:0:0:
320,192,122482,1,0,0:0:0:70:kick.wav
448,192,122482,1,0,0:0:0:70:snare.wav
192,192,122546,1,0,0:0:0:0:
64,192,122611,1,0,0:0:0:0:
320,192,122675,1,0,0:0:0:70:kick.wav
192,192,122740,1,0,0:0:0:0:
320,192,122804,1,0,0:0:0:0:
64,192,122869,128,0,122965:0:0:0:70:kick.wav
448,192,122869,1,0,0:0:0:70:Growl.wav
192,192,122917,128,0,123014:0:0:0:0:
320,192,122965,128,0,123062:0:0:0:0:
448,192,123014,128,0,123256:0:0:0:0:
64,192,123256,1,0,0:0:0:70:kick.wav
192,192,123256,1,0,0:0:0:70:crash.wav
320,192,123256,1,0,0:0:0:70:boom.wav
64,192,123449,1,0,0:0:0:0:
192,192,123449,1,0,0:0:0:0:
320,192,123514,1,0,0:0:0:0:
448,192,123578,1,0,0:0:0:0:
64,192,123643,128,0,123933:0:0:0:70:kick.wav
192,192,123643,1,0,0:0:0:0:
320,192,123740,1,0,0:0:0:0:
448,192,123740,128,0,123933:0:0:0:0:
192,192,123933,128,0,124224:0:0:0:70:snare.wav
320,192,123933,1,0,0:0:0:0:
64,192,124030,1,0,0:0:0:70:kick.wav
448,192,124030,1,0,0:0:0:0:
64,192,124224,1,0,0:0:0:0:
320,192,124224,128,0,124417:0:0:0:0:
448,192,124224,1,0,0:0:0:0:
192,192,124320,1,0,0:0:0:70:kick.wav
64,192,124417,1,0,0:0:0:70:kick.wav
448,192,124417,128,0,124804:0:0:0:0:
64,192,124611,1,0,0:0:0:0:
192,192,124611,1,0,0:0:0:0:
320,192,124707,1,0,0:0:0:0:
64,192,124804,1,0,0:0:0:70:kick.wav
192,192,124804,1,0,0:0:0:70:snare.wav
64,192,124998,128,0,125191:0:0:0:0:
448,192,124998,1,0,0:0:0:0:
320,192,125094,1,0,0:0:0:0:
192,192,125191,1,0,0:0:0:70:kick.wav
448,192,125191,1,0,0:0:0:0:
448,192,125385,1,0,0:0:0:0:
320,192,125449,1,0,0:0:0:0:
192,192,125514,1,0,0:0:0:0:
64,192,125578,1,0,0:0:0:70:kick.wav
448,192,125578,1,0,0:0:0:0:
192,192,125675,1,0,0:0:0:0:
64,192,125772,1,0,0:0:0:0:
320,192,125869,1,0,0:0:0:70:kick.wav
448,192,125869,1,0,0:0:0:0:
64,192,125965,1,0,0:0:0:70:kick.wav
192,192,125965,1,0,0:0:0:0:
320,192,126030,1,0,0:0:0:0:
448,192,126094,1,0,0:0:0:0:
192,192,126159,1,0,0:0:0:0:
320,192,126224,1,0,0:0:0:0:
192,192,126288,1,0,0:0:0:0:
64,192,126353,1,0,0:0:0:70:snare.wav
448,192,126353,1,0,0:0:0:0:
320,192,126449,1,0,0:0:0:0:
192,192,126546,1,0,0:0:0:0:
448,192,126611,1,0,0:0:0:0:
320,192,126675,1,0,0:0:0:0:
64,192,126740,1,0,0:0:0:70:kick.wav
192,192,126740,1,0,0:0:0:0:
320,192,126804,1,0,0:0:0:0:
448,192,126869,1,0,0:0:0:0:
64,192,126933,1,0,0:0:0:0:
192,192,126998,1,0,0:0:0:0:
320,192,127062,1,0,0:0:0:0:
64,192,127127,1,0,0:0:0:70:kick.wav
448,192,127127,1,0,0:0:0:0:
320,192,127191,1,0,0:0:0:0:
192,192,127256,1,0,0:0:0:0:
448,192,127320,1,0,0:0:0:0:
320,192,127385,1,0,0:0:0:0:
192,192,127449,1,0,0:0:0:0:
64,192,127514,1,0,0:0:0:70:kick.wav
448,192,127514,1,0,0:0:0:0:
320,192,127578,1,0,0:0:0:0:
192,192,127643,1,0,0:0:0:0:
64,192,127707,1,0,0:0:0:0:
192,192,127804,1,0,0:0:0:70:snare.wav
320,192,127804,1,0,0:0:0:0:
320,192,127901,1,0,0:0:0:70:kick.wav
448,192,127901,1,0,0:0:0:0:
64,192,127965,1,0,0:0:0:0:
192,192,128030,1,0,0:0:0:0:
64,192,128094,1,0,0:0:0:70:kick.wav
320,192,128094,1,0,0:0:0:0:
192,192,128159,1,0,0:0:0:0:
448,192,128224,1,0,0:0:0:0:
64,192,128288,1,0,0:0:0:70:kick.wav
320,192,128288,1,0,0:0:0:0:
192,192,128353,1,0,0:0:0:0:
448,192,128417,1,0,0:0:0:0:
64,192,128482,1,0,0:0:0:70:drum.wav
192,192,128482,1,0,0:0:0:70:kick.wav
320,192,128546,1,0,0:0:0:0:
192,192,128611,1,0,0:0:0:0:
64,192,128675,1,0,0:0:0:70:drum.wav
448,192,128675,1,0,0:0:0:70:kick.wav
320,192,128740,1,0,0:0:0:0:
192,192,128804,1,0,0:0:0:0:
64,192,128869,1,0,0:0:0:70:drum.wav
320,192,128869,1,0,0:0:0:70:kick.wav
448,192,128933,1,0,0:0:0:0:
320,192,128998,1,0,0:0:0:0:
64,192,129062,1,0,0:0:0:70:drum.wav
192,192,129062,1,0,0:0:0:70:kick.wav
448,192,129062,1,0,0:0:0:70:crash.wav
320,192,129256,1,0,0:0:0:0:
64,192,129449,1,0,0:0:0:0:
192,192,129643,1,0,0:0:0:0:
320,192,129836,1,0,0:0:0:0:
192,192,130030,1,0,0:0:0:0:
448,192,130224,1,0,0:0:0:0:
320,192,130417,1,0,0:0:0:0:
64,192,130611,1,0,0:0:0:70:clock.wav
448,192,130611,128,0,130707:0:0:0:0:
192,192,130804,1,0,0:0:0:0:
448,192,130998,1,0,0:0:0:0:
192,192,131191,1,0,0:0:0:0:
320,192,131385,1,0,0:0:0:0:
64,192,131578,1,0,0:0:0:0:
448,192,131772,1,0,0:0:0:0:
320,192,131965,1,0,0:0:0:0:
192,192,132159,128,0,132256:0:0:0:0:
448,192,132159,1,0,0:0:0:0:
64,192,132353,1,0,0:0:0:0:
192,192,132546,1,0,0:0:0:0:
320,192,132740,1,0,0:0:0:0:
64,192,132933,1,0,0:0:0:0:
192,192,133127,1,0,0:0:0:0:
320,192,133320,1,0,0:0:0:0:
192,192,133514,1,0,0:0:0:0:
64,192,133707,1,0,0:0:0:70:clock.wav
448,192,133707,128,0,133804:0:0:0:0:
192,192,133901,1,0,0:0:0:0:
320,192,134094,1,0,0:0:0:0:
448,192,134288,1,0,0:0:0:0:
320,192,134482,1,0,0:0:0:0:
448,192,134675,1,0,0:0:0:0:
192,192,134869,1,0,0:0:0:0:
64,192,135062,1,0,0:0:0:0:
192,192,135256,128,0,135353:0:0:0:30:kick.wav
320,192,135256,1,0,0:0:0:0:
320,192,135449,1,0,0:0:0:0:
448,192,135546,1,0,0:0:0:0:
64,192,135643,1,0,0:0:0:35:kick.wav
192,192,135643,1,0,0:0:0:0:
448,192,135836,1,0,0:0:0:0:
320,192,135933,1,0,0:0:0:0:
64,192,136030,1,0,0:0:0:40:kick.wav
192,192,136030,1,0,0:0:0:0:
320,192,136224,1,0,0:0:0:0:
64,192,136320,1,0,0:0:0:0:
192,192,136417,1,0,0:0:0:45:kick.wav
448,192,136417,1,0,0:0:0:0:
320,192,136611,1,0,0:0:0:50:drum.wav
192,192,136707,1,0,0:0:0:50:drum.wav
64,192,136804,1,0,0:0:0:50:drum.wav
448,192,136804,128,0,136901:0:0:0:50:kick.wav
320,192,136998,1,0,0:0:0:55:drum.wav
192,192,137094,1,0,0:0:0:55:drum.wav
64,192,137191,1,0,0:0:0:55:drum.wav
320,192,137191,1,0,0:0:0:55:kick.wav
448,192,137385,1,0,0:0:0:60:drum.wav
320,192,137482,1,0,0:0:0:60:drum.wav
64,192,137578,1,0,0:0:0:60:drum.wav
192,192,137578,1,0,0:0:0:60:kick.wav
320,192,137772,1,0,0:0:0:65:drum.wav
192,192,137869,1,0,0:0:0:65:drum.wav
64,192,137965,1,0,0:0:0:65:drum.wav
448,192,137965,1,0,0:0:0:65:kick.wav
192,192,138159,1,0,0:0:0:70:drum.wav
320,192,138256,1,0,0:0:0:70:drum.wav
192,192,138353,128,0,138449:0:0:0:70:drum.wav
448,192,138353,1,0,0:0:0:70:kick.wav
192,192,138546,1,0,0:0:0:75:drum.wav
320,192,138643,1,0,0:0:0:75:drum.wav
64,192,138740,1,0,0:0:0:75:drum.wav
192,192,138740,1,0,0:0:0:75:kick.wav
448,192,138740,1,0,0:0:0:0:
320,192,138933,1,0,0:0:0:80:drum.wav
192,192,139030,1,0,0:0:0:80:drum.wav
64,192,139127,1,0,0:0:0:80:drum.wav
320,192,139127,1,0,0:0:0:80:kick.wav
448,192,139127,1,0,0:0:0:0:
64,192,139320,1,0,0:0:0:85:drum.wav
320,192,139417,1,0,0:0:0:85:drum.wav
64,192,139514,1,0,0:0:0:85:drum.wav
192,192,139514,1,0,0:0:0:85:kick.wav
448,192,139514,1,0,0:0:0:0:
320,192,139707,1,0,0:0:0:90:drum.wav
64,192,139804,1,0,0:0:0:90:drum.wav
192,192,139901,128,0,140046:0:0:0:90:drum.wav
448,192,139901,1,0,0:0:0:0:
320,192,139998,128,0,140094:0:0:0:0:
448,192,140046,128,0,140143:0:0:0:0:
64,192,140094,128,0,140191:0:0:0:0:
192,192,140143,128,0,140240:0:0:0:0:
320,192,140191,128,0,140288:0:0:0:0:
64,192,140288,1,0,0:0:0:0:
448,192,140288,1,0,0:0:0:0:
448,192,140385,1,0,0:0:0:0:
64,192,140482,1,0,0:0:0:0:
64,192,140578,1,0,0:0:0:0:
320,192,140675,1,0,0:0:0:0:
448,192,140675,1,0,0:0:0:0:
192,192,140772,1,0,0:0:0:0:
320,192,140869,1,0,0:0:0:0:
448,192,140869,1,0,0:0:0:0:
192,192,140965,1,0,0:0:0:0:
64,192,141062,1,0,0:0:0:0:
448,192,141062,1,0,0:0:0:0:
320,192,141127,1,0,0:0:0:0:
192,192,141191,1,0,0:0:0:0:
448,192,141256,1,0,0:0:0:0:
320,192,141320,1,0,0:0:0:0:
192,192,141385,1,0,0:0:0:0:
64,192,141449,1,0,0:0:0:70:kick.wav
448,192,141449,128,0,141546:0:0:0:70:crash.wav
320,192,141449,1,0,0:0:0:0:
448,192,141643,1,0,0:0:0:0:
192,192,141740,1,0,0:0:0:0:
64,192,141836,1,0,0:0:0:70:kick.wav
320,192,141836,1,0,0:0:0:0:
192,192,141933,1,0,0:0:0:0:
448,192,141933,128,0,142030:0:0:0:0:
64,192,142030,1,0,0:0:0:0:
192,192,142127,1,0,0:0:0:0:
448,192,142127,1,0,0:0:0:0:
64,192,142224,128,0,142320:0:0:0:70:kick.wav
320,192,142224,1,0,0:0:0:0:
192,192,142320,1,0,0:0:0:0:
448,192,142417,1,0,0:0:0:0:
64,192,142514,1,0,0:0:0:0:
192,192,142611,1,0,0:0:0:70:kick.wav
320,192,142611,1,0,0:0:0:0:
64,192,142707,1,0,0:0:0:0:
448,192,142707,128,0,142804:0:0:0:0:
320,192,142804,1,0,0:0:0:0:
192,192,142901,1,0,0:0:0:0:
448,192,142901,1,0,0:0:0:0:
64,192,142998,128,0,143094:0:0:0:70:kick.wav
320,192,142998,1,0,0:0:0:0:
448,192,143094,1,0,0:0:0:0:
192,192,143191,1,0,0:0:0:0:
448,192,143288,1,0,0:0:0:0:
64,192,143385,1,0,0:0:0:70:kick.wav
192,192,143385,1,0,0:0:0:0:
320,192,143482,1,0,0:0:0:0:
448,192,143482,128,0,143578:0:0:0:0:
192,192,143578,1,0,0:0:0:0:
64,192,143675,1,0,0:0:0:0:
448,192,143675,1,0,0:0:0:0:
64,192,143772,128,0,143869:0:0:0:70:kick.wav
320,192,143772,1,0,0:0:0:0:
448,192,143869,1,0,0:0:0:0:
64,192,143965,1,0,0:0:0:0:
192,192,144062,128,0,144159:0:0:0:0:
320,192,144062,1,0,0:0:0:0:
64,192,144159,1,0,0:0:0:70:kick.wav
448,192,144159,1,0,0:0:0:0:
192,192,144256,1,0,0:0:0:0:
320,192,144353,128,0,144449:0:0:0:0:
448,192,144353,1,0,0:0:0:0:
192,192,144449,1,0,0:0:0:0:
64,192,144546,1,0,0:0:0:70:kick.wav
448,192,144546,128,0,144643:0:0:0:0:
320,192,144643,1,0,0:0:0:0:
192,192,144740,1,0,0:0:0:0:
320,192,144836,1,0,0:0:0:0:
64,192,144933,1,0,0:0:0:70:kick.wav
192,192,144933,1,0,0:0:0:0:
320,192,145030,1,0,0:0:0:0:
448,192,145030,128,0,145127:0:0:0:0:
192,192,145127,1,0,0:0:0:0:
320,192,145224,1,0,0:0:0:0:
64,192,145320,128,0,145417:0:0:0:70:kick.wav
448,192,145320,1,0,0:0:0:0:
320,192,145417,1,0,0:0:0:0:
192,192,145514,1,0,0:0:0:0:
448,192,145611,1,0,0:0:0:0:
64,192,145707,1,0,0:0:0:70:kick.wav
192,192,145707,1,0,0:0:0:0:
320,192,145804,1,0,0:0:0:0:
448,192,145804,128,0,145901:0:0:0:0:
192,192,145901,1,0,0:0:0:0:
320,192,145998,1,0,0:0:0:0:
64,192,146094,128,0,146191:0:0:0:70:kick.wav
192,192,146094,1,0,0:0:0:0:
448,192,146191,1,0,0:0:0:0:
320,192,146288,1,0,0:0:0:0:
192,192,146385,128,0,146482:0:0:0:0:
448,192,146385,1,0,0:0:0:0:
64,192,146482,1,0,0:0:0:70:kick.wav
320,192,146482,1,0,0:0:0:0:
448,192,146578,1,0,0:0:0:0:
64,192,146675,1,0,0:0:0:0:
192,192,146675,1,0,0:0:0:0:
320,192,146675,128,0,146772:0:0:0:0:
448,192,146869,1,0,0:0:0:70:kick.wav
320,192,146893,1,0,0:0:0:0:
192,192,146917,1,0,0:0:0:0:
64,192,147062,1,0,0:0:0:0:
192,192,147086,1,0,0:0:0:0:
320,192,147111,1,0,0:0:0:0:
192,192,147256,1,0,0:0:0:70:kick.wav
320,192,147280,1,0,0:0:0:0:
448,192,147304,1,0,0:0:0:0:
320,192,147449,1,0,0:0:0:0:
192,192,147474,1,0,0:0:0:0:
64,192,147498,1,0,0:0:0:0:
64,192,147643,1,0,0:0:0:70:kick.wav
192,192,147643,1,0,0:0:0:70:crash.wav
448,192,147643,1,0,0:0:0:0:
64,192,147740,1,0,0:0:0:0:
192,192,147836,1,0,0:0:0:70:kick.wav
320,192,147836,1,0,0:0:0:0:
448,192,147836,1,0,0:0:0:0:
192,192,147933,1,0,0:0:0:0:
64,192,148030,1,0,0:0:0:70:kick.wav
320,192,148030,1,0,0:0:0:0:
448,192,148030,1,0,0:0:0:0:
320,192,148127,1,0,0:0:0:0:
64,192,148224,1,0,0:0:0:70:kick.wav
192,192,148224,1,0,0:0:0:0:
448,192,148224,1,0,0:0:0:0:
448,192,148320,1,0,0:0:0:0:
64,192,148417,1,0,0:0:0:70:kick.wav
192,192,148417,1,0,0:0:0:0:
320,192,148417,1,0,0:0:0:0:
64,192,148514,1,0,0:0:0:0:
192,192,148611,1,0,0:0:0:70:kick.wav
320,192,148611,1,0,0:0:0:0:
192,192,148707,1,0,0:0:0:70:kick.wav
448,192,148707,1,0,0:0:0:0:
64,192,148804,1,0,0:0:0:70:kick.wav
320,192,148804,1,0,0:0:0:0:
448,192,148804,1,0,0:0:0:0:
320,192,148901,1,0,0:0:0:0:
64,192,148998,1,0,0:0:0:70:kick.wav
192,192,148998,1,0,0:0:0:0:
448,192,148998,1,0,0:0:0:0:
448,192,149094,1,0,0:0:0:0:
64,192,149191,1,0,0:0:0:70:kick.wav
192,192,149191,1,0,0:0:0:0:
320,192,149191,1,0,0:0:0:0:
192,192,149288,1,0,0:0:0:0:
64,192,149385,1,0,0:0:0:70:kick.wav
320,192,149385,1,0,0:0:0:0:
448,192,149385,1,0,0:0:0:0:
320,192,149482,1,0,0:0:0:0:
64,192,149578,1,0,0:0:0:70:kick.wav
192,192,149578,1,0,0:0:0:0:
448,192,149578,1,0,0:0:0:0:
192,192,149675,1,0,0:0:0:0:
64,192,149772,1,0,0:0:0:70:kick.wav
320,192,149772,1,0,0:0:0:0:
448,192,149772,1,0,0:0:0:0:
64,192,149869,1,0,0:0:0:0:
192,192,149965,1,0,0:0:0:70:kick.wav
320,192,149965,1,0,0:0:0:0:
448,192,149965,1,0,0:0:0:0:
448,192,150062,1,0,0:0:0:0:
64,192,150159,1,0,0:0:0:70:kick.wav
192,192,150159,1,0,0:0:0:0:
320,192,150159,1,0,0:0:0:0:
320,192,150256,1,0,0:0:0:0:
64,192,150353,1,0,0:0:0:70:kick.wav
192,192,150353,1,0,0:0:0:0:
448,192,150353,1,0,0:0:0:0:
192,192,150449,1,0,0:0:0:0:
64,192,150546,1,0,0:0:0:70:kick.wav
320,192,150546,1,0,0:0:0:0:
448,192,150546,1,0,0:0:0:0:
64,192,150643,1,0,0:0:0:0:
192,192,150740,1,0,0:0:0:40:drum.wav
320,192,150740,1,0,0:0:0:70:kick.wav
448,192,150740,1,0,0:0:0:0:
64,192,150788,1,0,0:0:0:40:drum.wav
192,192,150836,1,0,0:0:0:40:drum.wav
448,192,150885,1,0,0:0:0:40:drum.wav
320,192,150933,1,0,0:0:0:45:drum.wav
192,192,150982,1,0,0:0:0:45:drum.wav
448,192,151030,1,0,0:0:0:45:drum.wav
320,192,151078,1,0,0:0:0:45:drum.wav
192,192,151127,1,0,0:0:0:50:drum.wav
64,192,151175,1,0,0:0:0:50:drum.wav
448,192,151224,1,0,0:0:0:50:drum.wav
320,192,151272,1,0,0:0:0:50:drum.wav
192,192,151320,1,0,0:0:0:55:drum.wav
64,192,151369,1,0,0:0:0:55:drum.wav
320,192,151417,1,0,0:0:0:55:drum.wav
448,192,151465,1,0,0:0:0:55:drum.wav
64,192,151514,1,0,0:0:0:60:drum.wav
192,192,151562,1,0,0:0:0:60:drum.wav
320,192,151611,1,0,0:0:0:60:drum.wav
448,192,151659,1,0,0:0:0:60:drum.wav
64,192,151707,1,0,0:0:0:65:drum.wav
192,192,151756,1,0,0:0:0:65:drum.wav
320,192,151804,1,0,0:0:0:65:drum.wav
448,192,151853,1,0,0:0:0:65:drum.wav
64,192,151901,1,0,0:0:0:70:drum.wav
192,192,151949,1,0,0:0:0:70:drum.wav
320,192,151998,1,0,0:0:0:70:drum.wav
448,192,152046,1,0,0:0:0:70:drum.wav
64,192,152094,1,0,0:0:0:70:drum.wav
192,192,152143,1,0,0:0:0:70:drum.wav
320,192,152191,1,0,0:0:0:70:drum.wav
448,192,152240,1,0,0:0:0:70:drum.wav
64,192,152288,1,0,0:0:0:70:drum.wav
192,192,152288,1,0,0:0:0:70:kick.wav
320,192,152417,1,0,0:0:0:0:
192,192,152482,1,0,0:0:0:0:
448,192,152611,1,0,0:0:0:0:
64,192,152675,1,0,0:0:0:0:
192,192,152804,1,0,0:0:0:0:
320,192,152933,1,0,0:0:0:0:
64,192,153062,1,0,0:0:0:0:
192,192,153062,128,0,153449:0:0:0:0:
320,192,153256,1,0,0:0:0:0:
64,192,153449,1,0,0:0:0:70:snaredrum.wav
320,192,153449,1,0,0:0:0:0:
448,192,153449,1,0,0:0:0:0:
64,192,153836,128,0,154030:0:0:0:70:kick.wav
192,192,153836,128,0,154127:0:0:0:70:crash.wav
448,192,153836,128,0,154224:0:0:0:70:boom.wav
320,192,154224,128,0,154320:0:0:0:0:
64,192,154288,128,0,154385:0:0:0:0:
192,192,154353,128,0,154449:0:0:0:0:
448,192,154417,128,0,154514:0:0:0:0:
64,192,154482,1,0,0:0:0:0:
192,192,154514,1,0,0:0:0:70:kick.wav
320,192,154514,128,0,154611:0:0:0:0:
64,192,154611,128,0,154707:0:0:0:70:snare.wav
448,192,154611,1,0,0:0:0:0:
192,192,154675,128,0,154804:0:0:0:0:
320,192,154740,128,0,154869:0:0:0:0:
64,192,154804,128,0,154933:0:0:0:0:
448,192,154804,128,0,154933:0:0:0:0:
192,192,154869,128,0,154998:0:0:0:0:
320,192,154933,128,0,154998:0:0:0:0:
64,192,154998,1,0,0:0:0:0:
448,192,154998,1,0,0:0:0:0:
192,192,155094,1,0,0:0:0:0:
320,192,155094,1,0,0:0:0:0:
64,192,155191,128,0,155288:0:0:0:0:
192,192,155191,128,0,155288:0:0:0:0:
320,192,155240,128,0,155385:0:0:0:0:
448,192,155288,128,0,155385:0:0:0:0:
64,192,155385,128,0,155482:0:0:0:0:
192,192,155385,128,0,155482:0:0:0:0:
320,192,155433,128,0,155578:0:0:0:0:
448,192,155482,128,0,155578:0:0:0:0:
64,192,155578,128,0,155675:0:0:0:0:
192,192,155578,128,0,155675:0:0:0:0:
320,192,155675,1,0,0:0:0:70:kick.wav
448,192,155675,1,0,0:0:0:0:
64,192,155772,1,0,0:0:0:0:
448,192,155869,128,0,155965:0:0:0:0:
320,192,155917,128,0,155965:0:0:0:0:
64,192,155965,1,0,0:0:0:70:kick.wav
192,192,155965,1,0,0:0:0:0:
320,192,156014,1,0,0:0:0:70:kick.wav
448,192,156014,1,0,0:0:0:0:
64,192,156062,1,0,0:0:0:70:kick.wav
192,192,156062,1,0,0:0:0:0:
64,192,156159,1,0,0:0:0:70:kick.wav
320,192,156159,1,0,0:0:0:70:snare.wav
448,192,156159,1,0,0:0:0:0:
320,192,156256,128,0,156353:0:0:0:0:
192,192,156304,128,0,156401:0:0:0:0:
64,192,156353,128,0,156449:0:0:0:0:
448,192,156353,128,0,156546:0:0:0:0:
320,192,156449,128,0,156546:0:0:0:0:
64,192,156546,128,0,156643:0:0:0:0:
192,192,156546,128,0,156643:0:0:0:0:
320,192,156594,128,0,156643:0:0:0:0:
448,192,156643,1,0,0:0:0:0:
320,192,156740,128,0,156836:0:0:0:0:
448,192,156740,128,0,156836:0:0:0:0:
192,192,156788,128,0,156836:0:0:0:0:
64,192,156836,1,0,0:0:0:0:
192,192,156933,128,0,157127:0:0:0:70:kick.wav
448,192,156933,1,0,0:0:0:0:
320,192,157030,128,0,157127:0:0:0:0:
448,192,157078,128,0,157175:0:0:0:0:
64,192,157127,128,0,157224:0:0:0:0:
192,192,157175,128,0,157272:0:0:0:0:
320,192,157224,128,0,157320:0:0:0:0:
448,192,157272,128,0,157320:0:0:0:0:
64,192,157320,128,0,157417:0:0:0:0:
192,192,157320,1,0,0:0:0:0:
320,192,157417,128,0,157514:0:0:0:0:
192,192,157465,128,0,157562:0:0:0:0:
64,192,157514,128,0,157611:0:0:0:0:
448,192,157562,128,0,157659:0:0:0:0:
192,192,157611,1,0,0:0:0:70:kick.wav
320,192,157611,128,0,157659:0:0:0:0:
64,192,157707,128,0,157804:0:0:0:70:snare.wav
320,192,157707,1,0,0:0:0:0:
448,192,157707,1,0,0:0:0:0:
192,192,157804,1,0,0:0:0:0:
320,192,157804,1,0,0:0:0:0:
64,192,157901,1,0,0:0:0:0:
448,192,157901,128,0,158046:0:0:0:0:
320,192,157949,128,0,158046:0:0:0:0:
64,192,157998,128,0,158191:0:0:0:0:
192,192,157998,1,0,0:0:0:0:
320,192,158191,1,0,0:0:0:0:
448,192,158191,1,0,0:0:0:0:
64,192,158288,1,0,0:0:0:0:
192,192,158288,128,0,158385:0:0:0:0:
320,192,158336,128,0,158433:0:0:0:0:
448,192,158385,128,0,158482:0:0:0:0:
192,192,158482,128,0,158578:0:0:0:70:kick.wav
320,192,158482,1,0,0:0:0:0:
64,192,158578,128,0,158675:0:0:0:0:
192,192,158675,128,0,158772:0:0:0:0:
320,192,158675,1,0,0:0:0:0:
64,192,158772,128,0,158869:0:0:0:0:
192,192,158869,1,0,0:0:0:70:kick.wav
448,192,158869,128,0,158965:0:0:0:0:
320,192,158965,128,0,159062:0:0:0:0:
192,192,159062,1,0,0:0:0:0:
448,192,159062,128,0,159159:0:0:0:0:
64,192,159159,128,0,159256:0:0:0:0:
192,192,159256,128,0,159353:0:0:0:70:snare.wav
320,192,159256,1,0,0:0:0:0:
448,192,159256,1,0,0:0:0:0:
320,192,159353,128,0,159449:0:0:0:0:
64,192,159449,1,0,0:0:0:70:kick.wav
192,192,159449,1,0,0:0:0:0:
64,192,159546,1,0,0:0:0:70:snare.wav
320,192,159546,1,0,0:0:0:0:
448,192,159546,1,0,0:0:0:0:
192,192,159740,1,0,0:0:0:70:kick.wav
320,192,159740,1,0,0:0:0:0:
64,192,159836,1,0,0:0:0:70:snare.wav
320,192,159836,1,0,0:0:0:0:
448,192,159836,1,0,0:0:0:0:
64,192,160030,128,0,160417:0:0:0:70:kick.wav
192,192,160030,128,0,160320:0:0:0:0:
320,192,160030,128,0,160224:0:0:0:0:
192,192,160417,128,0,160514:0:0:0:0:
448,192,160482,128,0,160611:0:0:0:0:
320,192,160546,128,0,160643:0:0:0:0:
64,192,160611,128,0,160707:0:0:0:0:
448,192,160675,1,0,0:0:0:0:
192,192,160707,1,0,0:0:0:70:kick.wav
320,192,160707,128,0,160804:0:0:0:0:
64,192,160804,128,0,160901:0:0:0:70:snare.wav
448,192,160804,1,0,0:0:0:0:
192,192,160869,128,0,160998:0:0:0:0:
320,192,160933,128,0,160998:0:0:0:0:
64,192,160998,128,0,161127:0:0:0:0:
448,192,160998,128,0,161127:0:0:0:0:
320,192,161062,128,0,161191:0:0:0:0:
192,192,161127,128,0,161191:0:0:0:0:
64,192,161191,1,0,0:0:0:0:
448,192,161191,1,0,0:0:0:0:
64,192,161288,128,0,161385:0:0:0:0:
192,192,161288,128,0,161385:0:0:0:0:
320,192,161336,128,0,161482:0:0:0:0:
448,192,161385,128,0,161482:0:0:0:0:
192,192,161433,128,0,161530:0:0:0:0:
64,192,161482,128,0,161578:0:0:0:0:
320,192,161578,128,0,161675:0:0:0:0:
448,192,161578,128,0,161675:0:0:0:0:
64,192,161675,1,0,0:0:0:0:
192,192,161675,1,0,0:0:0:0:
448,192,161772,128,0,161869:0:0:0:0:
320,192,161820,128,0,161869:0:0:0:0:
64,192,161869,1,0,0:0:0:70:kick.wav
192,192,161869,1,0,0:0:0:0:
320,192,161965,1,0,0:0:0:0:
448,192,162062,128,0,162159:0:0:0:0:
320,192,162111,128,0,162159:0:0:0:0:
64,192,162159,1,0,0:0:0:70:kick.wav
192,192,162159,1,0,0:0:0:0:
320,192,162207,1,0,0:0:0:70:kick.wav
448,192,162207,1,0,0:0:0:0:
64,192,162256,1,0,0:0:0:70:kick.wav
192,192,162256,1,0,0:0:0:0:
64,192,162353,1,0,0:0:0:70:kick.wav
320,192,162353,128,0,162546:0:0:0:70:snare.wav
448,192,162353,128,0,162449:0:0:0:0:
192,192,162449,128,0,162546:0:0:0:0:
64,192,162546,128,0,162643:0:0:0:0:
448,192,162546,128,0,162740:0:0:0:0:
320,192,162643,128,0,162740:0:0:0:0:
64,192,162740,128,0,162836:0:0:0:0:
192,192,162740,128,0,162836:0:0:0:0:
320,192,162788,128,0,162836:0:0:0:0:
448,192,162836,1,0,0:0:0:0:
320,192,162933,128,0,163030:0:0:0:0:
448,192,162933,128,0,163030:0:0:0:0:
192,192,162982,128,0,163030:0:0:0:0:
64,192,163030,1,0,0:0:0:0:
192,192,163127,128,0,163320:0:0:0:70:kick.wav
448,192,163127,1,0,0:0:0:0:
320,192,163224,128,0,163320:0:0:0:0:
448,192,163272,128,0,163369:0:0:0:0:
64,192,163320,128,0,163417:0:0:0:0:
192,192,163369,128,0,163465:0:0:0:0:
320,192,163417,128,0,163514:0:0:0:0:
448,192,163465,128,0,163562:0:0:0:0:
64,192,163514,128,0,163611:0:0:0:0:
192,192,163514,1,0,0:0:0:0:
192,192,163611,128,0,163707:0:0:0:0:
320,192,163611,1,0,0:0:0:0:
64,192,163707,1,0,0:0:0:0:
448,192,163707,1,0,0:0:0:0:
320,192,163756,1,0,0:0:0:0:
192,192,163804,1,0,0:0:0:70:kick.wav
64,192,163901,1,0,0:0:0:70:snare.wav
320,192,163901,1,0,0:0:0:0:
448,192,163901,1,0,0:0:0:0:
192,192,163998,128,0,164094:0:0:0:0:
64,192,164094,128,0,164191:0:0:0:0:
448,192,164191,128,0,164288:0:0:0:0:
64,192,164288,1,0,0:0:0:0:
192,192,164336,1,0,0:0:0:0:
320,192,164385,1,0,0:0:0:0:
64,192,164482,1,0,0:0:0:0:
192,192,164530,1,0,0:0:0:0:
320,192,164578,1,0,0:0:0:70:kick.wav
448,192,164627,1,0,0:0:0:70:kick.wav
64,192,164675,1,0,0:0:0:70:kick.wav
192,192,164675,128,0,164772:0:0:0:70:snare.wav
320,192,164675,128,0,164772:0:0:0:0:
448,192,164772,1,0,0:0:0:0:
64,192,164820,1,0,0:0:0:0:
192,192,164869,1,0,0:0:0:0:
320,192,164917,1,0,0:0:0:0:
64,192,164965,128,0,165062:0:0:0:70:kick.wav
192,192,164965,128,0,165062:0:0:0:70:snare.wav
448,192,164965,1,0,0:0:0:0:
320,192,165062,1,0,0:0:0:0:
192,192,165111,1,0,0:0:0:0:
64,192,165159,1,0,0:0:0:0:
192,192,165256,128,0,165353:0:0:0:70:kick.wav
320,192,165256,128,0,165353:0:0:0:70:snare.wav
448,192,165256,1,0,0:0:0:0:
64,192,165353,1,0,0:0:0:0:
192,192,165449,1,0,0:0:0:70:kick.wav
320,192,165449,128,0,165546:0:0:0:70:snare.wav
448,192,165449,128,0,165546:0:0:0:0:
64,192,165546,1,0,0:0:0:70:kick.wav
192,192,165546,1,0,0:0:0:0:
320,192,165643,1,0,0:0:0:70:kick.wav
448,192,165643,1,0,0:0:0:0:
192,192,165740,1,0,0:0:0:70:kick.wav
320,192,165740,1,0,0:0:0:0:
64,192,165836,128,0,165901:0:0:0:70:Growl.wav
448,192,165836,1,0,0:0:0:0:
320,192,165901,128,0,165965:0:0:0:0:
192,192,165965,128,0,166030:0:0:0:0:
448,192,166030,128,0,166094:0:0:0:0:
64,192,166094,128,0,166159:0:0:0:0:
320,192,166159,128,0,166224:0:0:0:0:
64,192,166224,128,0,166417:0:0:0:70:kick.wav
192,192,166224,128,0,166514:0:0:0:70:boom.wav
448,192,166224,128,0,166611:0:0:0:70:crash.wav
192,192,166611,1,0,0:0:0:70:kick.wav
320,192,166611,128,0,166675:0:0:0:0:
64,192,166675,128,0,166804:0:0:0:0:
192,192,166740,128,0,166804:0:0:0:0:
448,192,166804,128,0,166901:0:0:0:0:
192,192,166853,128,0,166949:0:0:0:0:
64,192,166869,1,0,0:0:0:0:
320,192,166901,128,0,166998:0:0:0:0:
64,192,166998,1,0,0:0:0:70:kick.wav
448,192,166998,128,0,167094:0:0:0:0:
320,192,167046,128,0,167143:0:0:0:0:
192,192,167094,128,0,167191:0:0:0:0:
64,192,167191,128,0,167288:0:0:0:0:
448,192,167191,128,0,167288:0:0:0:0:
192,192,167240,128,0,167385:0:0:0:0:
320,192,167288,128,0,167385:0:0:0:0:
64,192,167385,1,0,0:0:0:70:kick.wav
448,192,167385,1,0,0:0:0:0:
192,192,167482,1,0,0:0:0:0:
320,192,167482,1,0,0:0:0:0:
320,192,167578,128,0,167675:0:0:0:0:
448,192,167578,128,0,167675:0:0:0:0:
192,192,167627,128,0,167772:0:0:0:0:
64,192,167675,128,0,167772:0:0:0:0:
320,192,167772,128,0,167869:0:0:0:70:kick.wav
448,192,167772,128,0,167869:0:0:0:0:
192,192,167820,128,0,167965:0:0:0:0:
64,192,167869,128,0,167965:0:0:0:0:
448,192,167965,128,0,168062:0:0:0:0:
320,192,168014,128,0,168062:0:0:0:0:
64,192,168062,1,0,0:0:0:0:
192,192,168062,1,0,0:0:0:0:
320,192,168159,1,0,0:0:0:70:kick.wav
448,192,168159,1,0,0:0:0:0:
64,192,168256,128,0,168353:0:0:0:0:
192,192,168256,128,0,168353:0:0:0:0:
320,192,168353,128,0,168449:0:0:0:0:
448,192,168401,128,0,168449:0:0:0:0:
64,192,168449,1,0,0:0:0:0:
192,192,168449,1,0,0:0:0:0:
320,192,168546,1,0,0:0:0:70:kick.wav
448,192,168546,1,0,0:0:0:0:
192,192,168643,128,0,168740:0:0:0:0:
320,192,168691,128,0,168788:0:0:0:0:
64,192,168740,128,0,168933:0:0:0:0:
448,192,168740,128,0,168836:0:0:0:0:
192,192,168836,128,0,168933:0:0:0:0:
320,192,168933,128,0,169030:0:0:0:70:kick.wav
448,192,168933,128,0,169030:0:0:0:0:
192,192,168982,128,0,169030:0:0:0:0:
64,192,169030,1,0,0:0:0:0:
64,192,169127,128,0,169224:0:0:0:0:
192,192,169127,128,0,169224:0:0:0:0:
320,192,169175,128,0,169224:0:0:0:0:
448,192,169224,1,0,0:0:0:0:
64,192,169320,1,0,0:0:0:70:kick.wav
320,192,169320,128,0,169514:0:0:0:0:
192,192,169417,128,0,169514:0:0:0:0:
64,192,169465,128,0,169562:0:0:0:0:
448,192,169514,128,0,169611:0:0:0:0:
320,192,169562,128,0,169659:0:0:0:0:
192,192,169611,128,0,169707:0:0:0:0:
64,192,169659,128,0,169707:0:0:0:0:
448,192,169707,128,0,169804:0:0:0:70:kick.wav
320,192,169707,1,0,0:0:0:0:
192,192,169804,128,0,169901:0:0:0:0:
320,192,169901,1,0,0:0:0:0:
448,192,169901,128,0,169998:0:0:0:0:
64,192,169949,128,0,170046:0:0:0:0:
192,192,169998,128,0,170046:0:0:0:0:
320,192,170046,128,0,170143:0:0:0:0:
64,192,170094,1,0,0:0:0:70:kick.wav
192,192,170094,1,0,0:0:0:0:
448,192,170094,128,0,170191:0:0:0:0:
64,192,170191,1,0,0:0:0:0:
320,192,170191,1,0,0:0:0:0:
192,192,170288,1,0,0:0:0:0:
448,192,170288,1,0,0:0:0:0:
64,192,170385,128,0,170482:0:0:0:0:
320,192,170385,1,0,0:0:0:0:
192,192,170433,128,0,170530:0:0:0:0:
320,192,170482,128,0,170578:0:0:0:70:kick.wav
448,192,170482,1,0,0:0:0:0:
64,192,170578,1,0,0:0:0:0:
192,192,170578,1,0,0:0:0:0:
320,192,170675,128,0,170772:0:0:0:0:
448,192,170675,1,0,0:0:0:0:
192,192,170724,128,0,170820:0:0:0:0:
64,192,170772,128,0,170869:0:0:0:0:
192,192,170869,128,0,171062:0:0:0:70:kick.wav
320,192,170869,1,0,0:0:0:0:
448,192,171062,128,0,171159:0:0:0:0:
320,192,171111,128,0,171207:0:0:0:0:
192,192,171159,128,0,171256:0:0:0:0:
64,192,171256,1,0,0:0:0:70:kick.wav
448,192,171256,128,0,171353:0:0:0:0:
320,192,171353,128,0,171449:0:0:0:0:
192,192,171449,1,0,0:0:0:0:
448,192,171449,128,0,171546:0:0:0:0:
64,192,171546,128,0,171643:0:0:0:0:
192,192,171643,128,0,171740:0:0:0:70:kick.wav
320,192,171643,1,0,0:0:0:0:
448,192,171643,1,0,0:0:0:0:
64,192,171740,1,0,0:0:0:0:
64,192,171836,1,0,0:0:0:0:
192,192,171836,1,0,0:0:0:0:
320,192,171933,1,0,0:0:0:0:
64,192,172030,1,0,0:0:0:70:kick.wav
320,192,172030,1,0,0:0:0:0:
448,192,172030,1,0,0:0:0:0:
192,192,172127,1,0,0:0:0:0:
192,192,172224,1,0,0:0:0:0:
320,192,172224,1,0,0:0:0:0:
448,192,172320,1,0,0:0:0:0:
64,192,172417,128,0,172804:0:0:0:70:kick.wav
320,192,172417,128,0,172707:0:0:0:0:
448,192,172417,128,0,172611:0:0:0:0:
192,192,172804,128,0,172901:0:0:0:70:kick.wav
320,192,172804,1,0,0:0:0:0:
448,192,172869,128,0,172965:0:0:0:0:
320,192,172933,128,0,172998:0:0:0:0:
64,192,172998,128,0,173094:0:0:0:0:
320,192,173046,128,0,173143:0:0:0:0:
448,192,173062,1,0,0:0:0:0:
192,192,173094,128,0,173191:0:0:0:0:
64,192,173191,128,0,173288:0:0:0:70:kick.wav
448,192,173191,1,0,0:0:0:0:
192,192,173240,128,0,173336:0:0:0:0:
320,192,173288,128,0,173385:0:0:0:0:
64,192,173385,128,0,173482:0:0:0:0:
448,192,173385,128,0,173482:0:0:0:0:
320,192,173433,128,0,173578:0:0:0:0:
192,192,173482,128,0,173578:0:0:0:0:
64,192,173578,1,0,0:0:0:70:kick.wav
448,192,173578,1,0,0:0:0:0:
192,192,173675,1,0,0:0:0:0:
320,192,173675,1,0,0:0:0:0:
64,192,173772,128,0,173869:0:0:0:0:
192,192,173772,128,0,173869:0:0:0:0:
320,192,173820,128,0,173965:0:0:0:0:
448,192,173869,128,0,173965:0:0:0:0:
192,192,173917,128,0,174014:0:0:0:0:
64,192,173965,128,0,174062:0:0:0:70:kick.wav
320,192,174014,128,0,174159:0:0:0:0:
448,192,174062,128,0,174159:0:0:0:0:
64,192,174159,128,0,174256:0:0:0:0:
192,192,174207,128,0,174256:0:0:0:0:
320,192,174256,1,0,0:0:0:0:
448,192,174256,1,0,0:0:0:0:
64,192,174353,1,0,0:0:0:70:kick.wav
192,192,174353,1,0,0:0:0:0:
320,192,174353,1,0,0:0:0:0:
448,192,174449,128,0,174546:0:0:0:0:
320,192,174498,128,0,174546:0:0:0:0:
64,192,174546,128,0,174740:0:0:0:0:
192,192,174643,128,0,174740:0:0:0:0:
320,192,174740,1,0,0:0:0:70:kick.wav
448,192,174740,1,0,0:0:0:0:
320,192,174836,128,0,174933:0:0:0:0:
192,192,174885,128,0,174982:0:0:0:0:
64,192,174933,128,0,175030:0:0:0:0:
448,192,174933,128,0,175127:0:0:0:0:
320,192,175030,128,0,175127:0:0:0:0:
64,192,175127,128,0,175224:0:0:0:70:kick.wav
192,192,175127,128,0,175224:0:0:0:0:
320,192,175175,128,0,175224:0:0:0:0:
448,192,175224,1,0,0:0:0:0:
320,192,175320,128,0,175417:0:0:0:0:
448,192,175320,128,0,175417:0:0:0:0:
192,192,175369,128,0,175417:0:0:0:0:
64,192,175417,1,0,0:0:0:0:
64,192,175514,128,0,175611:0:0:0:70:kick.wav
448,192,175514,1,0,0:0:0:0:
192,192,175562,128,0,175611:0:0:0:0:
320,192,175611,1,0,0:0:0:0:
192,192,175707,1,0,0:0:0:0:
64,192,175804,1,0,0:0:0:70:kick.wav
448,192,175804,128,0,175901:0:0:0:0:
320,192,175853,128,0,175901:0:0:0:0:
192,192,175901,1,0,0:0:0:0:
320,192,175998,1,0,0:0:0:0:
64,192,176094,128,0,176191:0:0:0:70:kick.wav
448,192,176094,1,0,0:0:0:0:
192,192,176143,128,0,176191:0:0:0:0:
320,192,176191,1,0,0:0:0:0:
64,192,176288,1,0,0:0:0:70:kick.wav
448,192,176288,128,0,176385:0:0:0:0:
320,192,176336,128,0,176385:0:0:0:0:
192,192,176385,1,0,0:0:0:0:
320,192,176482,1,0,0:0:0:0:
64,192,176578,128,0,176675:0:0:0:70:kick.wav
448,192,176578,1,0,0:0:0:0:
192,192,176627,128,0,176675:0:0:0:0:
320,192,176675,1,0,0:0:0:0:
64,192,176869,1,0,0:0:0:70:kick.wav
448,192,176869,128,0,176965:0:0:0:0:
320,192,176917,128,0,176965:0:0:0:0:
192,192,176965,1,0,0:0:0:0:
64,192,177062,1,0,0:0:0:70:kick.wav
320,192,177159,1,0,0:0:0:0:
64,192,177256,1,0,0:0:0:0:
192,192,177353,1,0,0:0:0:0:
448,192,177449,1,0,0:0:0:0:
192,192,177546,1,0,0:0:0:0:
320,192,177643,1,0,0:0:0:0:
192,192,177740,1,0,0:0:0:0:
64,192,177836,1,0,0:0:0:0:
448,192,177933,1,0,0:0:0:0:
64,192,178030,1,0,0:0:0:70:snaredrum.wav
192,192,178030,1,0,0:0:0:0:
320,192,178094,1,0,0:0:0:70:snaredrum.wav
448,192,178094,1,0,0:0:0:0:
64,192,178159,1,0,0:0:0:70:snaredrum.wav
192,192,178159,1,0,0:0:0:0:
320,192,178224,1,0,0:0:0:70:snaredrum.wav
448,192,178224,1,0,0:0:0:0:
64,192,178320,1,0,0:0:0:70:drum.wav
192,192,178320,1,0,0:0:0:0:
192,192,178417,1,0,0:0:0:70:drum.wav
320,192,178417,1,0,0:0:0:0:
320,192,178514,1,0,0:0:0:70:drum.wav
448,192,178514,1,0,0:0:0:0:
64,192,178611,1,0,0:0:0:70:kick.wav
192,192,178611,128,0,178707:0:0:0:70:crash.wav
448,192,178611,1,0,0:0:0:70:boom.wav
192,192,178804,1,0,0:0:0:0:
320,192,178901,1,0,0:0:0:70:kick.wav
448,192,178901,1,0,0:0:0:0:
64,192,178998,1,0,0:0:0:70:kick.wav
192,192,178998,1,0,0:0:0:0:
320,192,178998,1,0,0:0:0:0:
64,192,179191,128,0,179288:0:0:0:0:
192,192,179288,1,0,0:0:0:70:kick.wav
320,192,179288,1,0,0:0:0:0:
64,192,179385,1,0,0:0:0:70:kick.wav
320,192,179385,128,0,179482:0:0:0:0:
448,192,179385,1,0,0:0:0:0:
192,192,179578,1,0,0:0:0:0:
320,192,179675,1,0,0:0:0:70:kick.wav
448,192,179675,1,0,0:0:0:0:
64,192,179772,1,0,0:0:0:70:kick.wav
192,192,179772,1,0,0:0:0:0:
320,192,179772,1,0,0:0:0:0:
64,192,179965,128,0,180062:0:0:0:0:
192,192,180062,1,0,0:0:0:70:kick.wav
448,192,180062,1,0,0:0:0:0:
64,192,180159,1,0,0:0:0:70:kick.wav
320,192,180159,128,0,180256:0:0:0:0:
448,192,180159,1,0,0:0:0:0:
64,192,180353,1,0,0:0:0:0:
192,192,180353,1,0,0:0:0:0:
448,192,180401,1,0,0:0:0:0:
320,192,180449,1,0,0:0:0:70:kick.wav
64,192,180546,1,0,0:0:0:70:kick.wav
192,192,180546,1,0,0:0:0:0:
448,192,180546,1,0,0:0:0:0:
64,192,180740,1,0,0:0:0:0:
192,192,180740,1,0,0:0:0:0:
320,192,180788,1,0,0:0:0:0:
448,192,180836,1,0,0:0:0:70:kick.wav
64,192,180933,1,0,0:0:0:70:kick.wav
192,192,180933,1,0,0:0:0:0:
320,192,180933,1,0,0:0:0:0:
320,192,181127,1,0,0:0:0:0:
448,192,181127,1,0,0:0:0:0:
192,192,181175,1,0,0:0:0:0:
64,192,181224,1,0,0:0:0:70:kick.wav
192,192,181320,1,0,0:0:0:70:kick.wav
320,192,181320,1,0,0:0:0:0:
448,192,181320,1,0,0:0:0:0:
64,192,181514,128,0,181611:0:0:0:0:
448,192,181514,1,0,0:0:0:0:
320,192,181562,1,0,0:0:0:0:
192,192,181611,128,0,181707:0:0:0:70:kick.wav
64,192,181707,1,0,0:0:0:70:kick.wav
320,192,181707,128,0,181804:0:0:0:0:
448,192,181707,1,0,0:0:0:0:
320,192,181901,1,0,0:0:0:0:
64,192,181998,1,0,0:0:0:70:kick.wav
192,192,181998,1,0,0:0:0:0:
192,192,182094,1,0,0:0:0:70:kick.wav
320,192,182094,1,0,0:0:0:0:
448,192,182094,1,0,0:0:0:0:
192,192,182288,128,0,182385:0:0:0:0:
64,192,182385,1,0,0:0:0:70:kick.wav
320,192,182385,1,0,0:0:0:0:
192,192,182482,1,0,0:0:0:70:kick.wav
320,192,182482,128,0,182578:0:0:0:0:
448,192,182482,1,0,0:0:0:0:
64,192,182675,1,0,0:0:0:0:
192,192,182772,1,0,0:0:0:70:kick.wav
448,192,182772,1,0,0:0:0:0:
64,192,182869,1,0,0:0:0:70:kick.wav
192,192,182869,1,0,0:0:0:0:
320,192,182869,1,0,0:0:0:0:
192,192,183062,128,0,183159:0:0:0:0:
64,192,183159,1,0,0:0:0:70:kick.wav
320,192,183159,1,0,0:0:0:0:
192,192,183256,1,0,0:0:0:70:kick.wav
320,192,183256,128,0,183353:0:0:0:0:
448,192,183256,1,0,0:0:0:0:
192,192,183449,1,0,0:0:0:0:
448,192,183449,1,0,0:0:0:0:
64,192,183498,1,0,0:0:0:0:
320,192,183546,1,0,0:0:0:70:kick.wav
64,192,183643,1,0,0:0:0:70:kick.wav
192,192,183643,1,0,0:0:0:0:
448,192,183643,1,0,0:0:0:0:
64,192,183836,1,0,0:0:0:0:
448,192,183836,1,0,0:0:0:0:
320,192,183885,1,0,0:0:0:0:
192,192,183933,1,0,0:0:0:70:kick.wav
64,192,184030,1,0,0:0:0:70:kick.wav
320,192,184030,1,0,0:0:0:0:
448,192,184030,1,0,0:0:0:0:
192,192,184224,1,0,0:0:0:0:
320,192,184224,1,0,0:0:0:0:
64,192,184272,1,0,0:0:0:0:
448,192,184320,1,0,0:0:0:70:kick.wav
64,192,184417,1,0,0:0:0:70:kick.wav
192,192,184417,1,0,0:0:0:0:
320,192,184417,1,0,0:0:0:0:
192,192,184611,1,0,0:0:0:0:
320,192,184611,1,0,0:0:0:0:
448,192,184659,1,0,0:0:0:0:
64,192,184707,1,0,0:0:0:70:kick.wav
192,192,184804,1,0,0:0:0:70:kick.wav
320,192,184804,1,0,0:0:0:0:
448,192,184804,128,0,184901:0:0:0:0:
64,192,184998,1,0,0:0:0:0:
192,192,185094,1,0,0:0:0:70:kick.wav
320,192,185094,1,0,0:0:0:0:
64,192,185191,1,0,0:0:0:70:kick.wav
192,192,185191,1,0,0:0:0:0:
448,192,185191,1,0,0:0:0:0:
320,192,185385,128,0,185482:0:0:0:0:
64,192,185482,1,0,0:0:0:70:kick.wav
448,192,185482,1,0,0:0:0:0:
192,192,185578,128,0,185675:0:0:0:70:kick.wav
320,192,185578,1,0,0:0:0:0:
448,192,185578,1,0,0:0:0:0:
64,192,185772,1,0,0:0:0:0:
192,192,185869,1,0,0:0:0:70:kick.wav
320,192,185869,1,0,0:0:0:0:
64,192,185965,1,0,0:0:0:70:kick.wav
320,192,185965,1,0,0:0:0:0:
448,192,185965,1,0,0:0:0:0:
192,192,186159,128,0,186256:0:0:0:0:
320,192,186256,1,0,0:0:0:70:kick.wav
448,192,186256,1,0,0:0:0:0:
64,192,186353,128,0,186449:0:0:0:70:kick.wav
192,192,186353,1,0,0:0:0:0:
320,192,186353,1,0,0:0:0:0:
320,192,186546,1,0,0:0:0:0:
448,192,186546,1,0,0:0:0:0:
192,192,186594,1,0,0:0:0:0:
64,192,186643,1,0,0:0:0:70:kick.wav
192,192,186740,1,0,0:0:0:70:kick.wav
320,192,186740,1,0,0:0:0:0:
448,192,186740,1,0,0:0:0:0:
64,192,186933,1,0,0:0:0:0:
192,192,186933,1,0,0:0:0:0:
320,192,186982,1,0,0:0:0:0:
448,192,187030,1,0,0:0:0:70:kick.wav
64,192,187127,1,0,0:0:0:70:kick.wav
192,192,187127,1,0,0:0:0:0:
320,192,187127,1,0,0:0:0:0:
320,192,187320,1,0,0:0:0:0:
448,192,187320,1,0,0:0:0:0:
64,192,187369,1,0,0:0:0:0:
192,192,187417,1,0,0:0:0:70:kick.wav
64,192,187514,1,0,0:0:0:70:kick.wav
320,192,187514,1,0,0:0:0:0:
448,192,187514,1,0,0:0:0:0:
64,192,187707,1,0,0:0:0:0:
192,192,187707,1,0,0:0:0:0:
448,192,187756,1,0,0:0:0:0:
320,192,187804,1,0,0:0:0:70:kick.wav
64,192,187901,1,0,0:0:0:70:kick.wav
192,192,187901,128,0,187998:0:0:0:0:
448,192,187901,1,0,0:0:0:0:
192,192,188094,1,0,0:0:0:0:
320,192,188191,1,0,0:0:0:70:kick.wav
448,192,188191,1,0,0:0:0:0:
64,192,188288,1,0,0:0:0:70:kick.wav
192,192,188288,1,0,0:0:0:0:
320,192,188288,1,0,0:0:0:0:
448,192,188482,1,0,0:0:0:0:
64,192,188578,1,0,0:0:0:70:kick.wav
320,192,188578,1,0,0:0:0:0:
192,192,188675,1,0,0:0:0:70:kick.wav
320,192,188675,1,0,0:0:0:0:
448,192,188675,1,0,0:0:0:0:
64,192,188869,1,0,0:0:0:0:
192,192,188965,1,0,0:0:0:70:kick.wav
320,192,188965,1,0,0:0:0:0:
64,192,189062,1,0,0:0:0:70:kick.wav
192,192,189062,1,0,0:0:0:0:
448,192,189062,1,0,0:0:0:0:
320,192,189256,128,0,189353:0:0:0:0:
192,192,189353,1,0,0:0:0:70:kick.wav
448,192,189353,1,0,0:0:0:0:
64,192,189449,128,0,189546:0:0:0:70:kick.wav
192,192,189449,1,0,0:0:0:0:
320,192,189449,1,0,0:0:0:0:
320,192,189643,128,0,189740:0:0:0:0:
192,192,189740,128,0,189836:0:0:0:70:kick.wav
64,192,189836,1,0,0:0:0:70:kick.wav
320,192,189836,1,0,0:0:0:0:
448,192,189836,128,0,189933:0:0:0:0:
192,192,189933,128,0,190030:0:0:0:70:kick.wav
448,192,190030,128,0,190127:0:0:0:0:
64,192,190127,128,0,190224:0:0:0:70:kick.wav
192,192,190224,1,0,0:0:0:70:kick.wav
320,192,190224,128,0,190320:0:0:0:0:
448,192,190224,1,0,0:0:0:0:
64,192,190320,128,0,190417:0:0:0:70:kick.wav
192,192,190417,128,0,190514:0:0:0:0:
320,192,190514,128,0,190611:0:0:0:70:kick.wav
64,192,190611,1,0,0:0:0:70:kick.wav
192,192,190611,1,0,0:0:0:0:
448,192,190611,128,0,190707:0:0:0:0:
64,192,190804,1,0,0:0:0:0:
448,192,190804,1,0,0:0:0:0:
192,192,190901,1,0,0:0:0:70:kick.wav
64,192,190998,1,0,0:0:0:70:kick.wav
320,192,190998,128,0,191094:0:0:0:40:crash.wav
448,192,190998,1,0,0:0:0:0:
320,192,191191,1,0,0:0:0:0:
64,192,191288,1,0,0:0:0:70:kick.wav
192,192,191288,1,0,0:0:0:0:
192,192,191385,1,0,0:0:0:70:kick.wav
320,192,191385,1,0,0:0:0:70:snare.wav
448,192,191385,1,0,0:0:0:0:
64,192,191578,128,0,191675:0:0:0:0:
192,192,191675,1,0,0:0:0:70:kick.wav
320,192,191675,1,0,0:0:0:0:
64,192,191772,1,0,0:0:0:70:kick.wav
320,192,191772,128,0,191869:0:0:0:0:
448,192,191772,1,0,0:0:0:0:
64,192,191965,1,0,0:0:0:0:
192,192,192062,1,0,0:0:0:70:kick.wav
320,192,192062,1,0,0:0:0:0:
64,192,192159,1,0,0:0:0:70:kick.wav
320,192,192159,1,0,0:0:0:70:snare.wav
448,192,192159,1,0,0:0:0:0:
64,192,192353,128,0,192449:0:0:0:0:
192,192,192449,1,0,0:0:0:70:kick.wav
448,192,192449,1,0,0:0:0:0:
64,192,192546,1,0,0:0:0:70:kick.wav
192,192,192546,1,0,0:0:0:0:
320,192,192546,128,0,192643:0:0:0:0:
320,192,192740,1,0,0:0:0:0:
448,192,192740,1,0,0:0:0:0:
64,192,192788,1,0,0:0:0:0:
192,192,192836,1,0,0:0:0:70:kick.wav
64,192,192933,1,0,0:0:0:70:kick.wav
320,192,192933,1,0,0:0:0:70:snare.wav
448,192,192933,1,0,0:0:0:0:
64,192,193127,1,0,0:0:0:0:
192,192,193127,1,0,0:0:0:0:
448,192,193175,1,0,0:0:0:0:
320,192,193224,1,0,0:0:0:70:kick.wav
64,192,193320,1,0,0:0:0:70:kick.wav
192,192,193320,1,0,0:0:0:40:crash.wav
448,192,193320,1,0,0:0:0:0:
320,192,193417,1,0,0:0:0:70:kick.wav
192,192,193514,1,0,0:0:0:0:
64,192,193611,1,0,0:0:0:70:kick.wav
320,192,193611,1,0,0:0:0:40:snare.wav
448,192,193611,1,0,0:0:0:0:
192,192,193707,128,0,193901:0:0:0:0:
320,192,193756,128,0,193949:0:0:0:0:
448,192,193804,128,0,193998:0:0:0:0:
64,192,193901,128,0,193998:0:0:0:0:
192,192,193998,128,0,194094:0:0:0:0:
64,192,194094,1,0,0:0:0:70:kick.wav
320,192,194094,128,0,194191:0:0:0:40:crash.wav
448,192,194094,1,0,0:0:0:0:
64,192,194288,1,0,0:0:0:0:
192,192,194385,1,0,0:0:0:70:kick.wav
448,192,194385,1,0,0:0:0:0:
64,192,194482,1,0,0:0:0:70:kick.wav
192,192,194482,1,0,0:0:0:70:snare.wav
320,192,194482,1,0,0:0:0:0:
192,192,194675,128,0,194772:0:0:0:0:
64,192,194772,1,0,0:0:0:70:kick.wav
448,192,194772,1,0,0:0:0:0:
192,192,194869,1,0,0:0:0:70:kick.wav
320,192,194869,128,0,194965:0:0:0:0:
448,192,194869,1,0,0:0:0:0:
64,192,195062,1,0,0:0:0:0:
192,192,195159,1,0,0:0:0:70:kick.wav
320,192,195159,1,0,0:0:0:0:
64,192,195256,1,0,0:0:0:70:kick.wav
320,192,195256,1,0,0:0:0:70:snare.wav
448,192,195256,1,0,0:0:0:0:
192,192,195449,128,0,195546:0:0:0:0:
64,192,195546,1,0,0:0:0:70:kick.wav
320,192,195546,1,0,0:0:0:0:
192,192,195643,1,0,0:0:0:70:kick.wav
320,192,195643,128,0,195740:0:0:0:0:
448,192,195643,1,0,0:0:0:0:
64,192,195836,1,0,0:0:0:0:
320,192,195836,1,0,0:0:0:0:
192,192,195885,1,0,0:0:0:0:
448,192,195933,1,0,0:0:0:70:kick.wav
64,192,196030,1,0,0:0:0:70:kick.wav
192,192,196030,1,0,0:0:0:70:snare.wav
320,192,196030,1,0,0:0:0:0:
192,192,196224,1,0,0:0:0:0:
448,192,196224,1,0,0:0:0:0:
320,192,196272,1,0,0:0:0:0:
64,192,196320,1,0,0:0:0:70:kick.wav
192,192,196417,1,0,0:0:0:70:kick.wav
320,192,196417,1,0,0:0:0:40:crash.wav
448,192,196417,1,0,0:0:0:0:
64,192,196514,1,0,0:0:0:70:kick.wav
320,192,196611,1,0,0:0:0:0:
64,192,196707,1,0,0:0:0:70:kick.wav
192,192,196707,128,0,196804:0:0:0:40:snare.wav
448,192,196707,1,0,0:0:0:0:
320,192,196804,1,0,0:0:0:0:
192,192,196901,1,0,0:0:0:0:
192,192,196998,128,0,197191:0:0:0:0:
64,192,197191,1,0,0:0:0:70:kick.wav
320,192,197191,1,0,0:0:0:40:crash.wav
448,192,197191,128,0,197288:0:0:0:0:
448,192,197385,1,0,0:0:0:0:
64,192,197482,1,0,0:0:0:70:kick.wav
320,192,197482,1,0,0:0:0:0:
192,192,197578,1,0,0:0:0:70:kick.wav
320,192,197578,1,0,0:0:0:70:snare.wav
448,192,197578,1,0,0:0:0:0:
64,192,197772,1,0,0:0:0:0:
192,192,197869,1,0,0:0:0:70:kick.wav
448,192,197869,1,0,0:0:0:0:
64,192,197965,1,0,0:0:0:70:kick.wav
192,192,197965,1,0,0:0:0:0:
320,192,197965,1,0,0:0:0:0:
192,192,198159,1,0,0:0:0:0:
64,192,198256,1,0,0:0:0:70:kick.wav
320,192,198256,1,0,0:0:0:0:
192,192,198353,1,0,0:0:0:70:kick.wav
320,192,198353,1,0,0:0:0:70:snare.wav
448,192,198353,1,0,0:0:0:0:
192,192,198546,1,0,0:0:0:0:
320,192,198643,1,0,0:0:0:70:kick.wav
448,192,198643,1,0,0:0:0:0:
64,192,198740,1,0,0:0:0:70:kick.wav
192,192,198740,1,0,0:0:0:0:
320,192,198740,1,0,0:0:0:0:
320,192,198933,1,0,0:0:0:0:
448,192,198933,1,0,0:0:0:0:
64,192,198982,1,0,0:0:0:0:
192,192,199030,1,0,0:0:0:70:kick.wav
64,192,199127,1,0,0:0:0:70:kick.wav
320,192,199127,1,0,0:0:0:70:snare.wav
448,192,199127,1,0,0:0:0:0:
64,192,199320,1,0,0:0:0:0:
192,192,199320,1,0,0:0:0:0:
448,192,199369,1,0,0:0:0:0:
320,192,199417,1,0,0:0:0:70:kick.wav
64,192,199514,1,0,0:0:0:70:kick.wav
192,192,199514,1,0,0:0:0:40:crash.wav
448,192,199514,1,0,0:0:0:0:
320,192,199611,1,0,0:0:0:70:kick.wav
64,192,199707,1,0,0:0:0:0:
192,192,199804,1,0,0:0:0:70:kick.wav
320,192,199804,1,0,0:0:0:40:snare.wav
448,192,199804,1,0,0:0:0:0:
64,192,199901,128,0,200191:0:0:0:0:
448,192,199949,128,0,200046:0:0:0:0:
320,192,199998,128,0,200094:0:0:0:0:
192,192,200046,128,0,200143:0:0:0:0:
448,192,200094,128,0,200191:0:0:0:0:
320,192,200143,128,0,200240:0:0:0:0:
192,192,200191,128,0,200288:0:0:0:0:
64,192,200288,1,0,0:0:0:70:kick.wav
320,192,200288,1,0,0:0:0:70:snare.wav
448,192,200288,1,0,0:0:0:0:
64,192,200385,1,0,0:0:0:70:kick.wav
192,192,200385,1,0,0:0:0:0:
320,192,200482,1,0,0:0:0:0:
64,192,200578,1,0,0:0:0:70:kick.wav
192,192,200578,1,0,0:0:0:70:snare.wav
448,192,200578,1,0,0:0:0:0:
320,192,200675,1,0,0:0:0:70:kick.wav
64,192,200772,1,0,0:0:0:70:kick.wav
192,192,200772,1,0,0:0:0:70:snare.wav
64,192,200869,1,0,0:0:0:70:snare.wav
320,192,200869,1,0,0:0:0:0:
448,192,200869,1,0,0:0:0:0:
192,192,200965,1,0,0:0:0:70:kick.wav
64,192,201062,1,0,0:0:0:70:kick.wav
320,192,201062,1,0,0:0:0:70:snare.wav
448,192,201062,1,0,0:0:0:40:crash.wav
192,192,201159,1,0,0:0:0:70:kick.wav
64,192,201256,1,0,0:0:0:0:
192,192,201353,1,0,0:0:0:70:kick.wav
320,192,201353,1,0,0:0:0:70:snare.wav
448,192,201353,1,0,0:0:0:0:
64,192,201449,1,0,0:0:0:0:
192,192,201546,1,0,0:0:0:70:kick.wav
320,192,201546,1,0,0:0:0:70:snare.wav
64,192,201643,1,0,0:0:0:70:kick.wav
192,192,201643,1,0,0:0:0:70:snare.wav
448,192,201643,1,0,0:0:0:0:
320,192,201740,1,0,0:0:0:70:kick.wav
64,192,201836,1,0,0:0:0:70:kick.wav
192,192,201836,1,0,0:0:0:70:crash.wav
448,192,201836,1,0,0:0:0:0:
320,192,201901,1,0,0:0:0:0:
192,192,201965,1,0,0:0:0:0:
64,192,202030,1,0,0:0:0:0:
448,192,202094,1,0,0:0:0:0:
320,192,202159,1,0,0:0:0:0:
192,192,202224,1,0,0:0:0:0:
320,192,202288,1,0,0:0:0:0:
448,192,202353,1,0,0:0:0:0:
64,192,202417,1,0,0:0:0:0:
192,192,202482,1,0,0:0:0:0:
320,192,202546,1,0,0:0:0:0:
448,192,202611,1,0,0:0:0:0:
320,192,202675,1,0,0:0:0:0:
192,192,202740,1,0,0:0:0:0:
64,192,202804,1,0,0:0:0:0:
448,192,202869,1,0,0:0:0:0:
320,192,202933,1,0,0:0:0:0:
192,192,202998,1,0,0:0:0:0:
448,192,203062,1,0,0:0:0:0:
320,192,203127,1,0,0:0:0:0:
192,192,203191,1,0,0:0:0:0:
64,192,203256,1,0,0:0:0:0:
448,192,203320,1,0,0:0:0:0:
64,192,203385,1,0,0:0:0:70:kick.wav
192,192,203385,1,0,0:0:0:70:crash.wav
320,192,203385,1,0,0:0:0:0:
448,192,203482,1,0,0:0:0:0:
192,192,203675,1,0,0:0:0:0:
320,192,203675,1,0,0:0:0:0:
64,192,203869,1,0,0:0:0:0:
192,192,203965,1,0,0:0:0:0:
320,192,203965,1,0,0:0:0:0:
64,192,204062,1,0,0:0:0:0:
448,192,204062,1,0,0:0:0:0:
320,192,204256,1,0,0:0:0:0:
448,192,204256,128,0,204353:0:0:0:0:
192,192,204449,1,0,0:0:0:0:
320,192,204449,1,0,0:0:0:0:
64,192,204643,128,0,204740:0:0:0:0:
192,192,204643,1,0,0:0:0:0:
192,192,204836,1,0,0:0:0:0:
320,192,204836,1,0,0:0:0:0:
64,192,205030,128,0,205127:0:0:0:0:
448,192,205030,1,0,0:0:0:0:
320,192,205224,1,0,0:0:0:0:
448,192,205224,1,0,0:0:0:0:
64,192,205417,1,0,0:0:0:0:
192,192,205514,1,0,0:0:0:0:
320,192,205514,1,0,0:0:0:0:
64,192,205611,1,0,0:0:0:0:
448,192,205611,1,0,0:0:0:0:
320,192,205804,1,0,0:0:0:0:
448,192,205804,128,0,205901:0:0:0:0:
192,192,205998,1,0,0:0:0:0:
320,192,205998,1,0,0:0:0:0:
192,192,206191,128,0,206288:0:0:0:0:
320,192,206191,1,0,0:0:0:0:
64,192,206288,1,0,0:0:0:0:
320,192,206385,1,0,0:0:0:0:
448,192,206385,1,0,0:0:0:0:
64,192,206482,1,0,0:0:0:40:drum.wav
192,192,206530,1,0,0:0:0:40:drum.wav
448,192,206578,1,0,0:0:0:40:drum.wav
320,192,206627,1,0,0:0:0:40:drum.wav
64,192,206675,1,0,0:0:0:45:drum.wav
192,192,206724,1,0,0:0:0:45:drum.wav
448,192,206772,1,0,0:0:0:45:drum.wav
320,192,206820,1,0,0:0:0:45:drum.wav
64,192,206869,1,0,0:0:0:50:drum.wav
192,192,206917,1,0,0:0:0:50:drum.wav
448,192,206965,1,0,0:0:0:50:drum.wav
320,192,207014,1,0,0:0:0:50:drum.wav
64,192,207062,1,0,0:0:0:55:drum.wav
192,192,207111,1,0,0:0:0:55:drum.wav
448,192,207159,1,0,0:0:0:55:drum.wav
320,192,207207,1,0,0:0:0:55:drum.wav
64,192,207256,1,0,0:0:0:60:drum.wav
192,192,207304,1,0,0:0:0:60:drum.wav
320,192,207353,1,0,0:0:0:60:drum.wav
448,192,207401,1,0,0:0:0:60:drum.wav
64,192,207449,1,0,0:0:0:65:drum.wav
192,192,207498,1,0,0:0:0:65:drum.wav
320,192,207546,1,0,0:0:0:65:drum.wav
448,192,207594,1,0,0:0:0:65:drum.wav
64,192,207643,1,0,0:0:0:70:drum.wav
192,192,207691,1,0,0:0:0:70:drum.wav
320,192,207740,1,0,0:0:0:70:drum.wav
448,192,207788,1,0,0:0:0:70:drum.wav
64,192,207836,1,0,0:0:0:70:drum.wav
192,192,207885,1,0,0:0:0:70:drum.wav
320,192,207933,1,0,0:0:0:70:drum.wav
448,192,207982,1,0,0:0:0:70:drum.wav
64,192,208030,128,0,208127:0:0:0:70:drum.wav
192,192,208078,128,0,208127:0:0:0:0:
320,192,208127,1,0,0:0:0:0:
320,192,208320,128,0,208417:0:0:0:55:kick.wav
192,192,208369,128,0,208417:0:0:0:0:
64,192,208417,1,0,0:0:0:0:
320,192,208514,1,0,0:0:0:0:
448,192,208611,1,0,0:0:0:40:kick.wav
64,192,208659,1,0,0:0:0:40:kick.wav
448,192,208707,1,0,0:0:0:40:kick.wav
64,192,208756,1,0,0:0:0:40:kick.wav
192,192,208804,1,0,0:0:0:40:kick.wav
320,192,208804,1,0,0:0:0:0:
64,192,208933,1,0,0:0:0:40:kick.wav
320,192,208933,1,0,0:0:0:0:
192,192,209062,1,0,0:0:0:40:kick.wav
448,192,209062,1,0,0:0:0:0:
64,192,209191,128,0,209385:0:0:0:40:kick.wav
320,192,209191,1,0,0:0:0:0:
192,192,209288,128,0,209385:0:0:0:0:
448,192,209385,128,0,209578:0:0:0:40:kick.wav
320,192,209482,128,0,209578:0:0:0:0:
64,192,209578,1,0,0:0:0:40:kick.wav
192,192,209578,1,0,0:0:0:70:boom.wav
64,192,209772,1,0,0:0:0:0:
192,192,209772,1,0,0:0:0:0:
320,192,209836,1,0,0:0:0:0:
448,192,209901,1,0,0:0:0:0:
64,192,209965,1,0,0:0:0:70:kick.wav
192,192,209965,1,0,0:0:0:0:
320,192,210159,1,0,0:0:0:0:
448,192,210159,1,0,0:0:0:0:
64,192,210224,1,0,0:0:0:0:
192,192,210288,1,0,0:0:0:0:
320,192,210353,1,0,0:0:0:70:kick.wav
448,192,210353,1,0,0:0:0:0:
64,192,210546,1,0,0:0:0:0:
192,192,210643,1,0,0:0:0:70:kick.wav
448,192,210643,1,0,0:0:0:0:
64,192,210740,1,0,0:0:0:70:kick.wav
320,192,210740,1,0,0:0:0:0:
320,192,210933,1,0,0:0:0:0:
448,192,210933,1,0,0:0:0:0:
192,192,210998,1,0,0:0:0:0:
64,192,211062,1,0,0:0:0:0:
320,192,211127,1,0,0:0:0:70:kick.wav
448,192,211127,1,0,0:0:0:0:
64,192,211320,1,0,0:0:0:0:
448,192,211369,1,0,0:0:0:0:
192,192,211417,1,0,0:0:0:70:kick.wav
320,192,211417,1,0,0:0:0:0:
64,192,211514,1,0,0:0:0:70:kick.wav
192,192,211514,1,0,0:0:0:0:
448,192,211707,1,0,0:0:0:0:
64,192,211756,1,0,0:0:0:0:
192,192,211804,1,0,0:0:0:70:kick.wav
320,192,211804,1,0,0:0:0:0:
320,192,211901,1,0,0:0:0:70:kick.wav
448,192,211901,1,0,0:0:0:0:
64,192,212094,1,0,0:0:0:0:
192,192,212094,1,0,0:0:0:0:
320,192,212288,1,0,0:0:0:70:kick.wav
448,192,212288,1,0,0:0:0:0:
192,192,212353,1,0,0:0:0:0:
64,192,212417,1,0,0:0:0:0:
448,192,212482,1,0,0:0:0:0:
192,192,212578,1,0,0:0:0:70:kick.wav
320,192,212578,1,0,0:0:0:0:
64,192,212675,1,0,0:0:0:70:kick.wav
192,192,212675,1,0,0:0:0:0:
448,192,212869,1,0,0:0:0:0:
192,192,212965,1,0,0:0:0:70:kick.wav
320,192,212965,1,0,0:0:0:0:
64,192,213062,1,0,0:0:0:70:kick.wav
320,192,213062,1,0,0:0:0:0:
64,192,213256,1,0,0:0:0:0:
192,192,213353,1,0,0:0:0:70:kick.wav
320,192,213353,1,0,0:0:0:0:
64,192,213449,1,0,0:0:0:70:kick.wav
448,192,213449,1,0,0:0:0:0:
448,192,213643,1,0,0:0:0:0:
192,192,213740,1,0,0:0:0:70:kick.wav
320,192,213740,1,0,0:0:0:0:
64,192,213836,1,0,0:0:0:70:kick.wav
192,192,213836,1,0,0:0:0:0:
64,192,214030,1,0,0:0:0:0:
192,192,214127,1,0,0:0:0:70:kick.wav
320,192,214127,1,0,0:0:0:0:
320,192,214224,1,0,0:0:0:70:kick.wav
448,192,214224,1,0,0:0:0:0:
320,192,214417,1,0,0:0:0:0:
64,192,214514,1,0,0:0:0:70:kick.wav
192,192,214514,1,0,0:0:0:0:
192,192,214611,1,0,0:0:0:70:kick.wav
320,192,214611,1,0,0:0:0:0:
64,192,214804,1,0,0:0:0:0:
192,192,214901,1,0,0:0:0:70:kick.wav
320,192,214901,1,0,0:0:0:0:
64,192,214998,1,0,0:0:0:70:kick.wav
448,192,214998,1,0,0:0:0:0:
320,192,215094,1,0,0:0:0:70:kick.wav
192,192,215191,1,0,0:0:0:0:
64,192,215288,1,0,0:0:0:70:kick.wav
448,192,215288,1,0,0:0:0:0:
320,192,215385,1,0,0:0:0:0:
192,192,215482,1,0,0:0:0:70:kick.wav
448,192,215482,1,0,0:0:0:0:
64,192,215578,1,0,0:0:0:70:kick.wav
320,192,215578,1,0,0:0:0:0:
448,192,215643,1,0,0:0:0:0:
192,192,215707,1,0,0:0:0:0:
64,192,215772,1,0,0:0:0:70:kick.wav
320,192,215772,1,0,0:0:0:0:
320,192,215965,1,0,0:0:0:0:
448,192,215965,1,0,0:0:0:0:
192,192,216030,1,0,0:0:0:0:
320,192,216094,1,0,0:0:0:0:
64,192,216159,1,0,0:0:0:70:kick.wav
192,192,216159,1,0,0:0:0:0:
64,192,216353,1,0,0:0:0:0:
448,192,216353,1,0,0:0:0:0:
320,192,216417,1,0,0:0:0:0:
192,192,216482,1,0,0:0:0:0:
320,192,216546,1,0,0:0:0:70:kick.wav
448,192,216546,1,0,0:0:0:0:
448,192,216740,1,0,0:0:0:0:
64,192,216836,1,0,0:0:0:70:kick.wav
192,192,216836,1,0,0:0:0:0:
192,192,216933,1,0,0:0:0:70:kick.wav
320,192,216933,1,0,0:0:0:0:
64,192,217127,1,0,0:0:0:0:
448,192,217127,1,0,0:0:0:0:
320,192,217191,1,0,0:0:0:0:
192,192,217256,1,0,0:0:0:0:
64,192,217320,1,0,0:0:0:70:kick.wav
320,192,217320,1,0,0:0:0:0:
64,192,217562,1,0,0:0:0:0:
448,192,217562,1,0,0:0:0:0:
192,192,217611,1,0,0:0:0:70:kick.wav
320,192,217659,1,0,0:0:0:0:
64,192,217707,1,0,0:0:0:70:kick.wav
448,192,217707,1,0,0:0:0:0:
64,192,217949,1,0,0:0:0:0:
448,192,217949,1,0,0:0:0:0:
320,192,217998,1,0,0:0:0:70:kick.wav
192,192,218046,1,0,0:0:0:0:
64,192,218094,1,0,0:0:0:70:kick.wav
448,192,218094,1,0,0:0:0:0:
320,192,218288,1,0,0:0:0:0:
448,192,218288,1,0,0:0:0:0:
64,192,218482,1,0,0:0:0:70:kick.wav
192,192,218482,1,0,0:0:0:0:
320,192,218546,1,0,0:0:0:0:
448,192,218611,1,0,0:0:0:0:
64,192,218675,1,0,0:0:0:0:
192,192,218675,1,0,0:0:0:0:
320,192,218772,1,0,0:0:0:70:kick.wav
64,192,218869,1,0,0:0:0:70:snaredrum.wav
192,192,218869,1,0,0:0:0:70:kick.wav
448,192,218869,1,0,0:0:0:0:
320,192,218965,1,0,0:0:0:70:kick.wav
192,192,219062,1,0,0:0:0:0:
448,192,219062,1,0,0:0:0:0:
64,192,219159,1,0,0:0:0:70:drum.wav
320,192,219159,1,0,0:0:0:70:kick.wav
448,192,219256,1,0,0:0:0:70:kick.wav
64,192,219353,1,0,0:0:0:70:drum.wav
192,192,219353,1,0,0:0:0:70:kick.wav
320,192,219449,1,0,0:0:0:70:drum.wav
192,192,219546,1,0,0:0:0:70:kick.wav
320,192,219594,1,0,0:0:0:0:
64,192,219643,1,0,0:0:0:70:drum.wav
448,192,219643,1,0,0:0:0:70:kick.wav
192,192,219740,1,0,0:0:0:70:kick.wav
320,192,219836,1,0,0:0:0:0:
64,192,219933,1,0,0:0:0:70:drum.wav
192,192,220030,1,0,0:0:0:70:kick.wav
448,192,220030,1,0,0:0:0:0:
64,192,220127,1,0,0:0:0:70:drum.wav
192,192,220224,1,0,0:0:0:70:drum.wav
320,192,220224,1,0,0:0:0:0:
448,192,220320,1,0,0:0:0:70:kick.wav
64,192,220417,1,0,0:0:0:70:drum.wav
192,192,220417,1,0,0:0:0:70:kick.wav
448,192,220514,1,0,0:0:0:70:kick.wav
320,192,220611,1,0,0:0:0:0:
64,192,220707,1,0,0:0:0:70:drum.wav
192,192,220804,1,0,0:0:0:70:kick.wav
448,192,220901,1,0,0:0:0:70:drum.wav
192,192,220998,1,0,0:0:0:70:drum.wav
320,192,220998,1,0,0:0:0:0:
64,192,221094,1,0,0:0:0:70:kick.wav
192,192,221191,1,0,0:0:0:70:drum.wav
320,192,221191,1,0,0:0:0:70:kick.wav
448,192,221256,1,0,0:0:0:70:drum.wav
192,192,221320,1,0,0:0:0:70:drum.wav
320,192,221385,1,0,0:0:0:70:drum.wav
448,192,221385,1,0,0:0:0:0:
64,192,221449,1,0,0:0:0:70:drum.wav
320,192,221514,1,0,0:0:0:70:drum.wav
64,192,221578,1,0,0:0:0:70:drum.wav
192,192,221578,1,0,0:0:0:70:kick.wav
448,192,221675,1,0,0:0:0:0:
192,192,221772,1,0,0:0:0:70:drum.wav
320,192,221772,1,0,0:0:0:0:
64,192,221965,1,0,0:0:0:70:boom.wav
320,192,221965,1,0,0:0:0:70:kick.wav
448,192,221965,1,0,0:0:0:70:crash.wav
192,192,222159,1,0,0:0:0:0:
320,192,222256,1,0,0:0:0:0:
64,192,222449,1,0,0:0:0:0:
192,192,222546,1,0,0:0:0:0:
192,192,222740,1,0,0:0:0:0:
320,192,222836,1,0,0:0:0:0:
320,192,223030,1,0,0:0:0:0:
64,192,223127,1,0,0:0:0:70:D#6S_Eb6S.wav
192,192,223127,1,0,0:0:0:0:
320,192,223224,1,0,0:0:0:0:
64,192,223320,1,0,0:0:0:70:F6S.wav
448,192,223320,1,0,0:0:0:0:
64,192,223514,1,0,0:0:0:70:C#6S_Db6S.wav
192,192,223514,1,0,0:0:0:0:
320,192,223562,1,0,0:0:0:0:
448,192,223611,1,0,0:0:0:0:
192,192,223659,1,0,0:0:0:0:
320,192,223707,1,0,0:0:0:0:
448,192,223804,1,0,0:0:0:0:
64,192,223901,1,0,0:0:0:0:
192,192,223901,128,0,223965:0:0:0:0:
192,192,224030,128,0,224094:0:0:0:0:
64,192,224159,128,0,224224:0:0:0:0:
192,192,224288,1,0,0:0:0:0:
448,192,224288,128,0,224546:0:0:0:0:
320,192,224417,128,0,224675:0:0:0:0:
192,192,224546,128,0,224675:0:0:0:0:
64,192,224675,1,0,0:0:0:70:A#5S_Bb5S.wav
448,192,224675,1,0,0:0:0:0:
192,192,224869,1,0,0:0:0:70:C#6S_Db6S.wav
320,192,224869,1,0,0:0:0:0:
64,192,225062,1,0,0:0:0:70:D#6S_Eb6S.wav
448,192,225062,1,0,0:0:0:0:
192,192,225159,1,0,0:0:0:0:
320,192,225256,1,0,0:0:0:0:
192,192,225353,1,0,0:0:0:0:
320,192,225449,1,0,0:0:0:70:G#6S_Ab6S.wav
448,192,225449,1,0,0:0:0:0:
64,192,225546,1,0,0:0:0:0:
320,192,225643,1,0,0:0:0:0:
192,192,225707,1,0,0:0:0:0:
64,192,225772,1,0,0:0:0:0:
320,192,225836,1,0,0:0:0:70:F6S.wav
448,192,225836,1,0,0:0:0:0:
192,192,225933,1,0,0:0:0:0:
320,192,226030,1,0,0:0:0:0:
448,192,226127,1,0,0:0:0:0:
320,192,226175,1,0,0:0:0:0:
64,192,226224,1,0,0:0:0:70:D#6S_Eb6S.wav
192,192,226224,1,0,0:0:0:0:
448,192,226320,1,0,0:0:0:0:
320,192,226417,1,0,0:0:0:0:
192,192,226514,1,0,0:0:0:0:
64,192,226611,1,0,0:0:0:70:F6S.wav
448,192,226611,1,0,0:0:0:0:
192,192,226659,1,0,0:0:0:0:
320,192,226707,1,0,0:0:0:0:
448,192,226756,1,0,0:0:0:0:
64,192,226804,1,0,0:0:0:0:
192,192,226901,1,0,0:0:0:0:
320,192,226998,128,0,227191:0:0:0:0:
448,192,227191,1,0,0:0:0:0:
64,192,227288,1,0,0:0:0:0:
448,192,227385,1,0,0:0:0:0:
192,192,227514,128,0,227643:0:0:0:0:
64,192,227643,1,0,0:0:0:0:
448,192,227772,128,0,227965:0:0:0:0:
192,192,227965,1,0,0:0:0:0:
320,192,228062,1,0,0:0:0:0:
64,192,228159,1,0,0:0:0:70:F6S.wav
192,192,228159,1,0,0:0:0:0:
320,192,228353,1,0,0:0:0:0:
192,192,228449,1,0,0:0:0:0:
320,192,228643,1,0,0:0:0:0:
64,192,228740,1,0,0:0:0:0:
320,192,228933,1,0,0:0:0:0:
192,192,229030,1,0,0:0:0:0:
448,192,229127,1,0,0:0:0:0:
320,192,229224,1,0,0:0:0:0:
64,192,229320,1,0,0:0:0:70:D#6S_Eb6S.wav
192,192,229320,1,0,0:0:0:0:
320,192,229514,1,0,0:0:0:70:F6S.wav
448,192,229514,1,0,0:0:0:0:
64,192,229707,1,0,0:0:0:70:C#6S_Db6S.wav
192,192,229707,1,0,0:0:0:0:
320,192,229756,1,0,0:0:0:0:
448,192,229804,1,0,0:0:0:0:
192,192,229853,1,0,0:0:0:0:
320,192,229901,1,0,0:0:0:0:
64,192,229998,1,0,0:0:0:0:
448,192,230094,1,0,0:0:0:0:
448,192,230191,1,0,0:0:0:0:
320,192,230288,128,0,230385:0:0:0:0:
192,192,230385,128,0,230482:0:0:0:0:
64,192,230482,1,0,0:0:0:0:
64,192,230578,1,0,0:0:0:0:
320,192,230675,1,0,0:0:0:0:
320,192,230772,1,0,0:0:0:0:
64,192,230869,128,0,231062:0:0:0:70:A#5S_Bb5S.wav
448,192,230869,1,0,0:0:0:0:
192,192,231062,1,0,0:0:0:70:C#6S_Db6S.wav
320,192,231062,1,0,0:0:0:0:
320,192,231256,1,0,0:0:0:70:D#6S_Eb6S.wav
448,192,231256,1,0,0:0:0:0:
192,192,231353,1,0,0:0:0:0:
64,192,231449,1,0,0:0:0:0:
320,192,231449,1,0,0:0:0:0:
448,192,231546,1,0,0:0:0:0:
192,192,231643,1,0,0:0:0:70:G#6S_Ab6S.wav
320,192,231643,1,0,0:0:0:0:
64,192,231740,1,0,0:0:0:0:
320,192,231836,1,0,0:0:0:0:
448,192,231836,1,0,0:0:0:0:
64,192,231933,1,0,0:0:0:0:
192,192,232030,1,0,0:0:0:70:F6S.wav
320,192,232030,1,0,0:0:0:0:
64,192,232127,1,0,0:0:0:0:
192,192,232224,1,0,0:0:0:0:
448,192,232224,1,0,0:0:0:0:
320,192,232320,1,0,0:0:0:0:
64,192,232417,1,0,0:0:0:70:G#6S_Ab6S.wav
192,192,232417,1,0,0:0:0:0:
320,192,232514,1,0,0:0:0:0:
64,192,232611,1,0,0:0:0:0:
448,192,232611,1,0,0:0:0:0:
192,192,232707,1,0,0:0:0:0:
64,192,232804,1,0,0:0:0:40:drum.wav
448,192,232804,1,0,0:0:0:70:A#6S_Bb6S.wav
192,192,232853,1,0,0:0:0:40:drum.wav
320,192,232901,1,0,0:0:0:40:drum.wav
448,192,232949,1,0,0:0:0:40:drum.wav
64,192,232998,1,0,0:0:0:45:drum.wav
192,192,233046,1,0,0:0:0:45:drum.wav
320,192,233094,1,0,0:0:0:45:drum.wav
448,192,233143,1,0,0:0:0:45:drum.wav
192,192,233191,1,0,0:0:0:50:drum.wav
64,192,233240,1,0,0:0:0:50:drum.wav
320,192,233288,1,0,0:0:0:50:drum.wav
192,192,233336,1,0,0:0:0:50:drum.wav
64,192,233385,1,0,0:0:0:55:drum.wav
448,192,233433,1,0,0:0:0:55:drum.wav
320,192,233482,1,0,0:0:0:55:drum.wav
192,192,233530,1,0,0:0:0:55:drum.wav
64,192,233578,1,0,0:0:0:60:drum.wav
448,192,233627,1,0,0:0:0:60:drum.wav
320,192,233675,1,0,0:0:0:60:drum.wav
192,192,233724,1,0,0:0:0:60:drum.wav
64,192,233772,1,0,0:0:0:65:drum.wav
448,192,233820,1,0,0:0:0:65:drum.wav
320,192,233869,1,0,0:0:0:65:drum.wav
64,192,233917,1,0,0:0:0:65:drum.wav
192,192,233965,1,0,0:0:0:70:drum.wav
320,192,234014,1,0,0:0:0:70:drum.wav
448,192,234062,1,0,0:0:0:70:drum.wav
64,192,234111,1,0,0:0:0:70:drum.wav
192,192,234159,1,0,0:0:0:70:drum.wav
320,192,234207,1,0,0:0:0:70:drum.wav
448,192,234256,1,0,0:0:0:70:drum.wav
64,192,234304,1,0,0:0:0:70:drum.wav
192,192,234353,1,0,0:0:0:70:drum.wav
320,192,234353,1,0,0:0:0:70:crash.wav
320,192,234546,1,0,0:0:0:0:
448,192,234740,1,0,0:0:0:0:
320,192,234933,1,0,0:0:0:0:
448,192,234982,1,0,0:0:0:0:
192,192,235030,1,0,0:0:0:0:
320,192,235078,1,0,0:0:0:0:
64,192,235127,1,0,0:0:0:0:
320,192,235320,1,0,0:0:0:0:
192,192,235514,1,0,0:0:0:0:
320,192,235707,1,0,0:0:0:0:
448,192,235901,128,0,236094:0:0:0:70:kick.wav
64,192,236094,1,0,0:0:0:70:kick.wav
320,192,236094,1,0,0:0:0:0:
192,192,236191,1,0,0:0:0:70:kick.wav
448,192,236191,1,0,0:0:0:0:
64,192,236288,1,0,0:0:0:70:kick.wav
320,192,236288,1,0,0:0:0:0:
448,192,236385,1,0,0:0:0:0:
64,192,236482,1,0,0:0:0:70:kick.wav
192,192,236482,1,0,0:0:0:0:
320,192,236578,1,0,0:0:0:70:kick.wav
448,192,236578,1,0,0:0:0:0:
64,192,236675,1,0,0:0:0:70:kick.wav
192,192,236675,1,0,0:0:0:0:
320,192,236869,1,0,0:0:0:70:kick.wav
448,192,236869,1,0,0:0:0:0:
64,192,237062,1,0,0:0:0:70:kick.wav
320,192,237062,1,0,0:0:0:70:bass.wav
192,192,237159,1,0,0:0:0:0:
64,192,237256,1,0,0:0:0:0:
448,192,237353,1,0,0:0:0:0:
64,192,237449,1,0,0:0:0:70:kick.wav
192,192,237449,1,0,0:0:0:70:crash.wav
320,192,237449,1,0,0:0:0:70:boom.wav
448,192,237643,1,0,0:0:0:0:
192,192,237836,1,0,0:0:0:0:
320,192,237885,1,0,0:0:0:0:
192,192,237933,1,0,0:0:0:0:
64,192,238030,1,0,0:0:0:0:
448,192,238224,1,0,0:0:0:0:
192,192,238417,1,0,0:0:0:0:
320,192,238465,1,0,0:0:0:0:
192,192,238514,1,0,0:0:0:0:
64,192,238611,1,0,0:0:0:0:
192,192,238804,1,0,0:0:0:0:
320,192,238901,1,0,0:0:0:0:
64,192,238998,1,0,0:0:0:70:clock.wav
448,192,238998,128,0,239094:0:0:0:0:
320,192,239191,1,0,0:0:0:0:
192,192,239288,1,0,0:0:0:0:
64,192,239385,1,0,0:0:0:0:
192,192,239578,128,0,239675:0:0:0:0:
320,192,239772,1,0,0:0:0:0:
64,192,239965,128,0,240062:0:0:0:0:
192,192,240159,1,0,0:0:0:0:
320,192,240353,1,0,0:0:0:0:
64,192,240546,1,0,0:0:0:0:
448,192,240740,1,0,0:0:0:0:
320,192,240933,1,0,0:0:0:0:
192,192,240982,1,0,0:0:0:0:
320,192,241030,1,0,0:0:0:0:
192,192,241127,1,0,0:0:0:0:
64,192,241320,1,0,0:0:0:0:
320,192,241514,1,0,0:0:0:0:
192,192,241562,1,0,0:0:0:0:
320,192,241611,1,0,0:0:0:0:
192,192,241707,1,0,0:0:0:0:
320,192,241901,1,0,0:0:0:0:
192,192,241998,1,0,0:0:0:0:
64,192,242094,1,0,0:0:0:70:clock.wav
448,192,242094,128,0,242191:0:0:0:0:
320,192,242191,1,0,0:0:0:0:
192,192,242288,1,0,0:0:0:0:
320,192,242385,1,0,0:0:0:0:
64,192,242482,1,0,0:0:0:0:
192,192,242578,1,0,0:0:0:0:
320,192,242675,1,0,0:0:0:0:
192,192,242772,1,0,0:0:0:0:
320,192,242869,1,0,0:0:0:0:
448,192,243062,1,0,0:0:0:0:
320,192,243256,1,0,0:0:0:0:
192,192,243304,1,0,0:0:0:0:
320,192,243353,1,0,0:0:0:0:
64,192,243449,1,0,0:0:0:0:
192,192,243546,1,0,0:0:0:0:
320,192,243643,1,0,0:0:0:0:
192,192,244224,1,0,0:0:0:0:
448,192,244272,1,0,0:0:0:0:
192,192,244320,1,0,0:0:0:0:
64,192,244417,1,0,0:0:0:0:
320,192,244998,1,0,0:0:0:0:
64,192,245046,1,0,0:0:0:0:
320,192,245094,1,0,0:0:0:0:
192,192,245191,1,0,0:0:0:70:clock.wav
448,192,245191,128,0,245288:0:0:0:0:
64,192,245385,1,0,0:0:0:0:
192,192,245578,1,0,0:0:0:0:
320,192,245772,1,0,0:0:0:0:
64,192,246159,1,0,0:0:0:0:
192,192,246353,1,0,0:0:0:0:
448,192,246546,1,0,0:0:0:0:
64,192,246740,1,0,0:0:0:0:
192,192,246933,1,0,0:0:0:0:
320,192,246982,1,0,0:0:0:0:
448,192,247030,1,0,0:0:0:0:
320,192,247127,1,0,0:0:0:0:
64,192,247224,1,0,0:0:0:0:
192,192,247320,1,0,0:0:0:0:
320,192,247417,1,0,0:0:0:0:
192,192,247514,1,0,0:0:0:0:
448,192,247611,1,0,0:0:0:0:
320,192,247707,1,0,0:0:0:0:
192,192,247804,1,0,0:0:0:0:
64,192,247901,1,0,0:0:0:0:
448,192,247998,1,0,0:0:0:0:
192,192,248094,1,0,0:0:0:0:
320,192,248191,1,0,0:0:0:0:
64,192,248288,1,0,0:0:0:70:clock.wav
448,192,248288,128,0,248385:0:0:0:0:
192,192,248385,1,0,0:0:0:0:
320,192,248482,1,0,0:0:0:0:
64,192,248578,1,0,0:0:0:0:
448,192,248675,1,0,0:0:0:0:
320,192,248772,1,0,0:0:0:0:
192,192,248869,128,0,248965:0:0:0:0:
64,192,248965,1,0,0:0:0:0:
448,192,249062,1,0,0:0:0:0:
320,192,249159,1,0,0:0:0:0:
192,192,249256,1,0,0:0:0:0:
192,192,249449,1,0,0:0:0:0:
320,192,249498,1,0,0:0:0:0:
192,192,249546,1,0,0:0:0:0:
320,192,249643,1,0,0:0:0:0:
192,192,249740,1,0,0:0:0:0:
64,192,249836,1,0,0:0:0:0:
448,192,249836,128,0,249933:0:0:0:0:
320,192,250030,1,0,0:0:0:0:
448,192,250127,128,0,250224:0:0:0:0:
192,192,250224,1,0,0:0:0:0:
64,192,250272,1,0,0:0:0:0:
320,192,250320,1,0,0:0:0:0:
192,192,250417,1,0,0:0:0:0:
448,192,250417,128,0,250514:0:0:0:0:
64,192,250611,1,0,0:0:0:0:
320,192,250611,1,0,0:0:0:0:
448,192,250707,128,0,250804:0:0:0:0:
192,192,250804,1,0,0:0:0:0:
64,192,250853,1,0,0:0:0:0:
320,192,250901,1,0,0:0:0:0:
192,192,250998,1,0,0:0:0:0:
448,192,250998,128,0,251094:0:0:0:0:
320,192,251191,1,0,0:0:0:0:
448,192,251288,1,0,0:0:0:0:
64,192,251385,1,0,0:0:0:70:clock.wav
320,192,251385,128,0,251482:0:0:0:0:
448,192,251578,1,0,0:0:0:0:
192,192,251627,1,0,0:0:0:0:
320,192,251675,128,0,251772:0:0:0:0:
64,192,251772,1,0,0:0:0:0:
448,192,251772,1,0,0:0:0:0:
320,192,251965,128,0,252062:0:0:0:0:
64,192,252159,1,0,0:0:0:0:
192,192,252159,1,0,0:0:0:0:
320,192,252256,128,0,252353:0:0:0:0:
448,192,252449,1,0,0:0:0:0:
192,192,252546,1,0,0:0:0:0:
320,192,252546,128,0,252643:0:0:0:0:
320,192,252740,1,0,0:0:0:0:
64,192,252933,128,0,253030:0:0:0:0:
448,192,252933,1,0,0:0:0:0:
320,192,253127,1,0,0:0:0:0:
64,192,253224,128,0,253320:0:0:0:0:
192,192,253320,1,0,0:0:0:0:
448,192,253369,1,0,0:0:0:0:
320,192,253417,1,0,0:0:0:0:
64,192,253514,128,0,253611:0:0:0:0:
192,192,253707,1,0,0:0:0:0:
448,192,253707,1,0,0:0:0:0:
64,192,253804,128,0,253901:0:0:0:0:
192,192,253901,1,0,0:0:0:0:
448,192,253949,1,0,0:0:0:0:
320,192,253998,1,0,0:0:0:0:
64,192,254094,128,0,254191:0:0:0:0:
448,192,254094,1,0,0:0:0:0:
192,192,254288,1,0,0:0:0:0:
320,192,254385,1,0,0:0:0:0:
192,192,254482,128,0,254578:0:0:0:70:clock.wav
448,192,254482,1,0,0:0:0:0:
320,192,254578,1,0,0:0:0:0:
64,192,254675,1,0,0:0:0:0:
192,192,254772,128,0,254869:0:0:0:0:
448,192,254772,1,0,0:0:0:0:
320,192,254869,1,0,0:0:0:0:
64,192,254965,1,0,0:0:0:0:
192,192,255062,128,0,255159:0:0:0:0:
320,192,255159,1,0,0:0:0:0:
64,192,255256,1,0,0:0:0:0:
448,192,255256,1,0,0:0:0:0:
320,192,255353,1,0,0:0:0:0:
192,192,255449,128,0,255546:0:0:0:0:
448,192,255449,1,0,0:0:0:0:
64,192,255643,1,0,0:0:0:0:
192,192,255643,1,0,0:0:0:0:
320,192,255691,1,0,0:0:0:0:
192,192,255740,1,0,0:0:0:0:
448,192,255836,1,0,0:0:0:0:
64,192,255933,1,0,0:0:0:0:
320,192,256030,1,0,0:0:0:70:kick.wav
448,192,256030,1,0,0:0:0:0:
192,192,256127,1,0,0:0:0:70:kick.wav
320,192,256127,1,0,0:0:0:0:
64,192,256224,1,0,0:0:0:70:kick.wav
192,192,256224,1,0,0:0:0:0:
320,192,256320,1,0,0:0:0:70:kick.wav
448,192,256320,1,0,0:0:0:0:
64,192,256417,1,0,0:0:0:70:kick.wav
192,192,256417,1,0,0:0:0:0:
64,192,256514,1,0,0:0:0:70:kick.wav
192,192,256514,1,0,0:0:0:0:
320,192,256611,1,0,0:0:0:70:kick.wav
448,192,256611,1,0,0:0:0:0:
192,192,256659,1,0,0:0:0:0:
320,192,256707,1,0,0:0:0:70:kick.wav
448,192,256707,1,0,0:0:0:0:
64,192,256804,1,0,0:0:0:70:kick.wav
192,192,256804,1,0,0:0:0:0:
192,192,256901,1,0,0:0:0:70:kick.wav
320,192,256901,1,0,0:0:0:0:
320,192,256998,1,0,0:0:0:70:kick.wav
448,192,256998,1,0,0:0:0:0:
64,192,257094,1,0,0:0:0:70:kick.wav
192,192,257094,1,0,0:0:0:0:
320,192,257191,1,0,0:0:0:70:kick.wav
448,192,257191,1,0,0:0:0:0:
320,192,257288,1,0,0:0:0:70:kick.wav
448,192,257288,1,0,0:0:0:0:
64,192,257385,1,0,0:0:0:70:kick.wav
192,192,257385,1,0,0:0:0:0:
320,192,257433,1,0,0:0:0:0:
64,192,257482,1,0,0:0:0:70:kick.wav
192,192,257482,1,0,0:0:0:0:
320,192,257578,1,0,0:0:0:70:kick.wav
448,192,257578,1,0,0:0:0:0:
320,192,257675,1,0,0:0:0:70:kick.wav
448,192,257675,1,0,0:0:0:0:
64,192,257772,1,0,0:0:0:70:kick.wav
192,192,257772,1,0,0:0:0:0:
64,192,257869,1,0,0:0:0:70:kick.wav
192,192,257869,1,0,0:0:0:0:
320,192,257965,1,0,0:0:0:70:kick.wav
448,192,257965,1,0,0:0:0:0:
320,192,258062,1,0,0:0:0:70:kick.wav
448,192,258062,1,0,0:0:0:0:
64,192,258159,1,0,0:0:0:70:kick.wav
192,192,258159,1,0,0:0:0:0:
64,192,258256,1,0,0:0:0:70:kick.wav
192,192,258256,1,0,0:0:0:0:
320,192,258353,1,0,0:0:0:70:kick.wav
448,192,258353,1,0,0:0:0:0:
192,192,258449,1,0,0:0:0:70:kick.wav
320,192,258449,1,0,0:0:0:0:
64,192,258546,1,0,0:0:0:70:kick.wav
192,192,258546,1,0,0:0:0:0:
64,192,258643,1,0,0:0:0:70:kick.wav
320,192,258643,1,0,0:0:0:0:
192,192,258740,1,0,0:0:0:70:kick.wav
320,192,258740,1,0,0:0:0:0:
64,192,258836,1,0,0:0:0:70:kick.wav
448,192,258836,1,0,0:0:0:0:
320,192,258933,1,0,0:0:0:70:kick.wav
448,192,258933,1,0,0:0:0:0:
64,192,259030,1,0,0:0:0:70:kick.wav
192,192,259030,1,0,0:0:0:0:
64,192,259127,1,0,0:0:0:40:drum.wav
448,192,259127,1,0,0:0:0:70:kick.wav
192,192,259175,1,0,0:0:0:40:drum.wav
320,192,259224,1,0,0:0:0:40:drum.wav
448,192,259272,1,0,0:0:0:40:drum.wav
192,192,259320,1,0,0:0:0:45:drum.wav
320,192,259369,1,0,0:0:0:45:drum.wav
64,192,259417,1,0,0:0:0:45:drum.wav
192,192,259465,1,0,0:0:0:45:drum.wav
448,192,259514,1,0,0:0:0:50:drum.wav
320,192,259562,1,0,0:0:0:50:drum.wav
192,192,259611,1,0,0:0:0:50:drum.wav
64,192,259659,1,0,0:0:0:50:drum.wav
448,192,259707,1,0,0:0:0:55:drum.wav
320,192,259756,1,0,0:0:0:55:drum.wav
192,192,259804,1,0,0:0:0:55:drum.wav
64,192,259853,1,0,0:0:0:55:drum.wav
320,192,259901,1,0,0:0:0:60:drum.wav
192,192,259949,1,0,0:0:0:60:drum.wav
448,192,259998,1,0,0:0:0:60:drum.wav
320,192,260046,1,0,0:0:0:60:drum.wav
192,192,260094,1,0,0:0:0:65:drum.wav
64,192,260143,1,0,0:0:0:65:drum.wav
192,192,260191,1,0,0:0:0:65:drum.wav
448,192,260240,1,0,0:0:0:65:drum.wav
320,192,260288,1,0,0:0:0:70:drum.wav
64,192,260336,1,0,0:0:0:70:drum.wav
192,192,260385,1,0,0:0:0:70:drum.wav
320,192,260433,1,0,0:0:0:70:drum.wav
448,192,260482,1,0,0:0:0:70:drum.wav
64,192,260530,1,0,0:0:0:70:drum.wav
192,192,260578,1,0,0:0:0:70:drum.wav
320,192,260627,1,0,0:0:0:70:drum.wav
64,192,260675,1,0,0:0:0:70:drum.wav
448,192,260675,1,0,0:0:0:70:crash.wav
192,192,260772,1,0,0:0:0:0:
320,192,260869,1,0,0:0:0:0:
192,192,260965,1,0,0:0:0:0:
448,192,261062,1,0,0:0:0:0:
64,192,261159,1,0,0:0:0:0:
192,192,261256,1,0,0:0:0:0:
320,192,261353,1,0,0:0:0:0:
192,192,261449,1,0,0:0:0:0:
448,192,261546,1,0,0:0:0:0:
320,192,261643,128,0,261836:0:0:0:0:
64,192,261836,1,0,0:0:0:70:bass.wav
192,192,261836,1,0,0:0:0:0:
448,192,261836,1,0,0:0:0:0:
320,192,261885,1,0,0:0:0:0:
192,192,261933,1,0,0:0:0:0:
64,192,262030,1,0,0:0:0:0:
448,192,262030,1,0,0:0:0:0:
192,192,262127,1,0,0:0:0:0:
64,192,262224,1,0,0:0:0:70:kick.wav
320,192,262224,1,0,0:0:0:70:crash.wav
448,192,262224,1,0,0:0:0:70:boom.wav
64,192,262417,128,0,262611:0:0:0:0:
320,192,262417,1,0,0:0:0:0:
192,192,262611,1,0,0:0:0:70:kick.wav
320,192,262611,1,0,0:0:0:0:
448,192,262611,1,0,0:0:0:0:
64,192,262659,1,0,0:0:0:0:
320,192,262707,128,0,262804:0:0:0:0:
192,192,262804,1,0,0:0:0:0:
448,192,262804,128,0,262998:0:0:0:0:
64,192,262998,1,0,0:0:0:70:kick.wav
192,192,262998,128,0,263191:0:0:0:0:
320,192,262998,1,0,0:0:0:0:
448,192,263191,1,0,0:0:0:0:
320,192,263240,1,0,0:0:0:0:
448,192,263288,128,0,263385:0:0:0:0:
64,192,263385,1,0,0:0:0:70:kick.wav
192,192,263385,128,0,263578:0:0:0:0:
320,192,263385,1,0,0:0:0:0:
64,192,263578,128,0,263675:0:0:0:0:
320,192,263578,1,0,0:0:0:0:
448,192,263675,128,0,263772:0:0:0:0:
64,192,263772,1,0,0:0:0:70:kick.wav
192,192,263772,128,0,263965:0:0:0:0:
320,192,263772,1,0,0:0:0:0:
64,192,263965,1,0,0:0:0:0:
448,192,263965,1,0,0:0:0:0:
192,192,264014,1,0,0:0:0:0:
320,192,264062,128,0,264159:0:0:0:0:
64,192,264159,1,0,0:0:0:70:kick.wav
192,192,264159,1,0,0:0:0:0:
448,192,264159,128,0,264353:0:0:0:0:
64,192,264353,1,0,0:0:0:0:
192,192,264353,1,0,0:0:0:0:
320,192,264449,1,0,0:0:0:0:
64,192,264546,128,0,264740:0:0:0:70:kick.wav
192,192,264546,1,0,0:0:0:0:
448,192,264546,1,0,0:0:0:0:
320,192,264740,1,0,0:0:0:0:
448,192,264740,1,0,0:0:0:0:
192,192,264836,1,0,0:0:0:0:
64,192,264933,1,0,0:0:0:70:kick.wav
320,192,264933,128,0,265127:0:0:0:0:
448,192,264933,1,0,0:0:0:0:
192,192,265127,1,0,0:0:0:0:
448,192,265127,128,0,265320:0:0:0:0:
64,192,265320,1,0,0:0:0:70:kick.wav
192,192,265320,1,0,0:0:0:0:
320,192,265320,1,0,0:0:0:0:
192,192,265514,128,0,265707:0:0:0:0:
448,192,265514,1,0,0:0:0:0:
64,192,265707,1,0,0:0:0:70:kick.wav
320,192,265707,1,0,0:0:0:0:
448,192,265707,1,0,0:0:0:0:
192,192,265756,1,0,0:0:0:0:
448,192,265804,128,0,265901:0:0:0:0:
64,192,265901,128,0,266094:0:0:0:0:
192,192,265901,1,0,0:0:0:0:
192,192,266094,1,0,0:0:0:70:kick.wav
320,192,266094,1,0,0:0:0:0:
448,192,266094,128,0,266288:0:0:0:0:
64,192,266288,1,0,0:0:0:0:
320,192,266288,1,0,0:0:0:0:
192,192,266336,1,0,0:0:0:0:
64,192,266385,128,0,266482:0:0:0:0:
192,192,266482,128,0,266675:0:0:0:70:kick.wav
320,192,266482,1,0,0:0:0:0:
448,192,266482,1,0,0:0:0:0:
64,192,266675,1,0,0:0:0:0:
320,192,266675,128,0,266772:0:0:0:0:
192,192,266772,128,0,266869:0:0:0:0:
64,192,266869,1,0,0:0:0:70:kick.wav
320,192,266869,1,0,0:0:0:0:
448,192,266869,1,0,0:0:0:0:
192,192,266917,1,0,0:0:0:0:
320,192,266965,128,0,267062:0:0:0:0:
64,192,267062,128,0,267256:0:0:0:0:
192,192,267062,1,0,0:0:0:0:
448,192,267159,128,0,267256:0:0:0:0:
192,192,267256,1,0,0:0:0:70:kick.wav
320,192,267256,128,0,267449:0:0:0:0:
64,192,267353,128,0,267449:0:0:0:0:
192,192,267449,1,0,0:0:0:0:
448,192,267449,128,0,267643:0:0:0:0:
320,192,267546,128,0,267643:0:0:0:0:
64,192,267643,1,0,0:0:0:70:kick.wav
192,192,267643,128,0,267836:0:0:0:0:
320,192,267836,1,0,0:0:0:0:
448,192,267836,128,0,268030:0:0:0:0:
192,192,268030,1,0,0:0:0:70:kick.wav
320,192,268030,1,0,0:0:0:0:
64,192,268078,1,0,0:0:0:0:
448,192,268127,1,0,0:0:0:0:
64,192,268224,128,0,268320:0:0:0:0:
192,192,268224,1,0,0:0:0:0:
320,192,268320,128,0,268417:0:0:0:0:
64,192,268417,1,0,0:0:0:70:kick.wav
192,192,268417,1,0,0:0:0:0:
448,192,268417,128,0,268804:0:0:0:0:
192,192,268611,1,0,0:0:0:0:
320,192,268611,1,0,0:0:0:0:
64,192,268707,1,0,0:0:0:0:
64,192,268804,1,0,0:0:0:70:kick.wav
192,192,268804,1,0,0:0:0:0:
320,192,268804,1,0,0:0:0:0:
448,192,268901,1,0,0:0:0:0:
192,192,268998,1,0,0:0:0:0:
320,192,269046,1,0,0:0:0:0:
192,192,269094,1,0,0:0:0:0:
64,192,269191,128,0,269578:0:0:0:70:kick.wav
320,192,269191,1,0,0:0:0:0:
448,192,269191,1,0,0:0:0:0:
320,192,269385,1,0,0:0:0:0:
448,192,269385,1,0,0:0:0:0:
192,192,269482,1,0,0:0:0:0:
192,192,269578,1,0,0:0:0:70:kick.wav
320,192,269578,1,0,0:0:0:0:
448,192,269578,1,0,0:0:0:0:
192,192,269772,1,0,0:0:0:0:
320,192,269820,1,0,0:0:0:0:
192,192,269869,1,0,0:0:0:0:
64,192,269965,128,0,270159:0:0:0:70:kick.wav
320,192,269965,1,0,0:0:0:0:
448,192,269965,1,0,0:0:0:0:
192,192,270062,1,0,0:0:0:0:
320,192,270159,128,0,270353:0:0:0:0:
448,192,270159,1,0,0:0:0:0:
64,192,270256,1,0,0:0:0:0:
192,192,270353,128,0,270546:0:0:0:70:kick.wav
448,192,270353,1,0,0:0:0:0:
64,192,270449,1,0,0:0:0:0:
320,192,270546,1,0,0:0:0:0:
448,192,270546,128,0,270740:0:0:0:0:
192,192,270643,1,0,0:0:0:0:
64,192,270740,1,0,0:0:0:70:kick.wav
192,192,270740,1,0,0:0:0:0:
320,192,270740,1,0,0:0:0:0:
448,192,270836,1,0,0:0:0:0:
192,192,270933,128,0,271127:0:0:0:0:
320,192,270933,1,0,0:0:0:0:
64,192,271030,1,0,0:0:0:0:
320,192,271127,128,0,271320:0:0:0:70:kick.wav
448,192,271127,1,0,0:0:0:0:
64,192,271224,1,0,0:0:0:0:
192,192,271320,1,0,0:0:0:0:
448,192,271320,128,0,271514:0:0:0:0:
320,192,271417,1,0,0:0:0:0:
64,192,271514,1,0,0:0:0:70:kick.wav
192,192,271514,1,0,0:0:0:0:
320,192,271514,1,0,0:0:0:0:
192,192,271707,128,0,271804:0:0:0:0:
320,192,271707,128,0,271804:0:0:0:0:
448,192,271804,1,0,0:0:0:0:
64,192,271901,1,0,0:0:0:70:kick.wav
192,192,271901,1,0,0:0:0:0:
320,192,271901,1,0,0:0:0:0:
320,192,271998,1,0,0:0:0:0:
64,192,272094,128,0,272191:0:0:0:0:
448,192,272094,128,0,272191:0:0:0:0:
192,192,272191,1,0,0:0:0:0:
64,192,272288,1,0,0:0:0:70:kick.wav
320,192,272288,1,0,0:0:0:0:
448,192,272288,1,0,0:0:0:0:
448,192,272385,1,0,0:0:0:0:
192,192,272482,128,0,272578:0:0:0:0:
320,192,272482,128,0,272578:0:0:0:0:
64,192,272578,1,0,0:0:0:0:
192,192,272675,1,0,0:0:0:70:kick.wav
320,192,272675,1,0,0:0:0:0:
448,192,272675,1,0,0:0:0:0:
192,192,272772,1,0,0:0:0:0:
64,192,272869,128,0,272965:0:0:0:70:kick.wav
448,192,272869,128,0,272965:0:0:0:0:
192,192,272965,1,0,0:0:0:70:kick.wav
64,192,273062,1,0,0:0:0:70:snaredrum.wav
320,192,273062,1,0,0:0:0:70:kick.wav
448,192,273062,1,0,0:0:0:0:
192,192,273159,1,0,0:0:0:70:snaredrum.wav
320,192,273159,1,0,0:0:0:70:kick.wav
448,192,273256,1,0,0:0:0:0:
192,192,273353,1,0,0:0:0:70:snaredrum.wav
320,192,273353,1,0,0:0:0:70:kick.wav
64,192,273449,1,0,0:0:0:70:snaredrum.wav
192,192,273449,1,0,0:0:0:70:kick.wav
320,192,273449,1,0,0:0:0:0:
64,192,273546,1,0,0:0:0:70:snaredrum.wav
448,192,273546,1,0,0:0:0:70:kick.wav
320,192,273643,1,0,0:0:0:0:
64,192,273740,1,0,0:0:0:70:snaredrum.wav
192,192,273740,1,0,0:0:0:70:kick.wav
320,192,273788,1,0,0:0:0:70:snaredrum.wav
448,192,273788,1,0,0:0:0:0:
64,192,273836,1,0,0:0:0:70:snaredrum.wav
192,192,273836,1,0,0:0:0:70:kick.wav
448,192,273933,1,0,0:0:0:0:
64,192,274030,1,0,0:0:0:70:snaredrum.wav
192,192,274030,128,0,274127:0:0:0:70:kick.wav
320,192,274127,1,0,0:0:0:70:kick.wav
192,192,274224,1,0,0:0:0:70:snaredrum.wav
320,192,274272,1,0,0:0:0:0:
448,192,274320,1,0,0:0:0:0:
192,192,274369,1,0,0:0:0:0:
320,192,274417,1,0,0:0:0:70:kick.wav
64,192,274514,1,0,0:0:0:0:
64,192,274611,1,0,0:0:0:70:kick.wav
192,192,274611,1,0,0:0:0:0:
448,192,274611,128,0,274804:0:0:0:0:
64,192,274804,1,0,0:0:0:0:
192,192,274804,128,0,274901:0:0:0:0:
320,192,274901,128,0,274998:0:0:0:0:
64,192,274998,1,0,0:0:0:70:kick.wav
192,192,274998,128,0,275094:0:0:0:70:crash.wav
448,192,274998,1,0,0:0:0:70:boom.wav
320,192,275094,128,0,275191:0:0:0:0:
64,192,275191,1,0,0:0:0:0:
448,192,275191,128,0,275385:0:0:0:0:
64,192,275385,1,0,0:0:0:70:kick.wav
192,192,275385,128,0,275482:0:0:0:0:
320,192,275385,1,0,0:0:0:0:
320,192,275482,128,0,275578:0:0:0:0:
64,192,275578,128,0,275675:0:0:0:0:
448,192,275578,1,0,0:0:0:0:
192,192,275675,128,0,275772:0:0:0:0:
64,192,275772,128,0,275965:0:0:0:70:kick.wav
320,192,275772,1,0,0:0:0:0:
448,192,275772,1,0,0:0:0:0:
192,192,275965,128,0,276062:0:0:0:0:
320,192,275965,1,0,0:0:0:0:
448,192,276062,128,0,276159:0:0:0:0:
64,192,276159,128,0,276353:0:0:0:70:kick.wav
192,192,276159,1,0,0:0:0:0:
320,192,276159,1,0,0:0:0:0:
192,192,276353,1,0,0:0:0:0:
320,192,276401,1,0,0:0:0:0:
192,192,276449,128,0,276546:0:0:0:0:
64,192,276546,1,0,0:0:0:70:kick.wav
320,192,276546,1,0,0:0:0:0:
448,192,276546,128,0,276740:0:0:0:0:
192,192,276740,1,0,0:0:0:0:
320,192,276788,1,0,0:0:0:0:
64,192,276836,128,0,276933:0:0:0:0:
192,192,276933,1,0,0:0:0:70:kick.wav
320,192,276933,128,0,277127:0:0:0:0:
448,192,276933,1,0,0:0:0:0:
64,192,277127,128,0,277224:0:0:0:0:
192,192,277224,128,0,277320:0:0:0:70:snare.wav
320,192,277224,1,0,0:0:0:0:
64,192,277320,1,0,0:0:0:0:
448,192,277320,128,0,277514:0:0:0:0:
192,192,277514,1,0,0:0:0:70:snare.wav
320,192,277514,128,0,277611:0:0:0:0:
64,192,277611,128,0,277707:0:0:0:70:kick.wav
192,192,277707,128,0,277901:0:0:0:70:kick.wav
320,192,277707,1,0,0:0:0:0:
448,192,277707,1,0,0:0:0:0:
64,192,277901,1,0,0:0:0:0:
448,192,277901,128,0,277998:0:0:0:0:
320,192,277998,1,0,0:0:0:0:
64,192,278094,128,0,278191:0:0:0:70:kick.wav
192,192,278094,1,0,0:0:0:70:crash.wav
320,192,278094,1,0,0:0:0:70:boom.wav
448,192,278094,1,0,0:0:0:0:
192,192,278191,128,0,278288:0:0:0:0:
64,192,278288,1,0,0:0:0:0:
448,192,278288,128,0,278482:0:0:0:0:
64,192,278482,1,0,0:0:0:70:kick.wav
192,192,278482,128,0,278578:0:0:0:0:
320,192,278482,1,0,0:0:0:0:
320,192,278578,128,0,278675:0:0:0:0:
64,192,278675,128,0,278772:0:0:0:0:
448,192,278675,1,0,0:0:0:0:
192,192,278772,128,0,278869:0:0:0:0:
64,192,278869,128,0,279062:0:0:0:70:kick.wav
320,192,278869,1,0,0:0:0:0:
448,192,278869,1,0,0:0:0:0:
192,192,279062,128,0,279159:0:0:0:0:
448,192,279062,1,0,0:0:0:0:
320,192,279159,128,0,279256:0:0:0:70:kick.wav
64,192,279256,1,0,0:0:0:70:kick.wav
192,192,279256,1,0,0:0:0:70:crash.wav
448,192,279256,128,0,279449:0:0:0:0:
64,192,279449,1,0,0:0:0:70:kick.wav
320,192,279449,1,0,0:0:0:0:
192,192,279498,1,0,0:0:0:0:
64,192,279546,1,0,0:0:0:70:kick.wav
320,192,279546,128,0,279643:0:0:0:0:
448,192,279643,128,0,279740:0:0:0:0:
192,192,279740,1,0,0:0:0:70:kick.wav
320,192,279740,1,0,0:0:0:0:
64,192,279836,128,0,279933:0:0:0:70:kick.wav
192,192,279836,1,0,0:0:0:0:
448,192,279836,1,0,0:0:0:0:
320,192,279885,1,0,0:0:0:0:
448,192,279933,1,0,0:0:0:0:
320,192,280030,128,0,280127:0:0:0:0:
64,192,280127,1,0,0:0:0:70:kick.wav
448,192,280127,1,0,0:0:0:0:
64,192,280224,1,0,0:0:0:70:kick.wav
192,192,280224,128,0,280320:0:0:0:0:
320,192,280272,1,0,0:0:0:0:
448,192,280320,128,0,280417:0:0:0:0:
192,192,280417,128,0,280514:0:0:0:70:kick.wav
320,192,280417,1,0,0:0:0:0:
64,192,280465,128,0,280562:0:0:0:0:
448,192,280514,128,0,280611:0:0:0:0:
320,192,280562,128,0,280659:0:0:0:0:
192,192,280611,128,0,280707:0:0:0:0:
64,192,280659,128,0,280756:0:0:0:0:
448,192,280707,128,0,280804:0:0:0:0:
64,192,280804,1,0,0:0:0:70:kick.wav
192,192,280804,1,0,0:0:0:70:crash.wav
320,192,280804,128,0,281191:0:0:0:0:
448,192,280901,1,0,0:0:0:0:
64,192,280998,1,0,0:0:0:0:
192,192,281094,1,0,0:0:0:0:
64,192,281191,1,0,0:0:0:70:kick.wav
448,192,281191,1,0,0:0:0:0:
320,192,281288,1,0,0:0:0:0:
192,192,281385,128,0,281482:0:0:0:0:
448,192,281385,1,0,0:0:0:0:
64,192,281482,128,0,281578:0:0:0:0:
192,192,281578,1,0,0:0:0:70:kick.wav
320,192,281578,128,0,281772:0:0:0:0:
448,192,281578,1,0,0:0:0:0:
64,192,281675,1,0,0:0:0:0:
192,192,281772,1,0,0:0:0:0:
64,192,281869,1,0,0:0:0:70:kick.wav
320,192,281869,1,0,0:0:0:0:
448,192,281869,1,0,0:0:0:0:
192,192,281965,1,0,0:0:0:0:
64,192,282062,1,0,0:0:0:70:kick.wav
448,192,282062,1,0,0:0:0:0:
192,192,282159,1,0,0:0:0:70:kick.wav
320,192,282159,128,0,282256:0:0:0:0:
64,192,282256,1,0,0:0:0:70:kick.wav
448,192,282256,128,0,282353:0:0:0:0:
192,192,282353,128,0,282449:0:0:0:0:
320,192,282449,1,0,0:0:0:70:kick.wav
448,192,282449,1,0,0:0:0:0:
64,192,282498,1,0,0:0:0:70:kick.wav
192,192,282498,1,0,0:0:0:0:
320,192,282546,1,0,0:0:0:70:kick.wav
448,192,282546,1,0,0:0:0:0:
64,192,282643,1,0,0:0:0:70:kick.wav
192,192,282643,128,0,282740:0:0:0:0:
320,192,282740,1,0,0:0:0:70:kick.wav
448,192,282740,1,0,0:0:0:0:
192,192,282836,1,0,0:0:0:0:
64,192,282933,1,0,0:0:0:0:
320,192,282933,128,0,283030:0:0:0:0:
192,192,283030,1,0,0:0:0:0:
64,192,283127,1,0,0:0:0:70:kick.wav
320,192,283127,1,0,0:0:0:0:
448,192,283127,128,0,283224:0:0:0:0:
192,192,283224,1,0,0:0:0:0:
448,192,283320,1,0,0:0:0:0:
64,192,283417,128,0,283514:0:0:0:70:kick.wav
192,192,283417,1,0,0:0:0:0:
320,192,283417,1,0,0:0:0:0:
448,192,283514,1,0,0:0:0:0:
192,192,283611,1,0,0:0:0:0:
64,192,283707,1,0,0:0:0:70:kick.wav
320,192,283707,1,0,0:0:0:0:
448,192,283707,128,0,283804:0:0:0:0:
192,192,283804,1,0,0:0:0:0:
64,192,283901,1,0,0:0:0:70:kick.wav
320,192,283901,128,0,284094:0:0:0:70:crash.wav
448,192,283901,1,0,0:0:0:0:
64,192,284094,128,0,284191:0:0:0:0:
448,192,284094,128,0,284191:0:0:0:0:
192,192,284191,1,0,0:0:0:70:kick.wav
320,192,284191,1,0,0:0:0:0:
192,192,284288,1,0,0:0:0:0:
320,192,284288,1,0,0:0:0:0:
448,192,284385,1,0,0:0:0:0:
192,192,284482,128,0,284578:0:0:0:70:kick.wav
320,192,284482,128,0,284578:0:0:0:0:
64,192,284578,1,0,0:0:0:0:
448,192,284578,1,0,0:0:0:0:
64,192,284675,1,0,0:0:0:70:kick.wav
448,192,284675,1,0,0:0:0:0:
192,192,284772,1,0,0:0:0:0:
64,192,284869,128,0,284965:0:0:0:0:
448,192,284869,128,0,284965:0:0:0:0:
192,192,284965,1,0,0:0:0:70:kick.wav
320,192,284965,1,0,0:0:0:0:
192,192,285062,1,0,0:0:0:0:
320,192,285062,1,0,0:0:0:0:
64,192,285159,1,0,0:0:0:0:
192,192,285256,128,0,285353:0:0:0:70:kick.wav
320,192,285256,128,0,285353:0:0:0:0:
64,192,285353,1,0,0:0:0:70:kick.wav
448,192,285353,1,0,0:0:0:0:
64,192,285449,1,0,0:0:0:70:kick.wav
320,192,285449,1,0,0:0:0:70:crash.wav
448,192,285449,1,0,0:0:0:0:
448,192,285836,1,0,0:0:0:0:
320,192,285901,1,0,0:0:0:0:
192,192,285965,1,0,0:0:0:0:
448,192,286030,1,0,0:0:0:0:
320,192,286094,1,0,0:0:0:0:
192,192,286159,1,0,0:0:0:0:
64,192,286224,1,0,0:0:0:0:
448,192,286224,1,0,0:0:0:0:
64,192,286320,1,0,0:0:0:0:
320,192,286417,1,0,0:0:0:0:
448,192,286417,1,0,0:0:0:0:
192,192,286514,1,0,0:0:0:0:
64,192,286611,1,0,0:0:0:70:snare.wav
320,192,286611,1,0,0:0:0:0:
448,192,286611,1,0,0:0:0:0:
64,192,286998,128,0,287385:0:0:0:70:kick.wav
192,192,286998,1,0,0:0:0:70:crash.wav
448,192,286998,1,0,0:0:0:70:boom.wav
448,192,287191,1,0,0:0:0:0:
320,192,287288,1,0,0:0:0:70:snare.wav
192,192,287385,1,0,0:0:0:70:kick.wav
448,192,287385,128,0,287772:0:0:0:0:
64,192,287482,1,0,0:0:0:0:
320,192,287578,1,0,0:0:0:0:
64,192,287675,1,0,0:0:0:0:
192,192,287772,1,0,0:0:0:70:kick.wav
320,192,287772,1,0,0:0:0:0:
64,192,287820,1,0,0:0:0:0:
448,192,287869,1,0,0:0:0:0:
192,192,287965,1,0,0:0:0:0:
64,192,288062,1,0,0:0:0:70:snare.wav
448,192,288062,1,0,0:0:0:0:
320,192,288062,1,0,0:0:0:0:
192,192,288159,1,0,0:0:0:70:kick.wav
320,192,288159,128,0,288546:0:0:0:0:
64,192,288256,1,0,0:0:0:0:
448,192,288353,1,0,0:0:0:0:
192,192,288449,1,0,0:0:0:0:
64,192,288546,1,0,0:0:0:70:kick.wav
448,192,288546,1,0,0:0:0:0:
192,192,288611,1,0,0:0:0:0:
320,192,288675,1,0,0:0:0:0:
64,192,288740,1,0,0:0:0:0:
448,192,288740,1,0,0:0:0:0:
320,192,288869,1,0,0:0:0:0:
64,192,288933,1,0,0:0:0:70:kick.wav
192,192,288933,1,0,0:0:0:70:snare.wav
320,192,288998,1,0,0:0:0:0:
448,192,289062,1,0,0:0:0:0:
192,192,289127,1,0,0:0:0:0:
320,192,289191,1,0,0:0:0:0:
64,192,289256,1,0,0:0:0:0:
192,192,289320,128,0,289514:0:0:0:70:kick.wav
448,192,289320,1,0,0:0:0:0:
320,192,289417,1,0,0:0:0:0:
64,192,289514,1,0,0:0:0:0:
448,192,289611,1,0,0:0:0:0:
64,192,289611,1,0,0:0:0:70:snare.wav
192,192,289611,1,0,0:0:0:0:
320,192,289707,128,0,289901:0:0:0:70:kick.wav
448,192,289707,1,0,0:0:0:0:
64,192,289804,1,0,0:0:0:0:
192,192,289901,1,0,0:0:0:0:
448,192,289901,1,0,0:0:0:0:
320,192,289998,1,0,0:0:0:0:
64,192,290094,1,0,0:0:0:70:kick.wav
448,192,290094,1,0,0:0:0:0:
320,192,290159,1,0,0:0:0:0:
64,192,290224,1,0,0:0:0:0:
192,192,290288,1,0,0:0:0:0:
320,192,290353,1,0,0:0:0:0:
448,192,290417,1,0,0:0:0:0:
64,192,290482,1,0,0:0:0:70:kick.wav
320,192,290482,1,0,0:0:0:70:snare.wav
192,192,290546,1,0,0:0:0:0:
448,192,290611,1,0,0:0:0:0:
320,192,290675,1,0,0:0:0:0:
64,192,290740,1,0,0:0:0:0:
448,192,290804,1,0,0:0:0:0:
192,192,290869,128,0,291062:0:0:0:70:kick.wav
320,192,290869,1,0,0:0:0:0:
64,192,290965,128,0,291159:0:0:0:0:
320,192,291159,128,0,291256:0:0:0:70:snare.wav
448,192,291159,128,0,291256:0:0:0:0:
192,192,291159,1,0,0:0:0:0:
64,192,291256,1,0,0:0:0:70:kick.wav
192,192,291256,1,0,0:0:0:0:
64,192,291449,1,0,0:0:0:0:
448,192,291449,128,0,291643:0:0:0:0:
192,192,291546,1,0,0:0:0:70:snare.wav
64,192,291643,1,0,0:0:0:70:kick.wav
320,192,291643,1,0,0:0:0:0:
192,192,291740,1,0,0:0:0:0:
320,192,291836,1,0,0:0:0:0:
448,192,291933,1,0,0:0:0:0:
64,192,292030,1,0,0:0:0:70:kick.wav
192,192,292030,1,0,0:0:0:70:snare.wav
448,192,292127,1,0,0:0:0:0:
192,192,292224,1,0,0:0:0:0:
320,192,292224,1,0,0:0:0:0:
448,192,292320,1,0,0:0:0:0:
64,192,292417,1,0,0:0:0:70:kick.wav
192,192,292417,1,0,0:0:0:0:
320,192,292514,1,0,0:0:0:70:snare.wav
448,192,292514,1,0,0:0:0:0:
64,192,292514,1,0,0:0:0:0:
448,192,292611,1,0,0:0:0:70:kick.wav
192,192,292611,1,0,0:0:0:0:
64,192,292804,1,0,0:0:0:70:snare.wav
320,192,292804,1,0,0:0:0:0:
448,192,292804,1,0,0:0:0:0:
64,192,292998,1,0,0:0:0:70:kick.wav
192,192,292998,1,0,0:0:0:0:
320,192,293094,1,0,0:0:0:70:kick.wav
448,192,293094,1,0,0:0:0:0:
64,192,293191,1,0,0:0:0:70:kick.wav
192,192,293191,128,0,293385:0:0:0:70:Growl.wav
320,192,293240,128,0,293336:0:0:0:0:
448,192,293288,128,0,293336:0:0:0:0:
320,192,293385,1,0,0:0:0:0:
192,192,293433,1,0,0:0:0:0:
64,192,293482,1,0,0:0:0:0:
192,192,293530,1,0,0:0:0:0:
64,192,293578,1,0,0:0:0:70:kick.wav
320,192,293578,1,0,0:0:0:70:crash.wav
448,192,293578,128,0,293772:0:0:0:70:boom.wav
192,192,293772,1,0,0:0:0:0:
320,192,293836,1,0,0:0:0:0:
192,192,293901,1,0,0:0:0:0:
64,192,293965,128,0,294159:0:0:0:70:kick.wav
448,192,293965,1,0,0:0:0:0:
320,192,294159,1,0,0:0:0:0:
192,192,294224,1,0,0:0:0:0:
320,192,294288,1,0,0:0:0:0:
64,192,294353,128,0,294546:0:0:0:70:kick.wav
448,192,294353,1,0,0:0:0:0:
448,192,294546,1,0,0:0:0:0:
320,192,294611,1,0,0:0:0:0:
192,192,294675,1,0,0:0:0:0:
64,192,294740,1,0,0:0:0:70:kick.wav
448,192,294740,128,0,295030:0:0:0:0:
320,192,294740,1,0,0:0:0:0:
320,192,294933,1,0,0:0:0:0:
192,192,295030,1,0,0:0:0:0:
64,192,295127,128,0,295320:0:0:0:70:kick.wav
320,192,295127,1,0,0:0:0:70:snare.wav
448,192,295127,1,0,0:0:0:0:
192,192,295224,128,0,295320:0:0:0:0:
448,192,295320,128,0,295514:0:0:0:0:
320,192,295417,128,0,295514:0:0:0:0:
64,192,295514,1,0,0:0:0:70:kick.wav
192,192,295514,1,0,0:0:0:0:
192,192,295707,1,0,0:0:0:0:
320,192,295804,1,0,0:0:0:70:snare.wav
448,192,295804,1,0,0:0:0:0:
192,192,295804,1,0,0:0:0:0:
64,192,295901,1,0,0:0:0:70:kick.wav
448,192,295901,128,0,296094:0:0:0:0:
320,192,295998,128,0,296094:0:0:0:0:
64,192,296094,128,0,296288:0:0:0:0:
192,192,296191,128,0,296288:0:0:0:0:
320,192,296288,1,0,0:0:0:70:kick.wav
448,192,296288,1,0,0:0:0:0:
192,192,296336,1,0,0:0:0:0:
64,192,296385,1,0,0:0:0:0:
320,192,296482,1,0,0:0:0:0:
448,192,296482,1,0,0:0:0:0:
192,192,296578,1,0,0:0:0:0:
64,192,296675,1,0,0:0:0:70:kick.wav
448,192,296675,1,0,0:0:0:70:snare.wav
320,192,296724,1,0,0:0:0:0:
192,192,296772,1,0,0:0:0:0:
320,192,296869,1,0,0:0:0:0:
448,192,296869,1,0,0:0:0:0:
192,192,296965,1,0,0:0:0:0:
64,192,297062,1,0,0:0:0:70:kick.wav
448,192,297062,1,0,0:0:0:0:
192,192,297111,1,0,0:0:0:0:
320,192,297159,1,0,0:0:0:0:
64,192,297256,1,0,0:0:0:0:
192,192,297256,1,0,0:0:0:0:
320,192,297353,1,0,0:0:0:70:snare.wav
448,192,297353,1,0,0:0:0:0:
64,192,297353,1,0,0:0:0:0:
192,192,297449,1,0,0:0:0:70:kick.wav
448,192,297449,1,0,0:0:0:0:
320,192,297498,1,0,0:0:0:0:
192,192,297546,1,0,0:0:0:0:
64,192,297643,1,0,0:0:0:0:
320,192,297643,1,0,0:0:0:0:
192,192,297740,1,0,0:0:0:0:
64,192,297836,1,0,0:0:0:70:kick.wav
448,192,297836,1,0,0:0:0:0:
192,192,297901,1,0,0:0:0:0:
320,192,297965,1,0,0:0:0:0:
192,192,298030,1,0,0:0:0:0:
320,192,298094,1,0,0:0:0:0:
448,192,298159,1,0,0:0:0:0:
64,192,298224,1,0,0:0:0:70:kick.wav
192,192,298224,1,0,0:0:0:0:
320,192,298320,1,0,0:0:0:70:kick.wav
64,192,298417,1,0,0:0:0:70:kick.wav
192,192,298417,1,0,0:0:0:0:
448,192,298417,1,0,0:0:0:0:
320,192,298465,1,0,0:0:0:0:
192,192,298514,1,0,0:0:0:70:kick.wav
64,192,298562,1,0,0:0:0:0:
320,192,298611,1,0,0:0:0:70:kick.wav
448,192,298611,1,0,0:0:0:0:
64,192,298707,1,0,0:0:0:0:
320,192,298804,1,0,0:0:0:70:kick.wav
448,192,298804,1,0,0:0:0:0:
192,192,298869,1,0,0:0:0:0:
64,192,298933,1,0,0:0:0:0:
192,192,298998,1,0,0:0:0:70:kick.wav
448,192,298998,1,0,0:0:0:0:
320,192,299062,1,0,0:0:0:0:
64,192,299127,1,0,0:0:0:0:
192,192,299191,1,0,0:0:0:70:kick.wav
320,192,299191,1,0,0:0:0:0:
448,192,299256,1,0,0:0:0:0:
320,192,299320,1,0,0:0:0:0:
64,192,299385,1,0,0:0:0:70:kick.wav
192,192,299385,1,0,0:0:0:70:boom.wav
448,192,299385,1,0,0:0:0:0:
64,192,299482,1,0,0:0:0:0:
192,192,299482,1,0,0:0:0:0:
64,192,299675,1,0,0:0:0:70:kick.wav
448,192,299675,1,0,0:0:0:0:
192,192,299772,1,0,0:0:0:70:kick.wav
320,192,299772,1,0,0:0:0:0:
448,192,299772,1,0,0:0:0:0:
320,192,299965,1,0,0:0:0:0:
448,192,299965,1,0,0:0:0:0:
64,192,300062,1,0,0:0:0:70:kick.wav
192,192,300062,1,0,0:0:0:0:
64,192,300159,1,0,0:0:0:70:kick.wav
320,192,300159,1,0,0:0:0:0:
448,192,300159,1,0,0:0:0:0:
320,192,300256,1,0,0:0:0:0:
448,192,300256,1,0,0:0:0:0:
320,192,300449,1,0,0:0:0:70:kick.wav
64,192,300449,1,0,0:0:0:0:
448,192,300546,1,0,0:0:0:70:kick.wav
192,192,300546,1,0,0:0:0:0:
64,192,300546,1,0,0:0:0:0:
320,192,300643,1,0,0:0:0:0:
192,192,300643,1,0,0:0:0:0:
192,192,300836,1,0,0:0:0:70:kick.wav
448,192,300836,1,0,0:0:0:0:
64,192,300933,1,0,0:0:0:70:kick.wav
320,192,300933,1,0,0:0:0:0:
448,192,300933,1,0,0:0:0:0:
64,192,301030,1,0,0:0:0:0:
192,192,301030,1,0,0:0:0:0:
64,192,301224,1,0,0:0:0:70:kick.wav
448,192,301224,1,0,0:0:0:0:
192,192,301320,1,0,0:0:0:70:kick.wav
320,192,301320,1,0,0:0:0:0:
448,192,301320,1,0,0:0:0:0:
448,192,301514,1,0,0:0:0:0:
192,192,301514,1,0,0:0:0:0:
64,192,301611,1,0,0:0:0:70:kick.wav
320,192,301611,1,0,0:0:0:0:
64,192,301707,1,0,0:0:0:70:kick.wav
192,192,301707,1,0,0:0:0:0:
448,192,301707,1,0,0:0:0:0:
320,192,301804,1,0,0:0:0:0:
448,192,301804,1,0,0:0:0:0:
320,192,301998,1,0,0:0:0:70:kick.wav
448,192,301998,1,0,0:0:0:0:
64,192,302094,1,0,0:0:0:70:kick.wav
192,192,302094,1,0,0:0:0:0:
448,192,302094,1,0,0:0:0:0:
192,192,302191,1,0,0:0:0:0:
320,192,302191,1,0,0:0:0:0:
64,192,302385,1,0,0:0:0:70:kick.wav
192,192,302385,1,0,0:0:0:0:
64,192,302482,1,0,0:0:0:70:kick.wav
320,192,302482,1,0,0:0:0:0:
448,192,302482,1,0,0:0:0:0:
192,192,302578,1,0,0:0:0:0:
448,192,302578,1,0,0:0:0:0:
320,192,302675,1,0,0:0:0:0:
192,192,302772,1,0,0:0:0:70:kick.wav
448,192,302772,1,0,0:0:0:0:
64,192,302869,1,0,0:0:0:70:kick.wav
192,192,302869,1,0,0:0:0:0:
320,192,302869,1,0,0:0:0:0:
320,192,303062,1,0,0:0:0:0:
448,192,303062,1,0,0:0:0:0:
64,192,303159,1,0,0:0:0:70:kick.wav
192,192,303159,1,0,0:0:0:0:
64,192,303256,1,0,0:0:0:70:kick.wav
320,192,303256,1,0,0:0:0:0:
448,192,303256,1,0,0:0:0:0:
192,192,303353,1,0,0:0:0:0:
448,192,303353,1,0,0:0:0:0:
320,192,303449,1,0,0:0:0:0:
64,192,303546,1,0,0:0:0:70:kick.wav
192,192,303546,1,0,0:0:0:0:
64,192,303643,1,0,0:0:0:70:kick.wav
192,192,303643,1,0,0:0:0:0:
448,192,303643,1,0,0:0:0:0:
320,192,303740,1,0,0:0:0:0:
64,192,303836,1,0,0:0:0:0:
192,192,303836,1,0,0:0:0:0:
320,192,303933,1,0,0:0:0:70:kick.wav
448,192,303933,1,0,0:0:0:0:
64,192,304030,1,0,0:0:0:70:kick.wav
192,192,304030,1,0,0:0:0:0:
448,192,304030,1,0,0:0:0:0:
192,192,304127,1,0,0:0:0:0:
320,192,304127,1,0,0:0:0:0:
64,192,304224,1,0,0:0:0:0:
192,192,304320,1,0,0:0:0:70:kick.wav
448,192,304320,1,0,0:0:0:0:
64,192,304417,1,0,0:0:0:70:kick.wav
320,192,304417,1,0,0:0:0:0:
448,192,304417,1,0,0:0:0:0:
192,192,304611,1,0,0:0:0:0:
64,192,304611,1,0,0:0:0:0:
320,192,304707,1,0,0:0:0:70:kick.wav
448,192,304707,1,0,0:0:0:0:
64,192,304804,1,0,0:0:0:70:kick.wav
192,192,304804,1,0,0:0:0:0:
320,192,304804,1,0,0:0:0:0:
64,192,304901,1,0,0:0:0:0:
320,192,304998,1,0,0:0:0:0:
448,192,304998,1,0,0:0:0:70:kick.wav
320,192,305094,1,0,0:0:0:0:
64,192,305191,1,0,0:0:0:70:kick.wav
448,192,305191,1,0,0:0:0:0:
320,192,305240,1,0,0:0:0:0:
192,192,305288,1,0,0:0:0:0:
192,192,305385,128,0,305482:0:0:0:0:
320,192,305385,128,0,305482:0:0:0:0:
448,192,305433,1,0,0:0:0:0:
64,192,305578,1,0,0:0:0:70:kick.wav
192,192,305578,1,0,0:0:0:70:crash.wav
320,192,305578,1,0,0:0:0:0:
320,192,305675,1,0,0:0:0:0:
448,192,305675,1,0,0:0:0:0:
64,192,305869,1,0,0:0:0:70:kick.wav
320,192,305869,1,0,0:0:0:0:
192,192,305965,1,0,0:0:0:70:kick.wav
320,192,305965,1,0,0:0:0:0:
448,192,305965,1,0,0:0:0:0:
320,192,306159,1,0,0:0:0:0:
448,192,306159,1,0,0:0:0:0:
64,192,306256,1,0,0:0:0:70:kick.wav
192,192,306256,1,0,0:0:0:0:
64,192,306353,1,0,0:0:0:70:kick.wav
192,192,306353,1,0,0:0:0:0:
448,192,306353,1,0,0:0:0:0:
320,192,306449,1,0,0:0:0:0:
448,192,306449,1,0,0:0:0:0:
64,192,306643,1,0,0:0:0:70:kick.wav
448,192,306643,1,0,0:0:0:0:
64,192,306740,1,0,0:0:0:70:kick.wav
192,192,306740,1,0,0:0:0:0:
320,192,306740,1,0,0:0:0:0:
192,192,306836,1,0,0:0:0:0:
448,192,306836,1,0,0:0:0:0:
320,192,307030,1,0,0:0:0:70:kick.wav
448,192,307030,1,0,0:0:0:0:
192,192,307127,1,0,0:0:0:70:kick.wav
320,192,307127,1,0,0:0:0:0:
448,192,307127,1,0,0:0:0:0:
64,192,307224,1,0,0:0:0:0:
192,192,307224,1,0,0:0:0:0:
320,192,307417,1,0,0:0:0:70:kick.wav
448,192,307417,1,0,0:0:0:0:
64,192,307514,1,0,0:0:0:70:kick.wav
192,192,307514,1,0,0:0:0:0:
448,192,307514,1,0,0:0:0:0:
320,192,307707,1,0,0:0:0:0:
64,192,307707,1,0,0:0:0:0:
320,192,307804,1,0,0:0:0:70:kick.wav
448,192,307804,1,0,0:0:0:0:
64,192,307901,1,0,0:0:0:70:kick.wav
192,192,307901,1,0,0:0:0:0:
448,192,307901,1,0,0:0:0:0:
192,192,307998,1,0,0:0:0:0:
320,192,307998,1,0,0:0:0:0:
320,192,308191,1,0,0:0:0:70:kick.wav
448,192,308191,1,0,0:0:0:0:
192,192,308288,1,0,0:0:0:70:kick.wav
320,192,308288,1,0,0:0:0:0:
448,192,308288,1,0,0:0:0:0:
64,192,308385,1,0,0:0:0:0:
192,192,308385,1,0,0:0:0:0:
64,192,308578,1,0,0:0:0:70:kick.wav
448,192,308578,1,0,0:0:0:0:
64,192,308675,1,0,0:0:0:70:kick.wav
192,192,308675,1,0,0:0:0:70:crash.wav
320,192,308675,1,0,0:0:0:0:
448,192,308772,1,0,0:0:0:0:
320,192,308869,1,0,0:0:0:0:
192,192,308965,1,0,0:0:0:70:kick.wav
320,192,308965,1,0,0:0:0:0:
448,192,308965,1,0,0:0:0:0:
64,192,309062,1,0,0:0:0:0:
192,192,309159,1,0,0:0:0:0:
64,192,309256,1,0,0:0:0:70:kick.wav
192,192,309256,1,0,0:0:0:0:
320,192,309256,1,0,0:0:0:0:
448,192,309353,1,0,0:0:0:0:
192,192,309449,1,0,0:0:0:70:kick.wav
320,192,309449,1,0,0:0:0:70:crash.wav
448,192,309449,1,0,0:0:0:0:
64,192,309546,1,0,0:0:0:0:
320,192,309643,1,0,0:0:0:0:
64,192,309740,1,0,0:0:0:70:kick.wav
192,192,309740,1,0,0:0:0:0:
448,192,309740,1,0,0:0:0:0:
64,192,309836,1,0,0:0:0:0:
320,192,309933,1,0,0:0:0:70:kick.wav
64,192,310030,1,0,0:0:0:70:kick.wav
320,192,310030,1,0,0:0:0:0:
448,192,310030,1,0,0:0:0:0:
192,192,310078,1,0,0:0:0:70:kick.wav
448,192,310127,1,0,0:0:0:70:kick.wav
320,192,310175,1,0,0:0:0:0:
64,192,310224,1,0,0:0:0:70:kick.wav
192,192,310224,1,0,0:0:0:70:crash.wav
448,192,310320,1,0,0:0:0:0:
320,192,310417,1,0,0:0:0:0:
192,192,310514,1,0,0:0:0:70:kick.wav
320,192,310514,1,0,0:0:0:0:
448,192,310514,1,0,0:0:0:0:
192,192,310611,1,0,0:0:0:0:
448,192,310707,1,0,0:0:0:0:
64,192,310804,1,0,0:0:0:70:kick.wav
192,192,310804,1,0,0:0:0:0:
320,192,310804,1,0,0:0:0:0:
192,192,310901,1,0,0:0:0:0:
64,192,310998,1,0,0:0:0:70:kick.wav
320,192,310998,1,0,0:0:0:70:crash.wav
448,192,310998,1,0,0:0:0:0:
64,192,311094,1,0,0:0:0:0:
192,192,311191,1,0,0:0:0:70:kick.wav
320,192,311191,1,0,0:0:0:0:
448,192,311191,1,0,0:0:0:0:
320,192,311288,1,0,0:0:0:0:
64,192,311385,1,0,0:0:0:70:Growl.wav
192,192,311385,1,0,0:0:0:0:
448,192,311385,128,0,311675:0:0:0:0:
320,192,311433,128,0,311530:0:0:0:0:
192,192,311482,128,0,311578:0:0:0:0:
64,192,311530,128,0,311627:0:0:0:0:
320,192,311578,1,0,0:0:0:0:
192,192,311675,128,0,311772:0:0:0:0:
64,192,311772,1,0,0:0:0:70:kick.wav
320,192,311772,1,0,0:0:0:70:crash.wav
448,192,311772,1,0,0:0:0:70:boom.wav
192,192,311869,1,0,0:0:0:0:
320,192,311869,1,0,0:0:0:0:
64,192,312062,1,0,0:0:0:70:kick.wav
192,192,312062,1,0,0:0:0:0:
64,192,312159,1,0,0:0:0:70:kick.wav
192,192,312159,1,0,0:0:0:0:
448,192,312159,1,0,0:0:0:0:
192,192,312353,1,0,0:0:0:0:
320,192,312353,1,0,0:0:0:0:
64,192,312449,1,0,0:0:0:70:kick.wav
448,192,312449,1,0,0:0:0:0:
192,192,312546,1,0,0:0:0:70:kick.wav
320,192,312546,1,0,0:0:0:0:
448,192,312546,1,0,0:0:0:0:
64,192,312643,1,0,0:0:0:0:
192,192,312643,1,0,0:0:0:0:
64,192,312836,1,0,0:0:0:70:kick.wav
192,192,312836,1,0,0:0:0:0:
448,192,312933,1,0,0:0:0:70:kick.wav
192,192,312933,1,0,0:0:0:0:
320,192,312933,1,0,0:0:0:0:
64,192,313030,1,0,0:0:0:0:
192,192,313127,1,0,0:0:0:0:
320,192,313127,1,0,0:0:0:0:
192,192,313224,1,0,0:0:0:0:
320,192,313320,1,0,0:0:0:40:drum.wav
448,192,313320,1,0,0:0:0:0:
192,192,313369,1,0,0:0:0:40:drum.wav
64,192,313417,1,0,0:0:0:40:drum.wav
448,192,313465,1,0,0:0:0:40:drum.wav
320,192,313514,1,0,0:0:0:45:drum.wav
192,192,313562,1,0,0:0:0:45:drum.wav
64,192,313611,1,0,0:0:0:45:drum.wav
448,192,313659,1,0,0:0:0:45:drum.wav
192,192,313707,1,0,0:0:0:50:drum.wav
320,192,313707,1,0,0:0:0:70:kick.wav
64,192,313836,1,0,0:0:0:70:kick.wav
192,192,313836,1,0,0:0:0:0:
320,192,313965,1,0,0:0:0:70:kick.wav
448,192,313965,1,0,0:0:0:0:
64,192,314094,1,0,0:0:0:70:kick.wav
192,192,314094,1,0,0:0:0:0:
448,192,314094,1,0,0:0:0:0:
320,192,314288,1,0,0:0:0:70:drum.wav
192,192,314336,1,0,0:0:0:70:drum.wav
320,192,314385,1,0,0:0:0:70:drum.wav
192,192,314433,1,0,0:0:0:70:drum.wav
64,192,314482,1,0,0:0:0:70:kick.wav
448,192,314482,1,0,0:0:0:0:
320,192,314578,1,0,0:0:0:70:kick.wav
448,192,314578,1,0,0:0:0:0:
64,192,314772,1,0,0:0:0:70:kick.wav
192,192,314772,1,0,0:0:0:0:
192,192,314869,1,0,0:0:0:70:kick.wav
320,192,314869,1,0,0:0:0:0:
448,192,314869,1,0,0:0:0:0:
64,192,314965,1,0,0:0:0:0:
192,192,315062,1,0,0:0:0:70:kick.wav
320,192,315062,1,0,0:0:0:0:
448,192,315159,1,0,0:0:0:0:
64,192,315256,1,0,0:0:0:70:kick.wav
192,192,315256,1,0,0:0:0:0:
320,192,315256,1,0,0:0:0:0:
448,192,315353,1,0,0:0:0:0:
64,192,315449,1,0,0:0:0:0:
192,192,315546,1,0,0:0:0:70:kick.wav
448,192,315546,1,0,0:0:0:0:
64,192,315643,1,0,0:0:0:70:kick.wav
320,192,315643,1,0,0:0:0:0:
448,192,315643,1,0,0:0:0:0:
64,192,315740,1,0,0:0:0:0:
192,192,315740,1,0,0:0:0:0:
320,192,315836,1,0,0:0:0:0:
320,192,315933,1,0,0:0:0:70:kick.wav
448,192,315933,1,0,0:0:0:0:
64,192,316030,1,0,0:0:0:70:kick.wav
192,192,316030,1,0,0:0:0:0:
448,192,316030,1,0,0:0:0:0:
320,192,316127,1,0,0:0:0:0:
64,192,316224,1,0,0:0:0:0:
448,192,316224,1,0,0:0:0:0:
320,192,316320,1,0,0:0:0:70:kick.wav
64,192,316417,1,0,0:0:0:70:kick.wav
192,192,316417,1,0,0:0:0:70:crash.wav
448,192,316417,1,0,0:0:0:0:
448,192,316514,1,0,0:0:0:0:
192,192,316611,1,0,0:0:0:0:
320,192,316611,1,0,0:0:0:0:
64,192,316707,1,0,0:0:0:0:
192,192,316707,1,0,0:0:0:0:
64,192,316804,1,0,0:0:0:70:kick.wav
320,192,316804,1,0,0:0:0:70:crash.wav
448,192,316804,1,0,0:0:0:0:
448,192,316901,1,0,0:0:0:0:
320,192,316998,1,0,0:0:0:0:
192,192,316998,1,0,0:0:0:0:
64,192,317094,1,0,0:0:0:0:
448,192,317094,1,0,0:0:0:0:
64,192,317191,1,0,0:0:0:70:kick.wav
192,192,317191,1,0,0:0:0:70:crash.wav
320,192,317191,1,0,0:0:0:0:
192,192,317288,1,0,0:0:0:0:
320,192,317288,1,0,0:0:0:0:
64,192,317385,1,0,0:0:0:70:drum.wav
448,192,317433,1,0,0:0:0:70:drum.wav
192,192,317482,1,0,0:0:0:70:drum.wav
64,192,317578,1,0,0:0:0:70:drum.wav
448,192,317578,1,0,0:0:0:70:kick.wav
320,192,317627,1,0,0:0:0:70:drum.wav
192,192,317675,1,0,0:0:0:70:drum.wav
192,192,317772,1,0,0:0:0:70:drum.wav
320,192,317772,1,0,0:0:0:70:kick.wav
64,192,317820,1,0,0:0:0:70:drum.wav
448,192,317869,1,0,0:0:0:70:drum.wav
64,192,317965,1,0,0:0:0:70:kick.wav
192,192,317965,1,0,0:0:0:70:crash.wav
448,192,317965,1,0,0:0:0:70:boom.wav
320,192,318062,1,0,0:0:0:0:
448,192,318062,1,0,0:0:0:0:
64,192,318256,1,0,0:0:0:70:kick.wav
192,192,318256,1,0,0:0:0:0:
64,192,318353,1,0,0:0:0:70:kick.wav
320,192,318353,1,0,0:0:0:0:
448,192,318353,1,0,0:0:0:0:
192,192,318546,1,0,0:0:0:0:
320,192,318546,1,0,0:0:0:0:
64,192,318643,1,0,0:0:0:70:kick.wav
448,192,318643,1,0,0:0:0:0:
64,192,318740,1,0,0:0:0:70:kick.wav
192,192,318740,1,0,0:0:0:0:
320,192,318740,1,0,0:0:0:0:
448,192,318836,1,0,0:0:0:0:
192,192,318933,1,0,0:0:0:70:kick.wav
320,192,318933,1,0,0:0:0:0:
448,192,318933,1,0,0:0:0:0:
320,192,319030,1,0,0:0:0:0:
64,192,319127,1,0,0:0:0:70:kick.wav
192,192,319127,128,0,319514:0:0:0:70:Growl.wav
448,192,319127,1,0,0:0:0:0:
320,192,319191,128,0,319449:0:0:0:0:
448,192,319256,128,0,319385:0:0:0:0:
64,192,319514,1,0,0:0:0:70:kick.wav
320,192,319514,1,0,0:0:0:70:crash.wav
448,192,319514,1,0,0:0:0:70:boom.wav
192,192,319611,1,0,0:0:0:0:
448,192,319611,1,0,0:0:0:0:
64,192,319804,1,0,0:0:0:70:kick.wav
192,192,319804,1,0,0:0:0:0:
192,192,319901,1,0,0:0:0:70:kick.wav
320,192,319901,1,0,0:0:0:0:
448,192,319901,1,0,0:0:0:0:
64,192,320094,1,0,0:0:0:0:
448,192,320094,1,0,0:0:0:0:
320,192,320191,1,0,0:0:0:70:kick.wav
64,192,320288,1,0,0:0:0:70:kick.wav
192,192,320288,1,0,0:0:0:0:
448,192,320288,1,0,0:0:0:0:
64,192,320417,1,0,0:0:0:70:kick.wav
192,192,320417,1,0,0:0:0:0:
448,192,320417,1,0,0:0:0:0:
64,192,320546,1,0,0:0:0:70:kick.wav
192,192,320546,1,0,0:0:0:0:
448,192,320546,1,0,0:0:0:0:
320,192,320675,128,0,320740:0:0:0:70:Growl3.wav
320,192,320804,128,0,320869:0:0:0:70:Growl3.wav
320,192,320933,128,0,320998:0:0:0:70:Growl3.wav
64,192,321062,1,0,0:0:0:70:kick.wav
192,192,321062,1,0,0:0:0:70:crash.wav
448,192,321062,1,0,0:0:0:70:boom.wav
320,192,321127,1,0,0:0:0:0:
192,192,321191,1,0,0:0:0:0:
64,192,321256,1,0,0:0:0:0:
448,192,321320,1,0,0:0:0:0:
320,192,321385,1,0,0:0:0:0:
64,192,321449,128,0,321546:0:0:0:70:Growl3.wav
192,192,321449,128,0,321546:0:0:0:0:
64,192,321643,128,0,321740:0:0:0:70:Growl3.wav
192,192,321643,128,0,321740:0:0:0:0:
64,192,321836,1,0,0:0:0:70:kick.wav
320,192,321836,1,0,0:0:0:70:crash.wav
448,192,321836,1,0,0:0:0:70:boom.wav
192,192,321901,1,0,0:0:0:0:
320,192,321965,1,0,0:0:0:0:
448,192,322030,1,0,0:0:0:0:
64,192,322094,1,0,0:0:0:0:
192,192,322159,1,0,0:0:0:0:
64,192,322224,1,0,0:0:0:70:Growl.wav
448,192,322224,128,0,322611:0:0:0:0:
320,192,322288,128,0,322546:0:0:0:0:
192,192,322353,128,0,322482:0:0:0:0:
64,192,322611,128,0,322804:0:0:0:70:kick.wav
192,192,322611,128,0,322804:0:0:0:70:crash.wav
320,192,322707,128,0,322804:0:0:0:0:
320,192,322901,128,0,323094:0:0:0:0:
448,192,322901,128,0,323094:0:0:0:0:
192,192,322998,128,0,323094:0:0:0:0:
320,192,323191,1,0,0:0:0:0:
192,192,323256,1,0,0:0:0:0:
64,192,323320,1,0,0:0:0:0:
192,192,323385,1,0,0:0:0:0:
320,192,323385,1,0,0:0:0:0:
64,192,323514,1,0,0:0:0:0:
448,192,323514,1,0,0:0:0:0:
64,192,323643,1,0,0:0:0:0:
448,192,323643,1,0,0:0:0:0:
192,192,323772,128,0,323869:0:0:0:0:
320,192,323772,128,0,323869:0:0:0:0:
192,192,323965,128,0,324159:0:0:0:0:
320,192,323965,128,0,324159:0:0:0:0:
64,192,324159,1,0,0:0:0:70:kick.wav
448,192,324159,1,0,0:0:0:70:crash.wav
64,192,324933,1,0,0:0:0:0:
192,192,324998,1,0,0:0:0:0:
320,192,325062,1,0,0:0:0:0:
448,192,325127,1,0,0:0:0:0:
320,192,325191,1,0,0:0:0:0:
192,192,325256,1,0,0:0:0:0:
448,192,325320,1,0,0:0:0:0:
320,192,325385,1,0,0:0:0:0:
192,192,325449,1,0,0:0:0:0:
64,192,325514,1,0,0:0:0:0:
448,192,325578,1,0,0:0:0:0:
320,192,325643,1,0,0:0:0:0:
64,192,325707,1,0,0:0:0:0:
192,192,325772,1,0,0:0:0:0:
320,192,325836,1,0,0:0:0:0:
448,192,325901,1,0,0:0:0:0:
64,192,325965,1,0,0:0:0:0:
192,192,326030,1,0,0:0:0:0:
320,192,326094,1,0,0:0:0:0:
64,192,326159,1,0,0:0:0:0:
192,192,326224,1,0,0:0:0:0:
448,192,326288,1,0,0:0:0:0:
320,192,326353,1,0,0:0:0:0:
64,192,326417,1,0,0:0:0:0:
192,192,326482,1,0,0:0:0:0:
448,192,326546,1,0,0:0:0:0:
320,192,326611,1,0,0:0:0:0:
64,192,326675,1,0,0:0:0:0:
192,192,326740,1,0,0:0:0:0:
320,192,326804,1,0,0:0:0:0:
64,192,326869,1,0,0:0:0:0:
192,192,326933,1,0,0:0:0:0:
448,192,326998,1,0,0:0:0:0:
320,192,327062,1,0,0:0:0:0:
192,192,327127,1,0,0:0:0:0:
64,192,327191,1,0,0:0:0:0:
448,192,327256,1,0,0:0:0:0:
