osu file format v14

[General]
AudioFilename: audio.mp3
AudioLeadIn: 0
PreviewTime: 91911
Countdown: 0
SampleSet: Soft
StackLeniency: 0.3
Mode: 0
LetterboxInBreaks: 0
WidescreenStoryboard: 0

[Editor]
Bookmarks: 26879,39266,51459,64040,76427,91911,104298,116685,141459,153846,166234,178621,203395,209395,221975,237459,262234,274621,287008,299395,311782,327266
DistanceSpacing: 1.4
BeatDivisor: 4
GridSize: 4
TimelineZoom: 1

[Metadata]
Title:AZISAI (Long ver.)
TitleUnicode:紫陽花 -AZISAI- (Long ver.)
Artist:Camellia vs. Expander
ArtistUnicode:かめりあ vs. Expander
Creator:-kevincela-
Version:ORIENTAL
Source:beatmania IIDX 23 copula
Tags:KONAMI BEMANI Sota Fujimori かめるかめりあ kamelcamellia masaya oya sionkotori video game videogame instrumental techdance chinese electronic oriental version hydrangea cametek
BeatmapID:4550015
BeatmapSetID:2158291

[Difficulty]
HPDrainRate:7
CircleSize:4
OverallDifficulty:8
ApproachRate:9.3
SliderMultiplier:2
SliderTickRate:1

[Events]
//Background and Video events
0,0,"recollect.jpg",0,0
//Break Periods
2,237659,247466
//Storyboard Layer 0 (Background)
//Storyboard Layer 1 (Fail)
//Storyboard Layer 2 (Pass)
//Storyboard Layer 3 (Foreground)
//Storyboard Layer 4 (Overlay)
//Storyboard Sound Samples

[TimingPoints]
2105,387.096774193548,4,2,1,50,1,0
14492,-166.666666666667,4,2,1,50,0,0
30556,-133.333333333333,4,2,1,50,0,0
31524,-153.846153846153,4,2,1,50,0,0
32201,-153.846153846153,4,2,1,5,0,0
32298,-200,4,2,1,50,0,0
32975,-200,4,2,1,5,0,0
33072,-133.333333333333,4,2,1,50,0,0
34427,-117.647058823529,4,2,1,50,0,0
35395,-105.263157894737,4,2,1,50,0,0
36169,-100,4,2,1,50,0,0
36556,-100,4,2,1,60,0,0
36750,-100,4,2,1,50,0,0
36943,-90.9090909090909,4,2,1,70,0,0
37137,-90.9090909090909,4,2,1,50,0,0
37330,-90.9090909090909,4,2,1,80,0,0
37524,-90.9090909090909,4,2,1,50,0,0
37717,-90.9090909090909,4,3,1,50,0,0
38104,-133.333333333333,4,2,1,50,0,0
38879,-45.4545454545455,4,2,1,50,0,0
38975,-45.4545454545455,4,2,1,60,0,0
39266,-66.6666666666667,4,2,1,60,0,0
45072,-55.5555555555556,4,2,1,60,0,0
45459,-66.6666666666667,4,2,1,60,0,0
46621,-111.111111111111,4,2,1,60,0,0
47008,-66.6666666666667,4,2,1,60,0,0
48169,-90.9090909090909,4,2,1,60,0,0
48298,-90.9090909090909,4,2,1,80,0,0
48427,-90.9090909090909,4,2,1,60,0,0
48556,-66.6666666666667,4,2,1,50,0,0
48943,-100,4,2,1,50,0,0
49330,-66.6666666666667,4,2,1,50,0,0
49717,-100,4,2,1,50,0,0
50104,-58.8235294117647,4,2,1,70,0,0
51653,-71.4285714285714,4,2,1,60,0,0
54750,-83.3333333333333,4,2,1,60,0,0
55524,-100,4,2,1,60,0,0
56298,-90.9090909090909,4,2,1,60,0,0
57846,-71.4285714285714,4,2,1,60,0,0
60943,-62.5,4,2,1,60,0,0
62492,-55.5555555555556,4,2,1,65,0,0
63266,-55.5555555555556,4,2,1,30,0,0
63653,-55.5555555555556,4,2,1,60,0,0
64040,-111.111111111111,4,2,1,60,0,0
65201,-76.9230769230769,4,2,1,60,0,0
65975,-58.8235294117647,4,2,1,60,0,0
66169,-76.9230769230769,4,2,1,40,0,0
66363,-125,4,2,1,60,0,0
66750,-83.3333333333333,4,2,1,60,0,0
67137,-66.6666666666667,4,2,1,60,0,0
67911,-111.111111111111,4,2,1,60,0,0
68685,-142.857142857143,4,2,1,60,0,0
68879,-83.3333333333333,4,2,1,60,0,0
69266,-83.3333333333333,4,2,1,60,0,0
69846,-58.8235294117647,4,2,1,60,0,0
70234,-90.9090909090909,4,2,1,60,0,0
70621,-50,4,2,1,70,0,0
71008,-111.111111111111,4,2,1,50,0,0
71395,-76.9230769230769,4,2,1,50,0,0
71782,-58.8235294117647,4,2,1,50,0,0
72363,-76.9230769230769,4,2,1,40,0,0
72556,-76.9230769230769,4,2,1,60,0,0
72846,-55.5555555555556,4,2,1,60,0,0
73330,-58.8235294117647,4,2,1,60,0,0
73717,-66.6666666666667,4,2,1,60,0,0
76427,-100,4,2,1,60,0,0
78169,-66.6666666666667,4,2,1,60,0,0
78750,-58.8235294117647,4,2,1,60,0,0
79524,-100,4,2,1,60,0,0
81072,-66.6666666666667,4,2,1,60,0,0
81846,-62.5,4,2,1,60,0,0
82234,-62.5,4,2,1,60,0,0
82621,-100,4,2,1,60,0,0
84363,-66.6666666666667,4,2,1,60,0,0
84943,-58.8235294117647,4,2,1,60,0,0
85717,-100,4,2,1,60,0,0
87266,-83.3333333333333,4,2,1,30,0,0
87653,-71.4285714285714,4,2,1,34,0,0
88040,-62.5,4,2,1,38,0,0
88427,-55.5555555555556,4,2,1,42,0,0
88814,-100,4,2,1,60,0,0
90750,-90.9090909090909,4,2,1,50,0,0
91137,-66.6666666666667,4,2,1,50,0,0
91330,-58.8235294117647,4,2,1,70,0,0
91524,-58.8235294117647,4,2,1,60,0,0
91911,-66.6666666666667,4,2,1,70,0,1
96750,-90.9090909090909,4,2,1,70,0,1
97330,-66.6666666666667,4,2,1,70,0,1
98104,-58.8235294117647,4,2,1,70,0,1
98492,-66.6666666666667,4,2,1,70,0,1
99653,-76.9230769230769,4,2,1,70,0,1
101008,-66.6666666666667,4,2,1,70,0,1
101395,-62.5,4,2,1,70,0,1
104298,-133.333333333333,4,2,1,50,0,0
105846,-62.5,4,2,1,70,0,0
107395,-66.6666666666667,4,2,1,70,0,1
109717,-62.5,4,2,1,70,0,1
110492,-60.6060606060606,4,2,1,70,0,1
112040,-58.8235294117647,4,2,1,70,0,1
113588,-55.5555555555556,4,2,1,70,0,1
115137,-100,4,2,1,70,0,0
115717,-76.9230769230769,4,2,1,70,0,0
116685,-66.6666666666667,4,2,1,70,0,0
119588,-100,4,2,1,70,0,0
119782,-66.6666666666667,4,2,1,70,0,0
122879,-100,4,2,1,70,0,0
123266,-62.5,4,2,1,70,0,0
127524,-66.6666666666667,4,2,1,70,0,0
129072,-100,4,2,1,50,0,0
129846,-142.857142857143,4,2,1,50,0,0
135266,-117.647058823529,4,2,1,50,0,0
138363,-100,4,2,1,50,0,0
140104,-76.9230769230769,4,2,1,50,0,0
141459,-71.4285714285714,4,2,1,60,0,0
146875,-100,4,2,1,60,0,0
147363,-50,4,2,1,60,0,0
147459,-50,4,2,1,60,0,0
147653,-66.6666666666667,4,2,1,60,0,0
149201,-76.9230769230769,4,2,1,50,0,0
150750,-76.9230769230769,4,2,1,40,0,0
151137,-66.6666666666667,4,2,1,35,0,0
151524,-58.8235294117647,4,2,1,30,0,0
151911,-52.6315789473684,4,2,1,30,0,0
152298,-100,4,2,1,30,0,0
153846,-62.5,4,2,1,70,0,0
154621,-76.9230769230769,4,2,1,70,0,0
155008,-62.5,4,2,1,70,0,0
155395,-76.9230769230769,4,2,1,70,0,0
156169,-66.6666666666667,4,2,1,70,0,0
156556,-100,4,2,1,70,0,0
156943,-62.5,4,2,1,70,0,0
157330,-100,4,2,1,70,0,0
157717,-66.6666666666667,4,2,1,70,0,0
159266,-62.5,4,2,1,70,0,0
160427,-76.9230769230769,4,2,1,70,0,0
161201,-62.5,4,2,1,70,0,0
161588,-76.9230769230769,4,2,1,70,0,0
162363,-66.6666666666667,4,2,1,70,0,0
162750,-100,4,2,1,70,0,0
163137,-62.5,4,2,1,70,0,0
163524,-76.9230769230769,4,2,1,70,0,0
163911,-66.6666666666667,4,2,1,70,0,0
164298,-58.8235294117647,4,2,1,70,0,0
164685,-54.054054054054,4,2,1,70,0,0
165846,-66.6666666666667,4,2,1,70,0,0
166234,-62.5,4,2,1,70,0,0
167395,-55.5555555555556,4,2,1,70,0,0
167782,-62.5,4,2,1,70,0,0
168169,-55.5555555555556,4,2,1,70,0,0
168556,-62.5,4,2,1,70,0,0
169330,-71.4285714285714,4,2,1,70,0,0
169717,-100,4,2,1,70,0,0
170104,-50,4,2,1,70,0,0
170879,-66.6666666666667,4,2,1,70,0,0
171266,-58.8235294117647,4,2,1,70,0,0
171653,-66.6666666666667,4,2,1,70,0,0
172427,-62.5,4,2,1,70,0,0
173588,-55.5555555555556,4,2,1,70,0,0
173975,-62.5,4,2,1,70,0,0
174363,-55.5555555555556,4,2,1,70,0,0
174750,-62.5,4,2,1,70,0,0
175524,-58.8235294117647,4,2,1,70,0,0
176298,-55.5555555555556,4,2,1,70,0,0
177072,-133.333333333333,4,2,1,60,0,0
177459,-117.647058823529,4,2,1,60,0,0
177846,-105.263157894737,4,2,1,60,0,0
178621,-66.6666666666667,4,2,1,50,0,0
191008,-66.6666666666667,4,2,1,55,0,0
193330,-58.8235294117647,4,2,1,55,0,0
193621,-142.857142857143,4,2,1,55,0,0
194104,-66.6666666666667,4,2,1,55,0,0
196427,-55.5555555555556,4,2,1,55,0,0
196911,-62.5,4,2,1,55,0,0
197201,-76.9230769230769,4,2,1,55,0,0
199524,-58.8235294117647,4,2,1,55,0,0
199814,-100,4,2,1,55,0,0
200298,-52.6315789473684,4,2,1,55,0,0
201846,-76.9230769230769,4,2,1,50,0,0
202234,-90.9090909090909,4,2,1,40,0,0
202621,-111.111111111111,4,2,1,30,0,0
203395,-133.333333333333,4,2,1,35,0,0
204169,-117.647058823529,4,2,1,35,0,0
204556,-105.263157894737,4,2,1,35,0,0
204943,-95.2380952380954,4,2,1,35,0,0
205717,-80,4,2,1,40,0,0
206104,-68.9655172413793,4,2,1,40,0,0
206492,-60.6060606060606,4,2,1,40,0,0
206879,-57.1428571428571,4,2,1,45,0,0
207266,-54.054054054054,4,2,1,50,0,0
207653,-51.2820512820513,4,2,1,55,0,0
208040,-60.6060606060606,4,2,1,50,0,0
209201,-54.054054054054,4,2,1,50,0,0
209588,-71.4285714285714,4,2,1,60,0,0
213459,-83.3333333333333,4,2,1,60,0,0
214234,-66.6666666666667,4,2,1,60,0,0
215008,-71.4285714285714,4,2,1,60,0,0
220427,-83.3333333333333,4,2,1,60,0,0
221008,-71.4285714285714,4,2,1,60,0,0
221975,-100,4,2,1,60,0,0
223653,-66.6666666666667,4,2,1,60,0,0
223911,-76.9230769230769,4,2,1,60,0,0
224298,-71.4285714285714,4,2,1,60,0,0
224685,-66.6666666666667,4,2,1,60,0,0
225072,-100,4,2,1,60,0,0
226621,-76.9230769230769,4,2,1,60,0,0
227008,-71.4285714285714,4,2,1,60,0,0
227395,-66.6666666666667,4,2,1,60,0,0
228121,-66.6666666666667,4,2,1,5,0,0
228169,-100,4,2,1,60,0,0
229717,-71.4285714285714,4,2,1,60,0,0
230492,-66.6666666666667,4,2,1,60,0,0
231266,-100,4,2,1,60,0,0
232814,-83.3333333333333,4,2,1,60,0,0
233201,-71.4285714285714,4,2,1,60,0,0
233588,-62.5,4,2,1,60,0,0
233975,-55.5555555555556,4,2,1,60,0,0
234363,-100,4,2,1,50,0,0
236685,-66.6666666666667,4,2,1,50,0,0
249266,-111.111111111111,4,2,1,45,0,0
255653,-83.3333333333333,4,2,1,45,0,0
256040,-83.3333333333333,4,2,1,50,0,0
256814,-83.3333333333333,4,2,1,55,0,0
257588,-83.3333333333333,4,2,1,60,0,0
259137,-76.9230769230769,4,2,1,60,0,0
259524,-71.4285714285714,4,2,1,60,0,0
259911,-62.5,4,2,1,70,0,0
260298,-52.6315789473684,4,2,1,70,0,0
260685,-52.6315789473684,4,2,1,50,0,0
261653,-66.6666666666667,4,2,1,60,0,0
262234,-66.6666666666667,4,2,1,70,0,1
264943,-58.8235294117647,4,2,1,70,0,1
265330,-66.6666666666667,4,2,1,70,0,1
267072,-90.9090909090909,4,2,1,70,0,1
267653,-66.6666666666667,4,2,1,70,0,1
268427,-58.8235294117647,4,2,1,70,0,1
269201,-66.6666666666667,4,2,1,70,0,1
269975,-76.9230769230769,4,2,1,70,0,1
271524,-62.5,4,2,1,70,0,1
273459,-76.9230769230769,4,2,1,70,0,1
273846,-58.8235294117647,4,2,1,70,0,1
274621,-333.333333333333,4,2,1,70,0,0
275008,-62.5,4,2,1,70,0,1
276556,-76.9230769230769,4,2,1,70,0,1
276943,-62.5,4,2,1,70,0,1
277234,-55.5555555555556,4,2,1,70,0,1
277524,-50,4,2,1,70,0,1
278104,-62.5,4,2,1,70,0,1
279266,-55.5555555555556,4,2,1,70,0,1
279653,-62.5,4,2,1,70,0,1
280040,-71.4285714285714,4,2,1,70,0,1
280234,-83.3333333333333,4,2,1,70,0,1
280427,-133.333333333333,4,2,1,70,0,1
280814,-71.4285714285714,4,2,1,70,0,1
281879,-62.5,4,2,1,70,0,1
283911,-66.6666666666667,4,2,1,70,0,1
285459,-100,4,2,1,70,0,1
285846,-66.6666666666667,4,2,1,70,0,1
286524,-50,4,2,1,70,0,1
286621,-55.5555555555556,4,2,1,70,0,1
287008,-66.6666666666667,4,2,1,70,0,0
293201,-333.333333333333,4,2,1,70,0,0
293588,-66.6666666666667,4,2,1,70,0,0
293975,-62.5,4,2,1,70,0,0
294363,-58.8235294117647,4,2,1,70,0,0
294750,-55.5555555555556,4,2,1,70,0,0
295427,-58.8235294117647,4,2,1,70,0,0
296298,-62.5,4,2,1,70,0,0
296685,-58.8235294117647,4,2,1,70,0,0
297072,-55.5555555555556,4,2,1,70,0,0
297459,-52.6315789473684,4,2,1,70,0,0
297846,-50,4,2,1,70,0,0
299395,-62.5,4,2,1,70,0,0
305201,-55.5555555555556,4,2,1,70,0,0
305588,-62.5,4,2,1,70,0,0
308685,-55.5555555555556,4,2,1,70,0,0
311008,-52.6315789473684,4,2,1,70,0,0
311782,-62.5,4,2,1,70,0,0
313330,-50,4,2,1,70,0,0
313717,-55.5555555555556,4,2,1,70,0,0
314104,-62.5,4,2,1,70,0,0
314298,-55.5555555555556,4,2,1,70,0,0
314879,-62.5,4,2,1,70,0,0
316427,-55.5555555555556,4,2,1,70,0,0
317588,-50,4,2,1,70,0,0
317975,-62.5,4,2,1,70,0,0
318750,-55.5555555555556,4,2,1,70,0,0
319137,-111.111111111111,4,2,1,70,0,0
319524,-62.5,4,2,1,70,0,0
320298,-55.5555555555556,4,2,1,70,0,0
320685,-111.111111111111,4,2,1,70,0,0
321072,-62.5,4,2,1,70,0,0
321459,-100,4,2,1,70,0,0
321846,-62.5,4,2,1,70,0,0
322234,-100,4,2,1,70,0,0
322621,-55.5555555555556,4,2,1,70,0,0
323782,-50,4,2,1,70,0,0

[Colours]
Combo1 : 247,211,91
Combo2 : 255,128,128
Combo3 : 192,192,192
Combo4 : 255,153,104
Combo5 : 198,140,255

[HitObjects]
96,320,2104,5,4,3:0:0:0:
284,303,2298,1,0,0:0:0:0:
260,300,2492,1,0,0:0:0:0:
236,297,2685,1,0,0:0:0:0:
166,159,2879,5,0,0:0:0:0:
163,183,3073,1,0,0:0:0:0:
160,207,3266,1,0,0:0:0:0:
157,231,3459,1,0,0:0:0:0:
258,177,3653,5,2,0:0:0:0:
261,153,3847,1,0,0:0:0:0:
264,129,4040,1,0,0:0:0:0:
267,105,4233,1,0,0:0:0:0:
338,37,4427,5,0,0:0:0:0:
362,40,4621,1,0,0:0:0:0:
386,43,4814,1,0,0:0:0:0:
410,46,5007,1,0,0:0:0:0:
500,234,5201,5,0,0:0:0:0:
472,261,5395,1,0,0:0:0:0:
435,271,5588,1,0,0:0:0:0:
398,261,5782,1,0,0:0:0:0:
371,234,5975,1,0,0:0:0:0:
361,196,6169,1,0,0:0:0:0:
371,159,6363,1,0,0:0:0:0:
398,132,6556,1,0,0:0:0:0:
421,274,6750,5,2,0:0:0:0:
424,298,6944,1,0,0:0:0:0:
427,322,7137,1,0,0:0:0:0:
430,346,7330,1,0,0:0:0:0:
292,338,7524,5,2,0:0:0:0:
268,341,7718,1,0,0:0:0:0:
244,344,7911,1,0,0:0:0:0:
220,347,8104,1,0,0:0:0:0:
15,209,8298,5,2,0:0:0:0:
46,192,8491,1,0,0:0:0:0:
81,192,8685,1,0,0:0:0:0:
112,209,8878,1,0,0:0:0:0:
151,235,9072,1,0,0:0:0:0:
182,252,9265,1,0,0:0:0:0:
217,252,9459,1,0,0:0:0:0:
248,235,9652,1,0,0:0:0:0:
357,241,9846,5,2,0:0:0:0:
354,217,10040,1,0,0:0:0:0:
351,193,10233,1,0,0:0:0:0:
348,169,10426,1,0,0:0:0:0:
254,56,10621,5,0,0:0:0:0:
257,80,10815,1,0,0:0:0:0:
260,104,11008,1,0,0:0:0:0:
263,128,11201,1,0,0:0:0:0:
468,59,11395,5,0,0:0:0:0:
361,84,11588,1,0,0:0:0:0:
385,191,11782,1,0,0:0:0:0:
492,166,11975,1,0,0:0:0:0:
455,79,12169,5,0,0:0:0:0:
381,96,12362,1,0,0:0:0:0:
397,170,12556,1,0,0:0:0:0:
471,153,12749,1,0,0:0:0:0:
307,52,12943,5,2,0:0:0:0:
283,49,13137,1,0,0:0:0:0:
259,46,13330,1,0,0:0:0:0:
235,43,13523,1,0,0:0:0:0:
81,101,13717,5,2,0:0:0:0:
105,104,13911,1,0,0:0:0:0:
129,107,14104,1,0,0:0:0:0:
153,110,14297,1,0,0:0:0:0:
309,235,14492,6,0,L|316:309,1,59.9999981689454,2|0,0:0|0:0,0:0:0:0:
400,307,14879,2,0,L|393:233,1,59.9999981689454
68,253,15266,5,0,0:0:0:0:
107,248,15460,1,0,0:0:0:0:
146,243,15653,1,0,0:0:0:0:
185,238,15846,1,0,0:0:0:0:
203,72,16040,6,0,L|196:146,1,59.9999981689454,2|0,0:0|0:0,0:0:0:0:
112,144,16427,2,0,L|119:70,1,59.9999981689454
444,90,16814,5,0,0:0:0:0:
405,85,17008,1,0,0:0:0:0:
366,80,17201,1,0,0:0:0:0:
327,75,17394,1,0,0:0:0:0:
150,215,17588,5,0,0:0:0:0:
167,253,17782,1,0,0:0:0:0:
198,282,17975,1,0,0:0:0:0:
237,298,18169,1,0,0:0:0:0:
279,297,18363,1,0,0:0:0:0:
317,280,18556,1,0,0:0:0:0:
346,249,18750,1,0,0:0:0:0:
362,210,18944,1,0,0:0:0:0:
255,39,19137,6,0,L|258:112,1,59.9999981689454,2|0,0:0|0:0,0:0:0:0:
156,200,19524,1,0,0:0:0:0:
156,200,19717,1,0,0:0:0:0:
256,181,19911,6,0,L|253:254,1,59.9999981689454,2|0,0:0|0:0,0:0:0:0:
355,342,20298,1,0,0:0:0:0:
355,342,20491,1,0,0:0:0:0:
231,318,20685,6,0,P|201:310|162:316,1,59.9999981689454,2|0,0:0|0:0,0:0:0:0:
357,249,21072,1,0,0:0:0:0:
357,249,21266,1,0,0:0:0:0:
276,294,21459,5,0,0:0:0:0:
436,297,21653,1,0,0:0:0:0:
441,213,21846,1,0,0:0:0:0:
446,129,22040,1,0,0:0:0:0:
281,210,22234,5,2,0:0:0:0:
352,333,22427,1,0,0:0:0:0:
357,249,22620,1,0,0:0:0:0:
362,165,22814,1,0,0:0:0:0:
164,293,23008,5,0,0:0:0:0:
164,293,23201,1,0,0:0:0:0:
295,337,23395,1,0,0:0:0:0:
295,337,23588,1,0,0:0:0:0:
268,202,23782,6,0,L|280:273,1,59.9999981689454
146,217,24169,1,0,0:0:0:0:
250,126,24363,1,0,0:0:0:0:
369,154,24556,6,0,L|357:225,1,59.9999981689454
491,169,24943,1,0,0:0:0:0:
387,78,25137,1,0,0:0:0:0:
79,73,25330,6,0,B|224:51|156:124|317:97,2,239.999992675781,2|2|4,0:0|0:0|3:3,0:0:0:0:
64,236,27072,5,0,0:0:0:0:
156,260,27266,1,0,0:0:0:0:
248,282,27459,1,0,0:0:0:0:
128,164,27653,5,0,0:0:0:0:
180,348,27846,1,0,0:0:0:0:
248,282,28039,1,0,0:0:0:0:
316,216,28233,1,0,0:0:0:0:
276,376,28427,5,2,0:0:0:0:
226,192,28621,1,0,0:0:0:0:
316,216,28814,1,0,0:0:0:0:
407,242,29008,1,0,0:0:0:0:
292,120,29201,5,2,0:0:0:0:
342,308,29395,1,0,0:0:0:0:
407,242,29588,1,0,0:0:0:0:
475,176,29782,1,0,0:0:0:0:
432,336,29975,5,2,0:0:0:0:
380,144,30169,1,0,0:0:0:0:
374,122,30266,1,0,0:0:0:0:
369,101,30363,1,0,0:0:0:0:
342,308,30556,6,0,L|242:316,1,75.0000028610231,2|0,0:0|0:0,0:0:0:0:
236,236,30846,2,0,L|292:318,1,75.0000028610231,2|0,0:0|0:0,0:0:0:0:
224,368,31137,2,0,L|267:277,1,75.0000028610231,2|0,0:0|0:0,0:0:0:0:
288,152,31524,6,0,B|236:124|180:152|180:152|124:180|68:152,1,227.499989585877,2|0,0:0|0:0,0:0:0:0:
124,76,32298,6,0,L|140:264,1,175,2|0,0:0|0:0,0:0:0:0:
192,328,33072,5,2,0:0:0:0:
292,244,33266,1,0,0:0:0:0:
296,220,33363,1,0,0:0:0:0:
300,196,33459,1,0,0:0:0:0:
412,296,33653,6,0,L|425:369,1,75.0000028610231,2|0,0:0|0:0,0:0:0:0:
425,369,33943,1,0,0:0:0:0:
425,369,34040,1,2,0:0:0:0:
292,244,34234,1,0,0:0:0:0:
468,152,34427,5,2,0:0:0:0:
468,152,34524,1,0,0:0:0:0:
468,152,34621,2,0,L|380:168,1,85.0000016212464,2|0,0:0|0:0,0:0:0:0:
232,336,35008,2,0,L|320:352,1,85.0000016212464,2|0,0:0|0:0,0:0:0:0:
272,150,35395,6,0,L|291:243,1,94.9999974632264,2|0,0:0|0:0,0:0:0:0:
425,369,35782,2,0,L|444:275,1,94.9999974632264,2|0,0:0|0:0,0:0:0:0:
328,76,36169,5,4,1:2:0:0:
204,244,36363,1,0,0:0:0:0:
116,60,36556,2,0,L|244:68,1,100,4|0,1:2|0:0,0:0:0:0:
320,276,36943,5,4,1:2:0:0:
84,260,37137,1,0,0:0:0:0:
215,66,37330,2,0,L|207:194,1,110.000003356934,4|0,1:2|0:0,0:0:0:0:
192,384,37717,5,4,0:0:0:0:
192,384,38104,2,0,L|199:263,2,112.500004291535
249,226,38879,6,2,P|256:309|166:212,1,330.000010070801,6|0,0:0|0:0,0:0:0:0:
236,81,39266,6,0,B|273:72|273:72|314:81,1,75.0000028610231,0|2,1:0|0:1,0:0:0:0:
495,132,39459,2,0,B|458:141|458:141|417:132,1,75.0000028610231,0|2,0:0|0:1,0:0:0:0:
367,31,39653,2,0,L|357:197,1,150.000005722046,0|2,1:0|0:1,0:0:0:0:
348,279,39943,1,2,0:1:0:0:
348,279,40040,5,0,1:0:0:0:
348,279,40137,2,0,P|314:266|274:269,1,75.0000028610231,2|0,0:1|0:0,0:0:0:0:
432,344,40330,2,0,P|466:331|506:334,1,75.0000028610231,2|0,0:1|1:0,0:0:0:0:
343,204,40524,6,0,L|349:296,1,75.0000028610231,2|0,0:1|0:0,0:0:0:0:
432,344,40717,2,0,L|438:252,1,75.0000028610231,2|0,0:1|1:0,0:0:0:0:
501,69,40911,6,0,P|473:84|415:82,1,75.0000028610231,2|0,0:1|0:0,0:0:0:0:
323,51,41104,2,0,L|334:201,1,150.000005722046,2|0,0:1|0:0,0:0:0:0:
246,301,41395,1,2,0:1:0:0:
246,301,41492,1,2,0:1:0:0:
246,301,41588,6,0,L|241:226,2,75.0000028610231,0|2|0,1:0|0:1|0:0,0:0:0:0:
263,25,41879,2,0,P|299:35|326:64,1,75.0000028610231,2|0,0:1|1:0,0:0:0:0:
325,157,42072,2,0,P|297:182|259:191,1,75.0000028610231,2|0,0:1|0:0,0:0:0:0:
179,144,42266,2,0,P|170:107|181:68,1,75.0000028610231,2|0,0:1|1:0,0:0:0:0:
128,210,42459,6,0,B|139:243|139:243|123:285,1,75.0000028610231,2|0,0:1|0:0,0:0:0:0:
21,348,42653,2,0,B|110:326|62:378|173:355,1,150.000005722046,2|0,0:1|0:0,0:0:0:0:
256,307,42943,1,2,0:1:0:0:
262,337,43040,1,2,0:1:0:0:
268,367,43137,1,0,1:0:0:0:
365,336,43234,6,0,P|400:326|449:336,1,75.0000028610231,2|0,0:1|0:0,0:0:0:0:
250,276,43427,2,0,P|215:266|166:276,1,75.0000028610231,2|0,0:1|1:0,0:0:0:0:
369,375,43621,2,0,L|348:207,1,150.000005722046,2|2,0:1|0:1,0:0:0:0:
294,112,43911,6,0,P|285:95|326:106,1,75.0000028610231,4|0,1:3|0:0,0:0:0:0:
423,197,44104,1,0,0:0:0:0:
423,197,44201,1,0,0:0:0:0:
423,197,44298,2,0,L|255:218,1,150.000005722046,4|0,1:3|0:0,0:0:0:0:
111,236,44588,1,0,0:0:0:0:
95,224,44685,6,0,L|169:214,1,75.0000028610231,6|0,1:2|0:0,0:0:0:0:
339,195,44879,2,0,L|264:204,1,75.0000028610231,6|0,0:0|0:0,0:0:0:0:
83,214,45072,6,0,P|162:183|102:278,1,269.999991760254,12|0,1:2|0:1,0:1:0:0:
84,106,45459,6,0,P|116:95|160:100,1,75.0000028610231,0|2,1:2|0:1,0:0:0:0:
316,123,45653,2,0,P|278:127|243:115,1,75.0000028610231,0|2,0:0|0:1,0:0:0:0:
155,42,45846,2,0,L|169:191,1,150.000005722046,0|2,0:0|0:1,0:0:0:0:
181,280,46137,1,2,0:1:0:0:
224,320,46234,6,0,L|213:238,1,75.0000028610231,0|2,1:0|0:1,0:0:0:0:
249,155,46427,2,0,L|238:73,1,75.0000028610231,0|2,1:0|0:1,0:0:0:0:
128,68,46621,6,0,B|30:59|30:59|91:94,1,134.999995880127,4|0,0:3|0:0,0:0:0:0:
239,80,47008,6,0,B|273:87|273:87|318:78,1,75.0000028610231,0|2,0:0|0:1,0:0:0:0:
492,65,47201,2,0,B|452:57|452:57|418:64,1,75.0000028610231,0|2,0:0|0:1,0:0:0:0:
310,200,47395,2,0,L|317:24,1,150.000005722046,0|2,0:0|0:1,0:0:0:0:
400,144,47685,1,2,0:1:0:0:
400,163,47782,6,0,L|397:212,1,50.0000019073487,0|0,1:1|0:0,0:0:0:0:
309,220,47911,2,0,L|306:269,1,50.0000019073487,0|0,1:1|0:0,0:0:0:0:
396,289,48040,2,0,L|393:338,1,50.0000019073487,0|0,1:0|0:0,0:0:0:0:
301,350,48169,6,0,P|270:360|214:352,2,73.3333355712891,2|2|2,0:0|0:0|0:0,0:0:0:0:
106,291,48556,6,0,L|182:283,1,75.0000028610231,0|2,1:0|0:0,0:0:0:0:
284,272,48750,2,0,L|360:264,1,75.0000028610231,0|2,0:0|0:0,0:0:0:0:
512,237,48943,6,0,L|504:288,1,50,2|0,0:0|0:0,0:0:0:0:
443,172,49137,2,0,L|435:223,1,50,2|0,0:0|0:0,0:0:0:0:
512,82,49330,6,0,L|436:74,1,75.0000028610231,0|2,1:0|0:0,0:0:0:0:
259,55,49524,2,0,L|334:63,1,75.0000028610231,0|2,0:0|0:0,0:0:0:0:
415,262,49717,6,2,B|380:149|380:149|358:209,1,150,2|0,0:1|0:0,0:1:0:0:
318,196,50104,6,0,B|375:201|375:201|415:226|415:226|485:232,1,170.000003242493,4|0,0:0|0:0,0:0:0:0:
512,122,50395,6,0,P|460:73|439:141,1,170.000003242493,4|0,0:0|0:0,0:0:0:0:
284,270,50685,6,0,B|345:277|345:277|376:298,2,85.0000016212464,4|2|2,0:0|0:0|0:0,0:0:0:0:
462,333,50975,6,0,L|441:151,1,170.000003242493,4|0,0:0|0:0,0:0:0:0:
422,56,51266,6,0,L|331:66,1,85.0000016212464,6|0,0:0|0:0,0:0:0:0:
428,249,51459,2,0,L|519:239,1,85.0000016212464,6|0,0:0|0:0,0:0:0:0:
320,176,51653,5,2,1:2:0:0:
168,296,51846,2,0,L|160:352,2,46.6666652425131,2|2|2,0:0|0:0|0:0,0:0:0:0:
180,216,52040,1,2,1:2:0:0:
308,96,52234,2,0,L|300:40,2,46.6666652425131,2|2|2,0:0|0:0|0:0,0:0:0:0:
320,176,52428,1,2,1:2:0:0:
88,180,52621,6,0,L|97:110,1,69.9999978637696
114,1,52815,1,0,1:0:0:0:
180,216,53008,6,0,L|188:160,2,46.6666652425131,2|2|2,0:0|0:0|0:0,0:0:0:0:
168,296,53201,1,2,1:2:0:0:
344,336,53395,2,0,L|352:392,2,46.6666652425131,2|2|2,0:0|0:0|0:0,0:0:0:0:
332,256,53588,1,2,1:2:0:0:
88,303,53782,6,0,L|33:307,2,46.6666652425131,2|2|2,0:0|0:0|0:0,0:0:0:0:
168,296,53975,1,2,0:0:0:0:
344,336,54169,1,2,0:0:0:0:
390,94,54363,6,0,L|446:86,2,46.6666652425131,2|2|2,1:2|0:0|0:0,0:0:0:0:
310,106,54556,2,0,L|323:199,1,69.9999978637696,2|0,0:0|0:0,0:0:0:0:
344,336,54750,1,2,1:2:0:0:
390,94,54943,5,0,0:0:0:0:
228,164,55137,2,0,L|172:156,2,39.9999987792969,2|0|0,1:2|0:0|0:0,0:0:0:0:
268,235,55330,2,0,L|259:294,1,59.9999981689454
184,368,55524,6,0,L|76:376,1,100,4|0,1:2|0:0,0:0:0:0:
258,294,55911,2,0,L|429:306,1,150,4|0,1:2|0:0,0:0:0:0:
407,304,56298,6,0,L|384:188,1,110.000003356934,4|0,1:2|0:0,0:0:0:0:
258,294,56685,2,0,L|218:97,1,165.000005035401,0|0,1:0|0:0,0:0:0:0:
225,132,57072,6,0,P|180:156|100:148,1,110.000003356934,4|0,0:3|0:0,0:0:0:0:
192,40,57363,2,0,P|246:39|295:63,1,110.000003356934,4|0,0:3|0:0,0:0:0:0:
385,196,57653,1,4,0:3:0:0:
225,132,57846,5,2,1:2:0:0:
372,48,58040,2,0,L|444:36,2,46.6666652425131,2|2|2,0:0|0:0|0:0,0:0:0:0:
295,63,58234,1,2,1:2:0:0:
160,216,58427,2,0,L|88:204,2,46.6666652425131,2|2|2,0:0|0:0|0:0,0:0:0:0:
237,231,58621,1,2,1:2:0:0:
204,40,58814,6,0,L|134:51,1,69.9999978637696
12,68,59008,1,0,1:0:0:0:
145,293,59201,6,0,L|133:365,2,46.6666652425131,2|2|2,0:0|0:0|0:0,0:0:0:0:
160,216,59395,1,2,1:2:0:0:
292,104,59588,2,0,L|280:32,2,46.6666652425131,2|2|2,0:0|0:0|0:0,0:0:0:0:
307,181,59782,1,2,1:2:0:0:
108,112,59975,6,0,L|36:124,2,46.6666652425131,2|2|2,0:0|0:0|0:0,0:0:0:0:
185,97,60169,1,2,1:2:0:0:
368,120,60363,1,2,0:0:0:0:
328,292,60556,6,0,L|400:304,2,46.6666652425131,2|2|2,1:2|0:0|0:0,0:0:0:0:
240,272,60750,2,0,L|170:260,1,69.9999978637696,2|0,0:0|0:0,0:0:0:0:
76,144,60943,6,0,B|106:214|54:223|84:302,1,160,4|0,0:3|0:0,0:0:0:0:
251,351,61234,2,0,L|239:271,1,80,8|0,0:3|0:0,0:0:0:0:
385,220,61427,2,0,L|373:300,1,80,8|0,0:3|0:0,0:0:0:0:
239,271,61621,1,8,0:3:0:0:
204,192,61717,5,8,0:3:0:0:
224,188,61814,2,0,P|256:188|306:218,1,80,4|0,0:3|0:0,0:0:0:0:
447,277,62008,2,0,P|414:277|364:307,1,80,8|0,0:3|0:0,0:0:0:0:
272,352,62201,1,8,0:3:0:0:
251,356,62298,2,0,P|212:354|177:334,1,80,8|0,0:3|0:0,0:0:0:0:
108,160,62492,6,0,L|104:60,1,89.9999972534181,4|0,0:0|0:0,0:0:0:0:
204,192,62685,2,0,L|200:92,1,89.9999972534181,4|0,0:0|0:0,0:0:0:0:
447,277,62879,6,0,L|451:177,1,89.9999972534181,4|0,0:0|0:0,0:0:0:0:
351,309,63072,2,0,L|355:209,1,89.9999972534181,4|0,0:0|0:0,0:0:0:0:
196,312,63266,6,0,L|198:371,5,59.9999981689454,4|4|4|4|4|4,0:3|0:3|0:3|0:3|0:3|0:3,0:0:0:0:
100,256,63653,6,0,P|60:272|4:272,1,89.9999972534181,6|0,0:0|0:0,0:0:0:0:
268,201,63846,2,0,P|312:202|354:218,1,89.9999972534181,6|0,0:0|0:0,0:0:0:0:
41,182,64040,6,0,P|0:120|107:159,1,269.999991760254,4|0,1:2|0:0,0:0:0:0:
108,257,64717,1,0,1:0:0:0:
121,272,64814,2,0,L|125:216,1,44.999998626709,8|0,0:0|0:0,0:0:0:0:
208,245,65008,2,0,L|212:189,1,44.999998626709,2|0,0:3|0:0,0:0:0:0:
295,218,65201,2,0,P|303:190|295:148,1,64.9999970245363,2|0,0:3|0:0,0:0:0:0:
177,117,65395,2,0,P|169:89|177:47,1,64.9999970245363,2|0,0:0|0:0,0:0:0:0:
347,82,65588,6,0,L|412:88,2,64.9999970245363,0|2|0,0:0|0:1|0:0,0:0:0:0:
347,82,65975,6,0,P|366:87|340:42,1,85.0000016212464,4|0,0:3|0:0,0:0:0:0:
264,98,66169,2,0,L|216:94,2,32.4999985122681,4|4|4,0:3|0:3|0:3,0:0:0:0:
379,145,66363,6,0,L|387:-1,1,120,8|0,0:0|0:0,0:0:0:0:
386,8,66750,6,0,L|325:17,1,59.9999981689454,2|0,1:2|0:0,0:0:0:0:
398,141,66943,2,0,L|459:132,1,59.9999981689454,2|0,1:2|0:0,0:0:0:0:
296,91,67137,6,0,B|216:74|216:74|251:238|251:238|318:188,1,300.000011444092,2|0,1:2|0:0,0:0:0:0:
457,132,67717,1,0,0:0:0:0:
457,132,67814,1,0,1:0:0:0:
380,112,67911,2,0,P|377:133|385:166,1,44.999998626709,8|0,0:0|0:0,0:0:0:0:
397,352,68104,2,0,P|400:330|398:308,1,44.999998626709,2|0,0:3|0:0,0:0:0:0:
321,238,68298,2,0,L|477:223,1,134.999995880127,2|0,0:3|0:0,0:0:0:0:
471,234,68685,6,0,L|476:189,1,34.9999989318848,4|0,0:3|0:0,0:0:0:0:
392,36,68879,6,0,L|381:155,1,119.999996337891,0|4,0:0|0:3,0:0:0:0:
392,36,69266,6,0,P|413:38|432:34,1,29.9999990844727,2|0,0:0|0:0,0:0:0:0:
284,59,69460,2,0,P|301:71|319:77,1,29.9999990844727,2|0,0:0|0:0,0:0:0:0:
178,24,69653,2,0,P|186:43|199:57,1,29.9999990844727,2|0,0:0|0:0,0:0:0:0:
354,151,69846,6,0,B|315:164|315:164|269:152,1,85.0000016212464,0|10,0:0|0:0,0:0:0:0:
57,87,70040,2,0,B|113:80|113:80|70:106,1,85.0000016212464,2|4,0:0|0:3,0:0:0:0:
191,192,70234,6,0,B|187:137|187:137|205:95|205:95|200:31,1,165.000005035401,2|0,0:0|0:0,0:0:0:0:
156,75,70621,6,2,B|204:-18|342:-1|360:47|350:85|331:108|296:114,1,300,6|0,1:2|0:0,0:0:0:0:
191,192,71008,6,0,L|133:199,1,44.999998626709,8|0,0:0|0:0,0:0:0:0:
179,274,71201,2,0,L|121:281,1,44.999998626709,2|0,0:3|0:0,0:0:0:0:
268,365,71395,2,0,L|259:290,1,64.9999970245363,2|0,0:3|0:0,0:0:0:0:
290,188,71588,1,0,0:0:0:0:
297,181,71685,1,0,0:0:0:0:
329,168,71782,6,0,B|287:179|287:179|239:170,1,85.0000016212464,0|4,0:0|0:3,0:0:0:0:
351,73,71975,2,0,B|481:58|481:58|445:98,1,170.000003242493,4|0,0:3|0:0,0:0:0:0:
422,173,72266,1,4,0:3:0:0:
423,187,72363,2,0,L|427:235,2,32.4999985122681,4|4|4,0:3|0:3|0:3,0:0:0:0:
338,147,72556,6,0,L|347:276,1,129.999994049073,4|0,0:3|0:0,0:0:0:0:
395,374,72846,6,0,B|516:346|516:346|447:332,1,179.999994506836,12|0,0:0|0:0,0:0:0:0:
259,318,73137,6,0,B|200:311|200:311|231:332,1,89.9999972534181,4|0,0:3|0:0,0:0:0:0:
509,336,73330,6,0,P|495:263|343:285,1,255.000004863739,6|0,1:2|0:0,0:0:0:0:
428,313,73717,2,0,L|420:227,1,75.0000028610231,8|0,0:0|0:0,0:0:0:0:
415,117,73911,1,0,0:0:0:0:
436,73,74008,6,0,B|451:162|409:139|422:238,1,150.000005722046,4|4,0:3|0:3,0:0:0:0:
421,238,74298,2,0,P|455:248|494:238,1,75.0000028610231
355,111,74492,2,0,L|213:124,1,112.500004291535,10|0,0:0|0:0,0:0:0:0:
205,207,74685,2,0,L|317:196,1,112.500004291535,2|0,0:0|0:0,0:0:0:0:
256,192,74879,12,0,76330,0:0:0:0:
240,104,76427,6,0,P|277:135|325:143,1,100,6|0,0:0|0:0,0:0:0:0:
175,174,76717,2,0,P|216:147|239:103,1,100
222,257,77008,2,0,P|209:209|175:174,1,100
315,238,77298,2,0,P|265:234|221:257,1,100
326,143,77588,5,2,0:0:0:0:
284,332,77782,1,2,0:0:0:0:
174,173,77975,1,2,0:0:0:0:
174,173,78169,6,0,P|180:152|152:168,1,75.0000028610231,2|0,0:0|0:0,0:0:0:0:
265,156,78363,2,0,P|258:119|239:86,1,75.0000028610231,2|0,0:0|0:0,0:0:0:0:
120,68,78556,2,0,P|91:92|72:124,1,75.0000028610231,2|0,0:0|0:0,0:0:0:0:
233,233,78750,6,0,P|255:197|265:155,1,85.0000016212464,2|2,0:0|0:0,0:0:0:0:
72,123,78943,2,0,P|68:165|78:206,1,85.0000016212464,2|0,0:0|0:0,0:0:0:0:
166,158,79137,2,0,L|139:325,1,170.000003242493,2|2,0:0|0:0,0:0:0:0:
264,155,79524,5,2,0:0:0:0:
264,155,79621,2,0,B|400:148,1,100
384,168,79911,2,0,P|372:124|388:56,1,100,2|0,0:0|0:0,0:0:0:0:
328,240,80298,5,2,0:0:0:0:
460,112,80492,1,0,0:0:0:0:
300,32,80685,2,0,B|164:39,1,100,2|0,0:0|0:0,0:0:0:0:
4,104,81072,6,0,B|48:108|48:108|68:120|68:120|136:128,1,112.500004291535,2|0,0:1|0:0,0:0:0:0:
112,125,81266,2,0,L|100:228,1,75.0000028610231,0|2,0:0|0:0,0:0:0:0:
184,288,81459,5,2,0:0:0:0:
188,260,81556,1,0,0:0:0:0:
252,316,81653,1,2,0:0:0:0:
256,288,81750,1,0,0:0:0:0:
323,341,81846,6,0,L|336:240,1,80,2|0,0:0|0:0,0:0:0:0:
188,260,82040,2,0,L|207:110,1,120,2|0,0:1|0:0,0:0:0:0:
203,140,82234,6,0,B|297:133|297:133|367:173|367:173|471:164,1,280,2|0,0:1|0:0,0:0:0:0:
471,163,82621,6,0,P|452:136|444:72,1,100,2|0,0:0|0:0,0:0:0:0:
392,218,82911,2,0,P|424:180|471:163,1,100
315,159,83201,2,0,P|361:179|392:218,1,100
347,68,83492,2,0,P|342:117|315:159,1,100
444,70,83782,5,2,0:0:0:0:
252,84,83975,1,2,0:0:0:0:
392,218,84169,1,2,0:0:0:0:
392,218,84363,6,0,L|384:304,1,75.0000028610231,2|0,0:0|0:0,0:0:0:0:
296,336,84556,1,0,0:0:0:0:
276,316,84653,1,0,0:0:0:0:
256,296,84750,2,0,L|264:382,1,75.0000028610231,2|0,0:0|0:0,0:0:0:0:
164,252,84943,6,0,P|188:220|244:196,1,85.0000016212464,2|0,0:0|0:0,0:0:0:0:
392,218,85137,2,0,P|424:242|444:279,1,85.0000016212464,2|0,0:0|0:0,0:0:0:0:
296,336,85330,2,0,L|316:140,1,170.000003242493,2|2,0:0|0:0,0:0:0:0:
176,72,85717,5,2,0:0:0:0:
176,72,85814,2,0,P|132:84|68:72,1,100
0,184,86104,1,2,0:0:0:0:
0,184,86201,2,0,P|44:172|108:184,1,100
164,236,86492,5,2,0:0:0:0:
78,76,86685,1,0,0:0:0:0:
164,236,86879,2,0,L|156:348,1,100,2|0,0:0|0:0,0:0:0:0:
236,164,87266,6,0,L|284:156,7,29.9999990844727,0|0|0|0|0|0|0|0,1:0|1:0|1:0|1:0|1:0|1:0|1:0|1:0,1:0:0:0:
164,236,87653,2,0,L|116:244,7,34.9999989318848,0|0|0|0|0|0|0|0,1:0|1:0|1:0|1:0|1:0|1:0|1:0|1:0,1:0:0:0:
264,264,88040,6,0,L|272:312,7,40,0|0|0|0|0|0|0|0,1:0|1:0|1:0|1:0|1:0|1:0|1:0|1:0,1:0:0:0:
140,144,88427,2,0,L|132:96,7,44.999998626709,0|0|0|0|0|0|0|0,1:0|1:0|1:0|1:0|1:0|1:0|1:0|1:0,1:0:0:0:
48,256,88814,6,0,L|66:366,1,100,6|0,0:0|0:0,0:0:0:0:
160,288,89201,1,2,0:0:0:0:
56,168,89395,6,0,L|12:164,4,25,2|2|2|2|2,0:0|0:0|0:0|0:0|0:0,0:0:0:0:
160,288,89782,1,0,0:0:0:0:
304,176,89975,6,0,L|364:168,1,50,2|0,0:0|0:0,0:0:0:0:
400,244,90169,2,0,L|340:252,1,50,2|0,0:0|0:0,0:0:0:0:
244,112,90363,5,2,0:0:0:0:
400,244,90556,1,2,0:0:0:0:
292,340,90750,2,0,L|303:175,1,165.000005035401
336,112,91137,6,0,L|330:186,1,75.0000028610231,0|0,1:0|0:0,0:0:0:0:
208,336,91330,2,0,L|214:246,1,85.0000016212464,2|0,0:1|0:0,0:0:0:0:
192,80,91524,6,0,L|188:32,2,42.5000008106232,2|0|0,1:0|0:0|0:0,0:0:0:0:
136,140,91717,1,2,0:0:0:0:
60,132,91814,1,0,0:1:0:0:
24,60,91911,6,0,L|45:228,1,150.000005722046,4|2,1:2|0:1,0:0:0:0:
136,140,92201,1,0,0:0:0:0:
155,57,92298,2,0,L|148:-3,3,50.0000019073487,2|0|0|2,1:0|0:0|0:0|0:0,0:0:0:0:
5,293,92685,6,0,P|38:302|84:294,1,75.0000028610231,2|0,1:0|0:0,0:0:0:0:
294,252,92879,5,2,0:2:0:0:
287,245,92943,1,0,0:0:0:0:
279,243,93008,1,0,0:0:0:0:
270,240,93072,2,0,P|233:234|197:243,1,75.0000028610231,2|0,1:0|0:0,0:0:0:0:
159,348,93266,5,2,0:0:0:0:
241,341,93363,1,2,0:0:0:0:
323,334,93459,2,0,L|486:345,1,150.000005722046,2|0,1:0|0:0,0:0:0:0:
501,236,93750,1,0,0:0:0:0:
419,229,93846,2,0,L|256:240,1,150.000005722046,2|0,1:2|0:0,0:0:0:0:
151,230,94137,1,0,0:0:0:0:
77,184,94234,6,0,L|72:108,1,75.0000028610231,2|0,1:0|0:0,0:0:0:0:
74,271,94427,1,0,0:0:0:0:
74,271,94524,1,0,0:0:0:0:
184,154,94621,2,0,P|215:171|232:205,1,75.0000028610231,2|0,1:0|0:0,0:0:0:0:
123,337,94814,2,0,P|92:355|54:353,1,75.0000028610231,2|0,0:1|0:0,0:0:0:0:
1,221,95008,6,0,L|169:231,1,150.000005722046,0|2,1:0|0:1,0:0:0:0:
236,298,95298,1,0,0:0:0:0:
306,336,95395,2,0,L|355:340,3,50.0000019073487,2|0|0|2,1:0|0:0|0:0|0:0,0:0:0:0:
156,151,95782,6,0,L|162:70,1,75.0000028610231,2|0,1:0|0:0,0:0:0:0:
343,15,95975,5,2,0:0:0:0:
344,23,96040,1,0,0:0:0:0:
345,31,96104,1,0,0:0:0:0:
346,40,96169,2,0,L|351:114,1,75.0000028610231,2|0,1:0|0:0,0:0:0:0:
231,230,96363,2,0,P|264:219|318:226,1,75.0000028610231,0|2,0:0|0:0,0:0:0:0:
449,310,96556,6,0,P|424:310|400:304,2,50.0000019073487,2|0|0,1:0|0:0|0:0,0:0:0:0:
512,229,96750,6,0,L|505:175,1,55.0000016784668
416,175,96943,2,0,L|409:229,1,55.0000016784668,0|0,1:0|0:0,0:0:0:0:
310,312,97137,1,2,0:0:0:0:
222,316,97234,1,2,0:0:0:0:
135,354,97330,6,0,L|116:213,1,112.500004291535,0|0,1:0|0:0,0:0:0:0:
111,169,97524,6,0,L|126:280,1,112.500004291535,2|0,0:1|0:0,0:0:0:0:
55,335,97717,6,0,L|0:343,2,50.0000019073487,2|0|0,1:0|0:0|0:0,0:0:0:0:
191,188,97911,6,0,L|283:175,1,75.0000028610231,2|0,0:1|0:0,0:0:0:0:
36,134,98104,6,0,P|1:49|99:97,1,255.000004863739,2|0,1:0|0:0,0:0:0:0:
85,206,98492,2,0,P|51:219|3:211,1,75.0000028610231,0|0,1:0|0:0,0:0:0:0:
180,124,98685,5,2,0:1:0:0:
194,121,98750,1,0,0:0:0:0:
208,118,98814,1,0,0:0:0:0:
237,87,98879,6,0,B|216:223|279:166|263:321,1,225.000008583069,2|0,1:0|0:0,0:0:0:0:
182,262,99266,2,0,P|146:258|111:271,1,75.0000028610231,0|0,1:0|0:0,0:0:0:0:
319,141,99459,5,2,0:1:0:0:
333,144,99524,1,0,0:0:0:0:
347,147,99588,1,0,0:0:0:0:
387,192,99653,6,0,L|374:44,1,129.999994049073,2|2,1:2|0:0,0:0:0:0:
460,31,99943,1,0,0:0:0:0:
492,66,100040,2,0,B|504:93|504:93|496:133,1,64.9999970245363,0|0,1:0|0:0,0:0:0:0:
462,217,100234,1,2,0:1:0:0:
256,118,100427,1,0,1:0:0:0:
420,107,100621,6,0,L|348:100,1,64.9999970245363,2|0,0:0|0:0,0:0:0:0:
232,213,100814,2,0,L|304:206,1,64.9999970245363,2|0,1:0|0:0,0:0:0:0:
478,271,101008,2,0,P|406:262|360:334,1,150.000005722046,2|0,0:1|1:0,0:0:0:0:
222,133,101395,6,0,L|233:222,1,80,2|2,0:1|0:0,0:0:0:0:
246,348,101588,1,0,1:0:0:0:
459,118,101782,6,0,L|448:207,1,80,2|2,0:1|0:0,0:0:0:0:
435,333,101975,1,0,1:0:0:0:
105,95,102169,6,0,L|116:184,1,80,2|2,0:1|0:0,0:0:0:0:
129,310,102362,1,0,1:0:0:0:
349,60,102556,6,0,L|338:149,1,80,2|2,0:1|0:0,0:0:0:0:
325,275,102749,1,8,0:0:0:0:
35,184,102943,6,0,L|124:173,1,80,2|0,0:1|0:0,0:0:0:0:
250,160,103136,1,8,0:0:0:0:
129,310,103330,6,0,L|218:321,1,80,2|8,0:1|0:0,0:0:0:0:
344,334,103523,1,8,1:0:0:0:
352,88,103717,6,0,L|363:177,1,80,2|0,0:1|0:0,0:0:0:0:
481,379,103911,2,0,L|459:220,1,160,2|2,0:1|0:1,0:0:0:0:
445,130,104201,1,2,0:1:0:0:
264,48,104298,6,2,B|214:10|214:10|233:145|233:145|278:179|278:179|297:313|297:313|247:276,1,450.000017166138,6|0,0:2|0:0,1:0:0:0:
249,277,105653,5,0,1:0:0:0:
259,164,105750,1,0,1:0:0:0:
264,48,105846,6,0,B|323:53|323:53|354:79|354:79|413:84,1,160,4|0,1:2|0:0,0:0:0:0:
259,164,106137,2,0,B|199:158|199:158|168:132|168:132|109:127,1,160,4|0,1:2|0:0,0:0:0:0:
414,84,106427,6,0,L|430:256,1,160,4|0,1:2|0:0,0:0:0:0:
273,323,106717,2,0,L|257:151,1,160,4|0,1:2|0:0,0:0:0:0:
110,97,107008,5,0,0:0:0:0:
108,127,107104,1,2,0:0:0:0:
92,109,107201,1,2,0:0:0:0:
125,113,107298,1,2,0:0:0:0:
258,163,107395,6,0,P|295:160|355:137,1,75.0000028610231,0|0,1:0|0:0,0:0:0:0:
452,268,107588,2,0,P|414:255|374:251,1,75.0000028610231,2|0,0:1|0:0,0:0:0:0:
273,323,107782,5,2,1:0:0:0:
261,319,107846,1,0,0:0:0:0:
249,315,107911,1,0,0:0:0:0:
237,311,107975,2,0,L|117:319,1,75.0000028610231
56,344,108169,6,0,L|50:264,1,75.0000028610231,2|0,1:0|0:0,1:0:0:0:
76,164,108363,5,2,0:0:0:0:
88,168,108427,1,0,0:0:0:0:
100,172,108492,1,0,0:0:0:0:
112,176,108556,2,0,L|232:168,1,75.0000028610231,2|0,1:0|0:0,0:0:0:0:
243,51,108750,2,0,L|163:56,1,75.0000028610231,2|0,0:0|0:0,0:0:0:0:
308,164,108943,6,0,L|296:228,2,50.0000019073487,2|0|0,1:0|0:0|0:0,0:0:0:0:
318,47,109137,2,0,L|238:52,1,75.0000028610231,2|0,0:0|0:0,0:0:0:0:
169,56,109330,2,0,L|248:50,1,75.0000028610231,2|0,1:2|0:0,0:0:0:0:
412,40,109524,5,2,0:1:0:0:
432,120,109621,1,2,0:0:0:0:
452,200,109717,6,0,L|487:340,1,120,2|0,1:2|0:0,0:0:0:0:
428,384,109911,6,0,L|457:267,1,120,2|0,0:1|0:0,0:0:0:0:
364,196,110104,6,0,L|381:266,2,40,2|0|0,0:1|0:0|0:0,0:0:0:0:
316,380,110298,2,0,L|337:293,1,80,2|0,0:0|0:0,0:0:0:0:
392,108,110492,6,0,B|304:104|304:104|240:132|240:132|140:128,1,247.500002360344,6|0,1:1|0:0,0:0:0:0:
0,152,110879,6,0,B|88:156|88:156|152:128|152:128|252:132,1,247.500002360344,0|0,1:0|0:0,0:0:0:0:
143,293,111266,6,0,L|150:128,1,165.000001573563,2|0,1:0|0:0,0:0:0:0:
246,18,111556,1,0,1:0:0:0:
245,49,111653,2,0,L|240:150,1,82.5000007867813,0|0,0:0|1:0,0:0:0:0:
348,212,111846,2,0,L|352:110,1,82.5000007867813,2|0,0:1|0:0,0:0:0:0:
424,296,112040,5,2,0:2:0:0:
424,296,112137,2,0,L|427:378,2,42.5000008106232,0|0|0,1:0|1:0|1:0,1:0:0:0:
348,212,112330,1,0,1:0:0:0:
252,272,112427,2,0,B|204:292|204:292|72:280,1,170.000003242493,2|2,1:0|0:1,0:0:0:0:
232,103,112814,6,0,L|252:275,1,170.000003242493,0|2,1:0|0:1,0:0:0:0:
348,212,113104,2,0,L|328:40,1,170.000003242493,0|0,1:0|0:0,0:0:0:0:
232,104,113395,1,2,1:0:0:0:
456,208,113588,6,0,P|424:296|336:316,1,179.999994506836,6|0,1:0|0:0,0:0:0:0:
198,173,113879,2,0,P|290:156|351:222,1,179.999994506836,2|0,1:2|0:0,0:0:0:0:
240,344,114169,2,0,P|240:296|256:258,1,89.9999972534181,2|0,1:2|0:0,0:0:0:0:
497,250,114363,6,0,P|404:266|343:200,1,179.999994506836,2|0,1:2|0:0,0:0:0:0:
398,9,114654,2,0,P|458:80|431:166,1,179.999994506836,2|0,1:2|0:0,0:0:0:0:
271,130,114944,2,0,P|312:106|352:101,1,89.9999972534181,2|0,1:2|0:0,0:0:0:0:
497,250,115137,5,4,0:0:0:0:
497,250,115234,1,0,0:0:0:0:
497,250,115330,2,0,L|504:296,3,25
420,316,115524,2,0,L|414:354,2,33.3333333333333
340,264,115717,6,0,L|333:221,3,32.4999985122681
264,320,115911,5,2,0:1:0:0:
184,312,116008,1,2,0:2:0:0:
104,304,116105,1,2,0:2:0:0:
24,296,116202,1,0,0:2:0:0:
116,284,116298,5,2,1:0:0:0:
156,279,116395,1,2,0:0:0:0:
196,275,116492,1,2,0:0:0:0:
235,271,116589,1,0,0:0:0:0:
327,259,116685,6,2,P|352:163|276:201,1,225.000008583069,6|0,1:0|0:0,0:1:0:0:
323,332,117072,2,0,P|330:298|324:249,1,75.0000028610231,8|0,0:0|0:0,0:0:0:0:
201,131,117266,1,0,0:0:0:0:
201,131,117363,1,0,0:0:0:0:
201,131,117459,6,2,B|170:182|170:182|350:157,1,225.000008583069,2|8,1:0|0:0,0:1:0:0:
459,286,117846,2,2,B|490:235|490:235|310:260,1,225.000008583069,2|0,1:0|0:0,0:1:0:0:
238,270,118234,1,0,1:0:0:0:
413,90,118427,6,0,L|425:177,1,75.0000028610231
371,247,118621,2,0,L|322:254,2,50.0000019073487,10|0|0,0:1|0:0|0:0,0:0:0:0:
373,339,118814,2,0,P|405:348|457:335,1,75.0000028610231,2|0,0:0|0:0,0:0:0:0:
495,162,119008,6,0,P|458:154|422:164,1,75.0000028610231,2|0,1:0|0:0,0:0:0:0:
508,273,119201,2,0,L|493:145,1,112.500004291535,2|0,0:0|0:0,0:0:0:0:
469,63,119395,6,0,P|416:80|361:70,1,112.500004291535,10|0,0:1|0:0,0:0:0:0:
282,37,119588,2,2,L|286:3,2,33.3333333333333
207,74,119782,6,2,L|445:54,1,225.000008583069,2|0,1:0|0:0,0:1:0:0:
360,90,120169,2,0,L|285:97,1,75.0000028610231,8|0,0:0|0:0,0:0:0:0:
125,82,120363,1,0,0:0:0:0:
125,82,120459,1,0,0:0:0:0:
235,41,120556,6,2,B|281:10|281:10|258:194,1,225.000008583069,2|8,1:0|0:0,0:1:0:0:
284,315,120943,2,2,B|238:346|238:346|261:162,1,225.000008583069,2|0,1:0|0:0,0:1:0:0:
463,112,121330,6,2,B|388:120|388:120|342:167|342:167|252:178,1,225.000008583069,2|0,1:0|0:0,0:1:0:0:
227,82,121717,2,0,L|300:90,1,75.0000028610231,10|0,0:1|0:0,0:0:0:0:
476,196,121911,2,0,L|413:203,2,50.0000019073487,2|0|0,0:0|0:0|0:0,0:0:0:0:
305,311,122104,5,2,1:0:0:0:
321,312,122169,1,0,0:0:0:0:
337,314,122234,1,0,0:0:0:0:
353,315,122298,1,10,0:0:0:0:
369,317,122363,1,0,0:0:0:0:
386,318,122428,1,0,0:0:0:0:
402,320,122492,2,0,L|465:327,2,50.0000019073487,2|0|0,0:1|0:0|0:0,0:0:0:0:
304,227,122685,2,0,L|241:234,2,50.0000019073487,10|0|0,0:0|0:0|0:0,0:0:0:0:
388,170,122879,6,2,L|402:320,1,150,2|0,0:1|0:0,0:1:0:0:
400,308,123266,6,0,P|439:288|492:295,1,80,4|0,1:2|0:0,0:0:0:0:
508,133,123459,6,0,P|483:130|458:119,2,53.3333333333333
344,44,123653,1,0,1:0:0:0:
344,44,123750,2,0,L|432:35,1,80,2|0,0:0|0:0,0:0:0:0:
323,156,123943,1,8,0:0:0:0:
323,156,124040,2,0,L|235:147,1,80,2|0,1:0|0:0,0:0:0:0:
411,325,124234,2,0,L|402:237,1,80,2|0,0:0|0:0,0:0:0:0:
243,147,124427,6,2,B|419:123|419:123|369:183,1,240,2|0,1:0|0:0,0:1:0:0:
313,225,124814,1,8,0:0:0:0:
192,70,125008,2,0,B|227:51|227:51|283:59,1,80,2|0,0:1|0:0,0:0:0:0:
482,163,125201,2,0,L|244:149,1,213.333333333333,0|0,1:0|0:0,0:0:0:0:
195,179,125524,1,0,0:0:0:0:
178,178,125588,2,0,L|88:172,1,80,2|0,1:0|0:0,0:0:0:0:
37,64,125782,2,0,L|127:70,1,80
242,20,125975,6,0,P|262:51|264:102,2,80,2|0|0,1:0|0:0|0:0,0:0:0:0:
358,102,126266,6,0,P|350:138|315:175,2,80,2|8|0,0:1|0:0|0:0,0:0:0:0:
383,237,126556,6,0,P|361:250|335:255,2,53.3333333333333,2|0|0,0:1|0:0|0:0,0:0:0:0:
290,333,126750,6,0,P|270:317|257:294,2,53.3333333333333,2|0|0,1:0|0:0|0:0,0:0:0:0:
170,274,126943,6,0,P|177:249|196:230,2,53.3333333333333,2|0|0,0:1|0:0|0:0,0:0:0:0:
187,141,127137,6,0,P|214:141|238:153,2,53.3333333333333,2|0|0,1:0|0:0|0:0,0:0:0:0:
319,117,127330,6,0,P|325:142|322:169,2,53.3333333333333,2|0|0,0:1|0:0|0:0,0:0:0:0:
383,237,127524,6,0,L|217:231,1,150.000005722046,2|0,1:0|0:0,0:0:0:0:
125,228,127814,1,0,0:0:0:0:
128,242,127911,2,0,L|136:306,2,50.0000019073487,10|0|0,0:1|0:0|0:0,0:0:0:0:
218,360,128104,2,0,L|226:296,2,50.0000019073487,10|0|0,0:1|0:0|0:0,0:0:0:0:
176,165,128298,6,0,P|204:147|249:145,1,75.0000028610231,2|8,1:0|0:0,0:0:0:0:
319,215,128492,2,0,P|320:248|299:288,1,75.0000028610231,0|8,1:2|0:0,0:0:0:0:
233,231,128685,6,0,L|237:185,1,37.5000014305115,10|0,0:0|0:0,0:0:0:0:
237,174,128782,6,0,L|241:128,1,37.5000014305115,10|0,0:0|0:0,0:0:0:0:
241,117,128878,6,0,L|245:71,1,37.5000014305115,10|0,0:0|0:0,0:0:0:0:
245,60,128975,6,0,L|249:14,1,37.5000014305115,10|0,0:0|0:0,0:0:0:0:
249,3,129072,6,2,P|256:149|316:31,1,375,6|0,1:1|0:0,0:1:0:0:
259,76,129846,6,0,L|266:164,1,69.9999978637696
378,165,130234,2,0,L|372:95,1,69.9999978637696
466,238,130621,5,2,0:0:0:0:
385,248,130814,1,0,0:0:0:0:
304,258,131008,1,0,0:0:0:0:
223,268,131201,1,0,0:0:0:0:
379,317,131395,6,0,L|385:247,1,69.9999978637696,2|0,0:0|0:0,0:0:0:0:
309,188,131782,2,0,L|303:258,1,69.9999978637696
133,306,132169,5,2,0:0:0:0:
198,353,132362,1,0,0:0:0:0:
59,338,132556,1,0,0:0:0:0:
141,225,132749,1,0,0:0:0:0:
267,346,132943,6,0,L|191:353,1,69.9999978637696
63,299,133330,2,0,L|139:306,1,69.9999978637696
267,346,133717,5,2,0:0:0:0:
257,265,133910,1,0,0:0:0:0:
247,184,134104,1,0,0:0:0:0:
237,103,134297,1,0,0:0:0:0:
257,265,134492,6,0,L|326:271,1,69.9999978637696,2|0,0:0|0:0,0:0:0:0:
247,184,134879,2,0,L|177:177,1,69.9999978637696
21,51,135266,6,0,B|62:38|62:38|118:53,1,85.0000016212464,2|2,3:0|0:0,0:0:0:0:
180,72,135556,1,0,0:0:0:0:
199,77,135653,2,0,L|298:72,1,85.0000016212464,2|2,3:0|0:0,0:0:0:0:
355,29,135943,1,0,0:0:0:0:
374,24,136040,2,0,L|423:27,1,42.5000008106232,2|0,3:0|0:0,0:0:0:0:
464,118,136234,2,0,L|415:115,1,42.5000008106232,2|0,0:0|0:0,0:0:0:0:
368,191,136427,2,0,L|373:290,1,85.0000016212464,2|2,3:0|0:0,0:0:0:0:
473,324,136717,1,0,0:0:0:0:
491,333,136814,6,0,B|450:346|450:346|394:331,1,85.0000016212464,2|2,3:0|0:0,0:0:0:0:
332,312,137104,1,0,0:0:0:0:
313,307,137201,2,0,L|214:312,1,85.0000016212464,2|2,3:0|0:0,0:0:0:0:
157,355,137491,1,0,0:0:0:0:
138,360,137588,2,0,L|89:357,1,42.5000008106232,2|0,3:0|3:0,0:0:0:0:
48,266,137782,2,0,L|97:269,1,42.5000008106232,2|0,0:0|0:0,0:0:0:0:
144,193,137975,2,0,L|139:94,1,85.0000016212464,2|2,3:0|0:0,0:0:0:0:
133,27,138266,1,0,0:0:0:0:
131,13,138363,6,0,L|252:24,1,100,2|2,3:0|0:0,0:0:0:0:
395,77,138653,1,0,0:0:0:0:
376,79,138750,2,0,L|255:90,1,100,2|2,3:0|0:0,0:0:0:0:
169,153,139040,1,0,0:0:0:0:
188,155,139137,2,0,L|259:162,1,50,2|0,1:2|0:0,0:0:0:0:
324,236,139330,2,0,L|253:243,1,50,2|0,0:0|0:0,0:0:0:0:
142,275,139524,2,0,L|213:282,1,50,2|0,1:2|0:0,0:0:0:0:
370,356,139717,2,0,L|299:363,1,50,2|0,0:0|0:0,0:0:0:0:
239,368,139911,1,0,1:0:0:0:
239,368,140104,6,0,P|231:337|239:300,1,64.9999970245363,2|0,0:0|0:0,0:0:0:0:
259,189,140298,5,0,0:0:0:0:
231,186,140395,1,2,0:0:0:0:
258,167,140492,5,0,0:0:0:0:
230,164,140589,1,2,0:0:0:0:
272,76,140685,6,0,P|257:59|226:77,1,64.9999970245363,2|0,0:0|0:0,0:0:0:0:
222,202,140879,6,0,P|237:219|268:201,1,64.9999970245363,2|0,0:0|0:0,0:0:0:0:
356,92,141072,6,0,L|350:43,5,43.3333313496908,2|0|0|0|0|0,3:2|3:0|3:0|3:0|3:0|3:0,3:0:0:0:
440,140,141459,6,0,L|432:296,1,139.999995727539,6|0,1:0|0:0,0:0:0:0:
429,349,141750,2,0,L|434:238,1,69.9999978637696,0|0,0:0|1:0,0:0:0:0:
472,68,141943,5,2,3:0:0:0:
440,140,142040,2,0,L|434:250,1,69.9999978637696
300,308,142234,6,0,L|292:152,1,139.999995727539,2|0,1:3|0:0,0:0:0:0:
289,98,142524,2,0,L|292:167,1,69.9999978637696,0|0,0:0|1:0,0:0:0:0:
340,376,142718,5,2,3:0:0:0:
300,308,142815,2,0,L|294:197,1,69.9999978637696
160,100,143008,6,0,L|152:256,1,139.999995727539,2|0,1:3|0:0,0:0:0:0:
149,310,143298,2,0,L|152:241,1,69.9999978637696,0|0,0:0|1:0,0:0:0:0:
200,32,143492,5,2,3:0:0:0:
160,100,143589,2,0,L|154:211,1,69.9999978637696
240,300,143782,6,0,L|316:288,2,69.9999978637696,2|0|0,1:3|0:0|0:0,0:0:0:0:
72,204,144072,2,0,L|-4:192,2,69.9999978637696,2|0|0,3:0|1:0|0:0,0:0:0:0:
240,104,144363,2,0,L|316:92,1,69.9999978637696,2|0,3:0|0:0,0:0:0:0:
436,228,144556,6,0,P|452:292|424:376,1,139.999995727539,2|0,1:3|0:0,0:0:0:0:
298,358,144846,2,0,L|308:288,1,69.9999978637696,0|0,0:0|1:0,0:0:0:0:
392,156,145040,5,2,3:3:0:0:
435,227,145137,2,0,P|448:260|451:295,1,69.9999978637696
298,358,145330,6,0,P|230:373|163:355,1,139.999995727539,2|0,1:3|0:0,0:0:0:0:
164,220,145620,2,0,L|233:230,1,69.9999978637696
370,314,145814,5,2,3:0:0:0:
299,358,145911,2,0,P|266:370|231:373,1,69.9999978637696
164,220,146104,6,0,L|172:64,1,139.999995727539,2|0,1:3|0:0,0:0:0:0:
64,260,146395,2,0,L|71:120,1,139.999995727539,2|0,3:0|0:0,0:0:0:0:
256,272,146685,2,0,L|261:165,1,69.9999978637696,2|0,3:0|0:0,0:0:0:0:
171,80,146879,6,0,L|174:15,1,50,2|0,1:2|0:0,0:0:0:0:
70,120,147072,2,0,L|73:71,1,50,2|0,0:0|0:0,0:0:0:0:
259,202,147266,1,0,1:0:0:0:
260,176,147363,6,0,L|263:127,1,50,2|0,0:1|0:0,0:0:0:0:
321,260,147459,2,0,P|254:289|190:253,1,150,2|0,0:1|0:0,0:0:0:0:
191,254,147653,6,0,L|198:333,1,75.0000028610231,2|0,1:3|0:0,0:0:0:0:
88,216,147846,2,0,L|95:295,1,75.0000028610231,2|0,1:3|0:0,0:0:0:0:
188,80,148041,6,0,L|181:159,1,75.0000028610231,2|0,1:3|0:0,0:0:0:0:
290,43,148234,2,0,L|283:122,1,75.0000028610231,2|0,1:3|0:0,0:0:0:0:
94,290,148427,6,0,L|173:297,1,75.0000028610231,2|0,1:3|0:0,0:0:0:0:
332,236,148620,2,0,L|257:229,1,75.0000028610231,2|0,1:3|0:0,0:0:0:0:
106,148,148814,2,0,L|180:154,1,75.0000028610231,2|0,1:3|0:0,0:0:0:0:
332,236,149008,1,2,1:3:0:0:
332,236,149104,1,0,0:0:0:0:
332,236,149201,6,0,P|368:236|408:212,1,64.9999970245363,2|0,1:3|0:0,0:0:0:0:
448,144,149395,2,0,P|448:108|424:68,1,64.9999970245363,2|0,1:3|0:0,0:0:0:0:
260,176,149588,6,0,P|242:207|242:253,1,64.9999970245363,2|0,1:3|0:0,0:0:0:0:
281,322,149782,2,0,P|312:340|358:339,1,64.9999970245363,2|0,1:3|0:0,0:0:0:0:
344,144,149975,6,0,P|326:112|285:90,1,64.9999970245363,2|0,1:3|0:0,0:0:0:0:
207,89,150169,2,0,P|175:107|153:147,1,64.9999970245363,2|0,1:3|0:0,0:0:0:0:
332,236,150363,6,0,P|368:236|408:212,1,64.9999970245363,2|0,1:3|0:0,0:0:0:0:
365,84,150556,2,0,P|329:84|289:108,1,64.9999970245363,2|0,1:3|0:0,0:0:0:0:
238,235,150750,6,0,L|232:288,7,32.4999985122681,2|0|2|0|2|0|2|0,1:3|1:0|1:3|1:0|1:3|1:0|1:3|1:0,1:0:0:0:
168,176,151137,6,0,L|162:123,7,37.5000014305115,2|0|2|0|2|0|2|0,1:3|1:0|1:3|1:0|1:3|1:0|1:3|1:0,1:0:0:0:
116,268,151524,6,0,L|110:321,7,42.5000008106232,2|0|2|0|2|0|2|0,1:3|1:0|1:3|1:0|1:3|1:0|1:3|1:0,1:0:0:0:
52,184,151911,6,0,L|46:131,7,47.4999987316132,2|0|2|0|2|0|2|0,1:3|1:0|1:3|1:0|1:3|1:0|1:3|1:0,1:0:0:0:
92,68,152298,6,0,P|128:44|173:33,1,66.6666666666667,2|0,3:2|3:0,0:0:0:0:
253,39,152556,1,0,3:0:0:0:
163,138,152685,6,0,P|201:157|233:191,1,66.6666666666667,0|0,3:3|3:0,0:0:0:0:
267,262,152943,1,0,3:0:0:0:
136,240,153072,5,0,3:3:0:0:
316,172,153266,1,0,3:0:0:0:
217,323,153459,2,0,L|219:173,1,150,4|0,0:3|0:0,0:0:0:0:
141,126,153846,6,0,B|190:89|208:26|208:26|234:85|285:113,1,240,4|0,3:0|0:0,0:0:0:0:
301,119,154234,6,2,L|368:114,4,53.3333333333333,2|2|2|2|2,0:2|0:2|0:2|0:2|0:2,0:2:0:0:
510,269,154621,6,0,P|517:241|513:206,1,64.9999970245363,10|0,0:0|0:0,0:0:0:0:
411,266,154814,2,0,P|418:238|414:203,1,64.9999970245363,2|0,0:0|0:0,0:0:0:0:
301,119,155008,1,0,0:0:0:0:
301,119,155104,2,0,L|302:159,1,40,2|0,0:0|0:0,0:0:0:0:
252,217,155201,2,0,P|298:191|372:205,1,120,2|0,0:0|0:0,0:0:0:0:
411,266,155395,6,0,L|419:148,1,97.4999955368044,2|0,0:0|0:0,0:0:0:0:
501,120,155588,2,0,L|510:213,2,64.9999970245363,2|0|0,0:0|1:0|0:0,0:0:0:0:
370,41,155879,1,2,0:0:0:0:
287,31,155975,2,0,L|244:25,2,32.4999985122681,0|0|0,1:0|1:0|1:0,1:0:0:0:
359,186,156169,6,0,B|336:102|387:132|368:33,1,150.000005722046,14|0,0:0|0:0,0:0:0:0:
234,122,156459,1,0,0:0:0:0:
234,122,156556,6,0,P|267:133|315:127,1,75,2|0,0:0|0:0,0:0:0:0:
504,141,156750,2,0,P|466:137|431:148,1,75,2|0,0:0|0:0,0:0:0:0:
283,205,156943,6,0,P|345:111|234:122,1,280,2|0,1:2|0:0,0:0:0:0:
208,251,157330,6,0,B|200:193|200:193|216:155|216:155|210:105,1,150,2|0,0:0|0:0,0:0:0:0:
126,142,157717,5,8,0:0:0:0:
283,205,157814,2,0,L|330:209,1,37.5000014305115,2|0,0:1|0:0,0:0:0:0:
286,221,157911,2,0,L|333:225,1,37.5000014305115,2|0,0:1|0:0,0:0:0:0:
378,245,158008,6,0,L|228:233,1,150.000005722046,2|0,0:1|0:0,0:0:0:0:
135,223,158298,1,2,0:1:0:0:
485,343,158492,6,0,P|496:306|464:290,1,75.0000028610231,0|0,1:0|0:0,0:0:0:0:
378,245,158685,1,0,0:0:0:0:
378,245,158782,1,2,0:0:0:0:
362,148,158879,6,0,P|373:122|393:153,1,75.0000028610231,0|2,1:0|0:0,0:0:0:0:
371,319,159072,2,0,L|378:244,1,75.0000028610231
461,8,159266,6,0,B|447:104|494:74|483:169,1,160,8|0,0:0|0:0,0:0:0:0:
477,260,159556,1,8,0:0:0:0:
392,197,159653,6,0,B|397:144|397:144|382:111,1,80
295,188,159846,2,0,B|300:135|300:135|285:102,1,80,8|0,0:0|0:0,0:0:0:0:
198,150,160040,6,0,B|162:113|162:113|309:79|309:79|274:131,1,240,4|0,3:0|0:0,0:0:0:0:
276,228,160427,6,2,L|281:278,4,43.3333313496908,2|2|2|2|2,0:2|0:2|0:2|0:2|0:2,0:2:0:0:
273,97,160814,6,0,B|306:91|306:91|348:103,1,64.9999970245363,10|0,0:0|0:0,0:0:0:0:
485,136,161008,2,0,B|454:144|454:144|421:138,1,64.9999970245363,2|0,0:0|0:0,0:0:0:0:
411,45,161201,5,0,0:0:0:0:
411,45,161298,2,0,L|406:-9,1,40,2|0,0:0|0:0,0:0:0:0:
336,99,161395,2,0,L|345:228,1,120,2|0,0:0|0:0,0:0:0:0:
328,253,161588,6,0,B|374:263|374:263|433:247,1,97.4999955368044,2|0,0:0|0:0,0:0:0:0:
509,274,161782,2,0,L|502:200,2,64.9999970245363,2|0|0,0:0|1:0|0:0,0:0:0:0:
495,132,162072,1,2,0:0:0:0:
488,55,162169,2,0,L|485:12,2,32.4999985122681,0|0|0,1:0|1:0|1:0,1:0:0:0:
432,177,162363,6,0,P|376:196|309:132,1,150.000005722046,14|0,0:0|0:0,0:0:0:0:
320,58,162653,1,0,0:0:0:0:
320,58,162750,6,0,P|358:67|383:97,1,75,2|0,0:0|0:0,0:0:0:0:
302,226,162943,2,0,P|264:217|239:187,1,75,2|0,0:0|0:0,0:0:0:0:
311,142,163137,6,0,B|371:154|477:130|477:130|433:146|395:183,1,240,2|0,1:2|0:0,0:0:0:0:
479,281,163524,2,0,L|485:243,1,32.4999985122681,2|0,0:0|0:0,0:0:0:0:
475,269,163621,2,0,L|481:231,1,32.4999985122681,2|0,0:0|0:0,0:0:0:0:
471,257,163717,2,0,L|477:219,1,32.4999985122681,2|0,0:0|0:0,0:0:0:0:
254,272,163911,5,8,0:0:0:0:
318,333,164008,2,0,L|406:325,2,75.0000028610231,0|2|2,0:0|0:0|0:0,0:0:0:0:
190,211,164298,6,0,P|220:187|278:188,1,85.0000016212464,2|0,0:0|0:0,0:0:0:0:
318,333,164492,2,0,P|288:357|230:356,1,85.0000016212464,2|0,0:0|0:0,0:0:0:0:
90,288,164685,6,0,B|115:259|115:259|222:248|222:248|255:272,1,184.999999294281,12|0,0:0|1:0,0:0:0:0:
457,311,164975,6,0,B|316:334|316:334|357:299,1,184.999999294281,12|0,0:0|1:0,0:0:0:0:
302,149,165266,6,0,P|318:121|328:163,1,92.4999996471405,12|0,0:0|1:0,0:0:0:0:
242,360,165459,6,0,P|227:331|234:269,1,92.4999996471405,12|0,0:0|0:0,0:0:0:0:
181,183,165653,5,0,1:0:0:0:
202,102,165750,1,0,1:0:0:0:
224,22,165846,2,2,L|158:29,5,50.0000019073487
296,100,166234,6,0,B|324:68|326:36|326:36|352:228,1,240,6|0,1:2|0:0,0:0:0:0:
354,228,166621,6,2,L|420:221,4,53.3333333333333,10|2|2|2|2,0:2|0:2|0:2|0:2|0:2,0:2:0:0:
244,324,167008,6,0,L|143:313,1,80,2|0,1:2|0:0,0:0:0:0:
220,236,167201,2,0,L|119:225,1,80,2|0,0:2|0:0,0:0:0:0:
244,324,167395,5,8,0:0:0:0:
244,324,167492,2,0,L|306:330,1,44.999998626709,2|0,0:0|0:0,0:0:0:0:
220,236,167588,2,0,L|119:225,1,89.9999972534181,2|0,0:0|0:0,0:0:0:0:
56,104,167782,6,0,P|92:88|132:88,1,80,2|0,1:2|0:0,0:0:0:0:
236,120,167975,2,0,P|275:119|312:104,1,80,2|0,0:0|0:0,0:0:0:0:
132,88,168169,5,8,0:0:0:0:
132,88,168266,2,0,P|92:88|60:104,1,44.999998626709,2|0,0:0|0:0,0:0:0:0:
236,120,168363,2,0,P|268:120|324:96,1,89.9999972534181,2|0,0:0|0:0,0:0:0:0:
448,28,168556,6,0,L|444:120,1,80,2|0,1:2|0:0,0:0:0:0:
438,232,168750,1,0,0:0:0:0:
438,232,168846,1,0,0:0:0:0:
435,312,168943,6,0,L|438:232,1,80,8|0,0:0|0:0,0:0:0:0:
448,28,169137,6,0,L|442:153,1,120,2|0,0:0|0:0,0:0:0:0:
437,232,169330,6,0,B|395:251|359:240|359:240|329:281|329:281|293:270|252:289,1,209.999993591309,0|0,1:0|0:0,0:0:0:0:
148,352,169717,5,10,0:0:0:0:
128,344,169814,1,2,0:0:0:0:
108,336,169911,2,0,L|40:348,1,50,2|0,0:0|1:0,0:0:0:0:
232,280,170104,5,0,1:0:0:0:
144,248,170201,2,0,L|76:260,1,50,2|0,0:1|0:0,0:0:0:0:
152,232,170298,2,0,L|84:244,1,50,2|0,0:1|0:0,0:0:0:0:
48,232,170395,2,0,L|209:203,1,150,2|0,1:0|0:0,0:0:0:0:
264,272,170588,6,0,L|332:260,1,50,2|0,0:2|0:0,0:0:0:0:
252,288,170685,2,0,L|415:260,1,150,2|0,0:1|0:0,0:0:0:0:
488,224,170879,6,2,P|424:300|448:208,1,262.500010013581,2|0,1:1|0:0,0:1:0:0:
476,332,171266,6,0,P|432:332|388:300,1,85.0000016212464,8|2,0:0|0:0,0:0:0:0:
432,180,171459,2,0,P|476:180|520:212,1,85.0000016212464
344,228,171653,5,0,1:0:0:0:
272,164,171750,2,0,L|280:112,1,37.5000014305115
260,152,171846,2,0,L|268:100,1,37.5000014305115
248,140,171943,2,0,L|256:88,1,37.5000014305115,2|0,0:0|0:0,0:0:0:0:
168,192,172040,6,0,L|153:99,1,75.0000028610231,8|2,0:0|0:0,0:0:0:0:
266,52,172234,2,0,L|280:144,1,75.0000028610231,0|2,0:0|0:0,0:0:0:0:
258,265,172427,6,0,B|197:247|167:191|167:191|158:254|108:291,1,240,6|0,1:2|0:0,0:0:0:0:
84,304,172814,6,2,L|91:370,4,53.3333333333333,10|2|2|2|2,0:2|0:2|0:2|0:2|0:2,0:2:0:0:
0,240,173201,6,0,P|31:215|69:203,1,80,2|0,1:2|0:0,0:0:0:0:
164,208,173395,2,0,P|201:222|230:249,1,80,2|0,0:0|0:0,0:0:0:0:
68,203,173588,5,8,0:0:0:0:
68,202,173685,2,0,P|44:208|24:220,1,44.999998626709,2|0,0:0|0:0,0:0:0:0:
164,208,173782,2,0,P|201:222|244:268,1,89.9999972534181,2|0,0:0|0:0,0:0:0:0:
138,134,173975,6,0,P|158:168|163:208,1,80,2|0,1:2|0:0,0:0:0:0:
142,300,174169,2,0,P|123:334|91:357,1,80,2|0,0:0|0:0,0:0:0:0:
163,207,174363,5,8,0:0:0:0:
162,207,174459,2,0,P|160:176|144:140,1,44.999998626709,2|0,0:0|0:0,0:0:0:0:
142,300,174556,2,0,P|123:334|70:368,1,89.9999972534181,2|0,0:0|0:0,0:0:0:0:
218,315,174750,6,0,P|179:315|142:300,1,80,0|0,1:0|0:0,0:0:0:0:
336,236,174943,2,0,P|356:270|362:309,1,80,2|0,0:0|0:0,0:0:0:0:
204,184,175137,2,0,P|223:149|254:124,1,80,8|0,0:0|0:0,0:0:0:0:
218,315,175330,1,2,0:0:0:0:
218,315,175524,6,0,B|156:320|156:320|112:304|112:304|40:308,1,170.000003242493,6|0,1:2|0:0,0:0:0:0:
240,224,175814,2,0,B|178:229|178:229|134:213|134:213|62:217,1,170.000003242493,2|0,1:2|0:0,0:0:0:0:
268,132,176104,2,0,L|164:140,1,85.0000016212464,2|0,1:2|0:0,0:0:0:0:
218,315,176298,6,0,B|284:311|284:311|330:328|330:328|394:323,1,179.999994506836,2|0,1:2|0:0,0:0:0:0:
240,224,176588,2,0,B|306:220|306:220|352:237|352:237|416:232,1,179.999994506836,2|0,1:2|0:0,0:0:0:0:
268,132,176878,2,0,L|357:125,1,89.9999972534181,2|0,1:2|0:0,0:0:0:0:
500,116,177072,6,0,L|508:48,3,37.5000014305115,2|0|0|0,1:2|0:0|0:0|0:0,0:0:0:0:
416,231,177459,2,0,L|421:275,3,42.5000008106232,2|0|0|0,0:0|0:0|0:0|0:0,0:0:0:0:
268,132,177846,6,0,L|275:68,1,47.4999987316132,2|0,0:0|0:0,0:0:0:0:
200,192,178040,6,0,L|203:224,3,31.6666658210755,0|0|0|8,0:0|0:0|0:0|3:0,0:0:0:0:
128,144,178331,1,0,0:3:0:0:
51,169,178427,1,8,0:3:0:0:
16,243,178524,1,0,0:3:0:0:
42,319,178621,6,0,L|207:311,1,150.000005722046,6|0,1:2|0:0,0:0:0:0:
266,364,178911,1,0,0:0:0:0:
276,354,179008,2,0,P|286:322|266:259,1,75.0000028610231,0|0,1:0|0:0,0:0:0:0:
235,193,179201,1,2,0:0:0:0:
503,236,179395,6,0,L|338:228,1,150.000005722046,2|0,1:2|0:0,0:0:0:0:
279,281,179685,1,0,0:0:0:0:
269,271,179782,2,0,P|259:239|279:176,1,75.0000028610231,0|0,1:0|0:0,0:0:0:0:
310,110,179975,1,2,0:0:0:0:
370,327,180169,5,2,1:2:0:0:
400,87,180363,6,0,L|390:172,1,75.0000028610231,2|0,0:1|0:0,0:0:0:0:
374,302,180556,1,0,1:0:0:0:
174,42,180750,6,0,L|184:127,1,75.0000028610231,2|0,0:1|0:0,0:0:0:0:
200,257,180943,1,0,1:0:0:0:
474,95,181137,6,0,L|389:85,1,75.0000028610231,2|0,0:1|0:0,0:0:0:0:
259,69,181330,1,0,1:0:0:0:
70,205,181524,5,2,0:1:0:0:
151,199,181621,1,2,0:0:0:0:
232,193,181717,6,0,P|258:161|233:59,1,150.000005722046,2|0,1:2|0:0,0:0:0:0:
118,116,182008,1,0,0:0:0:0:
111,133,182104,2,0,L|186:125,1,75.0000028610231,0|0,1:0|0:0,0:0:0:0:
341,205,182298,2,0,L|266:197,1,75.0000028610231,2|0,0:0|0:0,0:0:0:0:
80,331,182492,6,0,P|112:357|214:332,1,150.000005722046,2|0,1:2|0:0,0:0:0:0:
157,217,182783,1,0,0:0:0:0:
140,210,182879,2,0,L|148:285,1,75.0000028610231,0|0,1:0|0:0,0:0:0:0:
286,373,183072,2,0,L|294:298,1,75.0000028610231,2|0,0:0|0:0,0:0:0:0:
305,186,183266,5,0,1:0:0:0:
485,275,183459,6,0,L|400:285,1,75.0000028610231,2|0,0:1|0:0,0:0:0:0:
270,301,183652,1,0,1:0:0:0:
204,72,183846,6,0,L|289:82,1,75.0000028610231,2|0,0:1|0:0,0:0:0:0:
419,98,184039,1,0,1:0:0:0:
278,375,184234,6,0,L|268:290,1,75.0000028610231,2|0,0:1|0:0,0:0:0:0:
252,160,184427,1,0,1:0:0:0:
427,23,184621,6,0,L|417:108,1,75.0000028610231,2|0,0:1|0:0,0:0:0:0:
399,246,184814,6,0,L|417:97,1,150.000005722046,2|0,1:2|0:0,0:0:0:0:
252,160,185201,1,0,1:0:0:0:
491,105,185395,2,0,L|406:95,1,75.0000028610231,2|0,0:0|0:0,0:0:0:0:
252,160,185588,6,0,L|401:178,1,150.000005722046,2|0,1:2|0:0,0:0:0:0:
432,15,185975,1,0,1:0:0:0:
392,252,186169,2,0,L|402:167,1,75.0000028610231
426,31,186363,5,2,1:2:0:0:
157,172,186556,6,0,P|190:190|229:191,1,75.0000028610231,2|0,0:1|0:0,0:0:0:0:
351,170,186750,1,0,1:0:0:0:
208,121,186943,6,0,P|175:140|155:173,1,75.0000028610231,2|0,0:1|0:0,0:0:0:0:
112,290,187137,1,0,1:0:0:0:
226,190,187330,6,0,P|225:152|206:118,1,75.0000028610231,2|0,0:1|0:0,0:0:0:0:
128,23,187524,1,0,1:0:0:0:
207,281,187717,6,0,P|244:279|276:261,1,75.0000028610231,2|0,0:1|0:0,0:0:0:0:
316,140,187911,6,0,L|303:368,1,225.000008583069,2|0,1:2|0:0,0:0:0:0:
333,291,188298,2,0,L|336:208,1,75.0000028610231,0|0,1:0|0:0,0:0:0:0:
343,62,188492,1,0,0:0:0:0:
343,62,188588,1,0,0:0:0:0:
343,62,188685,6,0,P|310:97|210:94,1,150.000005722046,0|0,1:0|0:0,0:0:0:0:
76,116,188975,1,0,0:0:0:0:
92,104,189072,2,0,P|164:93|221:138,1,150.000005722046,0|2,1:0|0:0,0:0:0:0:
245,227,189363,1,0,0:0:0:0:
241,245,189459,2,0,L|148:255,1,75.0000028610231,2|0,1:2|0:0,0:0:0:0:
34,334,189653,6,0,L|24:241,1,75.0000028610231,2|0,0:1|0:0,0:0:0:0:
11,156,189846,1,0,1:0:0:0:
227,356,190040,6,0,L|237:263,1,75.0000028610231,2|0,0:1|0:0,0:0:0:0:
250,178,190234,1,2,1:2:0:0:
326,146,190330,1,2,0:0:0:0:
403,178,190427,1,2,0:1:0:0:
434,254,190524,1,0,0:0:0:0:
403,331,190621,6,0,L|310:321,1,75.0000028610231,2|0,1:2|0:0,0:0:0:0:
160,289,190814,2,0,L|253:279,1,75.0000028610231,2|0,0:1|0:0,0:0:0:0:
309,98,191008,6,0,L|329:339,1,225.000008583069,6|0,1:2|0:0,0:0:0:0:
240,355,191395,2,0,L|233:267,1,75.0000028610231,8|0,0:0|0:0,0:0:0:0:
416,188,191588,2,0,P|385:201|333:200,1,75.0000028610231,2|0,0:0|0:0,0:0:0:0:
92,287,191782,6,0,B|156:259|156:259|233:280,1,150.000005722046,2|0,1:2|0:0,0:0:0:0:
327,322,192072,1,0,0:0:0:0:
324,281,192169,2,0,L|317:193,1,75.0000028610231,8|0,0:0|0:0,0:0:0:0:
216,170,192363,2,0,L|223:82,1,75.0000028610231,2|0,0:0|0:0,0:0:0:0:
230,7,192556,1,2,1:2:0:0:
471,111,192750,6,0,P|440:126|393:131,1,75.0000028610231,2|0,0:1|0:0,0:0:0:0:
310,122,192943,1,8,0:0:0:0:
16,97,193137,6,0,P|47:82|94:77,1,75.0000028610231,2|0,0:1|0:0,0:0:0:0:
310,122,193330,6,0,P|223:147|165:100,1,170.000003242493,4|0,1:2|0:0,0:0:0:0:
248,72,193621,6,2,B|300:69|356:98|356:98|320:110,1,139.999995727539,0|0,1:0|0:0,0:1:0:0:
254,248,194104,6,0,L|240:15,1,225.000008583069,6|0,1:2|0:0,0:0:0:0:
333,180,194492,2,0,L|329:106,1,75.0000028610231,8|0,0:0|0:0,0:0:0:0:
279,285,194685,2,0,P|248:264|212:258,1,75.0000028610231,2|0,0:0|0:0,0:0:0:0:
86,155,194879,6,0,L|253:146,1,150.000005722046,2|0,1:2|0:0,0:0:0:0:
333,180,195169,1,0,0:0:0:0:
355,186,195266,2,0,B|391:194|391:194|430:183,1,75.0000028610231,8|0,0:0|0:0,0:0:0:0:
423,69,195459,2,0,B|387:61|387:61|348:72,1,75.0000028610231,2|0,0:0|0:0,0:0:0:0:
250,93,195653,1,2,1:2:0:0:
40,270,195846,6,0,P|71:285|118:290,1,75.0000028610231,2|0,0:1|0:0,0:0:0:0:
201,281,196039,1,8,0:0:0:0:
495,256,196233,6,0,P|464:241|417:236,1,75.0000028610231,2|0,0:1|0:0,0:0:0:0:
318,174,196427,6,0,B|321:232|321:232|300:292|300:292|305:359,1,179.999994506836,4|2,1:2|0:1,0:0:0:0:
384,345,196717,2,0,B|382:295|382:295|419:333,1,89.9999972534181,2|0,0:0|0:0,0:0:0:0:
200,228,196911,2,0,L|242:222,1,40,2|0,0:0|0:0,0:0:0:0:
194,242,197008,2,0,L|330:223,1,120,2|0,0:1|0:0,0:0:0:0:
398,214,197201,5,4,1:2:0:0:
335,69,197395,1,0,0:0:0:0:
335,69,197492,1,0,0:0:0:0:
335,69,197588,1,8,0:0:0:0:
364,293,197782,1,0,0:0:0:0:
364,293,197879,1,0,0:0:0:0:
364,293,197975,1,0,1:0:0:0:
155,206,198169,1,0,0:0:0:0:
155,206,198266,1,0,0:0:0:0:
155,206,198363,2,0,L|291:198,1,129.999994049073,8|0,0:0|0:0,0:0:0:0:
389,193,198653,1,0,0:0:0:0:
413,191,198750,1,0,1:0:0:0:
327,55,198943,6,0,L|333:146,1,64.9999970245363,2|0,0:1|0:0,0:0:0:0:
343,272,199137,1,8,0:0:0:0:
159,141,199330,6,0,L|153:232,1,64.9999970245363,2|0,0:1|0:0,0:0:0:0:
36,323,199524,6,0,B|92:284|171:304|171:304|138:326,1,170.000003242493,4|0,1:2|0:0,0:0:0:0:
30,332,199814,6,2,B|63:285|66:208|66:208|73:243|100:276,1,200,2|0,1:0|0:0,0:1:0:0:
258,182,200298,6,0,P|161:212|183:132,1,189.999994926453,8|0,0:0|0:0,0:0:0:0:
93,53,200588,2,0,P|131:37|191:43,1,94.9999974632264,8|0,0:0|0:0,0:0:0:0:
449,152,200782,6,0,P|427:159|399:161,1,47.4999987316132,8|0,0:0|0:0,0:0:0:0:
325,156,200879,2,0,P|302:151|277:138,1,47.4999987316132,8|0,0:0|0:0,0:0:0:0:
171,347,201072,6,0,L|155:145,1,189.999994926453,8|0,0:0|0:0,0:0:0:0:
210,49,201363,2,0,P|172:33|112:39,1,94.9999974632264,8|0,0:0|0:0,0:0:0:0:
0,197,201556,6,0,P|22:204|50:206,1,47.4999987316132,8|0,0:0|0:0,0:0:0:0:
124,201,201653,2,0,P|147:196|172:183,1,47.4999987316132,8|0,0:0|0:0,0:0:0:0:
336,88,201846,6,2,L|331:38,5,43.3333313496908
419,101,202234,6,2,L|416:64,5,36.6666677856446
502,114,202621,6,2,L|499:72,11,29.9999990844727
448,184,203395,5,0,1:0:0:0:
425,185,203491,2,0,L|369:189,1,37.5000014305115,2|0,0:1|0:0,0:0:0:0:
277,193,203685,1,2,0:1:0:0:
345,353,203879,5,0,0:1:0:0:
343,330,203976,1,2,0:1:0:0:
342,310,204072,1,2,0:1:0:0:
200,88,204266,6,0,L|204:156,1,42.5000008106232,2|0,0:0|0:0,0:0:0:0:
211,268,204460,1,2,0:1:0:0:
211,268,204653,6,0,L|207:200,1,47.4999987316132,2|0,0:0|0:0,0:0:0:0:
197,35,204846,1,2,0:1:0:0:
197,35,205039,6,0,L|201:103,1,52.4999983978272,2|0,0:0|0:0,0:0:0:0:
214,317,205234,1,2,0:1:0:0:
214,317,205428,5,0,1:2:0:0:
211,268,205525,1,2,1:1:0:0:
208,219,205621,1,2,1:1:0:0:
205,170,205717,6,0,L|124:176,3,62.5,0|2|0|2,1:0|1:2|1:0|1:0,1:0:0:0:
307,214,206104,6,0,L|388:208,3,72.5000022125245,0|2|0|2,1:0|1:0|1:0|1:0,1:0:0:0:
211,268,206492,6,0,L|217:349,7,41.2500003933907,0|0|2|0|0|0|2|0,1:0|1:0|1:2|1:0|1:0|1:0|1:0|1:0,1:0:0:0:
144,168,206879,6,0,L|148:125,7,43.7500004172325,0|0|0|0|2|0|2|0,1:0|1:0|1:2|1:0|1:0|1:0|1:0|1:0,1:0:0:0:
104,304,207266,6,0,L|110:385,7,46.2499998235703,0|0|2|0|0|0|2|0,1:0|1:0|1:2|1:0|1:0|1:0|1:0|1:0,1:0:0:0:
36,136,207653,6,0,L|42:55,7,48.7500001859665,0|0|0|0|0|0|2|0,1:0|1:0|1:2|1:0|1:0|1:0|1:0|1:0,1:0:0:0:
152,28,208040,6,0,P|227:62|249:138,1,165.000001573563,4|0,0:0|0:0,0:0:0:0:
137,290,208330,2,0,L|150:108,1,165.000001573563,4|0,0:0|0:0,0:0:0:0:
352,104,208621,5,4,0:0:0:0:
329,121,208717,2,0,P|287:136|237:133,1,82.5000007867813,2|2,0:0|0:0,0:0:0:0:
3,48,208911,2,0,B|36:48|64:68|64:68|96:26|151:27,1,165.000001573563,4|0,0:0|0:0,0:0:0:0:
142,217,209201,6,0,L|148:125,1,92.4999996471405,6|0,0:0|0:0,0:0:0:0:
322,28,209395,2,0,L|328:120,1,92.4999996471405,6|0,0:0|0:0,0:0:0:0:
337,249,209588,5,6,1:2:0:0:
426,114,209782,2,2,L|475:111,3,46.6666652425131,2|2|2|2,0:2|0:2|0:2|1:2,0:2:0:0:
240,254,210169,2,2,L|191:257,2,46.6666652425131,2|2|2,0:2|0:2|0:2,0:2:0:0:
338,330,210363,2,0,L|327:102,1,209.999993591309,2|0,1:2|0:0,0:0:0:0:
320,34,210750,1,0,1:0:0:0:
419,207,210943,6,2,L|468:204,2,46.6666652425131,2|2|2,0:2|0:2|0:2,0:2:0:0:
360,280,211137,2,0,P|325:226|343:157,1,139.999995727539,2|0,1:2|0:0,0:0:0:0:
419,116,211427,1,2,0:0:0:0:
452,293,211524,2,0,P|422:350|353:369,1,139.999995727539,2|0,1:2|0:0,0:0:0:0:
280,323,211814,1,2,0:2:0:0:
419,207,211911,2,0,L|491:203,1,69.9999978637696,0|0,1:0|0:0,0:0:0:0:
270,305,212104,2,0,L|198:301,1,69.9999978637696,2|0,0:0|0:0,0:0:0:0:
433,126,212298,2,2,L|482:123,3,46.6666652425131,2|2|2|2,1:2|0:2|0:2|0:2,0:2:0:0:
360,280,212685,6,0,L|350:117,1,139.999995727539,2|0,1:2|0:0,0:0:0:0:
254,23,212975,1,0,0:0:0:0:
250,104,213072,2,0,L|241:243,1,139.999995727539,0|0,1:0|0:0,0:0:0:0:
176,321,213363,1,0,0:0:0:0:
176,321,213459,6,0,P|258:347|325:293,1,179.999994506836,4|0,1:2|0:0,0:0:0:0:
412,256,213846,2,0,P|344:202|262:228,1,179.999994506836,4|0,1:2|0:0,0:0:0:0:
330,365,214234,6,0,L|316:128,1,225.000008583069,4|0,1:2|0:0,0:0:0:0:
341,43,214621,2,0,L|250:49,1,75.0000028610231,0|0,1:0|0:0,0:0:0:0:
104,137,214814,1,0,0:0:0:0:
104,137,214911,1,0,0:0:0:0:
104,137,215008,6,0,P|175:133|225:177,1,139.999995727539,4|0,3:0|0:0,0:0:0:0:
320,209,215298,2,0,L|316:140,1,69.9999978637696,4|0,3:0|0:0,0:0:0:0:
175,38,215492,1,4,3:0:0:0:
175,38,215588,1,4,3:0:0:0:
430,71,215782,5,2,1:2:0:0:
324,292,215975,2,2,L|322:243,3,46.6666652425131,2|2|2|2,0:2|0:2|0:2|1:2,0:2:0:0:
214,46,216363,2,2,L|215:92,2,46.6666652425131,2|2|2,0:2|0:2|0:2,0:2:0:0:
162,174,216556,2,0,L|377:165,1,209.999993591309,2|0,1:2|0:0,0:0:0:0:
465,161,216943,1,0,1:0:0:0:
243,314,217137,6,2,L|241:265,2,46.6666652425131,2|2|2,0:2|0:2|0:2,0:2:0:0:
329,358,217330,2,0,L|323:192,1,139.999995727539,2|0,1:2|0:0,0:0:0:0:
312,137,217621,1,0,0:0:0:0:
241,93,217717,2,0,P|283:56|366:73,1,139.999995727539,2|0,1:2|0:0,0:0:0:0:
459,149,218008,1,0,0:0:0:0:
465,170,218104,2,0,L|387:165,1,69.9999978637696,0|0,1:0|0:0,0:0:0:0:
254,222,218298,2,0,L|332:217,1,69.9999978637696,2|0,0:0|0:0,0:0:0:0:
461,88,218492,2,2,L|391:83,3,46.6666652425131,2|2|2|2,1:2|0:2|0:2|0:2,0:2:0:0:
240,12,218879,6,0,L|254:230,1,209.999993591309,2|0,1:2|0:0,0:0:0:0:
261,308,219266,1,0,1:0:0:0:
148,103,219459,2,2,P|127:95|98:92,2,46.6666652425131,2|2|2,0:2|0:2|0:2,0:2:0:0:
253,221,219653,6,0,B|220:76|220:76|303:117,1,209.999993591309,2|0,1:2|0:0,0:0:0:0:
351,135,220040,1,0,1:0:0:0:
150,194,220234,1,0,0:0:0:0:
302,339,220427,1,0,1:0:0:0:
253,79,220621,2,0,L|243:274,1,179.999994506836,2|0,0:0|0:0,0:0:0:0:
134,371,221008,5,2,0:2:0:0:
136,346,221104,1,2,0:2:0:0:
138,321,221201,2,0,L|146:241,1,69.9999978637696,2|0,0:2|0:0,0:0:0:0:
153,77,221395,2,0,L|100:66,3,46.6666652425131,2|0|0|4,3:2|3:0|3:0|3:0,3:0:0:0:
356,168,221782,2,0,L|409:157,2,46.6666652425131,2|0|0,3:2|3:0|3:0,3:0:0:0:
263,187,221975,6,0,L|283:285,1,100,4|0,3:0|0:0,0:0:0:0:
303,382,222266,2,0,L|283:285,1,100
186,305,222556,2,0,L|283:284,1,100
380,263,222846,2,0,L|283:284,1,100
186,305,223137,5,2,0:0:0:0:
304,382,223330,1,2,0:0:0:0:
380,263,223524,1,2,0:0:0:0:
252,148,223653,5,0,0:0:0:0:
252,148,223717,2,0,L|268:224,1,50.0000019073487,2|0,0:0|0:0,0:0:0:0:
186,305,223911,6,0,P|140:312|92:304,1,86.6666626993817,2|2,0:0|0:0,0:0:0:0:
12,264,224169,1,2,0:0:0:0:
140,216,224298,6,0,P|96:199|56:164,1,93.3333304850261,2|2,0:0|0:0,0:0:0:0:
0,80,224556,1,2,0:0:0:0:
144,124,224685,6,0,L|153:285,1,150.000005722046,2|2,0:0|0:0,0:0:0:0:
304,340,225072,5,2,0:0:0:0:
304,340,225169,2,0,L|311:210,1,100
314,140,225459,2,0,L|307:270,1,100,2|0,0:0|0:0,0:0:0:0:
224,372,225846,5,2,0:0:0:0:
392,244,226040,1,0,0:0:0:0:
240,96,226234,2,0,P|194:89|129:113,1,100,2|0,0:0|0:0,0:0:0:0:
185,292,226621,6,0,L|201:184,1,97.4999955368044,2|2,0:1|0:0,0:0:0:0:
200,196,226814,2,0,L|209:292,1,64.9999970245363,2|0,0:0|0:0,0:0:0:0:
224,372,227008,6,0,P|260:364|304:364,1,69.9999978637696,2|0,0:1|0:0,0:0:0:0:
400,384,227201,1,2,0:0:0:0:
408,304,227298,1,0,0:0:0:0:
416,218,227395,6,0,L|428:94,1,100.000003814697,2|2,0:0|0:1,0:0:0:0:
436,9,227653,1,2,0:1:0:0:
512,180,227782,6,0,B|412:172|412:172|348:192|348:192|248:184,1,262.500010013581,2|0,0:1|0:0,0:0:0:0:
253,184,228169,6,0,L|260:288,1,100
265,384,228459,2,0,L|259:285,1,100
359,277,228750,2,0,L|260:284,1,100
159,290,229040,2,0,L|259:284,1,100
359,277,229330,5,2,0:0:0:0:
248,120,229524,1,2,0:0:0:0:
159,290,229717,6,0,L|152:208,1,69.9999978637696,2|0,0:0|0:0,0:0:0:0:
12,200,229911,2,0,L|19:282,1,69.9999978637696,2|0,0:0|0:0,0:0:0:0:
143,110,230104,5,2,0:0:0:0:
145,130,230201,1,2,0:0:0:0:
147,150,230298,2,0,L|154:232,1,69.9999978637696,2|0,0:0|0:0,0:0:0:0:
276,92,230492,6,0,P|248:66|214:51,1,75.0000028610231,2|0,0:0|0:0,0:0:0:0:
66,63,230685,2,0,P|35:83|12:113,1,75.0000028610231,2|2,0:0|0:0,0:0:0:0:
155,259,230879,2,0,L|143:110,1,150.000005722046,2|2,0:0|0:0,0:0:0:0:
292,228,231266,5,2,0:0:0:0:
292,228,231363,2,0,L|281:356,1,100
376,208,231653,1,2,0:0:0:0:
376,208,231750,2,0,L|365:336,1,100
456,188,232040,5,2,0:0:0:0:
284,328,232234,1,0,0:0:0:0:
476,384,232427,2,0,L|467:284,1,100,2|0,0:0|0:0,0:0:0:0:
447,96,232814,6,0,L|441:39,7,29.9999990844727,0|0|0|0|0|0|0|0,1:0|1:0|1:0|1:0|1:0|1:0|1:0|1:0,1:0:0:0:
360,176,233201,6,0,L|363:216,7,34.9999989318848,0|0|0|0|0|0|0|0,1:0|1:0|1:0|1:0|1:0|1:0|1:0|1:0,1:0:0:0:
264,96,233588,6,0,L|260:55,7,40,0|0|0|0|0|0|0|0,1:0|1:0|1:0|1:0|1:0|1:0|1:0|1:0,1:0:0:0:
184,240,233975,6,0,L|188:288,7,44.999998626709,0|0|0|0|0|0|0|0,1:0|1:0|1:0|1:0|1:0|1:0|1:0|1:0,1:0:0:0:
64,128,234363,6,0,L|73:19,1,100,6|0,0:0|0:0,0:0:0:0:
172,88,234750,1,2,0:0:0:0:
60,212,234943,6,2,L|12:208,4,25,2|2|2|2|2,2:0|2:0|2:0|2:0|2:0,2:0:0:0:
172,88,235330,1,0,0:0:0:0:
280,212,235524,6,0,L|334:207,1,50,2|0,0:0|0:0,0:0:0:0:
352,124,235717,2,0,L|298:128,1,50,2|0,0:0|0:0,0:0:0:0:
244,292,235911,5,2,0:0:0:0:
424,196,236104,1,0,0:0:0:0:
315,58,236298,2,0,L|331:222,1,150,2|0,0:0|0:0,0:0:0:0:
417,270,236685,6,0,L|424:195,1,75.0000028610231,2|0,0:0|0:0,0:0:0:0:
432,92,236879,1,2,0:0:0:0:
320,312,237072,5,2,3:0:0:0:
512,282,237459,1,4,3:0:0:0:
104,178,249266,5,2,0:0:0:0:
222,221,249459,2,0,L|215:183,5,29.9999990844727,2|0|0|0|0|0,0:0|0:0|0:0|0:0|0:0|0:0,0:0:0:0:
200,97,249846,5,4,3:0:0:0:
238,315,250040,1,2,0:0:0:0:
104,178,250234,2,0,L|142:185,3,29.9999990844727,2|0|0|0,0:0|0:0|0:0|0:0,0:0:0:0:
379,127,250621,1,2,0:0:0:0:
200,97,250814,2,0,L|238:104,3,29.9999990844727,2|0|0|0,0:0|0:0|0:0|0:0,0:0:0:0:
419,39,251201,6,0,L|374:31,1,44.999998626709
276,11,251395,1,2,0:0:0:0:
451,231,251588,6,0,L|406:239,1,44.999998626709
325,252,251782,1,2,0:0:0:0:
512,155,251975,6,0,L|467:147,1,44.999998626709
395,132,252169,1,2,0:0:0:0:
170,103,252363,5,0,0:0:0:0:
200,100,252459,1,0,0:0:0:0:
230,97,252556,2,0,B|243:141|243:141|228:195,1,89.9999972534181,2|2,0:0|0:0,0:0:0:0:
133,343,252943,5,0,0:0:0:0:
320,296,253137,1,2,0:0:0:0:
44,328,253330,2,0,L|7:320,3,29.9999990844727,2|0|0|0,0:0|0:0|0:0|0:0,0:0:0:0:
409,311,253717,1,2,0:0:0:0:
231,281,253911,2,0,L|194:273,3,29.9999990844727,2|0|0|0,0:0|0:0|0:0|0:0,0:0:0:0:
498,326,254298,2,0,L|491:262,1,44.999998626709
462,95,254492,6,0,B|473:139|473:139|459:196,1,89.9999972534181,2|0,0:0|0:0,0:0:0:0:
361,298,254782,1,0,0:0:0:0:
347,327,254879,2,0,B|336:283|336:283|350:226,1,89.9999972534181,2|0,0:0|0:0,0:0:0:0:
369,149,255169,1,0,0:0:0:0:
377,137,255266,5,2,0:0:0:0:
456,327,255459,1,2,0:0:0:0:
251,300,255653,2,0,L|198:303,2,39.9999987792969,2|0|0,0:0|0:0|0:0,0:0:0:0:
430,240,255846,2,0,B|459:234|459:234|492:242,1,59.9999981689454,2|0,0:0|0:0,0:0:0:0:
316,214,256040,5,2,1:1:0:0:
315,197,256137,1,0,1:0:0:0:
314,180,256234,1,0,1:0:0:0:
313,163,256330,1,0,1:0:0:0:
312,146,256427,1,0,1:0:0:0:
311,129,256525,1,0,1:0:0:0:
310,112,256621,1,2,1:0:0:0:
309,95,256718,1,0,1:0:0:0:
344,31,256814,5,2,1:0:0:0:
322,58,256911,1,0,1:0:0:0:
294,78,257008,1,0,1:0:0:0:
262,91,257104,1,0,1:0:0:0:
228,95,257201,1,0,1:0:0:0:
193,90,257298,1,0,1:0:0:0:
162,76,257395,1,2,1:0:0:0:
135,54,257492,1,0,1:0:0:0:
45,60,257588,5,2,1:0:0:0:
88,18,257685,1,0,1:0:0:0:
145,2,257782,1,0,1:2:0:0:
203,18,257879,1,0,1:0:0:0:
246,60,257975,1,2,1:2:0:0:
261,118,258072,1,0,1:0:0:0:
246,176,258169,1,2,1:0:0:0:
203,218,258266,1,0,1:0:0:0:
147,118,258363,5,0,1:0:0:0:
210,72,258459,1,0,1:0:0:0:
288,72,258556,1,2,1:2:0:0:
351,118,258653,1,0,1:0:0:0:
375,192,258750,2,0,P|379:227|366:263,1,59.9999981689454,2|0,1:0|1:0,1:0:0:0:
222,310,258943,2,0,P|189:295|165:266,1,59.9999981689454,2|0,1:0|1:0,1:0:0:0:
307,75,259137,6,0,L|347:81,7,32.4999985122681,0|0|0|0|0|0|0|0,1:0|1:0|1:0|1:0|1:0|1:0|1:0|1:0,1:0:0:0:
195,145,259524,6,0,L|146:154,7,34.9999989318848,0|0|0|0|0|0|0|0,1:0|1:0|1:0|1:0|1:0|1:0|1:0|1:0,1:0:0:0:
337,234,259911,6,0,L|391:242,7,40,0|0|0|0|0|0|0|0,1:0|1:0|1:0|1:0|1:0|1:0|1:0|1:0,1:0:0:0:
183,303,260298,6,0,L|114:314,7,47.4999987316132,0|0|0|0|0|0|0|0,1:0|1:0|1:0|1:0|1:0|1:0|1:0|1:0,1:0:0:0:
344,364,260685,5,2,1:2:0:0:
361,363,260782,1,0,0:0:0:0:
378,362,260879,1,0,0:0:0:0:
395,361,260975,1,0,0:0:0:0:
412,360,261072,1,2,0:0:0:0:
429,359,261169,1,0,0:0:0:0:
446,358,261266,1,2,0:0:0:0:
463,357,261362,1,2,0:0:0:0:
480,356,261459,1,2,0:0:0:0:
497,355,261556,1,0,0:0:0:0:
512,331,261653,6,0,L|413:336,1,75.0000028610231,2|0,0:1|0:0,0:0:0:0:
283,289,261846,6,0,L|369:284,2,50.0000019073487,2|0|0,0:1|0:0|0:0,0:0:0:0:
415,191,262040,2,0,L|340:195,1,75.0000028610231,2|0,0:0|0:1,0:0:0:0:
196,296,262234,6,0,L|186:118,1,150.000005722046,4|2,1:2|0:1,0:0:0:0:
73,227,262524,1,0,0:0:0:0:
68,312,262621,2,0,L|65:361,3,50.0000019073487,2|0|0|2,1:0|0:0|0:0|0:0,0:0:0:0:
140,60,263008,6,0,P|177:50|214:52,1,75.0000028610231,2|0,1:0|0:0,0:0:0:0:
216,258,263201,1,0,0:0:0:0:
208,246,263266,1,0,0:0:0:0:
200,234,263330,1,0,0:0:0:0:
192,221,263395,2,0,L|188:147,1,75.0000028610231,2|0,1:0|0:0,0:0:0:0:
309,23,263589,1,0,0:0:0:0:
393,44,263685,1,0,0:0:0:0:
476,64,263782,6,0,L|331:100,1,150.000005722046,2|0,1:0|0:0,0:0:0:0:
168,136,264072,1,0,0:0:0:0:
143,53,264169,2,0,L|246:161,1,150.000005722046,2|0,1:2|0:0,0:0:0:0:
360,280,264459,1,0,0:0:0:0:
300,343,264556,2,0,L|341:199,1,150.000005722046,2|0,1:0|0:0,0:0:0:0:
394,43,264846,1,0,0:0:0:0:
502,135,264943,6,0,P|466:139|419:128,1,85.0000016212464,2|0,1:0|0:0,0:0:0:0:
258,206,265137,2,0,P|298:195|341:198,1,85.0000016212464,2|0,0:1|0:0,0:0:0:0:
485,283,265330,6,0,L|503:121,1,150.000005722046,0|2,1:0|0:1,0:0:0:0:
341,198,265621,1,0,0:0:0:0:
352,284,265717,2,0,L|357:333,3,50.0000019073487,2|0|0|0,1:0|0:0|0:0|0:0,0:0:0:0:
284,44,266104,6,0,P|319:32|360:36,1,75.0000028610231,2|0,1:0|0:0,0:0:0:0:
224,124,266299,1,0,0:0:0:0:
211,123,266363,1,0,0:0:0:0:
198,122,266427,1,0,0:0:0:0:
185,122,266492,2,0,L|89:118,1,75.0000028610231,2|0,1:0|0:0,0:0:0:0:
176,256,266685,5,0,0:0:0:0:
269,252,266781,1,2,0:0:0:0:
363,248,266879,6,0,L|415:245,2,37.5000014305115,2|0|0,1:0|0:0|0:0,0:0:0:0:
316,328,267072,6,0,L|321:430,1,55.0000016784668
269,252,267266,2,0,L|272:197,1,55.0000016784668,2|0,1:2|0:0,0:0:0:0:
216,340,267459,5,2,0:0:0:0:
123,344,267555,1,2,0:0:0:0:
28,348,267653,6,0,L|4:236,1,112.500004291535,0|0,1:0|0:0,0:0:0:0:
28,128,267846,6,0,L|4:238,1,112.500004291535,2|0,0:1|0:0,0:0:0:0:
115,307,268040,6,0,L|123:344,2,37.5000014305115,2|0|0,1:0|0:0|0:0,0:0:0:0:
112,188,268234,6,0,L|132:91,1,75.0000028610231,2|0,0:1|0:0,0:0:0:0:
212,216,268427,6,2,P|304:252|216:272,1,255.000004863739,0|0,1:0|0:0,0:1:0:0:
283,109,268814,2,0,P|315:121|358:159,1,85.0000016212464,0|0,1:0|0:0,0:0:0:0:
215,271,269008,1,2,0:1:0:0:
228,260,269072,1,0,0:0:0:0:
242,249,269137,1,0,0:0:0:0:
256,240,269201,6,0,B|335:248|335:248|392:226|392:226|480:235,1,225.000008583069,2|0,1:0|0:0,0:1:0:0:
488,328,269588,2,0,L|413:320,1,75.0000028610231,0|0,1:0|0:0,0:0:0:0:
364,132,269782,1,2,0:1:0:0:
351,143,269846,1,0,0:0:0:0:
337,154,269911,1,0,0:0:0:0:
323,163,269975,6,0,B|176:145,1,129.999994049073,2|0,1:2|0:0,0:0:0:0:
92,192,270266,1,0,0:0:0:0:
97,232,270363,2,0,L|105:296,1,64.9999970245363,2|0,1:2|0:0,0:0:0:0:
225,383,270556,2,0,L|208:254,1,129.999994049073,2|0,0:1|1:0,0:0:0:0:
185,82,270943,6,0,L|193:146,1,64.9999970245363,2|0,0:0|0:0,0:0:0:0:
97,232,271137,2,0,L|105:296,1,64.9999970245363,2|0,1:0|0:0,0:0:0:0:
324,324,271330,2,0,L|307:195,1,129.999994049073,2|0,0:1|0:0,0:0:0:0:
307,195,271717,6,0,P|348:184|404:192,1,80,2|0,0:1|0:0,0:0:0:0:
492,224,271911,1,0,1:0:0:0:
229,186,272104,6,0,P|269:197|325:189,1,80,2|0,0:1|0:0,0:0:0:0:
464,128,272297,1,0,1:0:0:0:
151,195,272492,6,0,P|191:183|247:191,1,80,2|0,0:1|0:0,0:0:0:0:
408,284,272686,1,0,1:0:0:0:
73,186,272879,6,0,P|113:197|169:189,1,80,2|0,0:1|0:0,0:0:0:0:
300,80,273072,5,8,0:0:0:0:
303,127,273168,1,0,1:0:0:0:
306,175,273265,1,2,0:1:0:0:
310,223,273362,1,0,1:0:0:0:
313,271,273459,6,0,L|318:347,1,64.9999970245363,8|0,0:0|1:0,0:0:0:0:
183,293,273653,2,0,L|177:216,1,64.9999970245363,2|0,0:1|1:0,0:0:0:0:
173,145,273798,1,0,1:0:0:0:
173,145,273846,6,0,L|88:151,1,85.0000016212464,8|0,0:0|0:0,0:0:0:0:
313,271,274040,2,0,L|397:264,1,85.0000016212464,0|0,0:0|1:0,0:0:0:0:
483,139,274234,5,0,1:1:0:0:
466,57,274330,1,0,1:0:0:0:
403,3,274427,1,2,1:0:0:0:
319,0,274524,1,0,1:0:0:0:
252,50,274621,6,0,L|255:98,1,44.999998626709,2|0,1:0|0:0,0:0:0:0:
224,176,275008,6,0,P|262:183|303:165,1,80,4|0,1:2|0:0,0:0:0:0:
170,77,275201,2,0,L|7:85,1,160,2|0,0:1|1:0,0:0:0:0:
68,167,275492,1,0,0:0:0:0:
119,165,275588,1,2,0:1:0:0:
210,248,275685,1,0,0:0:0:0:
159,246,275782,2,0,P|146:281|156:338,1,80,2|0,1:0|0:0,0:0:0:0:
308,214,275975,1,0,0:0:0:0:
306,163,276071,1,0,0:0:0:0:
265,83,276169,6,0,B|324:80|324:80|365:97|365:97|423:93,1,160,2|2,1:0|0:0,0:0:0:0:
440,92,276427,1,2,0:0:0:0:
459,91,276492,1,2,0:0:0:0:
478,90,276556,6,0,P|431:140|421:210,1,129.999994049073,2|2,1:0|0:0,0:0:0:0:
421,215,276814,1,2,0:0:0:0:
426,229,276879,1,2,0:0:0:0:
430,243,276943,6,0,P|425:164|374:105,1,160,2|0,1:2|0:0,0:0:0:0:
241,40,277234,6,0,L|261:246,1,179.999994506836,2|0,1:2|0:0,0:0:0:0:
269,318,277524,6,0,L|258:219,1,100,2|0,1:2|0:0,0:0:0:0:
193,63,277717,6,2,P|285:131|236:16,1,300,2|0,1:0|0:0,0:1:0:0:
346,183,278104,6,0,P|352:223|344:262,1,80,4|0,1:2|0:0,0:0:0:0:
252,76,278298,2,0,B|288:108|288:108|425:91,1,160,2|0,0:1|1:0,0:0:0:0:
480,59,278588,1,0,0:0:0:0:
487,113,278685,1,2,0:1:0:0:
430,185,278782,1,0,0:0:0:0:
437,239,278879,2,0,P|466:255|516:255,1,80,2|0,1:0|0:0,0:0:0:0:
418,12,279072,2,0,P|378:11|342:29,1,80,0|2,0:0|0:0,0:0:0:0:
332,286,279266,6,0,L|337:191,1,89.9999972534181,6|0,1:0|0:0,0:0:0:0:
238,48,279459,1,2,1:0:0:0:
238,48,279524,1,2,0:0:0:0:
238,48,279588,1,2,0:0:0:0:
238,48,279653,6,0,L|244:144,1,80,2|0,0:2|1:0,0:0:0:0:
121,216,279846,1,2,1:2:0:0:
121,216,279911,1,2,0:2:0:0:
121,216,279975,1,2,0:2:0:0:
121,216,280040,6,0,L|126:127,1,69.9999978637696,2|0,0:2|1:0,0:0:0:0:
336,196,280234,6,0,L|399:194,2,39.9999987792969,2|0|0,0:2|0:0|0:0,0:0:0:0:
208,119,280427,6,2,L|199:258,1,131.25000500679,2|0,0:1|0:0,0:1:0:0:
151,308,280814,6,0,B|279:293|213:365|352:346,1,209.999993591309,6|0,1:2|0:0,0:0:0:0:
433,339,281201,1,2,1:2:0:0:
218,178,281395,1,0,0:0:0:0:
163,185,281492,1,0,1:0:0:0:
108,192,281588,6,0,L|122:51,1,139.999995727539,2|0,1:2|0:0,0:0:0:0:
274,53,281879,2,0,P|231:46|196:9,1,80,0|0,1:0|0:0,0:0:0:0:
9,175,282072,1,0,1:0:0:0:
92,155,282169,2,0,P|135:162|170:199,1,80,0|0,1:0|0:0,0:0:0:0:
208,322,282363,6,0,P|210:295|203:264,2,53.3333333333333,2|0|0,0:1|0:0|0:0,0:0:0:0:
119,300,282556,2,0,L|33:308,2,80,2|2|0,1:2|1:0|1:0,0:0:0:0:
119,300,282943,2,0,L|127:214,1,80,2|0,0:1|0:0,0:0:0:0:
42,76,283137,6,0,P|93:133|171:128,1,160,2|0,1:0|0:0,0:0:0:0:
300,77,283427,6,0,P|222:71|170:128,1,160,2|0,1:0|1:0,0:0:0:0:
190,289,283717,6,0,L|182:203,1,80,2|0,1:0|0:0,0:0:0:0:
300,77,283911,6,2,L|316:234,1,150.000005722046,6|0,1:0|0:0,0:1:0:0:
272,334,284201,2,0,P|341:343|401:290,1,150.000005722046,0|0,1:0|0:0,0:0:0:0:
499,198,284492,2,0,P|467:185|425:183,1,75.0000028610231,0|0,1:0|0:0,0:0:0:0:
225,99,284685,6,0,L|209:256,1,150.000005722046,0|0,1:0|0:0,0:0:0:0:
253,356,284975,2,0,P|184:365|124:312,1,150.000005722046,0|0,1:0|0:0,0:0:0:0:
26,219,285266,2,0,P|49:212|85:212,2,50.0000019073487,0|0|0,1:0|0:0|0:0,0:0:0:0:
84,256,285459,6,0,L|58:97,1,150,2|0,1:0|0:0,0:0:0:0:
94,35,285846,2,2,P|71:28|35:28,5,50.0000019073487
59,107,286234,5,2,0:1:0:0:
59,107,286524,2,0,P|87:109|132:84,1,50,2|0,0:0|0:0,0:0:0:0:
237,58,286621,6,0,B|138:-25|61:-3|33:80|109:103,1,269.999991760254,4|0,3:0|0:0,0:0:0:0:
237,58,287008,6,0,B|316:52|316:52|368:80|368:80|464:72,1,225.000008583069,6|0,1:0|0:0,0:0:0:0:
292,148,287395,2,2,B|272:216|272:216|292:292,1,150.000005722046,10|0,0:1|0:0,0:1:0:0:
372,220,287685,1,0,0:0:0:0:
292,148,287782,6,0,L|232:152,2,50.0000019073487,2|0|0,1:0|0:0|0:0,0:0:0:0:
454,72,287975,1,2,0:0:0:0:
480,160,288072,1,10,0:1:0:0:
504,248,288169,2,2,P|484:324|356:312,1,225.000008583069,0|0,1:0|0:0,0:1:0:0:
356,68,288556,5,2,1:1:0:0:
374,87,288620,1,2,0:0:0:0:
387,110,288685,1,2,0:0:0:0:
393,137,288749,1,2,0:0:0:0:
392,163,288814,1,2,0:0:0:0:
386,188,288878,1,2,0:0:0:0:
373,214,288943,6,0,L|299:205,2,50.0000019073487,10|2|2,0:1|0:0|0:0,0:0:0:0:
214,281,289137,2,2,L|264:276,2,50.0000019073487,2|2|2,0:2|0:2|0:2,0:2:0:0:
300,356,289330,6,2,B|285:127,1,225.000008583069,2|8,0:1|0:0,0:1:0:0:
155,0,289717,2,2,B|140:224,1,225.000008583069,2|0,0:1|1:0,0:1:0:0:
285,131,290104,5,2,1:2:0:0:
312,124,290168,1,2,0:2:0:0:
339,124,290233,1,2,0:2:0:0:
367,132,290297,1,2,0:2:0:0:
391,146,290362,1,2,0:2:0:0:
410,166,290426,1,2,0:2:0:0:
427,192,290491,6,2,L|480:180,2,50.0000019073487,10|2|2,0:2|0:2|0:2,0:2:0:0:
316,248,290685,2,2,L|263:236,2,50.0000019073487,2|2|2,0:2|0:2|0:2,0:2:0:0:
424,339,290879,6,0,B|412:295|412:295|426:191,1,150.000005722046,2|0,1:2|0:0,0:0:0:0:
440,88,291169,2,0,L|356:96,1,75.0000028610231,10|0,0:2|1:0,0:0:0:0:
192,229,291459,2,0,L|276:237,1,75.0000028610231,2|0,0:2|1:0,0:0:0:0:
108,176,291653,6,0,B|96:220|96:220|110:324,1,150.000005722046,0|0,1:0|0:0,0:0:0:0:
192,229,291943,1,0,0:0:0:0:
116,84,292040,6,0,P|76:88|44:104,1,75.0000028610231,8|2,0:0|0:0,0:0:0:0:
192,229,292234,2,0,P|229:225|263:210,1,75.0000028610231,2|10,0:0|0:0,0:0:0:0:
463,102,292427,5,2,1:2:0:0:
445,189,292523,1,8,0:0:0:0:
356,200,292620,1,0,1:0:0:0:
317,119,292717,1,0,0:0:0:0:
381,56,292814,2,0,L|396:148,1,75.0000028610231,10|0,0:0|0:0,0:0:0:0:
424,312,293008,5,8,0:0:0:0:
324,293,293105,1,8,0:0:0:0:
221,272,293201,6,0,L|228:319,1,44.999998626709,2|0,1:0|0:0,0:0:0:0:
124,228,293588,6,2,L|147:387,1,150.000005722046,2|0,1:0|0:0,0:1:0:0:
368,212,293879,1,0,0:0:0:0:
339,133,293975,6,2,L|315:292,1,160,2|0,1:0|0:0,0:1:0:0:
68,143,294266,1,8,0:0:0:0:
98,59,294363,6,2,L|123:227,1,170.000003242493,2|0,1:0|0:0,0:1:0:0:
360,40,294653,1,8,0:0:0:0:
272,72,294750,6,0,P|336:132|448:16,1,269.999991760254,2|0,1:0|0:0,0:1:0:0:
196,12,295137,1,10,0:1:0:0:
184,100,295234,2,0,L|172:200,1,89.9999972534181
391,290,295427,6,2,B|360:39|360:39|343:125,1,340.000006484985,2|0,0:1|0:0,0:1:0:0:
424,176,295911,6,0,L|488:180,2,56.6666677474976,2|0|0,1:0|0:0|0:0,0:0:0:0:
331,214,296104,2,0,P|303:254|295:298,1,85.0000016212464,2|2,0:0|0:0,0:0:0:0:
438,323,296298,6,0,P|379:281|294:289,1,160,2|0,1:0|0:0,0:0:0:0:
200,332,296588,1,0,0:0:0:0:
34,172,296685,6,0,P|95:216|185:207,1,170.000003242493,10|0,0:0|0:0,0:0:0:0:
290,148,296975,1,0,0:0:0:0:
167,28,297072,6,0,L|187:220,1,179.999994506836,2|0,1:2|0:0,0:0:0:0:
200,332,297363,1,8,0:0:0:0:
408,59,297459,6,0,L|386:263,1,189.999994926453,2|0,1:2|0:0,0:0:0:0:
372,382,297750,1,8,0:0:0:0:
185,207,297846,6,2,B|144:264|80:260|80:260|40:248|16:196|16:196|56:164|96:172,1,300,2|0,1:0|0:0,0:1:0:0:
268,264,298234,2,0,L|280:388,1,100,8|0,0:0|1:0,0:0:0:0:
185,207,298426,5,8,0:0:0:0:
276,160,298524,1,10,0:0:0:0:
360,220,298621,1,0,1:0:0:0:
351,321,298717,1,10,0:0:0:0:
268,264,298814,2,0,L|376:244,1,100,8|0,0:0|0:0,0:0:0:0:
468,80,299008,6,0,L|418:72,1,50,10|0,0:1|0:0,0:0:0:0:
392,56,299104,6,0,L|342:48,1,50,10|0,0:0|0:0,0:0:0:0:
312,60,299201,6,0,L|262:52,1,50,10|0,0:1|0:0,0:0:0:0:
232,36,299298,6,0,L|182:28,1,50,10|0,0:2|0:0,0:0:0:0:
134,36,299395,6,0,B|119:68|119:68|126:122,1,80,4|2,1:2|0:1,0:0:0:0:
139,292,299588,2,0,B|154:260|154:260|147:206,1,80,2|2,0:2|0:1,0:0:0:0:
28,89,299782,2,0,L|55:252,1,160,0|2,1:1|0:1,0:0:0:0:
0,370,300072,2,0,P|33:353|76:350,1,80,2|0,0:1|1:2,0:0:0:0:
227,207,300266,6,0,L|138:216,1,80,2|0,0:1|0:0,0:0:0:0:
383,141,300459,6,0,L|294:132,1,80,2|0,0:1|1:0,0:0:0:0:
503,222,300653,6,0,L|414:231,1,80,2|0,0:1|0:0,0:0:0:0:
241,300,300846,6,0,L|330:291,1,80,2|0,0:1|1:0,0:0:0:0:
503,222,301040,6,0,B|514:257|514:257|507:305,1,80,2|0,0:1|0:0,0:0:0:0:
206,320,301234,2,0,L|378:302,1,160,2|0,0:1|0:0,0:0:0:0:
393,143,301524,1,2,0:1:0:0:
393,143,301621,1,2,0:1:0:0:
393,143,301717,6,0,L|402:240,2,80,0|2|0,1:0|0:1|0:0,0:0:0:0:
230,72,302008,6,0,P|267:80|304:109,1,80,2|0,0:1|1:0,0:0:0:0:
471,10,302201,6,0,P|434:18|397:47,1,80,2|0,0:1|0:0,0:0:0:0:
307,184,302395,6,0,L|299:104,1,80,2|0,0:1|1:0,0:0:0:0:
486,181,302588,6,0,L|495:278,1,80,2|0,0:1|0:0,0:0:0:0:
241,287,302782,2,0,P|324:273|378:341,1,160,2|2,0:1|0:1,0:0:0:0:
294,356,303072,1,2,0:1:0:0:
294,356,303169,1,2,0:1:0:0:
294,356,303266,6,0,L|213:368,2,80,0|2|0,1:0|0:1|0:0,0:0:0:0:
158,298,303556,6,0,L|77:310,1,80,2|0,0:1|1:0,0:0:0:0:
288,259,303750,6,0,B|385:260|332:307|458:311,1,160,2|2,0:1|0:1,0:0:0:0:
477,333,304040,6,0,L|469:253,1,80,4|0,1:3|0:0,0:0:0:0:
456,131,304234,1,0,0:0:0:0:
455,113,304330,1,0,0:0:0:0:
360,282,304427,6,0,L|352:202,1,80,4|0,1:3|0:0,0:0:0:0:
339,80,304621,1,0,0:0:0:0:
338,62,304717,1,0,0:0:0:0:
199,212,304814,5,6,1:2:0:0:
122,187,304911,1,0,0:0:0:0:
122,107,305008,1,6,0:0:0:0:
199,82,305104,1,0,1:0:0:0:
246,147,305201,2,0,B|192:155|192:155|145:187|145:187|53:196|53:196|87:203|116:222,1,269.999991760254,12|0,1:2|0:0,0:0:0:0:
122,107,305588,6,0,L|130:18,1,80,4|2,1:2|0:1,0:0:0:0:
337,184,305782,2,0,L|329:95,1,80,0|2,0:0|0:1,0:0:0:0:
188,355,305975,2,0,L|203:196,1,160,0|2,1:0|0:1,0:0:0:0:
36,225,306266,2,0,P|75:230|113:220,1,80,2|0,0:1|1:0,0:0:0:0:
248,118,306459,6,0,P|209:107|170:113,1,80,2|0,0:1|0:0,0:0:0:0:
386,135,306653,6,0,P|357:106|321:92,1,80,2|0,0:1|1:0,0:0:0:0:
497,218,306846,6,0,P|486:179|462:148,1,80,2|0,0:1|0:0,0:0:0:0:
312,12,307040,6,0,L|322:106,1,80,2|0,0:1|1:0,0:0:0:0:
400,314,307234,6,0,L|410:220,1,80,2|0,0:1|0:0,0:0:0:0:
242,62,307427,2,0,B|292:70|292:70|336:105|336:105|396:114,1,160,2|0,0:1|0:0,0:0:0:0:
253,154,307717,1,2,0:1:0:0:
253,154,307814,1,2,0:1:0:0:
253,154,307911,1,0,1:0:0:0:
177,211,308008,6,0,P|160:178|166:124,1,80,2|0,0:1|0:0,0:0:0:0:
340,191,308201,6,0,P|319:222|270:244,1,80,2|0,0:1|1:0,0:0:0:0:
241,59,308395,6,0,P|278:60|321:92,1,80,2|0,0:1|0:0,0:0:0:0:
380,280,308588,5,2,0:1:0:0:
266,333,308685,6,0,L|252:153,1,179.999994506836,4|0,1:2|0:0,0:0:0:0:
219,53,308975,2,0,L|273:49,1,44.999998626709,2|0,1:0|0:0,0:0:0:0:
263,49,309266,6,0,L|209:45,1,44.999998626709,2|0,1:0|0:0,0:0:0:0:
0,241,309459,6,0,L|180:227,1,179.999994506836,4|0,1:2|0:0,0:0:0:0:
384,194,309750,2,0,L|330:190,1,44.999998626709,2|0,1:0|0:0,0:0:0:0:
339,190,309943,5,0,1:0:0:0:
463,184,310040,2,0,L|507:180,2,44.999998626709,2|0|0,1:0|1:0|1:0,1:0:0:0:
286,261,310234,6,0,P|255:165|317:115,1,179.999994506836,4|0,1:2|0:0,0:0:0:0:
510,339,310524,2,0,B|371:358|371:358|437:317,1,179.999994506836,2|0,1:0|0:0,0:0:0:0:
339,190,310814,2,0,B|382:190|382:190|422:222,1,89.9999972534181,2|0,1:0|0:0,0:0:0:0:
269,283,311008,6,0,L|119:303,1,142.49999619484,4|0,1:2|0:0,0:0:0:0:
339,190,311201,6,0,L|480:171,1,142.49999619484,4|0,1:2|0:0,0:0:0:0:
178,164,311395,6,2,P|130:62|237:130,1,284.999992389679,2|0,0:1|0:0,0:1:0:0:
269,283,311782,5,0,1:0:0:0:
204,356,311879,2,0,P|180:324|176:268,2,80,2|2|2,0:1|0:0|0:1,0:0:0:0:
362,307,312169,6,0,P|346:343|299:375,1,80,2|0,1:2|0:0,0:0:0:0:
240,190,312363,2,0,P|279:185|330:209,1,80,2|0,0:0|0:0,0:0:0:0:
204,357,312556,6,0,L|124:363,1,80,2|2,1:2|0:1,0:0:0:0:
16,368,312750,1,0,0:0:0:0:
16,368,312846,1,2,0:1:0:0:
96,260,312943,6,0,L|176:254,1,80,0|2,1:0|0:0,0:0:0:0:
292,244,313137,1,2,0:0:0:0:
292,244,313233,1,0,0:0:0:0:
204,136,313330,6,0,L|210:56,7,50,0|0|2|0|0|0|2|0,1:0|1:0|1:0|1:0|1:0|1:0|1:0|1:0,1:0:0:0:
296,24,313717,6,0,P|328:16|361:17,1,59.9999981689454,0|0,1:0|0:0,0:0:0:0:
340,104,313846,2,0,P|371:113|399:130,1,59.9999981689454,2|0,1:2|0:0,0:0:0:0:
339,195,313975,2,0,P|361:218|377:247,1,59.9999981689454,2|0,1:2|0:0,0:0:0:0:
316,348,314104,6,0,L|216:340,1,80,0|2,1:0|0:0,0:0:0:0:
104,328,314298,2,0,L|97:248,3,44.999998626709,0|0|2|0,1:0|1:0|1:0|1:0,1:0:0:0:
12,280,314492,6,0,L|7:220,1,59.9999981689454,2|0,1:2|0:0,0:0:0:0:
92,200,314621,2,0,L|87:140,1,59.9999981689454,2|0,1:2|0:0,0:0:0:0:
180,140,314750,2,0,L|175:80,1,59.9999981689454,2|0,1:2|0:0,0:0:0:0:
242,261,314879,6,0,L|234:353,1,80,0|2,1:0|0:1,0:0:0:0:
320,196,315072,1,0,1:0:0:0:
316,168,315169,1,2,0:1:0:0:
388,264,315266,6,0,L|381:343,1,80,0|2,1:0|0:0,0:0:0:0:
316,168,315459,2,0,L|322:88,1,80,2|0,0:0|0:0,0:0:0:0:
176,24,315653,6,0,P|136:36|96:76,1,80,0|2,1:0|0:1,0:0:0:0:
72,152,315846,1,0,0:0:0:0:
72,152,315943,1,2,0:1:0:0:
192,204,316040,6,0,L|184:124,1,80,0|2,1:0|0:0,0:0:0:0:
60,244,316234,2,0,L|52:323,1,80,2|0,0:0|0:0,0:0:0:0:
264,272,316427,6,0,B|284:224|284:224|268:72,1,179.999994506836,4|2,1:2|0:1,0:0:0:0:
192,204,316717,1,2,0:1:0:0:
376,180,316814,6,0,L|356:1,1,179.999994506836,4|2,1:2|0:0,0:0:0:0:
270,96,317104,1,2,0:0:0:0:
312,252,317201,5,4,1:2:0:0:
407,267,317298,1,2,0:0:0:0:
467,191,317395,1,0,1:0:0:0:
436,100,317492,1,2,0:0:0:0:
376,180,317588,6,0,L|387:279,1,100,2|0,1:0|0:0,0:0:0:0:
212,352,317782,2,0,L|201:253,1,100,2|0,0:0|0:0,0:0:0:0:
276,112,317975,6,0,L|295:287,1,160,4|0,1:2|0:0,0:0:0:0:
305,370,318266,1,2,0:0:0:0:
118,329,318363,6,0,L|98:153,1,160,4|0,1:2|0:0,0:0:0:0:
89,71,318654,1,2,0:0:0:0:
276,112,318750,6,0,L|285:201,1,89.9999972534181,0|0,1:2|0:0,0:0:0:0:
118,329,318943,2,0,L|108:239,1,89.9999972534181,0|0,1:0|0:0,0:0:0:0:
180,92,319137,6,2,L|199:267,1,134.999995880127,2|0,1:1|0:0,0:1:0:0:
212,356,319524,6,0,P|272:364|368:320,1,160,4|0,1:2|0:0,0:0:0:0:
428,252,319814,1,2,0:0:0:0:
260,211,319911,6,0,P|283:266|369:328,1,160,0|0,1:0|0:0,0:0:0:0:
458,346,320201,1,2,0:0:0:0:
512,212,320298,6,0,L|508:128,1,59.9999981689454,0|0,1:0|0:0,0:0:0:0:
412,84,320427,2,0,L|414:143,1,59.9999981689454,0|0,1:0|0:0,0:0:0:0:
505,59,320556,2,0,L|501:-25,1,59.9999981689454,0|0,1:0|0:0,0:0:0:0:
412,84,320685,6,0,L|328:76,2,59.9999981689454,2|2|0,1:1|0:1|0:1,0:0:0:0:
509,152,321072,6,0,L|513:241,1,80,4|2,1:2|0:0,0:0:0:0:
324,356,321266,2,0,L|319:266,1,80,0|2,0:0|0:0,0:0:0:0:
424,184,321459,6,0,L|426:233,1,50,2|0,0:0|0:0,0:0:0:0:
408,308,321653,2,0,L|405:258,1,50,2|0,0:0|0:0,0:0:0:0:
392,52,321846,6,0,P|383:84|354:120,1,80,4|2,1:2|0:0,0:0:0:0:
157,120,322040,2,0,P|131:89|119:51,1,80,0|2,0:0|0:0,0:0:0:0:
256,8,322234,6,2,L|256:180,1,150,2|0,0:1|0:0,0:1:0:0:
196,280,322621,6,0,B|172:232|172:232|192:368,1,179.999994506836,4|0,0:0|0:0,0:0:0:0:
316,280,322911,2,0,B|340:232|340:232|320:368,1,179.999994506836,4|0,0:0|0:0,0:0:0:0:
256,158,323201,2,0,L|256:62,2,89.9999972534181,4|2|2,0:0|0:0|0:0,0:0:0:0:
340,232,323492,2,0,B|256:263|256:263|172:232,1,179.999994506836,4|0,0:0|0:0,0:0:0:0:
344,0,323782,6,0,L|364:112,1,100,6|0,0:0|0:0,0:0:0:0:
150,98,323975,2,0,L|168:0,1,100,6|2,0:0|0:0,0:0:0:0:
256,264,324169,5,0,0:0:0:0:
256,192,324266,12,2,327169,0:0:0:0:
