osu file format v14

[General]
AudioFilename: audio.mp3
AudioLeadIn: 0
PreviewTime: 216542
Countdown: 0
SampleSet: None
StackLeniency: 0.7
Mode: 3
LetterboxInBreaks: 0
SpecialStyle: 0
WidescreenStoryboard: 1

[Editor]
Bookmarks: 110042,146042,290042
DistanceSpacing: 1.1
BeatDivisor: 12
GridSize: 4
TimelineZoom: 1.5

[Metadata]
Title:Hypnotize
TitleUnicode:Hypnotize
Artist:Camellia VS. lapix
ArtistUnicode:Camellia VS. lapix
Creator:Evening
Version:return static_cast(*this, 4_K);
Source:
Tags:
BeatmapID:2477460
BeatmapSetID:1188934

[Difficulty]
HPDrainRate:8
CircleSize:4
OverallDifficulty:7.5
ApproachRate:5
SliderMultiplier:1.4
SliderTickRate:1

[Events]
//Background and Video events
0,0,"94920.jpg",0,0
//Break Periods
//Storyboard Layer 0 (Background)
//Storyboard Layer 1 (Fail)
//Storyboard Layer 2 (Pass)
//Storyboard Layer 3 (Foreground)
//Storyboard Layer 4 (Overlay)
//Storyboard Sound Samples

[TimingPoints]
2042,375,4,1,0,20,1,0

[HitObjects]
475,192,2042,5,0,0:0:0:0:
329,192,2042,1,0,0:0:0:0:
36,192,2042,1,0,0:0:0:0:
475,192,2417,128,0,2792:0:0:0:0:
182,192,2792,128,0,2979:0:0:0:0:
329,192,2979,128,0,3167:0:0:0:0:
36,192,3167,128,0,3354:0:0:0:0:
182,192,3354,128,0,3542:0:0:0:0:
329,192,3917,128,0,4198:0:0:0:0:
475,192,4292,128,0,4479:0:0:0:0:
182,192,4479,128,0,4667:0:0:0:0:
329,192,4667,128,0,5042:0:0:0:0:
475,192,4713,128,0,5042:0:0:0:0:
475,192,5417,128,0,5792:0:0:0:0:
182,192,5792,128,0,5979:0:0:0:0:
329,192,5979,128,0,6167:0:0:0:0:
36,192,6167,128,0,6354:0:0:0:0:
182,192,6354,128,0,6542:0:0:0:0:
329,192,6917,128,0,7198:0:0:0:0:
475,192,7292,128,0,7479:0:0:0:0:
182,192,7479,128,0,7667:0:0:0:0:
36,192,7667,128,0,7854:0:0:0:0:
182,192,7854,128,0,8042:0:0:0:0:
475,192,8417,128,0,8792:0:0:0:0:
182,192,8792,128,0,8979:0:0:0:0:
329,192,8979,128,0,9167:0:0:0:0:
36,192,9167,128,0,9354:0:0:0:0:
182,192,9354,128,0,9542:0:0:0:0:
329,192,9917,128,0,10198:0:0:0:0:
475,192,10292,128,0,10479:0:0:0:0:
182,192,10479,128,0,10667:0:0:0:0:
329,192,10667,128,0,11042:0:0:0:0:
475,192,10713,128,0,11042:0:0:0:0:
36,192,11417,128,0,11792:0:0:0:0:
182,192,11463,128,0,11792:0:0:0:0:
475,192,11792,128,0,11979:0:0:0:0:
329,192,11979,128,0,12167:0:0:0:0:
36,192,12167,128,0,12354:0:0:0:0:
182,192,12354,128,0,12542:0:0:0:0:
329,192,12729,128,0,12823:0:0:0:0:
329,192,12917,128,0,13104:0:0:0:0:
182,192,13104,128,0,13292:0:0:0:0:
475,192,13292,128,0,13479:0:0:0:0:
182,192,13479,128,0,13667:0:0:0:0:
329,192,13667,128,0,13948:0:0:0:0:
475,192,13667,128,0,13948:0:0:0:0:
36,192,13854,128,0,13948:0:0:0:0:
182,192,13854,128,0,13948:0:0:0:0:
475,192,14042,1,0,0:0:0:0:
329,192,14042,1,0,0:0:0:0:
182,192,14042,1,0,0:0:0:0:
36,192,14042,1,0,0:0:0:0:
475,192,14417,128,0,14792:0:0:0:0:
36,192,14604,1,0,0:0:0:0:
182,192,14698,1,0,0:0:0:0:
182,192,14792,1,0,0:0:0:0:
329,192,14979,128,0,15167:0:0:0:0:
182,192,15167,128,0,15354:0:0:0:0:
475,192,15167,128,0,15542:0:0:0:0:
329,192,15354,128,0,15542:0:0:0:0:
36,192,15542,1,0,0:0:0:0:
329,192,15917,128,0,16198:0:0:0:0:
182,192,16104,1,0,0:0:0:0:
182,192,16198,1,0,0:0:0:0:
475,192,16292,128,0,16479:0:0:0:0:
36,192,16292,1,0,0:0:0:0:
182,192,16479,128,0,16667:0:0:0:0:
475,192,16667,128,0,17042:0:0:0:0:
329,192,16713,128,0,17042:0:0:0:0:
36,192,17042,1,0,0:0:0:0:
36,192,17417,128,0,17792:0:0:0:0:
475,192,17604,1,0,0:0:0:0:
329,192,17698,1,0,0:0:0:0:
182,192,17792,128,0,17979:0:0:0:0:
329,192,17792,1,0,0:0:0:0:
329,192,17979,128,0,18167:0:0:0:0:
36,192,18167,128,0,18542:0:0:0:0:
475,192,18167,128,0,18354:0:0:0:0:
182,192,18354,128,0,18542:0:0:0:0:
475,192,18542,1,0,0:0:0:0:
329,192,18917,128,0,19198:0:0:0:0:
182,192,19104,1,0,0:0:0:0:
182,192,19198,1,0,0:0:0:0:
475,192,19292,128,0,19479:0:0:0:0:
36,192,19292,1,0,0:0:0:0:
329,192,19479,128,0,19667:0:0:0:0:
36,192,19667,128,0,19854:0:0:0:0:
182,192,19854,128,0,20042:0:0:0:0:
329,192,20042,1,0,0:0:0:0:
475,192,20042,1,0,0:0:0:0:
182,192,20417,1,0,0:0:0:0:
475,192,20417,128,0,20792:0:0:0:0:
36,192,20604,1,0,0:0:0:0:
182,192,20698,1,0,0:0:0:0:
36,192,20792,128,0,20979:0:0:0:0:
182,192,20792,1,0,0:0:0:0:
329,192,20979,128,0,21167:0:0:0:0:
182,192,21167,128,0,21354:0:0:0:0:
475,192,21167,1,0,0:0:0:0:
36,192,21167,1,0,0:0:0:0:
329,192,21354,128,0,21542:0:0:0:0:
36,192,21542,1,0,0:0:0:0:
182,192,21542,1,0,0:0:0:0:
329,192,21917,128,0,22198:0:0:0:0:
475,192,21917,1,0,0:0:0:0:
36,192,21917,1,0,0:0:0:0:
182,192,22104,1,0,0:0:0:0:
182,192,22198,1,0,0:0:0:0:
475,192,22292,128,0,22479:0:0:0:0:
36,192,22292,1,0,0:0:0:0:
182,192,22479,128,0,22667:0:0:0:0:
329,192,22667,128,0,23042:0:0:0:0:
475,192,22713,128,0,23042:0:0:0:0:
182,192,23042,1,0,0:0:0:0:
36,192,23042,1,0,0:0:0:0:
182,192,23229,1,0,0:0:0:0:
329,192,23229,1,0,0:0:0:0:
329,192,23417,128,0,23792:0:0:0:0:
36,192,23417,1,0,0:0:0:0:
182,192,23417,1,0,0:0:0:0:
475,192,23463,128,0,23792:0:0:0:0:
182,192,23604,1,0,0:0:0:0:
36,192,23604,1,0,0:0:0:0:
182,192,23792,128,0,23979:0:0:0:0:
36,192,23792,1,0,0:0:0:0:
329,192,23979,128,0,24167:0:0:0:0:
475,192,23979,1,0,0:0:0:0:
36,192,24167,128,0,24354:0:0:0:0:
475,192,24167,1,0,0:0:0:0:
182,192,24260,128,0,24448:0:0:0:0:
329,192,24354,128,0,24635:0:0:0:0:
475,192,24448,128,0,24635:0:0:0:0:
36,192,24542,1,0,0:0:0:0:
182,192,24542,1,0,0:0:0:0:
329,192,24729,128,0,24823:0:0:0:0:
36,192,24729,1,0,0:0:0:0:
475,192,24729,128,0,24823:0:0:0:0:
329,192,24917,128,0,25010:0:0:0:0:
475,192,24917,128,0,25010:0:0:0:0:
182,192,24917,1,0,0:0:0:0:
329,192,25104,128,0,25198:0:0:0:0:
182,192,25104,1,0,0:0:0:0:
475,192,25104,128,0,25198:0:0:0:0:
475,192,25292,128,0,25385:0:0:0:0:
329,192,25292,1,0,0:0:0:0:
475,192,25479,128,0,25573:0:0:0:0:
329,192,25479,1,0,0:0:0:0:
475,192,25667,1,0,0:0:0:0:
36,192,25667,1,0,0:0:0:0:
329,192,25760,1,0,0:0:0:0:
182,192,25760,1,0,0:0:0:0:
475,192,25854,1,0,0:0:0:0:
182,192,25948,1,0,0:0:0:0:
36,192,25948,1,0,0:0:0:0:
475,192,26042,128,0,26229:0:0:0:0:
329,192,26042,1,0,0:0:0:0:
329,192,26229,128,0,26323:0:0:0:0:
182,192,26229,128,0,26323:0:0:0:0:
475,192,26417,128,0,26510:0:0:0:0:
329,192,26417,128,0,26510:0:0:0:0:
182,192,26604,128,0,26698:0:0:0:0:
329,192,26698,128,0,26792:0:0:0:0:
182,192,26792,128,0,26885:0:0:0:0:
36,192,26792,128,0,26885:0:0:0:0:
475,192,26979,128,0,27073:0:0:0:0:
329,192,27073,128,0,27260:0:0:0:0:
182,192,27073,128,0,27260:0:0:0:0:
36,192,27260,128,0,27354:0:0:0:0:
182,192,27354,128,0,27542:0:0:0:0:
475,192,27542,128,0,27729:0:0:0:0:
329,192,27729,128,0,27823:0:0:0:0:
182,192,27729,128,0,27823:0:0:0:0:
329,192,27917,128,0,28010:0:0:0:0:
475,192,27917,128,0,28010:0:0:0:0:
182,192,28104,128,0,28198:0:0:0:0:
329,192,28198,128,0,28292:0:0:0:0:
182,192,28292,128,0,28385:0:0:0:0:
36,192,28292,128,0,28385:0:0:0:0:
329,192,28479,128,0,28573:0:0:0:0:
475,192,28573,128,0,28760:0:0:0:0:
182,192,28573,128,0,28760:0:0:0:0:
36,192,28760,128,0,28854:0:0:0:0:
329,192,28854,128,0,29042:0:0:0:0:
475,192,29042,128,0,29229:0:0:0:0:
182,192,29229,128,0,29323:0:0:0:0:
329,192,29229,128,0,29323:0:0:0:0:
182,192,29417,128,0,29510:0:0:0:0:
36,192,29417,128,0,29510:0:0:0:0:
329,192,29604,128,0,29698:0:0:0:0:
182,192,29698,128,0,29792:0:0:0:0:
475,192,29792,128,0,29979:0:0:0:0:
36,192,29792,128,0,29979:0:0:0:0:
182,192,29979,128,0,30073:0:0:0:0:
329,192,30073,128,0,30260:0:0:0:0:
182,192,30260,128,0,30354:0:0:0:0:
36,192,30354,128,0,30542:0:0:0:0:
475,192,30354,128,0,30542:0:0:0:0:
182,192,30542,128,0,30729:0:0:0:0:
329,192,30542,128,0,30729:0:0:0:0:
36,192,30729,128,0,30823:0:0:0:0:
475,192,30917,128,0,31104:0:0:0:0:
329,192,30917,128,0,31104:0:0:0:0:
182,192,31104,128,0,31198:0:0:0:0:
36,192,31198,128,0,31292:0:0:0:0:
475,192,31292,128,0,31479:0:0:0:0:
329,192,31292,128,0,31479:0:0:0:0:
182,192,31479,128,0,31573:0:0:0:0:
475,192,31573,128,0,31760:0:0:0:0:
36,192,31573,128,0,31760:0:0:0:0:
329,192,31760,128,0,31854:0:0:0:0:
182,192,31854,128,0,32042:0:0:0:0:
475,192,32042,128,0,32229:0:0:0:0:
182,192,32229,128,0,32323:0:0:0:0:
329,192,32229,128,0,32323:0:0:0:0:
329,192,32417,128,0,32510:0:0:0:0:
475,192,32417,128,0,32510:0:0:0:0:
182,192,32604,128,0,32698:0:0:0:0:
329,192,32698,128,0,32792:0:0:0:0:
36,192,32792,128,0,32885:0:0:0:0:
475,192,32792,128,0,32885:0:0:0:0:
182,192,32979,128,0,33073:0:0:0:0:
329,192,33073,128,0,33260:0:0:0:0:
475,192,33073,128,0,33260:0:0:0:0:
36,192,33260,128,0,33354:0:0:0:0:
182,192,33354,128,0,33542:0:0:0:0:
475,192,33542,128,0,33729:0:0:0:0:
182,192,33729,128,0,33823:0:0:0:0:
329,192,33729,128,0,33823:0:0:0:0:
182,192,33917,128,0,34010:0:0:0:0:
36,192,33917,128,0,34010:0:0:0:0:
329,192,34104,128,0,34198:0:0:0:0:
182,192,34198,128,0,34292:0:0:0:0:
475,192,34292,128,0,34385:0:0:0:0:
36,192,34292,128,0,34385:0:0:0:0:
182,192,34479,128,0,34573:0:0:0:0:
329,192,34573,128,0,34760:0:0:0:0:
475,192,34573,128,0,34760:0:0:0:0:
36,192,34760,128,0,34854:0:0:0:0:
182,192,34854,128,0,35042:0:0:0:0:
475,192,35042,128,0,35229:0:0:0:0:
329,192,35042,128,0,35229:0:0:0:0:
36,192,35229,128,0,35323:0:0:0:0:
329,192,35417,128,0,35510:0:0:0:0:
182,192,35417,128,0,35510:0:0:0:0:
329,192,35604,128,0,35698:0:0:0:0:
475,192,35698,128,0,35792:0:0:0:0:
182,192,35792,128,0,35979:0:0:0:0:
36,192,35792,128,0,35979:0:0:0:0:
329,192,35979,128,0,36073:0:0:0:0:
475,192,36073,128,0,36260:0:0:0:0:
329,192,36167,128,0,36260:0:0:0:0:
182,192,36260,128,0,36354:0:0:0:0:
36,192,36354,128,0,36542:0:0:0:0:
329,192,36448,128,0,36542:0:0:0:0:
182,192,36542,128,0,36729:0:0:0:0:
475,192,36542,128,0,36729:0:0:0:0:
36,192,36729,128,0,36823:0:0:0:0:
475,192,36917,128,0,37104:0:0:0:0:
329,192,36917,128,0,37104:0:0:0:0:
36,192,37104,128,0,37198:0:0:0:0:
182,192,37198,128,0,37292:0:0:0:0:
329,192,37292,128,0,37479:0:0:0:0:
182,192,37479,128,0,37573:0:0:0:0:
475,192,37573,128,0,37760:0:0:0:0:
329,192,37573,128,0,37760:0:0:0:0:
36,192,37760,128,0,37854:0:0:0:0:
182,192,37854,128,0,37948:0:0:0:0:
329,192,37854,128,0,37948:0:0:0:0:
475,192,38042,128,0,38229:0:0:0:0:
36,192,38042,1,0,0:0:0:0:
329,192,38042,1,0,0:0:0:0:
182,192,38042,1,0,0:0:0:0:
182,192,38229,128,0,38323:0:0:0:0:
329,192,38229,128,0,38323:0:0:0:0:
36,192,38417,1,0,0:0:0:0:
329,192,38417,128,0,38510:0:0:0:0:
475,192,38417,1,0,0:0:0:0:
182,192,38604,128,0,38698:0:0:0:0:
329,192,38698,128,0,38792:0:0:0:0:
182,192,38792,128,0,38885:0:0:0:0:
36,192,38792,1,0,0:0:0:0:
475,192,38792,1,0,0:0:0:0:
36,192,38979,128,0,39073:0:0:0:0:
182,192,39073,128,0,39260:0:0:0:0:
329,192,39073,128,0,39260:0:0:0:0:
475,192,39167,1,0,0:0:0:0:
36,192,39167,1,0,0:0:0:0:
475,192,39260,128,0,39354:0:0:0:0:
36,192,39354,128,0,39542:0:0:0:0:
475,192,39542,128,0,39729:0:0:0:0:
329,192,39542,1,0,0:0:0:0:
182,192,39542,1,0,0:0:0:0:
182,192,39729,128,0,39823:0:0:0:0:
329,192,39729,128,0,39823:0:0:0:0:
36,192,39917,1,0,0:0:0:0:
182,192,39917,128,0,40010:0:0:0:0:
475,192,39917,1,0,0:0:0:0:
329,192,40104,128,0,40198:0:0:0:0:
182,192,40198,128,0,40292:0:0:0:0:
475,192,40292,1,0,0:0:0:0:
36,192,40292,1,0,0:0:0:0:
329,192,40292,128,0,40385:0:0:0:0:
475,192,40479,128,0,40573:0:0:0:0:
329,192,40573,128,0,40760:0:0:0:0:
182,192,40573,128,0,40760:0:0:0:0:
475,192,40667,1,0,0:0:0:0:
36,192,40667,1,0,0:0:0:0:
36,192,40760,128,0,40854:0:0:0:0:
475,192,40854,128,0,41042:0:0:0:0:
329,192,41042,1,0,0:0:0:0:
182,192,41042,128,0,41229:0:0:0:0:
36,192,41042,1,0,0:0:0:0:
329,192,41229,128,0,41323:0:0:0:0:
475,192,41229,128,0,41323:0:0:0:0:
36,192,41417,1,0,0:0:0:0:
475,192,41417,1,0,0:0:0:0:
182,192,41417,128,0,41510:0:0:0:0:
329,192,41604,128,0,41698:0:0:0:0:
182,192,41698,128,0,41792:0:0:0:0:
475,192,41792,128,0,41979:0:0:0:0:
36,192,41792,128,0,41979:0:0:0:0:
329,192,41792,1,0,0:0:0:0:
182,192,41979,128,0,42073:0:0:0:0:
329,192,42073,128,0,42260:0:0:0:0:
475,192,42167,1,0,0:0:0:0:
36,192,42167,1,0,0:0:0:0:
182,192,42260,128,0,42354:0:0:0:0:
36,192,42354,128,0,42542:0:0:0:0:
475,192,42354,128,0,42448:0:0:0:0:
182,192,42542,128,0,42729:0:0:0:0:
329,192,42542,1,0,0:0:0:0:
475,192,42542,1,0,0:0:0:0:
329,192,42729,128,0,42823:0:0:0:0:
36,192,42917,1,0,0:0:0:0:
475,192,42917,1,0,0:0:0:0:
182,192,42917,128,0,43104:0:0:0:0:
329,192,43104,128,0,43198:0:0:0:0:
182,192,43198,128,0,43292:0:0:0:0:
329,192,43292,128,0,43479:0:0:0:0:
36,192,43292,128,0,43479:0:0:0:0:
475,192,43292,1,0,0:0:0:0:
182,192,43479,128,0,43573:0:0:0:0:
475,192,43573,128,0,43760:0:0:0:0:
36,192,43667,1,0,0:0:0:0:
329,192,43667,1,0,0:0:0:0:
182,192,43760,128,0,43854:0:0:0:0:
329,192,43854,128,0,44042:0:0:0:0:
36,192,44042,1,0,0:0:0:0:
475,192,44042,128,0,44229:0:0:0:0:
329,192,44229,128,0,44323:0:0:0:0:
475,192,44323,128,0,44510:0:0:0:0:
36,192,44323,128,0,44510:0:0:0:0:
182,192,44417,1,0,0:0:0:0:
329,192,44510,128,0,44604:0:0:0:0:
182,192,44604,128,0,44792:0:0:0:0:
36,192,44792,1,0,0:0:0:0:
329,192,44792,128,0,44979:0:0:0:0:
182,192,44979,128,0,45073:0:0:0:0:
475,192,45073,128,0,45260:0:0:0:0:
36,192,45167,1,0,0:0:0:0:
182,192,45167,1,0,0:0:0:0:
329,192,45167,128,0,45260:0:0:0:0:
182,192,45260,128,0,45354:0:0:0:0:
36,192,45354,128,0,45448:0:0:0:0:
329,192,45354,128,0,45542:0:0:0:0:
182,192,45542,128,0,45729:0:0:0:0:
475,192,45542,1,0,0:0:0:0:
36,192,45542,1,0,0:0:0:0:
36,192,45729,128,0,45823:0:0:0:0:
329,192,45823,128,0,45917:0:0:0:0:
475,192,45917,1,0,0:0:0:0:
182,192,45917,128,0,46104:0:0:0:0:
475,192,46104,128,0,46198:0:0:0:0:
329,192,46104,128,0,46198:0:0:0:0:
475,192,46292,128,0,46479:0:0:0:0:
36,192,46292,1,0,0:0:0:0:
182,192,46292,1,0,0:0:0:0:
329,192,46479,128,0,46573:0:0:0:0:
182,192,46573,128,0,46667:0:0:0:0:
475,192,46667,1,0,0:0:0:0:
36,192,46667,1,0,0:0:0:0:
329,192,46667,128,0,46854:0:0:0:0:
182,192,46854,128,0,47042:0:0:0:0:
36,192,47042,1,0,0:0:0:0:
329,192,47042,1,0,0:0:0:0:
475,192,47042,128,0,47229:0:0:0:0:
182,192,47229,128,0,47323:0:0:0:0:
475,192,47323,128,0,47510:0:0:0:0:
329,192,47323,128,0,47510:0:0:0:0:
36,192,47417,1,0,0:0:0:0:
182,192,47417,1,0,0:0:0:0:
36,192,47510,128,0,47604:0:0:0:0:
182,192,47604,128,0,47698:0:0:0:0:
36,192,47792,1,0,0:0:0:0:
475,192,47792,1,0,0:0:0:0:
329,192,47792,128,0,47979:0:0:0:0:
182,192,47979,128,0,48073:0:0:0:0:
475,192,48073,128,0,48260:0:0:0:0:
329,192,48073,128,0,48260:0:0:0:0:
36,192,48073,1,0,0:0:0:0:
36,192,48167,1,0,0:0:0:0:
182,192,48167,1,0,0:0:0:0:
475,192,48354,128,0,50042:0:0:0:0:
182,192,48354,1,0,0:0:0:0:
329,192,48354,1,0,0:0:0:0:
182,192,48729,1,0,0:0:0:0:
182,192,48917,1,0,0:0:0:0:
36,192,49057,1,0,0:0:0:0:
329,192,49198,1,0,0:0:0:0:
182,192,49292,1,0,0:0:0:0:
182,192,49385,1,0,0:0:0:0:
36,192,49479,1,0,0:0:0:0:
182,192,49667,1,0,0:0:0:0:
329,192,49760,1,0,0:0:0:0:
182,192,49854,1,0,0:0:0:0:
36,192,49948,1,0,0:0:0:0:
36,192,50042,1,0,0:0:0:0:
329,192,50042,128,0,50135:0:0:0:0:
182,192,50042,1,0,0:0:0:0:
329,192,50229,128,0,50323:0:0:0:0:
36,192,50417,1,0,0:0:0:0:
475,192,50417,128,0,50792:0:0:0:0:
182,192,50417,1,0,0:0:0:0:
329,192,50604,128,0,50792:0:0:0:0:
36,192,50792,1,0,0:0:0:0:
182,192,50792,1,0,0:0:0:0:
329,192,50979,128,0,51542:0:0:0:0:
36,192,51167,1,0,0:0:0:0:
182,192,51167,1,0,0:0:0:0:
475,192,51354,128,0,51448:0:0:0:0:
36,192,51542,1,0,0:0:0:0:
475,192,51542,128,0,51635:0:0:0:0:
182,192,51542,1,0,0:0:0:0:
329,192,51729,128,0,51823:0:0:0:0:
329,192,51917,128,0,52292:0:0:0:0:
36,192,51917,1,0,0:0:0:0:
182,192,51917,1,0,0:0:0:0:
475,192,52104,128,0,52292:0:0:0:0:
36,192,52292,1,0,0:0:0:0:
182,192,52292,1,0,0:0:0:0:
475,192,52479,128,0,53042:0:0:0:0:
36,192,52667,1,0,0:0:0:0:
182,192,52667,1,0,0:0:0:0:
36,192,53042,1,0,0:0:0:0:
329,192,53042,128,0,53135:0:0:0:0:
182,192,53042,1,0,0:0:0:0:
182,192,53229,128,0,53323:0:0:0:0:
329,192,53417,1,0,0:0:0:0:
36,192,53417,128,0,53792:0:0:0:0:
475,192,53417,1,0,0:0:0:0:
182,192,53604,128,0,53792:0:0:0:0:
329,192,53792,1,0,0:0:0:0:
475,192,53792,1,0,0:0:0:0:
182,192,53979,128,0,54542:0:0:0:0:
329,192,54167,1,0,0:0:0:0:
475,192,54167,1,0,0:0:0:0:
36,192,54354,128,0,54448:0:0:0:0:
329,192,54542,1,0,0:0:0:0:
36,192,54542,128,0,54635:0:0:0:0:
475,192,54542,1,0,0:0:0:0:
182,192,54729,128,0,54823:0:0:0:0:
329,192,54917,1,0,0:0:0:0:
475,192,54917,1,0,0:0:0:0:
182,192,54917,128,0,55292:0:0:0:0:
36,192,55104,128,0,55292:0:0:0:0:
329,192,55292,1,0,0:0:0:0:
475,192,55292,1,0,0:0:0:0:
36,192,55479,128,0,55854:0:0:0:0:
329,192,55667,1,0,0:0:0:0:
475,192,55667,1,0,0:0:0:0:
182,192,56042,1,0,0:0:0:0:
36,192,56042,1,0,0:0:0:0:
475,192,56042,128,0,56229:0:0:0:0:
329,192,56088,1,0,0:0:0:0:
182,192,56135,1,0,0:0:0:0:
329,192,56182,1,0,0:0:0:0:
182,192,56229,1,0,0:0:0:0:
36,192,56229,1,0,0:0:0:0:
36,192,56417,1,0,0:0:0:0:
329,192,56417,1,0,0:0:0:0:
475,192,56417,128,0,56604:0:0:0:0:
182,192,56510,1,0,0:0:0:0:
329,192,56510,1,0,0:0:0:0:
36,192,56698,1,0,0:0:0:0:
329,192,56698,1,0,0:0:0:0:
36,192,56792,1,0,0:0:0:0:
182,192,56792,1,0,0:0:0:0:
475,192,56792,128,0,56979:0:0:0:0:
36,192,56979,1,0,0:0:0:0:
329,192,56979,1,0,0:0:0:0:
182,192,57073,1,0,0:0:0:0:
329,192,57073,1,0,0:0:0:0:
475,192,57167,128,0,57354:0:0:0:0:
36,192,57260,1,0,0:0:0:0:
329,192,57260,1,0,0:0:0:0:
182,192,57354,1,0,0:0:0:0:
36,192,57354,1,0,0:0:0:0:
182,192,57448,1,0,0:0:0:0:
329,192,57542,1,0,0:0:0:0:
475,192,57542,1,0,0:0:0:0:
36,192,57542,128,0,57729:0:0:0:0:
182,192,57588,1,0,0:0:0:0:
329,192,57635,1,0,0:0:0:0:
182,192,57682,1,0,0:0:0:0:
329,192,57729,1,0,0:0:0:0:
475,192,57729,1,0,0:0:0:0:
475,192,57917,1,0,0:0:0:0:
182,192,57917,1,0,0:0:0:0:
36,192,57917,128,0,58104:0:0:0:0:
329,192,58010,1,0,0:0:0:0:
182,192,58010,1,0,0:0:0:0:
475,192,58198,1,0,0:0:0:0:
182,192,58198,1,0,0:0:0:0:
475,192,58292,1,0,0:0:0:0:
329,192,58292,1,0,0:0:0:0:
36,192,58292,128,0,58479:0:0:0:0:
475,192,58479,1,0,0:0:0:0:
182,192,58479,1,0,0:0:0:0:
329,192,58573,1,0,0:0:0:0:
182,192,58573,1,0,0:0:0:0:
36,192,58667,128,0,58854:0:0:0:0:
475,192,58760,1,0,0:0:0:0:
182,192,58760,1,0,0:0:0:0:
329,192,58854,1,0,0:0:0:0:
475,192,58854,1,0,0:0:0:0:
182,192,58948,1,0,0:0:0:0:
329,192,59042,1,0,0:0:0:0:
36,192,59042,1,0,0:0:0:0:
475,192,59088,1,0,0:0:0:0:
182,192,59135,1,0,0:0:0:0:
36,192,59135,1,0,0:0:0:0:
329,192,59182,1,0,0:0:0:0:
182,192,59229,1,0,0:0:0:0:
475,192,59229,1,0,0:0:0:0:
182,192,59323,1,0,0:0:0:0:
329,192,59323,1,0,0:0:0:0:
36,192,59417,1,0,0:0:0:0:
475,192,59417,1,0,0:0:0:0:
329,192,59417,1,0,0:0:0:0:
475,192,59510,1,0,0:0:0:0:
182,192,59604,1,0,0:0:0:0:
329,192,59604,1,0,0:0:0:0:
182,192,59698,1,0,0:0:0:0:
475,192,59792,1,0,0:0:0:0:
329,192,59792,1,0,0:0:0:0:
36,192,59838,1,0,0:0:0:0:
182,192,59838,1,0,0:0:0:0:
475,192,59885,1,0,0:0:0:0:
36,192,59932,1,0,0:0:0:0:
329,192,59979,1,0,0:0:0:0:
182,192,60073,1,0,0:0:0:0:
329,192,60073,1,0,0:0:0:0:
36,192,60167,1,0,0:0:0:0:
475,192,60167,1,0,0:0:0:0:
182,192,60167,1,0,0:0:0:0:
36,192,60260,1,0,0:0:0:0:
182,192,60260,1,0,0:0:0:0:
329,192,60354,1,0,0:0:0:0:
475,192,60354,1,0,0:0:0:0:
329,192,60448,1,0,0:0:0:0:
475,192,60448,1,0,0:0:0:0:
36,192,60542,1,0,0:0:0:0:
475,192,60542,128,0,60729:0:0:0:0:
182,192,60588,1,0,0:0:0:0:
329,192,60635,1,0,0:0:0:0:
182,192,60682,1,0,0:0:0:0:
36,192,60729,128,0,60917:0:0:0:0:
329,192,60729,1,0,0:0:0:0:
182,192,60823,1,0,0:0:0:0:
329,192,60917,128,0,61104:0:0:0:0:
475,192,60917,1,0,0:0:0:0:
36,192,61010,1,0,0:0:0:0:
182,192,61010,1,0,0:0:0:0:
182,192,61104,128,0,61292:0:0:0:0:
36,192,61198,1,0,0:0:0:0:
475,192,61198,1,0,0:0:0:0:
475,192,61292,1,0,0:0:0:0:
329,192,61292,1,0,0:0:0:0:
182,192,61385,1,0,0:0:0:0:
329,192,61385,1,0,0:0:0:0:
36,192,61479,1,0,0:0:0:0:
475,192,61479,1,0,0:0:0:0:
329,192,61573,1,0,0:0:0:0:
182,192,61573,1,0,0:0:0:0:
475,192,61667,1,0,0:0:0:0:
36,192,61667,1,0,0:0:0:0:
182,192,61760,1,0,0:0:0:0:
329,192,61854,1,0,0:0:0:0:
475,192,61854,1,0,0:0:0:0:
36,192,61854,1,0,0:0:0:0:
182,192,61948,1,0,0:0:0:0:
329,192,61948,1,0,0:0:0:0:
475,192,62042,1,0,0:0:0:0:
36,192,62042,1,0,0:0:0:0:
182,192,62042,1,0,0:0:0:0:
36,192,62135,1,0,0:0:0:0:
475,192,62135,1,0,0:0:0:0:
329,192,62135,1,0,0:0:0:0:
182,192,62229,1,0,0:0:0:0:
329,192,62323,1,0,0:0:0:0:
36,192,62323,1,0,0:0:0:0:
475,192,62417,1,0,0:0:0:0:
329,192,62417,1,0,0:0:0:0:
182,192,62417,1,0,0:0:0:0:
475,192,62510,1,0,0:0:0:0:
182,192,62510,1,0,0:0:0:0:
36,192,62510,1,0,0:0:0:0:
329,192,62604,1,0,0:0:0:0:
182,192,62698,1,0,0:0:0:0:
475,192,62698,1,0,0:0:0:0:
36,192,62792,1,0,0:0:0:0:
329,192,62792,1,0,0:0:0:0:
182,192,62792,1,0,0:0:0:0:
36,192,62885,1,0,0:0:0:0:
329,192,62885,1,0,0:0:0:0:
475,192,62885,1,0,0:0:0:0:
182,192,62979,1,0,0:0:0:0:
475,192,63073,1,0,0:0:0:0:
329,192,63073,1,0,0:0:0:0:
475,192,63167,1,0,0:0:0:0:
36,192,63167,1,0,0:0:0:0:
329,192,63167,1,0,0:0:0:0:
475,192,63260,1,0,0:0:0:0:
36,192,63260,1,0,0:0:0:0:
182,192,63260,1,0,0:0:0:0:
329,192,63354,1,0,0:0:0:0:
182,192,63448,1,0,0:0:0:0:
36,192,63448,1,0,0:0:0:0:
36,192,63542,1,0,0:0:0:0:
475,192,63542,1,0,0:0:0:0:
182,192,63542,1,0,0:0:0:0:
36,192,63635,1,0,0:0:0:0:
329,192,63635,1,0,0:0:0:0:
475,192,63635,1,0,0:0:0:0:
182,192,63729,1,0,0:0:0:0:
36,192,63823,1,0,0:0:0:0:
475,192,63823,1,0,0:0:0:0:
182,192,63917,1,0,0:0:0:0:
329,192,63917,1,0,0:0:0:0:
475,192,63917,1,0,0:0:0:0:
182,192,64010,1,0,0:0:0:0:
36,192,64010,1,0,0:0:0:0:
329,192,64010,1,0,0:0:0:0:
475,192,64104,1,0,0:0:0:0:
36,192,64198,1,0,0:0:0:0:
329,192,64198,1,0,0:0:0:0:
36,192,64292,1,0,0:0:0:0:
182,192,64292,1,0,0:0:0:0:
329,192,64292,1,0,0:0:0:0:
182,192,64385,1,0,0:0:0:0:
475,192,64385,1,0,0:0:0:0:
329,192,64385,1,0,0:0:0:0:
36,192,64479,1,0,0:0:0:0:
475,192,64573,1,0,0:0:0:0:
182,192,64573,1,0,0:0:0:0:
329,192,64667,1,0,0:0:0:0:
36,192,64667,1,0,0:0:0:0:
475,192,64667,1,0,0:0:0:0:
329,192,64760,1,0,0:0:0:0:
36,192,64760,1,0,0:0:0:0:
182,192,64760,1,0,0:0:0:0:
475,192,64854,1,0,0:0:0:0:
182,192,64948,1,0,0:0:0:0:
329,192,64948,1,0,0:0:0:0:
36,192,65042,1,0,0:0:0:0:
182,192,65042,1,0,0:0:0:0:
475,192,65042,1,0,0:0:0:0:
475,192,65135,1,0,0:0:0:0:
36,192,65135,1,0,0:0:0:0:
329,192,65229,1,0,0:0:0:0:
182,192,65323,1,0,0:0:0:0:
475,192,65417,1,0,0:0:0:0:
36,192,65417,1,0,0:0:0:0:
329,192,65417,1,0,0:0:0:0:
475,192,65510,1,0,0:0:0:0:
36,192,65510,1,0,0:0:0:0:
182,192,65604,1,0,0:0:0:0:
329,192,65698,1,0,0:0:0:0:
36,192,65792,1,0,0:0:0:0:
182,192,65792,1,0,0:0:0:0:
329,192,65792,1,0,0:0:0:0:
36,192,65885,1,0,0:0:0:0:
182,192,65885,1,0,0:0:0:0:
329,192,65979,1,0,0:0:0:0:
182,192,66073,1,0,0:0:0:0:
475,192,66167,1,0,0:0:0:0:
329,192,66167,1,0,0:0:0:0:
182,192,66167,1,0,0:0:0:0:
475,192,66260,1,0,0:0:0:0:
329,192,66260,1,0,0:0:0:0:
182,192,66354,1,0,0:0:0:0:
329,192,66448,1,0,0:0:0:0:
36,192,66542,1,0,0:0:0:0:
475,192,66542,128,0,66635:0:0:0:0:
182,192,66542,128,0,66635:0:0:0:0:
36,192,66635,1,0,0:0:0:0:
182,192,66729,1,0,0:0:0:0:
329,192,66729,128,0,66823:0:0:0:0:
36,192,66823,1,0,0:0:0:0:
475,192,66917,128,0,67010:0:0:0:0:
182,192,66917,1,0,0:0:0:0:
329,192,66917,128,0,67010:0:0:0:0:
182,192,67010,1,0,0:0:0:0:
475,192,67104,128,0,67198:0:0:0:0:
36,192,67104,1,0,0:0:0:0:
36,192,67198,1,0,0:0:0:0:
475,192,67292,128,0,67385:0:0:0:0:
329,192,67292,128,0,67385:0:0:0:0:
182,192,67292,1,0,0:0:0:0:
182,192,67385,1,0,0:0:0:0:
329,192,67479,128,0,67573:0:0:0:0:
36,192,67479,1,0,0:0:0:0:
182,192,67573,1,0,0:0:0:0:
475,192,67667,128,0,67760:0:0:0:0:
36,192,67667,1,0,0:0:0:0:
329,192,67667,128,0,67760:0:0:0:0:
36,192,67760,1,0,0:0:0:0:
182,192,67854,1,0,0:0:0:0:
36,192,67854,1,0,0:0:0:0:
329,192,67948,1,0,0:0:0:0:
475,192,67948,1,0,0:0:0:0:
36,192,68042,1,0,0:0:0:0:
475,192,68042,1,0,0:0:0:0:
182,192,68042,1,0,0:0:0:0:
36,192,68135,1,0,0:0:0:0:
475,192,68135,1,0,0:0:0:0:
182,192,68135,1,0,0:0:0:0:
329,192,68229,1,0,0:0:0:0:
475,192,68323,1,0,0:0:0:0:
182,192,68323,1,0,0:0:0:0:
36,192,68417,1,0,0:0:0:0:
329,192,68417,1,0,0:0:0:0:
182,192,68417,1,0,0:0:0:0:
36,192,68510,1,0,0:0:0:0:
182,192,68510,1,0,0:0:0:0:
329,192,68510,1,0,0:0:0:0:
475,192,68604,1,0,0:0:0:0:
36,192,68698,1,0,0:0:0:0:
329,192,68698,1,0,0:0:0:0:
475,192,68792,1,0,0:0:0:0:
329,192,68792,1,0,0:0:0:0:
182,192,68792,1,0,0:0:0:0:
475,192,68885,1,0,0:0:0:0:
182,192,68885,1,0,0:0:0:0:
329,192,68885,1,0,0:0:0:0:
36,192,68979,1,0,0:0:0:0:
182,192,69073,1,0,0:0:0:0:
329,192,69073,1,0,0:0:0:0:
36,192,69167,1,0,0:0:0:0:
475,192,69167,1,0,0:0:0:0:
329,192,69167,1,0,0:0:0:0:
36,192,69260,1,0,0:0:0:0:
475,192,69260,1,0,0:0:0:0:
329,192,69260,1,0,0:0:0:0:
182,192,69354,1,0,0:0:0:0:
329,192,69448,1,0,0:0:0:0:
36,192,69448,1,0,0:0:0:0:
36,192,69542,1,0,0:0:0:0:
475,192,69542,1,0,0:0:0:0:
182,192,69542,1,0,0:0:0:0:
475,192,69635,1,0,0:0:0:0:
36,192,69635,1,0,0:0:0:0:
329,192,69635,1,0,0:0:0:0:
182,192,69729,1,0,0:0:0:0:
320,192,69823,1,0,0:0:0:0:
36,192,69823,1,0,0:0:0:0:
36,192,69917,1,0,0:0:0:0:
475,192,69917,1,0,0:0:0:0:
182,192,69917,1,0,0:0:0:0:
329,192,69917,1,0,0:0:0:0:
192,192,70010,1,0,0:0:0:0:
475,192,70010,1,0,0:0:0:0:
329,192,70104,1,0,0:0:0:0:
64,192,70104,1,0,0:0:0:0:
192,192,70198,1,0,0:0:0:0:
475,192,70198,1,0,0:0:0:0:
182,192,70292,1,0,0:0:0:0:
36,192,70292,1,0,0:0:0:0:
475,192,70292,1,0,0:0:0:0:
36,192,70385,1,0,0:0:0:0:
475,192,70385,1,0,0:0:0:0:
329,192,70385,1,0,0:0:0:0:
182,192,70479,1,0,0:0:0:0:
182,192,70573,1,0,0:0:0:0:
36,192,70667,1,0,0:0:0:0:
475,192,70667,1,0,0:0:0:0:
329,192,70667,1,0,0:0:0:0:
329,192,70760,1,0,0:0:0:0:
475,192,70760,1,0,0:0:0:0:
182,192,70854,1,0,0:0:0:0:
36,192,70854,1,0,0:0:0:0:
182,192,70948,1,0,0:0:0:0:
475,192,71042,1,0,0:0:0:0:
36,192,71042,1,0,0:0:0:0:
329,192,71042,1,0,0:0:0:0:
182,192,71042,1,0,0:0:0:0:
36,192,71229,1,0,0:0:0:0:
475,192,71276,1,0,0:0:0:0:
182,192,71276,1,0,0:0:0:0:
329,192,71323,1,0,0:0:0:0:
36,192,71370,1,0,0:0:0:0:
475,192,71417,1,0,0:0:0:0:
182,192,71417,1,0,0:0:0:0:
329,192,71417,1,0,0:0:0:0:
475,192,71698,1,0,0:0:0:0:
36,192,71698,1,0,0:0:0:0:
182,192,71698,1,0,0:0:0:0:
475,192,71792,1,0,0:0:0:0:
36,192,71792,1,0,0:0:0:0:
182,192,71792,1,0,0:0:0:0:
329,192,71792,1,0,0:0:0:0:
475,192,71979,1,0,0:0:0:0:
36,192,71979,1,0,0:0:0:0:
329,192,71979,1,0,0:0:0:0:
36,192,72073,1,0,0:0:0:0:
475,192,72073,1,0,0:0:0:0:
182,192,72073,1,0,0:0:0:0:
329,192,72073,1,0,0:0:0:0:
329,192,72260,1,0,0:0:0:0:
475,192,72354,1,0,0:0:0:0:
36,192,72354,1,0,0:0:0:0:
182,192,72354,1,0,0:0:0:0:
475,192,72542,1,0,0:0:0:0:
329,192,72542,1,0,0:0:0:0:
182,192,72542,1,0,0:0:0:0:
36,192,72635,1,0,0:0:0:0:
475,192,72729,1,0,0:0:0:0:
329,192,72729,1,0,0:0:0:0:
182,192,72823,1,0,0:0:0:0:
36,192,72823,1,0,0:0:0:0:
475,192,72917,1,0,0:0:0:0:
329,192,72917,1,0,0:0:0:0:
182,192,73010,1,0,0:0:0:0:
36,192,73104,1,0,0:0:0:0:
329,192,73104,1,0,0:0:0:0:
475,192,73104,1,0,0:0:0:0:
182,192,73198,1,0,0:0:0:0:
475,192,73292,1,0,0:0:0:0:
329,192,73292,1,0,0:0:0:0:
36,192,73292,1,0,0:0:0:0:
329,192,73385,1,0,0:0:0:0:
36,192,73479,1,0,0:0:0:0:
475,192,73479,1,0,0:0:0:0:
182,192,73479,1,0,0:0:0:0:
182,192,73573,1,0,0:0:0:0:
329,192,73573,1,0,0:0:0:0:
36,192,73667,1,0,0:0:0:0:
475,192,73667,1,0,0:0:0:0:
329,192,73667,1,0,0:0:0:0:
182,192,73854,1,0,0:0:0:0:
329,192,73948,1,0,0:0:0:0:
475,192,74042,1,0,0:0:0:0:
36,192,74042,1,0,0:0:0:0:
182,192,74042,1,0,0:0:0:0:
182,192,74229,1,0,0:0:0:0:
329,192,74229,1,0,0:0:0:0:
475,192,74229,1,0,0:0:0:0:
475,192,74417,1,0,0:0:0:0:
36,192,74417,1,0,0:0:0:0:
182,192,74417,1,0,0:0:0:0:
329,192,74417,1,0,0:0:0:0:
36,192,74510,1,0,0:0:0:0:
182,192,74510,1,0,0:0:0:0:
475,192,74604,1,0,0:0:0:0:
329,192,74604,1,0,0:0:0:0:
475,192,74698,1,0,0:0:0:0:
329,192,74698,1,0,0:0:0:0:
329,192,74792,1,0,0:0:0:0:
182,192,74792,1,0,0:0:0:0:
36,192,74792,1,0,0:0:0:0:
475,192,74885,1,0,0:0:0:0:
36,192,74885,1,0,0:0:0:0:
329,192,74979,1,0,0:0:0:0:
182,192,74979,1,0,0:0:0:0:
329,192,75073,1,0,0:0:0:0:
182,192,75073,1,0,0:0:0:0:
475,192,75167,1,0,0:0:0:0:
36,192,75167,1,0,0:0:0:0:
182,192,75167,1,0,0:0:0:0:
329,192,75260,1,0,0:0:0:0:
475,192,75260,1,0,0:0:0:0:
182,192,75354,1,0,0:0:0:0:
36,192,75354,1,0,0:0:0:0:
36,192,75448,1,0,0:0:0:0:
182,192,75448,1,0,0:0:0:0:
192,192,75542,1,0,0:0:0:0:
475,192,75542,1,0,0:0:0:0:
329,192,75542,1,0,0:0:0:0:
36,192,75635,1,0,0:0:0:0:
475,192,75635,1,0,0:0:0:0:
329,192,75729,1,0,0:0:0:0:
182,192,75729,1,0,0:0:0:0:
329,192,75823,1,0,0:0:0:0:
64,192,75823,1,0,0:0:0:0:
36,192,75917,1,0,0:0:0:0:
475,192,75917,1,0,0:0:0:0:
182,192,75917,1,0,0:0:0:0:
36,192,76010,1,0,0:0:0:0:
329,192,76010,1,0,0:0:0:0:
475,192,76104,1,0,0:0:0:0:
182,192,76104,1,0,0:0:0:0:
475,192,76198,1,0,0:0:0:0:
329,192,76198,1,0,0:0:0:0:
36,192,76292,1,0,0:0:0:0:
182,192,76292,1,0,0:0:0:0:
329,192,76292,1,0,0:0:0:0:
475,192,76385,1,0,0:0:0:0:
182,192,76385,1,0,0:0:0:0:
36,192,76479,1,0,0:0:0:0:
329,192,76479,1,0,0:0:0:0:
475,192,76573,1,0,0:0:0:0:
182,192,76573,1,0,0:0:0:0:
182,192,76667,1,0,0:0:0:0:
36,192,76667,1,0,0:0:0:0:
329,192,76667,1,0,0:0:0:0:
475,192,76667,1,0,0:0:0:0:
329,192,76854,128,0,76901:0:0:0:0:
475,192,76854,128,0,76901:0:0:0:0:
182,192,77042,1,0,0:0:0:0:
36,192,77042,1,0,0:0:0:0:
329,192,77042,1,0,0:0:0:0:
475,192,77042,1,0,0:0:0:0:
182,192,77135,1,0,0:0:0:0:
36,192,77135,1,0,0:0:0:0:
475,192,77135,1,0,0:0:0:0:
329,192,77135,1,0,0:0:0:0:
182,192,77323,1,0,0:0:0:0:
36,192,77323,1,0,0:0:0:0:
475,192,77323,1,0,0:0:0:0:
329,192,77323,1,0,0:0:0:0:
182,192,77417,1,0,0:0:0:0:
36,192,77417,1,0,0:0:0:0:
475,192,77417,1,0,0:0:0:0:
329,192,77417,1,0,0:0:0:0:
36,192,77510,1,0,0:0:0:0:
475,192,77604,1,0,0:0:0:0:
182,192,77604,1,0,0:0:0:0:
475,192,77698,1,0,0:0:0:0:
329,192,77792,1,0,0:0:0:0:
36,192,77792,1,0,0:0:0:0:
182,192,77792,1,0,0:0:0:0:
36,192,77885,1,0,0:0:0:0:
475,192,77885,1,0,0:0:0:0:
182,192,77979,1,0,0:0:0:0:
329,192,77979,1,0,0:0:0:0:
329,192,78073,1,0,0:0:0:0:
475,192,78167,1,0,0:0:0:0:
182,192,78167,1,0,0:0:0:0:
36,192,78167,1,0,0:0:0:0:
36,192,78260,1,0,0:0:0:0:
475,192,78260,1,0,0:0:0:0:
329,192,78354,1,0,0:0:0:0:
182,192,78354,1,0,0:0:0:0:
329,192,78448,1,0,0:0:0:0:
182,192,78448,1,0,0:0:0:0:
36,192,78542,1,0,0:0:0:0:
475,192,78542,1,0,0:0:0:0:
182,192,78542,1,0,0:0:0:0:
36,192,78635,1,0,0:0:0:0:
329,192,78729,1,0,0:0:0:0:
475,192,78729,1,0,0:0:0:0:
329,192,78823,1,0,0:0:0:0:
475,192,78917,1,0,0:0:0:0:
182,192,78917,1,0,0:0:0:0:
36,192,78917,128,0,79667:0:0:0:0:
475,192,79010,1,0,0:0:0:0:
182,192,79104,1,0,0:0:0:0:
329,192,79104,1,0,0:0:0:0:
182,192,79198,1,0,0:0:0:0:
329,192,79198,1,0,0:0:0:0:
475,192,79292,1,0,0:0:0:0:
475,192,79385,1,0,0:0:0:0:
329,192,79479,1,0,0:0:0:0:
329,192,79573,1,0,0:0:0:0:
182,192,79667,1,0,0:0:0:0:
329,192,79713,1,0,0:0:0:0:
182,192,79760,1,0,0:0:0:0:
329,192,79807,1,0,0:0:0:0:
36,192,79854,1,0,0:0:0:0:
182,192,79901,1,0,0:0:0:0:
329,192,79948,1,0,0:0:0:0:
475,192,79995,1,0,0:0:0:0:
182,192,80042,1,0,0:0:0:0:
36,192,80042,1,0,0:0:0:0:
329,192,80088,1,0,0:0:0:0:
475,192,80135,1,0,0:0:0:0:
329,192,80182,1,0,0:0:0:0:
182,192,80229,1,0,0:0:0:0:
36,192,80276,1,0,0:0:0:0:
329,192,80323,1,0,0:0:0:0:
182,192,80370,1,0,0:0:0:0:
475,192,80417,1,0,0:0:0:0:
36,192,80417,1,0,0:0:0:0:
329,192,80510,1,0,0:0:0:0:
182,192,80604,1,0,0:0:0:0:
329,192,80651,1,0,0:0:0:0:
182,192,80698,1,0,0:0:0:0:
329,192,80745,1,0,0:0:0:0:
475,192,80792,1,0,0:0:0:0:
36,192,80792,1,0,0:0:0:0:
182,192,80792,1,0,0:0:0:0:
329,192,80885,1,0,0:0:0:0:
182,192,80979,1,0,0:0:0:0:
329,192,81026,1,0,0:0:0:0:
182,192,81073,1,0,0:0:0:0:
329,192,81120,1,0,0:0:0:0:
36,192,81167,128,0,81260:0:0:0:0:
475,192,81167,128,0,81260:0:0:0:0:
182,192,81167,128,0,81260:0:0:0:0:
36,192,81354,128,0,81448:0:0:0:0:
475,192,81354,128,0,81448:0:0:0:0:
329,192,81354,128,0,81448:0:0:0:0:
36,192,81542,1,0,0:0:0:0:
329,192,81542,1,0,0:0:0:0:
475,192,81542,1,0,0:0:0:0:
182,192,81588,1,0,0:0:0:0:
329,192,81635,1,0,0:0:0:0:
475,192,81682,1,0,0:0:0:0:
36,192,81729,1,0,0:0:0:0:
182,192,81776,1,0,0:0:0:0:
329,192,81823,1,0,0:0:0:0:
182,192,81870,1,0,0:0:0:0:
36,192,81917,1,0,0:0:0:0:
329,192,81917,1,0,0:0:0:0:
475,192,81917,1,0,0:0:0:0:
329,192,82010,1,0,0:0:0:0:
182,192,82104,1,0,0:0:0:0:
329,192,82151,1,0,0:0:0:0:
182,192,82198,1,0,0:0:0:0:
329,192,82245,1,0,0:0:0:0:
475,192,82292,1,0,0:0:0:0:
36,192,82292,1,0,0:0:0:0:
182,192,82292,1,0,0:0:0:0:
329,192,82385,1,0,0:0:0:0:
36,192,82479,1,0,0:0:0:0:
475,192,82479,1,0,0:0:0:0:
329,192,82573,1,0,0:0:0:0:
182,192,82573,1,0,0:0:0:0:
36,192,82667,128,0,82948:0:0:0:0:
475,192,82667,128,0,82948:0:0:0:0:
329,192,83042,1,0,0:0:0:0:
182,192,83042,1,0,0:0:0:0:
36,192,83042,1,0,0:0:0:0:
475,192,83042,1,0,0:0:0:0:
475,192,83229,1,0,0:0:0:0:
36,192,83229,1,0,0:0:0:0:
329,192,83229,1,0,0:0:0:0:
182,192,83276,1,0,0:0:0:0:
329,192,83323,1,0,0:0:0:0:
36,192,83370,1,0,0:0:0:0:
182,192,83417,1,0,0:0:0:0:
475,192,83510,1,0,0:0:0:0:
36,192,83510,1,0,0:0:0:0:
329,192,83510,1,0,0:0:0:0:
36,192,83604,1,0,0:0:0:0:
475,192,83604,1,0,0:0:0:0:
182,192,83604,1,0,0:0:0:0:
329,192,83651,1,0,0:0:0:0:
182,192,83698,1,0,0:0:0:0:
475,192,83745,1,0,0:0:0:0:
36,192,83792,1,0,0:0:0:0:
329,192,83792,1,0,0:0:0:0:
329,192,83979,1,0,0:0:0:0:
182,192,84026,1,0,0:0:0:0:
36,192,84073,1,0,0:0:0:0:
475,192,84073,1,0,0:0:0:0:
329,192,84120,1,0,0:0:0:0:
36,192,84167,1,0,0:0:0:0:
475,192,84167,1,0,0:0:0:0:
182,192,84167,1,0,0:0:0:0:
475,192,84354,1,0,0:0:0:0:
36,192,84354,1,0,0:0:0:0:
329,192,84354,1,0,0:0:0:0:
182,192,84401,1,0,0:0:0:0:
329,192,84448,1,0,0:0:0:0:
475,192,84495,1,0,0:0:0:0:
182,192,84542,1,0,0:0:0:0:
36,192,84542,1,0,0:0:0:0:
329,192,84635,1,0,0:0:0:0:
475,192,84635,1,0,0:0:0:0:
475,192,84729,1,0,0:0:0:0:
182,192,84729,1,0,0:0:0:0:
475,192,84823,1,0,0:0:0:0:
329,192,84823,1,0,0:0:0:0:
36,192,84917,1,0,0:0:0:0:
182,192,84917,1,0,0:0:0:0:
182,192,85010,1,0,0:0:0:0:
329,192,85104,1,0,0:0:0:0:
36,192,85104,1,0,0:0:0:0:
329,192,85198,1,0,0:0:0:0:
182,192,85198,1,0,0:0:0:0:
329,192,85292,1,0,0:0:0:0:
36,192,85292,1,0,0:0:0:0:
182,192,85338,1,0,0:0:0:0:
475,192,85385,1,0,0:0:0:0:
329,192,85432,1,0,0:0:0:0:
36,192,85479,1,0,0:0:0:0:
182,192,85479,1,0,0:0:0:0:
329,192,85573,1,0,0:0:0:0:
475,192,85667,1,0,0:0:0:0:
182,192,85667,1,0,0:0:0:0:
36,192,85667,1,0,0:0:0:0:
329,192,85854,128,0,86042:0:0:0:0:
475,192,86042,1,0,0:0:0:0:
182,192,86042,1,0,0:0:0:0:
36,192,86042,1,0,0:0:0:0:
182,192,86229,1,0,0:0:0:0:
36,192,86229,1,0,0:0:0:0:
329,192,86323,1,0,0:0:0:0:
475,192,86323,1,0,0:0:0:0:
475,192,86417,1,0,0:0:0:0:
329,192,86417,1,0,0:0:0:0:
182,192,86417,1,0,0:0:0:0:
36,192,86417,1,0,0:0:0:0:
182,192,86510,1,0,0:0:0:0:
329,192,86604,1,0,0:0:0:0:
36,192,86604,1,0,0:0:0:0:
475,192,86698,1,0,0:0:0:0:
182,192,86698,1,0,0:0:0:0:
182,192,86792,1,0,0:0:0:0:
36,192,86792,1,0,0:0:0:0:
329,192,86792,1,0,0:0:0:0:
475,192,86792,1,0,0:0:0:0:
329,192,86885,1,0,0:0:0:0:
475,192,86885,1,0,0:0:0:0:
36,192,86979,1,0,0:0:0:0:
182,192,86979,1,0,0:0:0:0:
475,192,87167,1,0,0:0:0:0:
329,192,87167,1,0,0:0:0:0:
36,192,87167,1,0,0:0:0:0:
182,192,87167,1,0,0:0:0:0:
182,192,87260,1,0,0:0:0:0:
475,192,87260,1,0,0:0:0:0:
329,192,87307,1,0,0:0:0:0:
36,192,87354,1,0,0:0:0:0:
182,192,87354,1,0,0:0:0:0:
329,192,87448,1,0,0:0:0:0:
475,192,87542,1,0,0:0:0:0:
329,192,87542,1,0,0:0:0:0:
182,192,87542,1,0,0:0:0:0:
36,192,87542,1,0,0:0:0:0:
182,192,87635,1,0,0:0:0:0:
36,192,87729,1,0,0:0:0:0:
475,192,87729,1,0,0:0:0:0:
182,192,87823,1,0,0:0:0:0:
329,192,87823,1,0,0:0:0:0:
475,192,87917,1,0,0:0:0:0:
36,192,87917,1,0,0:0:0:0:
182,192,87917,1,0,0:0:0:0:
329,192,87917,1,0,0:0:0:0:
36,192,88010,1,0,0:0:0:0:
182,192,88104,1,0,0:0:0:0:
475,192,88104,1,0,0:0:0:0:
475,192,88198,1,0,0:0:0:0:
329,192,88198,1,0,0:0:0:0:
329,192,88292,1,0,0:0:0:0:
182,192,88292,1,0,0:0:0:0:
36,192,88292,1,0,0:0:0:0:
475,192,88292,1,0,0:0:0:0:
36,192,88385,1,0,0:0:0:0:
182,192,88385,1,0,0:0:0:0:
475,192,88479,1,0,0:0:0:0:
329,192,88479,1,0,0:0:0:0:
36,192,88667,1,0,0:0:0:0:
475,192,88667,1,0,0:0:0:0:
329,192,88667,1,0,0:0:0:0:
182,192,88667,1,0,0:0:0:0:
182,192,88760,1,0,0:0:0:0:
329,192,88760,1,0,0:0:0:0:
36,192,88854,1,0,0:0:0:0:
475,192,88854,1,0,0:0:0:0:
182,192,88948,1,0,0:0:0:0:
329,192,88948,1,0,0:0:0:0:
329,192,89042,1,0,0:0:0:0:
475,192,89042,1,0,0:0:0:0:
182,192,89042,1,0,0:0:0:0:
36,192,89042,1,0,0:0:0:0:
182,192,89229,1,0,0:0:0:0:
475,192,89229,1,0,0:0:0:0:
329,192,89323,1,0,0:0:0:0:
36,192,89323,1,0,0:0:0:0:
475,192,89417,1,0,0:0:0:0:
329,192,89417,1,0,0:0:0:0:
182,192,89417,1,0,0:0:0:0:
36,192,89417,1,0,0:0:0:0:
36,192,89510,1,0,0:0:0:0:
182,192,89510,1,0,0:0:0:0:
475,192,89604,1,0,0:0:0:0:
329,192,89604,1,0,0:0:0:0:
182,192,89698,1,0,0:0:0:0:
329,192,89792,1,0,0:0:0:0:
36,192,89792,1,0,0:0:0:0:
475,192,89792,1,0,0:0:0:0:
182,192,89792,1,0,0:0:0:0:
182,192,89885,1,0,0:0:0:0:
36,192,89885,1,0,0:0:0:0:
475,192,89979,1,0,0:0:0:0:
329,192,89979,1,0,0:0:0:0:
475,192,90167,1,0,0:0:0:0:
182,192,90167,1,0,0:0:0:0:
36,192,90167,1,0,0:0:0:0:
329,192,90167,1,0,0:0:0:0:
182,192,90260,1,0,0:0:0:0:
36,192,90260,1,0,0:0:0:0:
329,192,90307,1,0,0:0:0:0:
475,192,90354,1,0,0:0:0:0:
36,192,90354,1,0,0:0:0:0:
329,192,90448,1,0,0:0:0:0:
182,192,90448,1,0,0:0:0:0:
475,192,90542,1,0,0:0:0:0:
36,192,90542,1,0,0:0:0:0:
182,192,90542,1,0,0:0:0:0:
329,192,90542,1,0,0:0:0:0:
475,192,90635,1,0,0:0:0:0:
36,192,90729,1,0,0:0:0:0:
329,192,90729,1,0,0:0:0:0:
182,192,90823,1,0,0:0:0:0:
475,192,90823,1,0,0:0:0:0:
182,192,90917,1,0,0:0:0:0:
36,192,90917,1,0,0:0:0:0:
475,192,90917,1,0,0:0:0:0:
329,192,90917,1,0,0:0:0:0:
329,192,91010,1,0,0:0:0:0:
475,192,91104,1,0,0:0:0:0:
36,192,91104,1,0,0:0:0:0:
475,192,91198,1,0,0:0:0:0:
36,192,91198,1,0,0:0:0:0:
329,192,91292,1,0,0:0:0:0:
182,192,91292,1,0,0:0:0:0:
36,192,91292,1,0,0:0:0:0:
475,192,91292,1,0,0:0:0:0:
182,192,91385,1,0,0:0:0:0:
329,192,91479,1,0,0:0:0:0:
475,192,91479,1,0,0:0:0:0:
182,192,91573,1,0,0:0:0:0:
36,192,91573,1,0,0:0:0:0:
475,192,91667,1,0,0:0:0:0:
329,192,91667,1,0,0:0:0:0:
182,192,91667,1,0,0:0:0:0:
36,192,91667,1,0,0:0:0:0:
329,192,91854,1,0,0:0:0:0:
182,192,91854,1,0,0:0:0:0:
475,192,92042,1,0,0:0:0:0:
329,192,92042,1,0,0:0:0:0:
182,192,92042,1,0,0:0:0:0:
36,192,92042,1,0,0:0:0:0:
329,192,92229,1,0,0:0:0:0:
36,192,92229,1,0,0:0:0:0:
182,192,92323,1,0,0:0:0:0:
475,192,92323,1,0,0:0:0:0:
475,192,92417,1,0,0:0:0:0:
329,192,92417,1,0,0:0:0:0:
182,192,92417,1,0,0:0:0:0:
36,192,92417,1,0,0:0:0:0:
36,192,92510,1,0,0:0:0:0:
475,192,92604,1,0,0:0:0:0:
329,192,92604,1,0,0:0:0:0:
475,192,92698,1,0,0:0:0:0:
182,192,92698,1,0,0:0:0:0:
36,192,92792,1,0,0:0:0:0:
182,192,92792,1,0,0:0:0:0:
475,192,92792,1,0,0:0:0:0:
329,192,92792,1,0,0:0:0:0:
329,192,92885,1,0,0:0:0:0:
36,192,92885,1,0,0:0:0:0:
182,192,92979,1,0,0:0:0:0:
36,192,92979,1,0,0:0:0:0:
36,192,93167,1,0,0:0:0:0:
475,192,93167,1,0,0:0:0:0:
182,192,93167,1,0,0:0:0:0:
329,192,93167,1,0,0:0:0:0:
182,192,93260,1,0,0:0:0:0:
329,192,93260,1,0,0:0:0:0:
475,192,93307,1,0,0:0:0:0:
36,192,93354,1,0,0:0:0:0:
182,192,93354,1,0,0:0:0:0:
329,192,93448,1,0,0:0:0:0:
475,192,93448,1,0,0:0:0:0:
182,192,93542,1,0,0:0:0:0:
475,192,93542,1,0,0:0:0:0:
36,192,93542,1,0,0:0:0:0:
329,192,93729,1,0,0:0:0:0:
36,192,93729,1,0,0:0:0:0:
182,192,93823,1,0,0:0:0:0:
475,192,93823,1,0,0:0:0:0:
475,192,93917,1,0,0:0:0:0:
329,192,93917,1,0,0:0:0:0:
182,192,93917,1,0,0:0:0:0:
36,192,93917,1,0,0:0:0:0:
182,192,94010,1,0,0:0:0:0:
329,192,94104,1,0,0:0:0:0:
475,192,94104,1,0,0:0:0:0:
36,192,94198,1,0,0:0:0:0:
182,192,94198,1,0,0:0:0:0:
475,192,94292,1,0,0:0:0:0:
329,192,94292,1,0,0:0:0:0:
36,192,94292,1,0,0:0:0:0:
182,192,94292,1,0,0:0:0:0:
475,192,94385,1,0,0:0:0:0:
329,192,94479,1,0,0:0:0:0:
182,192,94479,1,0,0:0:0:0:
475,192,94573,1,0,0:0:0:0:
36,192,94573,1,0,0:0:0:0:
182,192,94573,1,0,0:0:0:0:
475,192,94667,1,0,0:0:0:0:
36,192,94667,1,0,0:0:0:0:
182,192,94667,1,0,0:0:0:0:
475,192,94854,1,0,0:0:0:0:
182,192,94854,1,0,0:0:0:0:
329,192,94854,1,0,0:0:0:0:
475,192,95042,1,0,0:0:0:0:
182,192,95042,1,0,0:0:0:0:
36,192,95042,1,0,0:0:0:0:
329,192,95042,1,0,0:0:0:0:
329,192,95135,1,0,0:0:0:0:
182,192,95229,1,0,0:0:0:0:
329,192,95323,1,0,0:0:0:0:
36,192,95417,1,0,0:0:0:0:
475,192,95417,1,0,0:0:0:0:
182,192,95510,1,0,0:0:0:0:
329,192,95604,1,0,0:0:0:0:
475,192,95604,1,0,0:0:0:0:
182,192,95698,1,0,0:0:0:0:
475,192,95792,1,0,0:0:0:0:
36,192,95792,1,0,0:0:0:0:
329,192,95885,1,0,0:0:0:0:
36,192,95979,1,0,0:0:0:0:
182,192,95979,1,0,0:0:0:0:
329,192,96073,1,0,0:0:0:0:
36,192,96167,1,0,0:0:0:0:
475,192,96167,1,0,0:0:0:0:
329,192,96260,1,0,0:0:0:0:
36,192,96354,1,0,0:0:0:0:
475,192,96354,1,0,0:0:0:0:
182,192,96448,1,0,0:0:0:0:
475,192,96542,1,0,0:0:0:0:
36,192,96542,1,0,0:0:0:0:
329,192,96542,1,0,0:0:0:0:
182,192,96542,1,0,0:0:0:0:
475,192,96635,1,0,0:0:0:0:
329,192,96635,1,0,0:0:0:0:
475,192,96729,1,0,0:0:0:0:
329,192,96729,1,0,0:0:0:0:
475,192,96823,1,0,0:0:0:0:
36,192,96823,1,0,0:0:0:0:
329,192,96823,1,0,0:0:0:0:
182,192,96823,1,0,0:0:0:0:
36,192,96917,1,0,0:0:0:0:
182,192,96917,1,0,0:0:0:0:
36,192,97010,1,0,0:0:0:0:
182,192,97010,1,0,0:0:0:0:
36,192,97104,1,0,0:0:0:0:
475,192,97104,1,0,0:0:0:0:
182,192,97104,1,0,0:0:0:0:
329,192,97104,1,0,0:0:0:0:
475,192,97198,1,0,0:0:0:0:
329,192,97198,1,0,0:0:0:0:
475,192,97292,1,0,0:0:0:0:
329,192,97292,1,0,0:0:0:0:
475,192,97385,1,0,0:0:0:0:
36,192,97385,1,0,0:0:0:0:
329,192,97385,1,0,0:0:0:0:
182,192,97385,1,0,0:0:0:0:
36,192,97479,1,0,0:0:0:0:
182,192,97479,1,0,0:0:0:0:
36,192,97573,1,0,0:0:0:0:
182,192,97573,1,0,0:0:0:0:
36,192,97667,1,0,0:0:0:0:
475,192,97667,128,0,97948:0:0:0:0:
329,192,97667,128,0,97948:0:0:0:0:
182,192,97667,1,0,0:0:0:0:
475,192,98042,1,0,0:0:0:0:
36,192,98042,1,0,0:0:0:0:
182,192,98042,1,0,0:0:0:0:
329,192,98042,1,0,0:0:0:0:
182,192,98135,1,0,0:0:0:0:
475,192,98229,1,0,0:0:0:0:
329,192,98229,1,0,0:0:0:0:
182,192,98323,1,0,0:0:0:0:
36,192,98323,1,0,0:0:0:0:
475,192,98417,1,0,0:0:0:0:
36,192,98417,1,0,0:0:0:0:
329,192,98417,1,0,0:0:0:0:
182,192,98417,1,0,0:0:0:0:
182,192,98510,1,0,0:0:0:0:
36,192,98604,1,0,0:0:0:0:
329,192,98604,1,0,0:0:0:0:
182,192,98698,1,0,0:0:0:0:
475,192,98698,1,0,0:0:0:0:
36,192,98792,1,0,0:0:0:0:
475,192,98792,1,0,0:0:0:0:
182,192,98792,1,0,0:0:0:0:
329,192,98792,1,0,0:0:0:0:
182,192,98885,1,0,0:0:0:0:
36,192,98885,1,0,0:0:0:0:
329,192,98885,1,0,0:0:0:0:
475,192,98979,1,0,0:0:0:0:
36,192,99073,1,0,0:0:0:0:
182,192,99073,1,0,0:0:0:0:
475,192,99167,1,0,0:0:0:0:
329,192,99167,1,0,0:0:0:0:
36,192,99167,1,0,0:0:0:0:
182,192,99213,1,0,0:0:0:0:
475,192,99260,1,0,0:0:0:0:
36,192,99260,1,0,0:0:0:0:
329,192,99307,1,0,0:0:0:0:
182,192,99354,1,0,0:0:0:0:
36,192,99401,1,0,0:0:0:0:
475,192,99448,1,0,0:0:0:0:
329,192,99448,1,0,0:0:0:0:
182,192,99495,1,0,0:0:0:0:
475,192,99542,1,0,0:0:0:0:
329,192,99542,1,0,0:0:0:0:
36,192,99542,1,0,0:0:0:0:
182,192,99635,1,0,0:0:0:0:
36,192,99635,1,0,0:0:0:0:
475,192,99729,1,0,0:0:0:0:
329,192,99729,1,0,0:0:0:0:
329,192,99823,1,0,0:0:0:0:
182,192,99823,1,0,0:0:0:0:
475,192,99917,1,0,0:0:0:0:
36,192,99917,1,0,0:0:0:0:
182,192,99917,1,0,0:0:0:0:
475,192,100010,1,0,0:0:0:0:
329,192,100010,1,0,0:0:0:0:
182,192,100010,1,0,0:0:0:0:
36,192,100104,1,0,0:0:0:0:
182,192,100198,1,0,0:0:0:0:
329,192,100198,1,0,0:0:0:0:
475,192,100292,1,0,0:0:0:0:
36,192,100292,1,0,0:0:0:0:
182,192,100292,1,0,0:0:0:0:
329,192,100385,1,0,0:0:0:0:
475,192,100385,1,0,0:0:0:0:
182,192,100479,1,0,0:0:0:0:
36,192,100479,1,0,0:0:0:0:
329,192,100573,1,0,0:0:0:0:
475,192,100667,1,0,0:0:0:0:
36,192,100667,1,0,0:0:0:0:
329,192,100667,1,0,0:0:0:0:
182,192,100760,1,0,0:0:0:0:
329,192,100854,1,0,0:0:0:0:
182,192,100948,1,0,0:0:0:0:
475,192,101042,1,0,0:0:0:0:
182,192,101042,1,0,0:0:0:0:
36,192,101042,1,0,0:0:0:0:
329,192,101042,1,0,0:0:0:0:
475,192,101135,1,0,0:0:0:0:
182,192,101135,1,0,0:0:0:0:
36,192,101135,1,0,0:0:0:0:
329,192,101135,1,0,0:0:0:0:
475,192,101323,1,0,0:0:0:0:
182,192,101323,1,0,0:0:0:0:
36,192,101323,1,0,0:0:0:0:
329,192,101323,1,0,0:0:0:0:
475,192,101417,1,0,0:0:0:0:
182,192,101417,1,0,0:0:0:0:
36,192,101417,1,0,0:0:0:0:
329,192,101417,1,0,0:0:0:0:
36,192,101510,1,0,0:0:0:0:
329,192,101510,1,0,0:0:0:0:
475,192,101604,1,0,0:0:0:0:
182,192,101604,1,0,0:0:0:0:
329,192,101698,1,0,0:0:0:0:
475,192,101792,1,0,0:0:0:0:
329,192,101792,1,0,0:0:0:0:
182,192,101792,1,0,0:0:0:0:
36,192,101792,1,0,0:0:0:0:
475,192,101885,1,0,0:0:0:0:
329,192,101885,1,0,0:0:0:0:
36,192,101979,1,0,0:0:0:0:
182,192,101979,1,0,0:0:0:0:
182,192,102073,1,0,0:0:0:0:
475,192,102167,1,0,0:0:0:0:
36,192,102167,1,0,0:0:0:0:
329,192,102167,1,0,0:0:0:0:
182,192,102260,1,0,0:0:0:0:
36,192,102260,1,0,0:0:0:0:
329,192,102307,1,0,0:0:0:0:
475,192,102354,1,0,0:0:0:0:
182,192,102354,1,0,0:0:0:0:
36,192,102401,1,0,0:0:0:0:
329,192,102448,1,0,0:0:0:0:
182,192,102495,1,0,0:0:0:0:
475,192,102542,1,0,0:0:0:0:
36,192,102542,1,0,0:0:0:0:
329,192,102542,1,0,0:0:0:0:
182,192,102588,1,0,0:0:0:0:
329,192,102635,1,0,0:0:0:0:
475,192,102682,1,0,0:0:0:0:
36,192,102729,1,0,0:0:0:0:
182,192,102729,1,0,0:0:0:0:
329,192,102776,1,0,0:0:0:0:
64,192,102823,1,0,0:0:0:0:
475,192,102823,1,0,0:0:0:0:
329,192,102870,1,0,0:0:0:0:
475,192,102917,1,0,0:0:0:0:
36,192,102917,1,0,0:0:0:0:
182,192,102917,1,0,0:0:0:0:
329,192,102963,1,0,0:0:0:0:
182,192,103010,1,0,0:0:0:0:
36,192,103057,1,0,0:0:0:0:
475,192,103104,1,0,0:0:0:0:
329,192,103104,1,0,0:0:0:0:
182,192,103151,1,0,0:0:0:0:
329,192,103198,1,0,0:0:0:0:
36,192,103198,1,0,0:0:0:0:
475,192,103245,1,0,0:0:0:0:
36,192,103292,1,0,0:0:0:0:
182,192,103292,1,0,0:0:0:0:
329,192,103292,1,0,0:0:0:0:
475,192,103338,1,0,0:0:0:0:
329,192,103479,1,0,0:0:0:0:
475,192,103479,1,0,0:0:0:0:
182,192,103667,1,0,0:0:0:0:
36,192,103667,1,0,0:0:0:0:
475,192,103854,1,0,0:0:0:0:
182,192,103854,1,0,0:0:0:0:
475,192,104042,1,0,0:0:0:0:
329,192,104042,1,0,0:0:0:0:
36,192,104088,1,0,0:0:0:0:
182,192,104088,1,0,0:0:0:0:
475,192,104135,1,0,0:0:0:0:
329,192,104135,1,0,0:0:0:0:
36,192,104182,1,0,0:0:0:0:
182,192,104182,1,0,0:0:0:0:
475,192,104229,1,0,0:0:0:0:
329,192,104229,1,0,0:0:0:0:
36,192,104417,1,0,0:0:0:0:
329,192,104417,1,0,0:0:0:0:
182,192,104417,1,0,0:0:0:0:
475,192,104510,1,0,0:0:0:0:
182,192,104510,1,0,0:0:0:0:
329,192,104510,1,0,0:0:0:0:
36,192,104698,1,0,0:0:0:0:
329,192,104698,1,0,0:0:0:0:
182,192,104698,1,0,0:0:0:0:
182,192,104792,1,0,0:0:0:0:
475,192,104792,1,0,0:0:0:0:
329,192,104792,1,0,0:0:0:0:
329,192,104979,1,0,0:0:0:0:
36,192,104979,1,0,0:0:0:0:
182,192,104979,1,0,0:0:0:0:
475,192,105073,1,0,0:0:0:0:
329,192,105073,1,0,0:0:0:0:
475,192,105167,1,0,0:0:0:0:
36,192,105167,1,0,0:0:0:0:
329,192,105260,1,0,0:0:0:0:
182,192,105260,1,0,0:0:0:0:
182,192,105354,1,0,0:0:0:0:
36,192,105354,1,0,0:0:0:0:
475,192,105354,1,0,0:0:0:0:
475,192,105448,1,0,0:0:0:0:
329,192,105448,1,0,0:0:0:0:
36,192,105542,1,0,0:0:0:0:
182,192,105542,1,0,0:0:0:0:
329,192,105588,1,0,0:0:0:0:
475,192,105588,1,0,0:0:0:0:
36,192,105635,1,0,0:0:0:0:
182,192,105635,1,0,0:0:0:0:
329,192,105682,1,0,0:0:0:0:
475,192,105682,1,0,0:0:0:0:
36,192,105729,1,0,0:0:0:0:
182,192,105729,1,0,0:0:0:0:
36,192,105917,1,0,0:0:0:0:
329,192,105917,1,0,0:0:0:0:
475,192,105917,1,0,0:0:0:0:
475,192,106010,1,0,0:0:0:0:
36,192,106010,1,0,0:0:0:0:
182,192,106010,1,0,0:0:0:0:
36,192,106198,1,0,0:0:0:0:
182,192,106198,1,0,0:0:0:0:
475,192,106198,1,0,0:0:0:0:
475,192,106292,1,0,0:0:0:0:
329,192,106292,1,0,0:0:0:0:
36,192,106292,1,0,0:0:0:0:
36,192,106479,1,0,0:0:0:0:
329,192,106479,1,0,0:0:0:0:
182,192,106479,1,0,0:0:0:0:
475,192,106573,1,0,0:0:0:0:
182,192,106573,1,0,0:0:0:0:
329,192,106573,128,0,106948:0:0:0:0:
36,192,106760,1,0,0:0:0:0:
182,192,106760,1,0,0:0:0:0:
36,192,106854,1,0,0:0:0:0:
182,192,106854,1,0,0:0:0:0:
36,192,106948,1,0,0:0:0:0:
182,192,106948,1,0,0:0:0:0:
475,192,107042,1,0,0:0:0:0:
329,192,107042,1,0,0:0:0:0:
36,192,107088,1,0,0:0:0:0:
182,192,107088,1,0,0:0:0:0:
475,192,107135,1,0,0:0:0:0:
329,192,107135,1,0,0:0:0:0:
36,192,107182,1,0,0:0:0:0:
182,192,107182,1,0,0:0:0:0:
475,192,107229,1,0,0:0:0:0:
329,192,107229,1,0,0:0:0:0:
182,192,107323,1,0,0:0:0:0:
36,192,107323,1,0,0:0:0:0:
475,192,107417,1,0,0:0:0:0:
329,192,107417,1,0,0:0:0:0:
182,192,107510,1,0,0:0:0:0:
36,192,107510,1,0,0:0:0:0:
475,192,107604,1,0,0:0:0:0:
329,192,107604,1,0,0:0:0:0:
182,192,107698,1,0,0:0:0:0:
36,192,107698,1,0,0:0:0:0:
475,192,107792,1,0,0:0:0:0:
329,192,107792,1,0,0:0:0:0:
36,192,107838,1,0,0:0:0:0:
182,192,107838,1,0,0:0:0:0:
475,192,107885,1,0,0:0:0:0:
329,192,107885,1,0,0:0:0:0:
36,192,107932,1,0,0:0:0:0:
182,192,107932,1,0,0:0:0:0:
475,192,107979,1,0,0:0:0:0:
329,192,107979,1,0,0:0:0:0:
36,192,108073,1,0,0:0:0:0:
182,192,108073,1,0,0:0:0:0:
475,192,108167,1,0,0:0:0:0:
329,192,108167,1,0,0:0:0:0:
36,192,108260,1,0,0:0:0:0:
182,192,108260,1,0,0:0:0:0:
329,192,108354,1,0,0:0:0:0:
475,192,108354,1,0,0:0:0:0:
36,192,108448,1,0,0:0:0:0:
182,192,108448,1,0,0:0:0:0:
475,192,108542,1,0,0:0:0:0:
182,192,108542,1,0,0:0:0:0:
329,192,108542,1,0,0:0:0:0:
329,192,108729,1,0,0:0:0:0:
182,192,108729,1,0,0:0:0:0:
475,192,108823,1,0,0:0:0:0:
36,192,108823,1,0,0:0:0:0:
182,192,108823,1,0,0:0:0:0:
329,192,109010,1,0,0:0:0:0:
182,192,109010,1,0,0:0:0:0:
36,192,109104,1,0,0:0:0:0:
475,192,109104,1,0,0:0:0:0:
329,192,109104,1,0,0:0:0:0:
475,192,109292,1,0,0:0:0:0:
329,192,109292,1,0,0:0:0:0:
182,192,109292,1,0,0:0:0:0:
36,192,109292,1,0,0:0:0:0:
36,192,109385,1,0,0:0:0:0:
475,192,109385,1,0,0:0:0:0:
329,192,109479,1,0,0:0:0:0:
182,192,109573,1,0,0:0:0:0:
36,192,109667,1,0,0:0:0:0:
182,192,109690,1,0,0:0:0:0:
475,192,109713,1,0,0:0:0:0:
329,192,109737,1,0,0:0:0:0:
36,192,109760,1,0,0:0:0:0:
182,192,109784,1,0,0:0:0:0:
475,192,109807,1,0,0:0:0:0:
329,192,109831,1,0,0:0:0:0:
36,192,109854,1,0,0:0:0:0:
182,192,109877,1,0,0:0:0:0:
475,192,109901,1,0,0:0:0:0:
329,192,109924,1,0,0:0:0:0:
36,192,109948,1,0,0:0:0:0:
182,192,109971,1,0,0:0:0:0:
475,192,110042,1,0,0:0:0:0:
329,192,110042,1,0,0:0:0:0:
36,192,110042,1,0,0:0:0:0:
182,192,110135,1,0,0:0:0:0:
475,192,110229,1,0,0:0:0:0:
329,192,110323,1,0,0:0:0:0:
36,192,110417,1,0,0:0:0:0:
182,192,110510,1,0,0:0:0:0:
329,192,110604,1,0,0:0:0:0:
182,192,110698,1,0,0:0:0:0:
36,192,110792,1,0,0:0:0:0:
329,192,110885,1,0,0:0:0:0:
475,192,110979,1,0,0:0:0:0:
36,192,110979,1,0,0:0:0:0:
329,192,111073,1,0,0:0:0:0:
182,192,111167,1,0,0:0:0:0:
329,192,111260,1,0,0:0:0:0:
475,192,111354,1,0,0:0:0:0:
36,192,111354,1,0,0:0:0:0:
329,192,111448,1,0,0:0:0:0:
182,192,111448,1,0,0:0:0:0:
36,192,111542,1,0,0:0:0:0:
475,192,111542,1,0,0:0:0:0:
182,192,111635,1,0,0:0:0:0:
329,192,111729,1,0,0:0:0:0:
182,192,111823,1,0,0:0:0:0:
475,192,111917,1,0,0:0:0:0:
329,192,112010,1,0,0:0:0:0:
36,192,112104,1,0,0:0:0:0:
475,192,112104,1,0,0:0:0:0:
182,192,112198,1,0,0:0:0:0:
329,192,112292,1,0,0:0:0:0:
36,192,112385,1,0,0:0:0:0:
182,192,112479,1,0,0:0:0:0:
329,192,112573,1,0,0:0:0:0:
36,192,112667,1,0,0:0:0:0:
475,192,112667,1,0,0:0:0:0:
182,192,112760,1,0,0:0:0:0:
329,192,112854,1,0,0:0:0:0:
182,192,112948,1,0,0:0:0:0:
475,192,113042,1,0,0:0:0:0:
36,192,113042,1,0,0:0:0:0:
329,192,113135,1,0,0:0:0:0:
182,192,113229,1,0,0:0:0:0:
329,192,113323,1,0,0:0:0:0:
475,192,113417,1,0,0:0:0:0:
36,192,113417,1,0,0:0:0:0:
182,192,113510,1,0,0:0:0:0:
329,192,113604,1,0,0:0:0:0:
182,192,113698,1,0,0:0:0:0:
475,192,113792,1,0,0:0:0:0:
329,192,113885,1,0,0:0:0:0:
182,192,113979,1,0,0:0:0:0:
36,192,113979,1,0,0:0:0:0:
329,192,114073,1,0,0:0:0:0:
182,192,114167,1,0,0:0:0:0:
329,192,114260,1,0,0:0:0:0:
475,192,114354,1,0,0:0:0:0:
36,192,114354,1,0,0:0:0:0:
329,192,114448,1,0,0:0:0:0:
182,192,114448,1,0,0:0:0:0:
475,192,114542,1,0,0:0:0:0:
36,192,114542,128,0,114917:0:0:0:0:
475,192,114729,128,0,114917:0:0:0:0:
329,192,114917,1,0,0:0:0:0:
182,192,114963,1,0,0:0:0:0:
36,192,115010,1,0,0:0:0:0:
475,192,115010,1,0,0:0:0:0:
329,192,115057,1,0,0:0:0:0:
182,192,115104,1,0,0:0:0:0:
36,192,115104,128,0,115479:0:0:0:0:
329,192,115151,1,0,0:0:0:0:
182,192,115198,1,0,0:0:0:0:
329,192,115245,1,0,0:0:0:0:
475,192,115292,128,0,115479:0:0:0:0:
182,192,115479,1,0,0:0:0:0:
329,192,115542,1,0,0:0:0:0:
182,192,115604,1,0,0:0:0:0:
475,192,115667,1,0,0:0:0:0:
36,192,115667,1,0,0:0:0:0:
329,192,115667,1,0,0:0:0:0:
329,192,115760,1,0,0:0:0:0:
475,192,115760,1,0,0:0:0:0:
182,192,115854,1,0,0:0:0:0:
36,192,115854,1,0,0:0:0:0:
329,192,115948,1,0,0:0:0:0:
182,192,116042,1,0,0:0:0:0:
36,192,116042,1,0,0:0:0:0:
475,192,116042,128,0,116229:0:0:0:0:
329,192,116088,1,0,0:0:0:0:
182,192,116135,1,0,0:0:0:0:
329,192,116182,1,0,0:0:0:0:
182,192,116229,1,0,0:0:0:0:
36,192,116229,1,0,0:0:0:0:
36,192,116417,1,0,0:0:0:0:
329,192,116417,1,0,0:0:0:0:
475,192,116417,128,0,116604:0:0:0:0:
182,192,116510,1,0,0:0:0:0:
329,192,116510,1,0,0:0:0:0:
36,192,116698,1,0,0:0:0:0:
329,192,116698,1,0,0:0:0:0:
36,192,116792,1,0,0:0:0:0:
182,192,116792,1,0,0:0:0:0:
475,192,116792,128,0,116979:0:0:0:0:
36,192,116979,1,0,0:0:0:0:
329,192,116979,1,0,0:0:0:0:
182,192,117073,1,0,0:0:0:0:
329,192,117073,1,0,0:0:0:0:
475,192,117167,128,0,117354:0:0:0:0:
36,192,117260,1,0,0:0:0:0:
329,192,117260,1,0,0:0:0:0:
182,192,117354,1,0,0:0:0:0:
36,192,117354,1,0,0:0:0:0:
182,192,117448,1,0,0:0:0:0:
329,192,117542,1,0,0:0:0:0:
475,192,117542,1,0,0:0:0:0:
36,192,117542,128,0,117729:0:0:0:0:
182,192,117588,1,0,0:0:0:0:
329,192,117635,1,0,0:0:0:0:
182,192,117682,1,0,0:0:0:0:
329,192,117729,1,0,0:0:0:0:
475,192,117729,1,0,0:0:0:0:
475,192,117917,1,0,0:0:0:0:
182,192,117917,1,0,0:0:0:0:
36,192,117917,128,0,118104:0:0:0:0:
329,192,118010,1,0,0:0:0:0:
182,192,118010,1,0,0:0:0:0:
475,192,118198,1,0,0:0:0:0:
182,192,118198,1,0,0:0:0:0:
475,192,118292,1,0,0:0:0:0:
329,192,118292,1,0,0:0:0:0:
36,192,118292,128,0,118479:0:0:0:0:
475,192,118479,1,0,0:0:0:0:
182,192,118479,1,0,0:0:0:0:
329,192,118573,1,0,0:0:0:0:
182,192,118573,1,0,0:0:0:0:
36,192,118667,128,0,118854:0:0:0:0:
475,192,118760,1,0,0:0:0:0:
182,192,118760,1,0,0:0:0:0:
329,192,118854,1,0,0:0:0:0:
475,192,118854,1,0,0:0:0:0:
182,192,118948,1,0,0:0:0:0:
475,192,119042,1,0,0:0:0:0:
36,192,119042,1,0,0:0:0:0:
329,192,119042,1,0,0:0:0:0:
182,192,119088,1,0,0:0:0:0:
475,192,119135,1,0,0:0:0:0:
182,192,119182,1,0,0:0:0:0:
475,192,119229,1,0,0:0:0:0:
36,192,119229,1,0,0:0:0:0:
329,192,119229,1,0,0:0:0:0:
182,192,119323,1,0,0:0:0:0:
329,192,119417,1,0,0:0:0:0:
475,192,119417,1,0,0:0:0:0:
36,192,119417,1,0,0:0:0:0:
475,192,119510,1,0,0:0:0:0:
182,192,119604,1,0,0:0:0:0:
329,192,119604,1,0,0:0:0:0:
329,192,119698,1,0,0:0:0:0:
36,192,119792,1,0,0:0:0:0:
475,192,119792,1,0,0:0:0:0:
182,192,119792,1,0,0:0:0:0:
329,192,119838,1,0,0:0:0:0:
36,192,119885,1,0,0:0:0:0:
329,192,119932,1,0,0:0:0:0:
36,192,119979,1,0,0:0:0:0:
475,192,119979,1,0,0:0:0:0:
182,192,119979,1,0,0:0:0:0:
329,192,120073,1,0,0:0:0:0:
475,192,120167,1,0,0:0:0:0:
182,192,120167,1,0,0:0:0:0:
36,192,120167,1,0,0:0:0:0:
36,192,120260,1,0,0:0:0:0:
329,192,120354,1,0,0:0:0:0:
182,192,120354,1,0,0:0:0:0:
182,192,120448,1,0,0:0:0:0:
475,192,120542,128,0,120917:0:0:0:0:
36,192,120542,128,0,120917:0:0:0:0:
329,192,120729,128,0,121104:0:0:0:0:
182,192,120729,1,0,0:0:0:0:
182,192,120917,128,0,121104:0:0:0:0:
475,192,121104,128,0,121292:0:0:0:0:
36,192,121104,128,0,121292:0:0:0:0:
329,192,121292,1,0,0:0:0:0:
182,192,121292,1,0,0:0:0:0:
475,192,121385,1,0,0:0:0:0:
36,192,121385,1,0,0:0:0:0:
329,192,121479,1,0,0:0:0:0:
182,192,121573,1,0,0:0:0:0:
36,192,121573,1,0,0:0:0:0:
329,192,121667,1,0,0:0:0:0:
475,192,121667,1,0,0:0:0:0:
182,192,121760,1,0,0:0:0:0:
36,192,121854,1,0,0:0:0:0:
475,192,121854,1,0,0:0:0:0:
329,192,121948,1,0,0:0:0:0:
182,192,121948,1,0,0:0:0:0:
475,192,122042,1,0,0:0:0:0:
36,192,122042,1,0,0:0:0:0:
329,192,122042,128,0,122323:0:0:0:0:
36,192,122417,1,0,0:0:0:0:
182,192,122463,1,0,0:0:0:0:
36,192,122604,1,0,0:0:0:0:
182,192,122651,1,0,0:0:0:0:
36,192,122792,1,0,0:0:0:0:
475,192,122792,1,0,0:0:0:0:
182,192,122838,1,0,0:0:0:0:
475,192,122885,1,0,0:0:0:0:
329,192,122932,1,0,0:0:0:0:
182,192,122979,1,0,0:0:0:0:
36,192,123026,1,0,0:0:0:0:
475,192,123073,1,0,0:0:0:0:
329,192,123167,1,0,0:0:0:0:
182,192,123167,1,0,0:0:0:0:
36,192,123167,1,0,0:0:0:0:
475,192,123190,1,0,0:0:0:0:
329,192,123260,128,0,123354:0:0:0:0:
475,192,123284,128,0,123354:0:0:0:0:
36,192,123354,1,0,0:0:0:0:
182,192,123377,1,0,0:0:0:0:
36,192,123448,128,0,123542:0:0:0:0:
182,192,123471,128,0,123542:0:0:0:0:
329,192,123542,1,0,0:0:0:0:
475,192,123565,1,0,0:0:0:0:
329,192,123635,128,0,123729:0:0:0:0:
475,192,123659,128,0,123729:0:0:0:0:
36,192,123729,1,0,0:0:0:0:
182,192,123752,1,0,0:0:0:0:
36,192,123823,128,0,123917:0:0:0:0:
182,192,123846,128,0,123917:0:0:0:0:
329,192,123917,1,0,0:0:0:0:
475,192,123940,1,0,0:0:0:0:
329,192,124010,128,0,124104:0:0:0:0:
475,192,124034,128,0,124104:0:0:0:0:
36,192,124104,1,0,0:0:0:0:
182,192,124127,1,0,0:0:0:0:
36,192,124198,128,0,124292:0:0:0:0:
182,192,124221,128,0,124292:0:0:0:0:
329,192,124292,1,0,0:0:0:0:
475,192,124315,1,0,0:0:0:0:
329,192,124385,128,0,124479:0:0:0:0:
475,192,124409,128,0,124479:0:0:0:0:
36,192,124479,1,0,0:0:0:0:
182,192,124502,1,0,0:0:0:0:
36,192,124573,128,0,124667:0:0:0:0:
182,192,124596,128,0,124667:0:0:0:0:
475,192,124667,1,0,0:0:0:0:
329,192,124713,1,0,0:0:0:0:
182,192,124760,1,0,0:0:0:0:
36,192,124807,1,0,0:0:0:0:
329,192,124854,1,0,0:0:0:0:
475,192,124901,1,0,0:0:0:0:
182,192,124948,1,0,0:0:0:0:
329,192,124995,1,0,0:0:0:0:
182,192,125042,128,0,125229:0:0:0:0:
36,192,125042,128,0,125229:0:0:0:0:
475,192,125042,1,0,0:0:0:0:
475,192,125229,1,0,0:0:0:0:
329,192,125229,1,0,0:0:0:0:
475,192,125323,1,0,0:0:0:0:
36,192,125417,1,0,0:0:0:0:
182,192,125417,1,0,0:0:0:0:
36,192,125510,1,0,0:0:0:0:
329,192,125510,1,0,0:0:0:0:
475,192,125604,1,0,0:0:0:0:
329,192,125604,1,0,0:0:0:0:
475,192,125698,1,0,0:0:0:0:
182,192,125698,1,0,0:0:0:0:
182,192,125792,128,0,126167:0:0:0:0:
329,192,125792,1,0,0:0:0:0:
36,192,125979,1,0,0:0:0:0:
329,192,125979,1,0,0:0:0:0:
475,192,125979,1,0,0:0:0:0:
36,192,126167,1,0,0:0:0:0:
329,192,126167,1,0,0:0:0:0:
475,192,126190,1,0,0:0:0:0:
329,192,126260,128,0,126354:0:0:0:0:
475,192,126284,128,0,126377:0:0:0:0:
36,192,126354,1,0,0:0:0:0:
182,192,126377,1,0,0:0:0:0:
36,192,126448,128,0,126542:0:0:0:0:
182,192,126471,128,0,126565:0:0:0:0:
329,192,126542,1,0,0:0:0:0:
475,192,126565,1,0,0:0:0:0:
329,192,126635,128,0,126729:0:0:0:0:
475,192,126659,128,0,126752:0:0:0:0:
36,192,126729,1,0,0:0:0:0:
182,192,126752,1,0,0:0:0:0:
36,192,126823,128,0,126917:0:0:0:0:
182,192,126846,128,0,126940:0:0:0:0:
329,192,126917,1,0,0:0:0:0:
475,192,126940,1,0,0:0:0:0:
329,192,127010,128,0,127104:0:0:0:0:
475,192,127034,128,0,127127:0:0:0:0:
36,192,127104,1,0,0:0:0:0:
182,192,127127,1,0,0:0:0:0:
36,192,127198,128,0,127292:0:0:0:0:
182,192,127221,128,0,127315:0:0:0:0:
475,192,127292,1,0,0:0:0:0:
329,192,127292,128,0,127573:0:0:0:0:
182,192,127385,128,0,127479:0:0:0:0:
36,192,127479,128,0,127573:0:0:0:0:
475,192,127479,1,0,0:0:0:0:
182,192,127573,1,0,0:0:0:0:
329,192,127620,1,0,0:0:0:0:
475,192,127667,1,0,0:0:0:0:
36,192,127667,1,0,0:0:0:0:
182,192,127713,1,0,0:0:0:0:
329,192,127760,1,0,0:0:0:0:
36,192,127807,1,0,0:0:0:0:
182,192,127854,1,0,0:0:0:0:
475,192,127854,1,0,0:0:0:0:
36,192,127948,1,0,0:0:0:0:
329,192,127948,1,0,0:0:0:0:
36,192,128042,1,0,0:0:0:0:
475,192,128042,1,0,0:0:0:0:
182,192,128042,128,0,128417:0:0:0:0:
329,192,128042,1,0,0:0:0:0:
475,192,128417,1,0,0:0:0:0:
329,192,128463,1,0,0:0:0:0:
36,192,128604,1,0,0:0:0:0:
182,192,128651,1,0,0:0:0:0:
36,192,128792,1,0,0:0:0:0:
475,192,128792,1,0,0:0:0:0:
329,192,128792,1,0,0:0:0:0:
182,192,128838,1,0,0:0:0:0:
475,192,128885,1,0,0:0:0:0:
329,192,128932,1,0,0:0:0:0:
182,192,128979,1,0,0:0:0:0:
36,192,129026,1,0,0:0:0:0:
475,192,129073,1,0,0:0:0:0:
182,192,129167,1,0,0:0:0:0:
329,192,129167,1,0,0:0:0:0:
475,192,129190,1,0,0:0:0:0:
329,192,129260,128,0,129354:0:0:0:0:
475,192,129284,128,0,129354:0:0:0:0:
36,192,129354,1,0,0:0:0:0:
182,192,129377,1,0,0:0:0:0:
36,192,129448,128,0,129542:0:0:0:0:
182,192,129471,128,0,129542:0:0:0:0:
329,192,129542,1,0,0:0:0:0:
475,192,129565,1,0,0:0:0:0:
329,192,129635,128,0,129729:0:0:0:0:
475,192,129659,128,0,129729:0:0:0:0:
36,192,129729,1,0,0:0:0:0:
182,192,129752,1,0,0:0:0:0:
36,192,129823,128,0,129917:0:0:0:0:
182,192,129846,128,0,129917:0:0:0:0:
329,192,129917,1,0,0:0:0:0:
475,192,129940,1,0,0:0:0:0:
329,192,130010,128,0,130104:0:0:0:0:
475,192,130034,128,0,130104:0:0:0:0:
36,192,130104,1,0,0:0:0:0:
182,192,130127,1,0,0:0:0:0:
36,192,130198,128,0,130292:0:0:0:0:
182,192,130221,128,0,130292:0:0:0:0:
329,192,130292,1,0,0:0:0:0:
475,192,130315,1,0,0:0:0:0:
329,192,130385,128,0,130479:0:0:0:0:
475,192,130409,128,0,130479:0:0:0:0:
36,192,130479,1,0,0:0:0:0:
182,192,130502,1,0,0:0:0:0:
36,192,130573,128,0,130667:0:0:0:0:
182,192,130596,128,0,130667:0:0:0:0:
475,192,130667,1,0,0:0:0:0:
329,192,130713,1,0,0:0:0:0:
182,192,130760,1,0,0:0:0:0:
36,192,130807,1,0,0:0:0:0:
182,192,130854,1,0,0:0:0:0:
475,192,130854,1,0,0:0:0:0:
329,192,130901,1,0,0:0:0:0:
36,192,130948,1,0,0:0:0:0:
182,192,130995,1,0,0:0:0:0:
475,192,131042,1,0,0:0:0:0:
36,192,131042,1,0,0:0:0:0:
329,192,131042,1,0,0:0:0:0:
182,192,131229,1,0,0:0:0:0:
329,192,131229,1,0,0:0:0:0:
475,192,131323,1,0,0:0:0:0:
36,192,131417,1,0,0:0:0:0:
475,192,131510,1,0,0:0:0:0:
329,192,131510,1,0,0:0:0:0:
182,192,131604,1,0,0:0:0:0:
329,192,131698,1,0,0:0:0:0:
36,192,131792,1,0,0:0:0:0:
182,192,131792,1,0,0:0:0:0:
329,192,131838,1,0,0:0:0:0:
329,192,131979,1,0,0:0:0:0:
182,192,131979,1,0,0:0:0:0:
36,192,131979,1,0,0:0:0:0:
475,192,132073,1,0,0:0:0:0:
182,192,132167,1,0,0:0:0:0:
36,192,132167,1,0,0:0:0:0:
329,192,132167,1,0,0:0:0:0:
475,192,132260,1,0,0:0:0:0:
182,192,132354,1,0,0:0:0:0:
475,192,132448,1,0,0:0:0:0:
182,192,132448,1,0,0:0:0:0:
36,192,132448,1,0,0:0:0:0:
475,192,132542,1,0,0:0:0:0:
329,192,132542,1,0,0:0:0:0:
36,192,132542,1,0,0:0:0:0:
182,192,132635,1,0,0:0:0:0:
329,192,132729,1,0,0:0:0:0:
475,192,132729,1,0,0:0:0:0:
36,192,132823,1,0,0:0:0:0:
182,192,132823,1,0,0:0:0:0:
329,192,132823,1,0,0:0:0:0:
329,192,132917,1,0,0:0:0:0:
182,192,133010,1,0,0:0:0:0:
475,192,133104,1,0,0:0:0:0:
329,192,133104,1,0,0:0:0:0:
182,192,133104,1,0,0:0:0:0:
36,192,133104,1,0,0:0:0:0:
182,192,133198,1,0,0:0:0:0:
329,192,133292,1,0,0:0:0:0:
475,192,133292,1,0,0:0:0:0:
36,192,133385,1,0,0:0:0:0:
182,192,133385,1,0,0:0:0:0:
329,192,133385,1,0,0:0:0:0:
329,192,133479,1,0,0:0:0:0:
182,192,133573,1,0,0:0:0:0:
475,192,133667,1,0,0:0:0:0:
329,192,133667,1,0,0:0:0:0:
182,192,133667,1,0,0:0:0:0:
36,192,133667,1,0,0:0:0:0:
182,192,133760,1,0,0:0:0:0:
329,192,133854,1,0,0:0:0:0:
329,192,133948,1,0,0:0:0:0:
36,192,134042,1,0,0:0:0:0:
475,192,134042,1,0,0:0:0:0:
182,192,134042,128,0,134229:0:0:0:0:
36,192,134417,1,0,0:0:0:0:
475,192,134417,1,0,0:0:0:0:
329,192,134440,1,0,0:0:0:0:
182,192,134463,1,0,0:0:0:0:
36,192,134604,1,0,0:0:0:0:
475,192,134604,1,0,0:0:0:0:
182,192,134627,1,0,0:0:0:0:
329,192,134651,1,0,0:0:0:0:
475,192,134792,1,0,0:0:0:0:
36,192,134792,1,0,0:0:0:0:
182,192,134815,1,0,0:0:0:0:
329,192,134838,1,0,0:0:0:0:
475,192,134932,1,0,0:0:0:0:
329,192,134979,1,0,0:0:0:0:
182,192,135026,1,0,0:0:0:0:
36,192,135073,1,0,0:0:0:0:
329,192,135167,1,0,0:0:0:0:
182,192,135167,1,0,0:0:0:0:
475,192,135190,1,0,0:0:0:0:
329,192,135260,1,0,0:0:0:0:
475,192,135284,1,0,0:0:0:0:
329,192,135354,128,0,135424:0:0:0:0:
36,192,135354,1,0,0:0:0:0:
182,192,135377,1,0,0:0:0:0:
475,192,135377,128,0,135448:0:0:0:0:
36,192,135448,1,0,0:0:0:0:
182,192,135471,1,0,0:0:0:0:
36,192,135542,128,0,135612:0:0:0:0:
329,192,135542,1,0,0:0:0:0:
475,192,135565,1,0,0:0:0:0:
182,192,135565,128,0,135635:0:0:0:0:
329,192,135635,1,0,0:0:0:0:
475,192,135659,1,0,0:0:0:0:
36,192,135729,1,0,0:0:0:0:
329,192,135729,128,0,135799:0:0:0:0:
182,192,135752,1,0,0:0:0:0:
475,192,135752,128,0,135823:0:0:0:0:
36,192,135823,1,0,0:0:0:0:
182,192,135846,1,0,0:0:0:0:
329,192,135917,1,0,0:0:0:0:
36,192,135917,128,0,135987:0:0:0:0:
475,192,135940,1,0,0:0:0:0:
182,192,135940,128,0,136010:0:0:0:0:
329,192,136010,1,0,0:0:0:0:
475,192,136034,1,0,0:0:0:0:
36,192,136104,1,0,0:0:0:0:
329,192,136104,128,0,136174:0:0:0:0:
182,192,136127,1,0,0:0:0:0:
475,192,136127,128,0,136198:0:0:0:0:
36,192,136198,1,0,0:0:0:0:
182,192,136221,1,0,0:0:0:0:
329,192,136292,1,0,0:0:0:0:
36,192,136292,128,0,136362:0:0:0:0:
182,192,136315,128,0,136385:0:0:0:0:
475,192,136315,1,0,0:0:0:0:
329,192,136385,1,0,0:0:0:0:
475,192,136409,1,0,0:0:0:0:
36,192,136479,1,0,0:0:0:0:
329,192,136479,128,0,136549:0:0:0:0:
475,192,136502,128,0,136573:0:0:0:0:
182,192,136502,1,0,0:0:0:0:
36,192,136573,1,0,0:0:0:0:
182,192,136596,1,0,0:0:0:0:
475,192,136667,1,0,0:0:0:0:
36,192,136667,128,0,136737:0:0:0:0:
182,192,136690,128,0,136760:0:0:0:0:
329,192,136713,1,0,0:0:0:0:
475,192,136760,1,0,0:0:0:0:
329,192,136807,1,0,0:0:0:0:
182,192,136854,1,0,0:0:0:0:
36,192,136901,1,0,0:0:0:0:
475,192,136901,1,0,0:0:0:0:
329,192,136948,1,0,0:0:0:0:
182,192,136995,1,0,0:0:0:0:
329,192,137042,1,0,0:0:0:0:
475,192,137042,1,0,0:0:0:0:
36,192,137042,128,0,137229:0:0:0:0:
475,192,137229,1,0,0:0:0:0:
182,192,137229,1,0,0:0:0:0:
329,192,137229,1,0,0:0:0:0:
475,192,137323,1,0,0:0:0:0:
36,192,137417,1,0,0:0:0:0:
182,192,137417,1,0,0:0:0:0:
329,192,137417,1,0,0:0:0:0:
329,192,137510,1,0,0:0:0:0:
475,192,137604,1,0,0:0:0:0:
36,192,137604,1,0,0:0:0:0:
182,192,137604,1,0,0:0:0:0:
182,192,137698,1,0,0:0:0:0:
36,192,137792,1,0,0:0:0:0:
329,192,137792,128,0,138167:0:0:0:0:
475,192,137792,1,0,0:0:0:0:
36,192,137979,1,0,0:0:0:0:
182,192,137979,1,0,0:0:0:0:
475,192,137979,1,0,0:0:0:0:
36,192,138167,1,0,0:0:0:0:
182,192,138167,1,0,0:0:0:0:
475,192,138190,1,0,0:0:0:0:
329,192,138260,1,0,0:0:0:0:
475,192,138284,1,0,0:0:0:0:
329,192,138354,128,0,138424:0:0:0:0:
36,192,138354,1,0,0:0:0:0:
182,192,138377,1,0,0:0:0:0:
475,192,138377,128,0,138448:0:0:0:0:
36,192,138448,1,0,0:0:0:0:
182,192,138471,1,0,0:0:0:0:
329,192,138542,1,0,0:0:0:0:
36,192,138542,128,0,138612:0:0:0:0:
182,192,138565,128,0,138635:0:0:0:0:
475,192,138565,1,0,0:0:0:0:
329,192,138635,1,0,0:0:0:0:
475,192,138659,1,0,0:0:0:0:
36,192,138729,1,0,0:0:0:0:
329,192,138729,128,0,138799:0:0:0:0:
475,192,138752,128,0,138823:0:0:0:0:
182,192,138752,1,0,0:0:0:0:
36,192,138823,1,0,0:0:0:0:
182,192,138846,1,0,0:0:0:0:
36,192,138917,128,0,138987:0:0:0:0:
329,192,138917,1,0,0:0:0:0:
182,192,138940,128,0,139010:0:0:0:0:
475,192,138940,1,0,0:0:0:0:
329,192,139010,1,0,0:0:0:0:
475,192,139034,1,0,0:0:0:0:
36,192,139104,1,0,0:0:0:0:
329,192,139104,128,0,139174:0:0:0:0:
182,192,139127,1,0,0:0:0:0:
475,192,139127,128,0,139198:0:0:0:0:
36,192,139198,1,0,0:0:0:0:
182,192,139221,1,0,0:0:0:0:
36,192,139292,128,0,139362:0:0:0:0:
329,192,139292,1,0,0:0:0:0:
475,192,139292,1,0,0:0:0:0:
182,192,139315,128,0,139385:0:0:0:0:
182,192,139479,128,0,139667:0:0:0:0:
329,192,139479,1,0,0:0:0:0:
475,192,139667,1,0,0:0:0:0:
329,192,139713,1,0,0:0:0:0:
182,192,139760,1,0,0:0:0:0:
36,192,139807,1,0,0:0:0:0:
329,192,139854,1,0,0:0:0:0:
182,192,139901,1,0,0:0:0:0:
329,192,139948,1,0,0:0:0:0:
182,192,139995,1,0,0:0:0:0:
36,192,140042,1,0,0:0:0:0:
475,192,140042,1,0,0:0:0:0:
329,192,140042,1,0,0:0:0:0:
36,192,140135,128,0,140792:0:0:0:0:
182,192,140135,1,0,0:0:0:0:
475,192,140135,128,0,140323:0:0:0:0:
329,192,140198,1,0,0:0:0:0:
182,192,140260,1,0,0:0:0:0:
329,192,140323,1,0,0:0:0:0:
475,192,140385,1,0,0:0:0:0:
182,192,140448,1,0,0:0:0:0:
329,192,140510,1,0,0:0:0:0:
182,192,140557,1,0,0:0:0:0:
475,192,140604,1,0,0:0:0:0:
329,192,140651,1,0,0:0:0:0:
182,192,140698,1,0,0:0:0:0:
475,192,140745,1,0,0:0:0:0:
329,192,140792,1,0,0:0:0:0:
182,192,140792,1,0,0:0:0:0:
475,192,140823,1,0,0:0:0:0:
329,192,140885,1,0,0:0:0:0:
182,192,140956,1,0,0:0:0:0:
329,192,141026,1,0,0:0:0:0:
36,192,141073,1,0,0:0:0:0:
182,192,141120,1,0,0:0:0:0:
36,192,141167,1,0,0:0:0:0:
329,192,141167,1,0,0:0:0:0:
475,192,141190,1,0,0:0:0:0:
329,192,141260,1,0,0:0:0:0:
475,192,141284,1,0,0:0:0:0:
329,192,141354,128,0,141424:0:0:0:0:
36,192,141354,1,0,0:0:0:0:
182,192,141377,1,0,0:0:0:0:
475,192,141377,128,0,141448:0:0:0:0:
36,192,141448,1,0,0:0:0:0:
182,192,141471,1,0,0:0:0:0:
36,192,141542,128,0,141612:0:0:0:0:
329,192,141542,1,0,0:0:0:0:
182,192,141565,128,0,141635:0:0:0:0:
475,192,141565,1,0,0:0:0:0:
329,192,141635,1,0,0:0:0:0:
475,192,141659,1,0,0:0:0:0:
36,192,141729,1,0,0:0:0:0:
329,192,141729,128,0,141799:0:0:0:0:
475,192,141752,128,0,141823:0:0:0:0:
182,192,141752,1,0,0:0:0:0:
36,192,141823,1,0,0:0:0:0:
182,192,141846,1,0,0:0:0:0:
329,192,141917,1,0,0:0:0:0:
36,192,141917,128,0,141987:0:0:0:0:
182,192,141940,128,0,142010:0:0:0:0:
475,192,141940,1,0,0:0:0:0:
329,192,142010,1,0,0:0:0:0:
475,192,142034,1,0,0:0:0:0:
329,192,142104,128,0,142174:0:0:0:0:
36,192,142104,1,0,0:0:0:0:
475,192,142127,128,0,142198:0:0:0:0:
182,192,142127,1,0,0:0:0:0:
36,192,142198,1,0,0:0:0:0:
182,192,142221,1,0,0:0:0:0:
36,192,142292,128,0,142362:0:0:0:0:
329,192,142292,1,0,0:0:0:0:
182,192,142315,128,0,142385:0:0:0:0:
475,192,142315,1,0,0:0:0:0:
329,192,142385,1,0,0:0:0:0:
475,192,142409,1,0,0:0:0:0:
329,192,142479,128,0,142549:0:0:0:0:
36,192,142479,1,0,0:0:0:0:
475,192,142502,128,0,142573:0:0:0:0:
182,192,142502,1,0,0:0:0:0:
36,192,142573,1,0,0:0:0:0:
182,192,142596,1,0,0:0:0:0:
475,192,142667,1,0,0:0:0:0:
36,192,142667,128,0,142737:0:0:0:0:
182,192,142690,128,0,142760:0:0:0:0:
329,192,142713,1,0,0:0:0:0:
475,192,142760,1,0,0:0:0:0:
329,192,142807,1,0,0:0:0:0:
182,192,142854,1,0,0:0:0:0:
36,192,142854,1,0,0:0:0:0:
329,192,142948,1,0,0:0:0:0:
36,192,143042,1,0,0:0:0:0:
182,192,143042,1,0,0:0:0:0:
475,192,143042,1,0,0:0:0:0:
182,192,143229,1,0,0:0:0:0:
329,192,143323,1,0,0:0:0:0:
475,192,143417,1,0,0:0:0:0:
36,192,143417,1,0,0:0:0:0:
182,192,143510,1,0,0:0:0:0:
329,192,143604,1,0,0:0:0:0:
182,192,143698,1,0,0:0:0:0:
329,192,143792,1,0,0:0:0:0:
36,192,143792,1,0,0:0:0:0:
475,192,143823,1,0,0:0:0:0:
182,192,143979,1,0,0:0:0:0:
329,192,144167,1,0,0:0:0:0:
475,192,144354,1,0,0:0:0:0:
36,192,144354,1,0,0:0:0:0:
182,192,144354,1,0,0:0:0:0:
182,192,144542,1,0,0:0:0:0:
329,192,144729,1,0,0:0:0:0:
36,192,144917,1,0,0:0:0:0:
475,192,144917,1,0,0:0:0:0:
329,192,144917,1,0,0:0:0:0:
182,192,144963,1,0,0:0:0:0:
329,192,145010,1,0,0:0:0:0:
475,192,145292,1,0,0:0:0:0:
36,192,145292,1,0,0:0:0:0:
182,192,145292,1,0,0:0:0:0:
329,192,145526,1,0,0:0:0:0:
182,192,145760,128,0,146042:0:0:0:0:
475,192,146042,1,0,0:0:0:0:
36,192,146042,1,0,0:0:0:0:
320,192,146088,1,0,0:0:0:0:
192,192,146135,1,0,0:0:0:0:
64,192,146182,1,0,0:0:0:0:
192,192,146229,1,0,0:0:0:0:
320,192,146276,1,0,0:0:0:0:
448,192,146323,1,0,0:0:0:0:
320,192,146370,1,0,0:0:0:0:
192,192,146417,1,0,0:0:0:0:
64,192,146463,1,0,0:0:0:0:
192,192,146510,1,0,0:0:0:0:
320,192,146557,1,0,0:0:0:0:
448,192,146604,1,0,0:0:0:0:
320,192,146651,1,0,0:0:0:0:
192,192,146698,1,0,0:0:0:0:
64,192,146745,1,0,0:0:0:0:
192,192,146792,1,0,0:0:0:0:
320,192,146838,1,0,0:0:0:0:
448,192,146885,1,0,0:0:0:0:
320,192,146932,1,0,0:0:0:0:
192,192,146979,1,0,0:0:0:0:
64,192,147026,1,0,0:0:0:0:
192,192,147073,1,0,0:0:0:0:
320,192,147120,1,0,0:0:0:0:
448,192,147167,1,0,0:0:0:0:
320,192,147213,1,0,0:0:0:0:
192,192,147260,1,0,0:0:0:0:
64,192,147307,1,0,0:0:0:0:
192,192,147354,1,0,0:0:0:0:
320,192,147401,1,0,0:0:0:0:
448,192,147448,1,0,0:0:0:0:
320,192,147495,1,0,0:0:0:0:
192,192,147542,1,0,0:0:0:0:
64,192,147604,1,0,0:0:0:0:
192,192,147667,1,0,0:0:0:0:
320,192,147729,1,0,0:0:0:0:
448,192,147792,1,0,0:0:0:0:
320,192,147854,1,0,0:0:0:0:
192,192,147917,1,0,0:0:0:0:
64,192,147979,1,0,0:0:0:0:
192,192,148042,1,0,0:0:0:0:
320,192,148104,1,0,0:0:0:0:
448,192,148167,1,0,0:0:0:0:
320,192,148229,1,0,0:0:0:0:
192,192,148292,1,0,0:0:0:0:
64,192,148354,1,0,0:0:0:0:
192,192,148417,1,0,0:0:0:0:
320,192,148479,1,0,0:0:0:0:
448,192,148542,1,0,0:0:0:0:
320,192,148604,1,0,0:0:0:0:
192,192,148667,1,0,0:0:0:0:
64,192,148729,1,0,0:0:0:0:
192,192,148792,1,0,0:0:0:0:
320,192,148854,1,0,0:0:0:0:
448,192,148917,1,0,0:0:0:0:
320,192,148979,1,0,0:0:0:0:
192,192,149042,1,0,0:0:0:0:
64,192,149104,1,0,0:0:0:0:
320,192,149167,1,0,0:0:0:0:
192,192,149229,1,0,0:0:0:0:
448,192,149292,1,0,0:0:0:0:
320,192,149354,1,0,0:0:0:0:
192,192,149417,1,0,0:0:0:0:
320,192,149479,1,0,0:0:0:0:
448,192,149542,1,0,0:0:0:0:
192,192,149604,1,0,0:0:0:0:
320,192,149667,1,0,0:0:0:0:
64,192,149729,1,0,0:0:0:0:
192,192,149792,1,0,0:0:0:0:
320,192,149854,1,0,0:0:0:0:
192,192,149917,1,0,0:0:0:0:
64,192,149979,1,0,0:0:0:0:
320,192,150042,1,0,0:0:0:0:
192,192,150104,1,0,0:0:0:0:
448,192,150167,1,0,0:0:0:0:
320,192,150229,1,0,0:0:0:0:
192,192,150292,1,0,0:0:0:0:
320,192,150354,1,0,0:0:0:0:
448,192,150417,1,0,0:0:0:0:
192,192,150479,1,0,0:0:0:0:
320,192,150542,1,0,0:0:0:0:
64,192,150604,1,0,0:0:0:0:
192,192,150667,1,0,0:0:0:0:
320,192,150729,1,0,0:0:0:0:
448,192,150792,1,0,0:0:0:0:
192,192,150854,1,0,0:0:0:0:
64,192,150917,1,0,0:0:0:0:
320,192,150979,1,0,0:0:0:0:
192,192,151042,1,0,0:0:0:0:
64,192,151104,1,0,0:0:0:0:
320,192,151167,1,0,0:0:0:0:
448,192,151229,1,0,0:0:0:0:
192,192,151292,1,0,0:0:0:0:
320,192,151354,1,0,0:0:0:0:
448,192,151417,1,0,0:0:0:0:
192,192,151479,1,0,0:0:0:0:
64,192,151542,1,0,0:0:0:0:
320,192,151604,1,0,0:0:0:0:
192,192,151667,1,0,0:0:0:0:
64,192,151729,1,0,0:0:0:0:
320,192,151792,1,0,0:0:0:0:
448,192,151854,1,0,0:0:0:0:
192,192,151917,128,0,151979:0:0:0:0:
64,192,151917,128,0,151979:0:0:0:0:
320,192,151979,1,0,0:0:0:0:
448,192,152042,1,0,0:0:0:0:
320,192,152104,1,0,0:0:0:0:
192,192,152167,1,0,0:0:0:0:
64,192,152229,1,0,0:0:0:0:
448,192,152292,1,0,0:0:0:0:
320,192,152354,1,0,0:0:0:0:
64,192,152417,1,0,0:0:0:0:
192,192,152479,1,0,0:0:0:0:
320,192,152542,1,0,0:0:0:0:
448,192,152604,1,0,0:0:0:0:
64,192,152667,1,0,0:0:0:0:
192,192,152729,1,0,0:0:0:0:
448,192,152792,1,0,0:0:0:0:
320,192,152854,1,0,0:0:0:0:
192,192,152917,1,0,0:0:0:0:
64,192,152979,1,0,0:0:0:0:
448,192,153042,1,0,0:0:0:0:
320,192,153104,1,0,0:0:0:0:
64,192,153167,1,0,0:0:0:0:
192,192,153229,1,0,0:0:0:0:
320,192,153292,1,0,0:0:0:0:
448,192,153354,1,0,0:0:0:0:
64,192,153417,1,0,0:0:0:0:
192,192,153479,1,0,0:0:0:0:
448,192,153542,1,0,0:0:0:0:
320,192,153612,1,0,0:0:0:0:
192,192,153682,1,0,0:0:0:0:
64,192,153764,1,0,0:0:0:0:
320,192,153834,1,0,0:0:0:0:
448,192,153917,1,0,0:0:0:0:
64,192,153987,1,0,0:0:0:0:
192,192,154069,1,0,0:0:0:0:
320,192,154151,1,0,0:0:0:0:
448,192,154233,1,0,0:0:0:0:
192,192,154315,1,0,0:0:0:0:
64,192,154397,1,0,0:0:0:0:
448,192,154479,1,0,0:0:0:0:
320,192,154549,1,0,0:0:0:0:
192,192,154635,1,0,0:0:0:0:
64,192,154713,1,0,0:0:0:0:
320,192,154792,1,0,0:0:0:0:
448,192,154877,1,0,0:0:0:0:
320,192,154971,1,0,0:0:0:0:
182,192,155042,128,0,155135:0:0:0:0:
36,192,155104,128,0,155182:0:0:0:0:
475,192,155167,128,0,155245:0:0:0:0:
329,192,155229,128,0,155417:0:0:0:0:
36,192,155417,128,0,155534:0:0:0:0:
475,192,155417,128,0,155792:0:0:0:0:
182,192,155792,128,0,155979:0:0:0:0:
475,192,155979,128,0,156167:0:0:0:0:
36,192,156167,128,0,156354:0:0:0:0:
329,192,156354,128,0,156542:0:0:0:0:
475,192,156917,128,0,157292:0:0:0:0:
182,192,157292,128,0,157479:0:0:0:0:
475,192,157479,128,0,157667:0:0:0:0:
36,192,157667,128,0,157854:0:0:0:0:
329,192,157854,128,0,158042:0:0:0:0:
475,192,158042,1,0,0:0:0:0:
36,192,158042,1,0,0:0:0:0:
182,192,158042,1,0,0:0:0:0:
36,192,158417,1,0,0:0:0:0:
182,192,158417,1,0,0:0:0:0:
329,192,158604,1,0,0:0:0:0:
182,192,158698,1,0,0:0:0:0:
329,192,158792,1,0,0:0:0:0:
475,192,158792,1,0,0:0:0:0:
182,192,158885,1,0,0:0:0:0:
36,192,158979,1,0,0:0:0:0:
329,192,158979,1,0,0:0:0:0:
475,192,158979,1,0,0:0:0:0:
182,192,159167,1,0,0:0:0:0:
475,192,159260,1,0,0:0:0:0:
36,192,159260,1,0,0:0:0:0:
182,192,159354,1,0,0:0:0:0:
36,192,159448,1,0,0:0:0:0:
475,192,159542,1,0,0:0:0:0:
329,192,159542,1,0,0:0:0:0:
182,192,159729,1,0,0:0:0:0:
36,192,159823,1,0,0:0:0:0:
475,192,159823,1,0,0:0:0:0:
329,192,159917,1,0,0:0:0:0:
182,192,160010,1,0,0:0:0:0:
36,192,160104,1,0,0:0:0:0:
329,192,160104,1,0,0:0:0:0:
475,192,160104,1,0,0:0:0:0:
36,192,160292,1,0,0:0:0:0:
182,192,160385,1,0,0:0:0:0:
475,192,160385,1,0,0:0:0:0:
329,192,160479,1,0,0:0:0:0:
182,192,160573,1,0,0:0:0:0:
36,192,160667,1,0,0:0:0:0:
329,192,160667,1,0,0:0:0:0:
475,192,160667,1,0,0:0:0:0:
182,192,160854,1,0,0:0:0:0:
329,192,160948,1,0,0:0:0:0:
182,192,161042,1,0,0:0:0:0:
36,192,161042,1,0,0:0:0:0:
475,192,161042,1,0,0:0:0:0:
329,192,161417,1,0,0:0:0:0:
475,192,161417,1,0,0:0:0:0:
182,192,161604,1,0,0:0:0:0:
329,192,161698,1,0,0:0:0:0:
36,192,161792,1,0,0:0:0:0:
182,192,161792,1,0,0:0:0:0:
329,192,161885,1,0,0:0:0:0:
475,192,161979,1,0,0:0:0:0:
36,192,161979,1,0,0:0:0:0:
182,192,161979,1,0,0:0:0:0:
182,192,162167,1,0,0:0:0:0:
329,192,162260,1,0,0:0:0:0:
182,192,162354,1,0,0:0:0:0:
36,192,162354,1,0,0:0:0:0:
329,192,162448,1,0,0:0:0:0:
475,192,162542,1,0,0:0:0:0:
36,192,162542,1,0,0:0:0:0:
182,192,162542,1,0,0:0:0:0:
329,192,162729,1,0,0:0:0:0:
182,192,162823,1,0,0:0:0:0:
36,192,162823,1,0,0:0:0:0:
475,192,162917,1,0,0:0:0:0:
182,192,163010,1,0,0:0:0:0:
36,192,163104,1,0,0:0:0:0:
475,192,163104,1,0,0:0:0:0:
329,192,163104,1,0,0:0:0:0:
182,192,163292,1,0,0:0:0:0:
329,192,163385,1,0,0:0:0:0:
36,192,163479,1,0,0:0:0:0:
475,192,163479,1,0,0:0:0:0:
329,192,163573,1,0,0:0:0:0:
475,192,163667,1,0,0:0:0:0:
182,192,163667,1,0,0:0:0:0:
36,192,163667,1,0,0:0:0:0:
329,192,163854,1,0,0:0:0:0:
182,192,163948,1,0,0:0:0:0:
475,192,164042,1,0,0:0:0:0:
329,192,164042,1,0,0:0:0:0:
36,192,164042,1,0,0:0:0:0:
182,192,164417,1,0,0:0:0:0:
36,192,164417,1,0,0:0:0:0:
475,192,164417,1,0,0:0:0:0:
329,192,164698,1,0,0:0:0:0:
182,192,164792,1,0,0:0:0:0:
329,192,164885,1,0,0:0:0:0:
475,192,164885,1,0,0:0:0:0:
182,192,164979,1,0,0:0:0:0:
36,192,164979,1,0,0:0:0:0:
475,192,164979,1,0,0:0:0:0:
329,192,165167,1,0,0:0:0:0:
182,192,165260,1,0,0:0:0:0:
475,192,165354,1,0,0:0:0:0:
329,192,165448,1,0,0:0:0:0:
182,192,165448,1,0,0:0:0:0:
475,192,165542,1,0,0:0:0:0:
36,192,165542,1,0,0:0:0:0:
182,192,165729,1,0,0:0:0:0:
329,192,165823,1,0,0:0:0:0:
182,192,165917,1,0,0:0:0:0:
36,192,165917,1,0,0:0:0:0:
329,192,166010,1,0,0:0:0:0:
182,192,166104,1,0,0:0:0:0:
36,192,166104,1,0,0:0:0:0:
475,192,166104,1,0,0:0:0:0:
329,192,166292,1,0,0:0:0:0:
475,192,166385,1,0,0:0:0:0:
36,192,166479,1,0,0:0:0:0:
182,192,166479,1,0,0:0:0:0:
329,192,166573,1,0,0:0:0:0:
36,192,166667,1,0,0:0:0:0:
475,192,166667,1,0,0:0:0:0:
182,192,166667,1,0,0:0:0:0:
329,192,166854,1,0,0:0:0:0:
182,192,166948,1,0,0:0:0:0:
329,192,167042,1,0,0:0:0:0:
475,192,167042,1,0,0:0:0:0:
36,192,167042,1,0,0:0:0:0:
182,192,167229,1,0,0:0:0:0:
329,192,167323,1,0,0:0:0:0:
36,192,167417,1,0,0:0:0:0:
182,192,167417,1,0,0:0:0:0:
475,192,167417,1,0,0:0:0:0:
329,192,167604,1,0,0:0:0:0:
182,192,167698,1,0,0:0:0:0:
329,192,167792,1,0,0:0:0:0:
475,192,167792,1,0,0:0:0:0:
182,192,167885,1,0,0:0:0:0:
329,192,167979,1,0,0:0:0:0:
475,192,167979,1,0,0:0:0:0:
36,192,167979,1,0,0:0:0:0:
182,192,168167,1,0,0:0:0:0:
329,192,168260,1,0,0:0:0:0:
182,192,168354,1,0,0:0:0:0:
475,192,168354,1,0,0:0:0:0:
329,192,168448,1,0,0:0:0:0:
182,192,168542,1,0,0:0:0:0:
36,192,168542,1,0,0:0:0:0:
475,192,168542,1,0,0:0:0:0:
329,192,168729,1,0,0:0:0:0:
182,192,168823,1,0,0:0:0:0:
329,192,168917,1,0,0:0:0:0:
475,192,168917,1,0,0:0:0:0:
182,192,169010,1,0,0:0:0:0:
182,192,169104,1,0,0:0:0:0:
36,192,169104,1,0,0:0:0:0:
329,192,169104,1,0,0:0:0:0:
329,192,169198,1,0,0:0:0:0:
182,192,169292,1,0,0:0:0:0:
475,192,169292,1,0,0:0:0:0:
329,192,169385,1,0,0:0:0:0:
36,192,169479,1,0,0:0:0:0:
475,192,169479,1,0,0:0:0:0:
182,192,169573,1,0,0:0:0:0:
329,192,169667,128,0,169948:0:0:0:0:
475,192,169667,128,0,169948:0:0:0:0:
36,192,169667,1,0,0:0:0:0:
36,192,169854,128,0,169948:0:0:0:0:
182,192,169854,128,0,169948:0:0:0:0:
475,192,170042,1,0,0:0:0:0:
329,192,170042,1,0,0:0:0:0:
182,192,170042,1,0,0:0:0:0:
36,192,170042,1,0,0:0:0:0:
475,192,170417,128,0,170792:0:0:0:0:
329,192,170417,128,0,170792:0:0:0:0:
182,192,170417,1,0,0:0:0:0:
36,192,170604,1,0,0:0:0:0:
182,192,170698,1,0,0:0:0:0:
182,192,170792,128,0,170979:0:0:0:0:
36,192,170792,1,0,0:0:0:0:
475,192,170979,128,0,171167:0:0:0:0:
329,192,170979,128,0,171167:0:0:0:0:
36,192,171167,128,0,171354:0:0:0:0:
182,192,171167,128,0,171354:0:0:0:0:
329,192,171354,128,0,171542:0:0:0:0:
182,192,171542,1,0,0:0:0:0:
475,192,171542,1,0,0:0:0:0:
475,192,171917,128,0,172198:0:0:0:0:
329,192,171917,128,0,172198:0:0:0:0:
36,192,171917,1,0,0:0:0:0:
182,192,172010,1,0,0:0:0:0:
36,192,172104,1,0,0:0:0:0:
182,192,172198,1,0,0:0:0:0:
475,192,172292,128,0,172479:0:0:0:0:
36,192,172292,128,0,172479:0:0:0:0:
329,192,172292,1,0,0:0:0:0:
182,192,172292,1,0,0:0:0:0:
182,192,172479,128,0,172667:0:0:0:0:
36,192,172667,1,0,0:0:0:0:
329,192,172667,128,0,173042:0:0:0:0:
475,192,172713,128,0,173042:0:0:0:0:
36,192,173042,1,0,0:0:0:0:
182,192,173042,1,0,0:0:0:0:
475,192,173417,128,0,173792:0:0:0:0:
329,192,173417,128,0,173792:0:0:0:0:
182,192,173417,1,0,0:0:0:0:
36,192,173604,1,0,0:0:0:0:
182,192,173698,1,0,0:0:0:0:
182,192,173792,128,0,173979:0:0:0:0:
36,192,173792,1,0,0:0:0:0:
475,192,173979,128,0,174167:0:0:0:0:
329,192,173979,128,0,174167:0:0:0:0:
36,192,174167,128,0,174354:0:0:0:0:
182,192,174167,128,0,174354:0:0:0:0:
329,192,174354,128,0,174542:0:0:0:0:
475,192,174542,1,0,0:0:0:0:
36,192,174542,1,0,0:0:0:0:
475,192,174917,128,0,175198:0:0:0:0:
329,192,174917,128,0,175198:0:0:0:0:
182,192,174917,1,0,0:0:0:0:
36,192,175010,1,0,0:0:0:0:
182,192,175104,1,0,0:0:0:0:
36,192,175198,1,0,0:0:0:0:
475,192,175292,128,0,175479:0:0:0:0:
182,192,175292,1,0,0:0:0:0:
182,192,175479,128,0,175667:0:0:0:0:
329,192,175479,128,0,175854:0:0:0:0:
36,192,175667,128,0,175854:0:0:0:0:
475,192,175667,128,0,176042:0:0:0:0:
182,192,175854,128,0,176042:0:0:0:0:
329,192,176042,1,0,0:0:0:0:
36,192,176042,1,0,0:0:0:0:
329,192,176229,1,0,0:0:0:0:
182,192,176229,1,0,0:0:0:0:
182,192,176417,1,0,0:0:0:0:
475,192,176417,128,0,176792:0:0:0:0:
329,192,176417,128,0,176792:0:0:0:0:
36,192,176417,1,0,0:0:0:0:
182,192,176604,1,0,0:0:0:0:
36,192,176792,1,0,0:0:0:0:
182,192,176792,128,0,176979:0:0:0:0:
329,192,176979,128,0,177167:0:0:0:0:
475,192,176979,128,0,177167:0:0:0:0:
36,192,176979,1,0,0:0:0:0:
36,192,177167,128,0,177354:0:0:0:0:
182,192,177167,1,0,0:0:0:0:
475,192,177354,1,0,0:0:0:0:
329,192,177354,128,0,177542:0:0:0:0:
182,192,177354,128,0,177542:0:0:0:0:
36,192,177542,1,0,0:0:0:0:
475,192,177542,1,0,0:0:0:0:
329,192,177729,1,0,0:0:0:0:
182,192,177729,1,0,0:0:0:0:
182,192,177917,1,0,0:0:0:0:
475,192,177917,128,0,178198:0:0:0:0:
329,192,177917,128,0,178198:0:0:0:0:
36,192,177917,1,0,0:0:0:0:
182,192,178104,1,0,0:0:0:0:
182,192,178198,1,0,0:0:0:0:
475,192,178292,128,0,178479:0:0:0:0:
329,192,178292,1,0,0:0:0:0:
36,192,178292,128,0,178479:0:0:0:0:
329,192,178479,1,0,0:0:0:0:
182,192,178479,128,0,178667:0:0:0:0:
329,192,178667,128,0,179042:0:0:0:0:
36,192,178667,1,0,0:0:0:0:
475,192,178713,128,0,179042:0:0:0:0:
182,192,178854,1,0,0:0:0:0:
182,192,179042,1,0,0:0:0:0:
36,192,179042,1,0,0:0:0:0:
329,192,179229,1,0,0:0:0:0:
475,192,179229,1,0,0:0:0:0:
36,192,179417,1,0,0:0:0:0:
182,192,179417,1,0,0:0:0:0:
329,192,179417,128,0,179792:0:0:0:0:
475,192,179463,128,0,179792:0:0:0:0:
182,192,179604,1,0,0:0:0:0:
36,192,179604,1,0,0:0:0:0:
36,192,179792,1,0,0:0:0:0:
182,192,179792,128,0,179979:0:0:0:0:
329,192,179979,128,0,180167:0:0:0:0:
475,192,179979,1,0,0:0:0:0:
182,192,180167,1,0,0:0:0:0:
36,192,180167,128,0,180354:0:0:0:0:
475,192,180354,128,0,180635:0:0:0:0:
329,192,180354,1,0,0:0:0:0:
36,192,180542,1,0,0:0:0:0:
182,192,180542,1,0,0:0:0:0:
329,192,180729,128,0,180823:0:0:0:0:
36,192,180729,1,0,0:0:0:0:
182,192,180917,1,0,0:0:0:0:
475,192,180917,128,0,181010:0:0:0:0:
36,192,180917,1,0,0:0:0:0:
182,192,181104,1,0,0:0:0:0:
329,192,181104,128,0,181198:0:0:0:0:
475,192,181292,128,0,181385:0:0:0:0:
182,192,181292,128,0,181385:0:0:0:0:
329,192,181292,1,0,0:0:0:0:
475,192,181479,128,0,181573:0:0:0:0:
182,192,181479,128,0,181573:0:0:0:0:
36,192,181479,1,0,0:0:0:0:
475,192,181667,1,0,0:0:0:0:
329,192,181667,1,0,0:0:0:0:
36,192,181667,1,0,0:0:0:0:
182,192,181760,1,0,0:0:0:0:
329,192,181854,1,0,0:0:0:0:
475,192,181854,1,0,0:0:0:0:
36,192,181948,1,0,0:0:0:0:
182,192,181948,1,0,0:0:0:0:
475,192,182042,1,0,0:0:0:0:
36,192,182042,1,0,0:0:0:0:
182,192,182042,1,0,0:0:0:0:
329,192,182042,1,0,0:0:0:0:
475,192,182229,128,0,182417:0:0:0:0:
329,192,182229,128,0,182323:0:0:0:0:
182,192,182229,128,0,182323:0:0:0:0:
36,192,182323,128,0,182417:0:0:0:0:
182,192,182417,128,0,182510:0:0:0:0:
329,192,182417,128,0,182510:0:0:0:0:
475,192,182510,128,0,182604:0:0:0:0:
182,192,182604,128,0,182698:0:0:0:0:
36,192,182604,128,0,182698:0:0:0:0:
329,192,182698,128,0,182792:0:0:0:0:
475,192,182792,128,0,182885:0:0:0:0:
36,192,182792,128,0,182885:0:0:0:0:
182,192,182885,128,0,182979:0:0:0:0:
329,192,182979,128,0,183073:0:0:0:0:
475,192,182979,128,0,183073:0:0:0:0:
36,192,183073,128,0,183167:0:0:0:0:
182,192,183167,128,0,183260:0:0:0:0:
36,192,183260,128,0,183354:0:0:0:0:
329,192,183260,128,0,183354:0:0:0:0:
182,192,183354,128,0,183448:0:0:0:0:
475,192,183354,128,0,183448:0:0:0:0:
329,192,183448,128,0,183542:0:0:0:0:
36,192,183542,128,0,183635:0:0:0:0:
182,192,183542,128,0,183635:0:0:0:0:
475,192,183542,128,0,183635:0:0:0:0:
475,192,183729,128,0,183917:0:0:0:0:
329,192,183729,128,0,183823:0:0:0:0:
182,192,183729,128,0,183823:0:0:0:0:
36,192,183823,128,0,183917:0:0:0:0:
329,192,183917,128,0,184010:0:0:0:0:
182,192,183917,128,0,184010:0:0:0:0:
475,192,184010,128,0,184104:0:0:0:0:
36,192,184104,128,0,184198:0:0:0:0:
329,192,184104,128,0,184198:0:0:0:0:
182,192,184198,128,0,184292:0:0:0:0:
475,192,184292,128,0,184385:0:0:0:0:
329,192,184292,128,0,184385:0:0:0:0:
36,192,184385,128,0,184479:0:0:0:0:
182,192,184479,128,0,184573:0:0:0:0:
475,192,184479,128,0,184573:0:0:0:0:
329,192,184573,128,0,184667:0:0:0:0:
36,192,184667,128,0,184760:0:0:0:0:
182,192,184760,128,0,184854:0:0:0:0:
329,192,184760,128,0,184854:0:0:0:0:
36,192,184854,128,0,184948:0:0:0:0:
475,192,184854,128,0,184948:0:0:0:0:
329,192,184948,128,0,185042:0:0:0:0:
182,192,185042,128,0,185135:0:0:0:0:
36,192,185042,128,0,185135:0:0:0:0:
329,192,185135,128,0,185229:0:0:0:0:
475,192,185229,128,0,185323:0:0:0:0:
182,192,185323,128,0,185417:0:0:0:0:
36,192,185323,128,0,185417:0:0:0:0:
329,192,185417,128,0,185510:0:0:0:0:
475,192,185417,128,0,185510:0:0:0:0:
182,192,185510,128,0,185604:0:0:0:0:
475,192,185604,128,0,185698:0:0:0:0:
36,192,185604,128,0,185698:0:0:0:0:
329,192,185698,128,0,185792:0:0:0:0:
475,192,185792,128,0,185885:0:0:0:0:
182,192,185792,128,0,185885:0:0:0:0:
329,192,185885,128,0,185979:0:0:0:0:
182,192,185979,128,0,186073:0:0:0:0:
36,192,185979,128,0,186073:0:0:0:0:
475,192,186073,128,0,186167:0:0:0:0:
329,192,186073,128,0,186167:0:0:0:0:
182,192,186167,128,0,186260:0:0:0:0:
36,192,186260,128,0,186354:0:0:0:0:
329,192,186260,128,0,186354:0:0:0:0:
182,192,186354,128,0,186448:0:0:0:0:
475,192,186354,128,0,186448:0:0:0:0:
329,192,186448,128,0,186542:0:0:0:0:
475,192,186542,128,0,186635:0:0:0:0:
36,192,186542,128,0,186635:0:0:0:0:
182,192,186542,128,0,186635:0:0:0:0:
329,192,186635,128,0,186729:0:0:0:0:
475,192,186729,128,0,186823:0:0:0:0:
329,192,186823,128,0,186917:0:0:0:0:
182,192,186823,128,0,186917:0:0:0:0:
36,192,186917,128,0,187010:0:0:0:0:
475,192,187010,128,0,187104:0:0:0:0:
329,192,187010,128,0,187104:0:0:0:0:
182,192,187104,128,0,187198:0:0:0:0:
36,192,187198,128,0,187292:0:0:0:0:
329,192,187198,128,0,187292:0:0:0:0:
475,192,187292,128,0,187385:0:0:0:0:
182,192,187292,128,0,187385:0:0:0:0:
329,192,187385,128,0,187479:0:0:0:0:
182,192,187479,128,0,187573:0:0:0:0:
36,192,187479,128,0,187573:0:0:0:0:
329,192,187573,128,0,187667:0:0:0:0:
475,192,187573,128,0,187667:0:0:0:0:
36,192,187667,128,0,187760:0:0:0:0:
329,192,187760,128,0,187854:0:0:0:0:
182,192,187760,128,0,187854:0:0:0:0:
475,192,187854,128,0,187948:0:0:0:0:
182,192,187948,128,0,188042:0:0:0:0:
329,192,188042,128,0,188135:0:0:0:0:
36,192,188042,128,0,188135:0:0:0:0:
475,192,188042,128,0,188135:0:0:0:0:
182,192,188229,128,0,188323:0:0:0:0:
329,192,188229,128,0,188323:0:0:0:0:
475,192,188229,128,0,188417:0:0:0:0:
36,192,188323,128,0,188417:0:0:0:0:
329,192,188417,128,0,188510:0:0:0:0:
182,192,188417,128,0,188510:0:0:0:0:
475,192,188510,128,0,188604:0:0:0:0:
36,192,188604,128,0,188698:0:0:0:0:
182,192,188604,128,0,188698:0:0:0:0:
329,192,188698,128,0,188792:0:0:0:0:
475,192,188792,128,0,188885:0:0:0:0:
36,192,188885,128,0,188979:0:0:0:0:
182,192,188885,128,0,188979:0:0:0:0:
329,192,188979,128,0,189073:0:0:0:0:
475,192,189073,128,0,189167:0:0:0:0:
182,192,189073,128,0,189167:0:0:0:0:
36,192,189167,128,0,189260:0:0:0:0:
329,192,189260,128,0,189354:0:0:0:0:
182,192,189260,128,0,189354:0:0:0:0:
36,192,189354,128,0,189448:0:0:0:0:
475,192,189448,128,0,189542:0:0:0:0:
329,192,189448,128,0,189542:0:0:0:0:
36,192,189542,128,0,189635:0:0:0:0:
182,192,189542,128,0,189635:0:0:0:0:
182,192,189729,128,0,189823:0:0:0:0:
329,192,189729,128,0,189823:0:0:0:0:
475,192,189729,128,0,189917:0:0:0:0:
36,192,189823,128,0,189917:0:0:0:0:
329,192,189917,128,0,190010:0:0:0:0:
182,192,189917,128,0,190010:0:0:0:0:
475,192,190010,128,0,190104:0:0:0:0:
36,192,190104,128,0,190198:0:0:0:0:
182,192,190104,128,0,190198:0:0:0:0:
329,192,190198,128,0,190292:0:0:0:0:
475,192,190292,128,0,190385:0:0:0:0:
182,192,190292,128,0,190385:0:0:0:0:
36,192,190385,128,0,190479:0:0:0:0:
329,192,190479,128,0,190573:0:0:0:0:
182,192,190479,128,0,190573:0:0:0:0:
475,192,190573,128,0,190667:0:0:0:0:
36,192,190667,128,0,190760:0:0:0:0:
329,192,190760,128,0,190854:0:0:0:0:
182,192,190760,128,0,190854:0:0:0:0:
36,192,190854,128,0,190948:0:0:0:0:
475,192,190948,128,0,191042:0:0:0:0:
329,192,190948,128,0,191042:0:0:0:0:
182,192,191042,128,0,191135:0:0:0:0:
36,192,191042,128,0,191135:0:0:0:0:
475,192,191135,128,0,191229:0:0:0:0:
329,192,191135,128,0,191229:0:0:0:0:
182,192,191229,128,0,191323:0:0:0:0:
329,192,191323,128,0,191417:0:0:0:0:
475,192,191323,128,0,191417:0:0:0:0:
36,192,191417,128,0,191510:0:0:0:0:
182,192,191417,128,0,191510:0:0:0:0:
329,192,191510,128,0,191604:0:0:0:0:
475,192,191510,128,0,191604:0:0:0:0:
36,192,191604,128,0,191698:0:0:0:0:
329,192,191698,128,0,191792:0:0:0:0:
182,192,191792,128,0,191885:0:0:0:0:
475,192,191792,128,0,191885:0:0:0:0:
329,192,191885,128,0,191979:0:0:0:0:
36,192,191885,128,0,191979:0:0:0:0:
182,192,191979,128,0,192073:0:0:0:0:
475,192,192073,128,0,192167:0:0:0:0:
329,192,192167,128,0,192260:0:0:0:0:
182,192,192167,128,0,192260:0:0:0:0:
36,192,192260,128,0,192354:0:0:0:0:
475,192,192354,128,0,192448:0:0:0:0:
329,192,192354,128,0,192448:0:0:0:0:
182,192,192448,128,0,192542:0:0:0:0:
475,192,192542,128,0,192635:0:0:0:0:
329,192,192542,128,0,192635:0:0:0:0:
36,192,192542,128,0,192635:0:0:0:0:
182,192,192635,128,0,192729:0:0:0:0:
36,192,192729,128,0,192823:0:0:0:0:
475,192,192823,128,0,192917:0:0:0:0:
329,192,192823,128,0,192917:0:0:0:0:
182,192,192917,128,0,193010:0:0:0:0:
329,192,193010,128,0,193104:0:0:0:0:
475,192,193010,128,0,193104:0:0:0:0:
36,192,193104,128,0,193198:0:0:0:0:
182,192,193104,128,0,193198:0:0:0:0:
475,192,193198,128,0,193292:0:0:0:0:
329,192,193198,128,0,193292:0:0:0:0:
182,192,193292,128,0,193385:0:0:0:0:
36,192,193385,128,0,193479:0:0:0:0:
329,192,193385,128,0,193479:0:0:0:0:
182,192,193479,128,0,193573:0:0:0:0:
475,192,193573,128,0,193667:0:0:0:0:
329,192,193573,128,0,193667:0:0:0:0:
36,192,193667,128,0,193760:0:0:0:0:
182,192,193760,128,0,193854:0:0:0:0:
329,192,193854,128,0,193948:0:0:0:0:
475,192,193854,128,0,193948:0:0:0:0:
182,192,193948,128,0,194042:0:0:0:0:
36,192,194042,128,0,194135:0:0:0:0:
475,192,194042,128,0,194135:0:0:0:0:
329,192,194042,128,0,194135:0:0:0:0:
182,192,194229,128,0,194323:0:0:0:0:
475,192,194229,128,0,194417:0:0:0:0:
329,192,194229,128,0,194323:0:0:0:0:
36,192,194323,128,0,194417:0:0:0:0:
329,192,194417,128,0,194510:0:0:0:0:
182,192,194417,128,0,194510:0:0:0:0:
475,192,194510,128,0,194604:0:0:0:0:
36,192,194604,128,0,194698:0:0:0:0:
182,192,194604,128,0,194698:0:0:0:0:
329,192,194698,128,0,194792:0:0:0:0:
475,192,194792,128,0,194885:0:0:0:0:
182,192,194792,128,0,194885:0:0:0:0:
36,192,194792,128,0,194885:0:0:0:0:
329,192,194885,128,0,194979:0:0:0:0:
182,192,194979,128,0,195073:0:0:0:0:
36,192,195073,128,0,195167:0:0:0:0:
475,192,195167,128,0,195260:0:0:0:0:
329,192,195167,128,0,195260:0:0:0:0:
182,192,195167,128,0,195260:0:0:0:0:
36,192,195260,128,0,195354:0:0:0:0:
329,192,195354,128,0,195448:0:0:0:0:
475,192,195354,128,0,195448:0:0:0:0:
182,192,195448,128,0,195542:0:0:0:0:
36,192,195542,128,0,195635:0:0:0:0:
475,192,195542,128,0,195635:0:0:0:0:
329,192,195542,128,0,195635:0:0:0:0:
329,192,195729,128,0,195823:0:0:0:0:
475,192,195729,128,0,195917:0:0:0:0:
36,192,195729,128,0,195823:0:0:0:0:
182,192,195823,128,0,195917:0:0:0:0:
329,192,195917,128,0,196010:0:0:0:0:
36,192,195917,128,0,196010:0:0:0:0:
475,192,196010,128,0,196104:0:0:0:0:
36,192,196104,128,0,196198:0:0:0:0:
182,192,196104,128,0,196198:0:0:0:0:
329,192,196198,128,0,196292:0:0:0:0:
475,192,196292,128,0,196385:0:0:0:0:
182,192,196292,128,0,196385:0:0:0:0:
36,192,196292,128,0,196385:0:0:0:0:
329,192,196385,128,0,196479:0:0:0:0:
182,192,196479,128,0,196573:0:0:0:0:
475,192,196479,128,0,196573:0:0:0:0:
36,192,196573,128,0,196667:0:0:0:0:
475,192,196667,128,0,196760:0:0:0:0:
329,192,196667,128,0,196760:0:0:0:0:
182,192,196667,128,0,196760:0:0:0:0:
36,192,196760,128,0,196854:0:0:0:0:
329,192,196854,128,0,196948:0:0:0:0:
475,192,196854,128,0,196948:0:0:0:0:
182,192,196948,128,0,197042:0:0:0:0:
36,192,197042,128,0,197135:0:0:0:0:
475,192,197042,128,0,197135:0:0:0:0:
329,192,197042,128,0,197135:0:0:0:0:
182,192,197135,128,0,197229:0:0:0:0:
36,192,197229,128,0,197323:0:0:0:0:
182,192,197323,128,0,197417:0:0:0:0:
329,192,197323,128,0,197417:0:0:0:0:
475,192,197417,128,0,197510:0:0:0:0:
36,192,197417,128,0,197510:0:0:0:0:
329,192,197510,128,0,197604:0:0:0:0:
182,192,197604,128,0,197698:0:0:0:0:
475,192,197604,128,0,197698:0:0:0:0:
329,192,197698,128,0,197792:0:0:0:0:
475,192,197792,128,0,197885:0:0:0:0:
182,192,197792,128,0,197885:0:0:0:0:
36,192,197792,128,0,197885:0:0:0:0:
329,192,197885,128,0,197979:0:0:0:0:
36,192,197979,128,0,198073:0:0:0:0:
182,192,197979,128,0,198073:0:0:0:0:
475,192,198073,128,0,198167:0:0:0:0:
329,192,198167,128,0,198260:0:0:0:0:
182,192,198167,128,0,198260:0:0:0:0:
36,192,198167,128,0,198260:0:0:0:0:
475,192,198260,128,0,198354:0:0:0:0:
329,192,198354,128,0,198448:0:0:0:0:
182,192,198354,128,0,198448:0:0:0:0:
36,192,198448,128,0,198542:0:0:0:0:
182,192,198542,128,0,198635:0:0:0:0:
475,192,198542,128,0,198635:0:0:0:0:
329,192,198542,128,0,198635:0:0:0:0:
36,192,198635,128,0,198729:0:0:0:0:
329,192,198729,128,0,198823:0:0:0:0:
475,192,198729,128,0,198823:0:0:0:0:
182,192,198823,128,0,198917:0:0:0:0:
36,192,198917,128,0,199010:0:0:0:0:
475,192,198917,128,0,199010:0:0:0:0:
329,192,198917,128,0,199010:0:0:0:0:
182,192,199010,128,0,199104:0:0:0:0:
329,192,199104,128,0,199198:0:0:0:0:
475,192,199104,128,0,199198:0:0:0:0:
36,192,199198,128,0,199292:0:0:0:0:
182,192,199198,128,0,199292:0:0:0:0:
475,192,199292,128,0,199385:0:0:0:0:
329,192,199292,128,0,199385:0:0:0:0:
36,192,199385,128,0,199479:0:0:0:0:
182,192,199479,128,0,199573:0:0:0:0:
475,192,199573,128,0,199667:0:0:0:0:
329,192,199573,128,0,199667:0:0:0:0:
36,192,199667,128,0,199760:0:0:0:0:
182,192,199667,128,0,199760:0:0:0:0:
329,192,199760,128,0,199854:0:0:0:0:
475,192,199854,128,0,199948:0:0:0:0:
36,192,199854,128,0,199948:0:0:0:0:
182,192,199948,128,0,200042:0:0:0:0:
36,192,200042,128,0,200135:0:0:0:0:
329,192,200042,128,0,200135:0:0:0:0:
182,192,200135,128,0,200229:0:0:0:0:
475,192,200229,128,0,200323:0:0:0:0:
329,192,200323,128,0,200417:0:0:0:0:
182,192,200323,128,0,200417:0:0:0:0:
36,192,200417,128,0,200510:0:0:0:0:
475,192,200417,128,0,200510:0:0:0:0:
329,192,200510,128,0,200604:0:0:0:0:
182,192,200604,128,0,200698:0:0:0:0:
329,192,200698,128,0,200792:0:0:0:0:
475,192,200792,128,0,200885:0:0:0:0:
36,192,200792,128,0,200885:0:0:0:0:
182,192,200792,128,0,200885:0:0:0:0:
329,192,200885,128,0,200979:0:0:0:0:
182,192,200979,128,0,201073:0:0:0:0:
475,192,201073,128,0,201167:0:0:0:0:
36,192,201167,128,0,201260:0:0:0:0:
182,192,201167,128,0,201260:0:0:0:0:
329,192,201167,128,0,201260:0:0:0:0:
475,192,201260,128,0,201354:0:0:0:0:
36,192,201354,128,0,201448:0:0:0:0:
182,192,201354,128,0,201448:0:0:0:0:
475,192,201448,128,0,201542:0:0:0:0:
36,192,201542,128,0,201635:0:0:0:0:
329,192,201542,128,0,201635:0:0:0:0:
182,192,201542,128,0,201635:0:0:0:0:
182,192,201729,128,0,201823:0:0:0:0:
329,192,201823,128,0,201917:0:0:0:0:
36,192,201917,128,0,202010:0:0:0:0:
182,192,201917,128,0,202010:0:0:0:0:
475,192,202010,128,0,202104:0:0:0:0:
329,192,202010,128,0,202104:0:0:0:0:
182,192,202104,128,0,202198:0:0:0:0:
329,192,202198,128,0,202292:0:0:0:0:
475,192,202292,128,0,202385:0:0:0:0:
36,192,202292,128,0,202385:0:0:0:0:
182,192,202292,128,0,202385:0:0:0:0:
329,192,202385,128,0,202479:0:0:0:0:
182,192,202479,128,0,202573:0:0:0:0:
36,192,202573,128,0,202667:0:0:0:0:
329,192,202573,128,0,202667:0:0:0:0:
475,192,202667,128,0,202760:0:0:0:0:
182,192,202667,128,0,202760:0:0:0:0:
329,192,202760,128,0,202854:0:0:0:0:
475,192,202854,128,0,202948:0:0:0:0:
36,192,202854,128,0,202948:0:0:0:0:
182,192,202948,128,0,203042:0:0:0:0:
329,192,203042,128,0,203135:0:0:0:0:
475,192,203042,128,0,203135:0:0:0:0:
36,192,203042,128,0,203135:0:0:0:0:
182,192,203229,128,0,203323:0:0:0:0:
329,192,203323,128,0,203417:0:0:0:0:
475,192,203323,128,0,203417:0:0:0:0:
182,192,203417,128,0,203510:0:0:0:0:
36,192,203417,128,0,203510:0:0:0:0:
475,192,203510,128,0,203604:0:0:0:0:
329,192,203604,128,0,203698:0:0:0:0:
182,192,203604,128,0,203698:0:0:0:0:
475,192,203698,128,0,203792:0:0:0:0:
182,192,203792,128,0,203885:0:0:0:0:
36,192,203792,128,0,203885:0:0:0:0:
475,192,203885,128,0,203979:0:0:0:0:
329,192,203885,128,0,203979:0:0:0:0:
182,192,203979,128,0,204073:0:0:0:0:
329,192,204073,1,0,0:0:0:0:
36,192,204167,128,0,204260:0:0:0:0:
475,192,204167,128,0,204260:0:0:0:0:
329,192,204167,1,0,0:0:0:0:
182,192,204167,1,0,0:0:0:0:
36,192,204354,128,0,205948:0:0:0:0:
329,192,204354,128,0,204635:0:0:0:0:
182,192,204354,128,0,205292:0:0:0:0:
475,192,204542,1,0,0:0:0:0:
329,192,204776,1,0,0:0:0:0:
475,192,204917,1,0,0:0:0:0:
329,192,205042,1,0,0:0:0:0:
475,192,205292,1,0,0:0:0:0:
329,192,205385,1,0,0:0:0:0:
475,192,205479,1,0,0:0:0:0:
182,192,205573,1,0,0:0:0:0:
329,192,205667,1,0,0:0:0:0:
475,192,205760,1,0,0:0:0:0:
329,192,205854,1,0,0:0:0:0:
182,192,205948,1,0,0:0:0:0:
329,192,206042,1,0,0:0:0:0:
475,192,206042,1,0,0:0:0:0:
36,192,206042,1,0,0:0:0:0:
182,192,206042,1,0,0:0:0:0:
182,192,206229,1,0,0:0:0:0:
329,192,206229,1,0,0:0:0:0:
36,192,206229,1,0,0:0:0:0:
182,192,206417,1,0,0:0:0:0:
329,192,206417,1,0,0:0:0:0:
475,192,206417,1,0,0:0:0:0:
475,192,206604,1,0,0:0:0:0:
36,192,206604,1,0,0:0:0:0:
182,192,206604,1,0,0:0:0:0:
475,192,206792,1,0,0:0:0:0:
36,192,206792,1,0,0:0:0:0:
329,192,206792,1,0,0:0:0:0:
182,192,206979,1,0,0:0:0:0:
329,192,206979,1,0,0:0:0:0:
36,192,206979,1,0,0:0:0:0:
182,192,207167,1,0,0:0:0:0:
329,192,207167,1,0,0:0:0:0:
475,192,207167,1,0,0:0:0:0:
182,192,207354,1,0,0:0:0:0:
36,192,207354,1,0,0:0:0:0:
475,192,207354,1,0,0:0:0:0:
329,192,207354,1,0,0:0:0:0:
182,192,207542,1,0,0:0:0:0:
475,192,207542,1,0,0:0:0:0:
329,192,207542,1,0,0:0:0:0:
36,192,207542,1,0,0:0:0:0:
182,192,207729,1,0,0:0:0:0:
329,192,207729,1,0,0:0:0:0:
475,192,207917,1,0,0:0:0:0:
36,192,207917,1,0,0:0:0:0:
36,192,208104,128,0,208198:0:0:0:0:
475,192,208104,128,0,208198:0:0:0:0:
182,192,208104,128,0,208198:0:0:0:0:
329,192,208104,128,0,208198:0:0:0:0:
475,192,208292,128,0,208385:0:0:0:0:
36,192,208292,128,0,208385:0:0:0:0:
329,192,208292,128,0,208385:0:0:0:0:
182,192,208292,128,0,208385:0:0:0:0:
329,192,208479,1,0,0:0:0:0:
182,192,208479,1,0,0:0:0:0:
36,192,208667,1,0,0:0:0:0:
475,192,208667,1,0,0:0:0:0:
182,192,208760,1,0,0:0:0:0:
36,192,208854,1,0,0:0:0:0:
475,192,208854,1,0,0:0:0:0:
329,192,208948,1,0,0:0:0:0:
475,192,209042,1,0,0:0:0:0:
36,192,209042,1,0,0:0:0:0:
182,192,209042,1,0,0:0:0:0:
182,192,209229,1,0,0:0:0:0:
329,192,209229,1,0,0:0:0:0:
36,192,209229,1,0,0:0:0:0:
182,192,209417,1,0,0:0:0:0:
329,192,209417,1,0,0:0:0:0:
475,192,209417,1,0,0:0:0:0:
475,192,209604,1,0,0:0:0:0:
36,192,209604,1,0,0:0:0:0:
182,192,209604,1,0,0:0:0:0:
475,192,209792,1,0,0:0:0:0:
36,192,209792,1,0,0:0:0:0:
329,192,209792,1,0,0:0:0:0:
182,192,209979,1,0,0:0:0:0:
329,192,209979,1,0,0:0:0:0:
36,192,210167,1,0,0:0:0:0:
475,192,210167,1,0,0:0:0:0:
182,192,210354,1,0,0:0:0:0:
36,192,210354,1,0,0:0:0:0:
475,192,210354,1,0,0:0:0:0:
329,192,210354,1,0,0:0:0:0:
182,192,210542,1,0,0:0:0:0:
475,192,210542,1,0,0:0:0:0:
36,192,210542,1,0,0:0:0:0:
329,192,210635,1,0,0:0:0:0:
36,192,210729,1,0,0:0:0:0:
182,192,210729,1,0,0:0:0:0:
475,192,210823,1,0,0:0:0:0:
329,192,210917,1,0,0:0:0:0:
182,192,210917,1,0,0:0:0:0:
36,192,211010,1,0,0:0:0:0:
475,192,211104,1,0,0:0:0:0:
329,192,211104,1,0,0:0:0:0:
182,192,211198,1,0,0:0:0:0:
475,192,211292,1,0,0:0:0:0:
329,192,211292,1,0,0:0:0:0:
182,192,211385,1,0,0:0:0:0:
329,192,211479,1,0,0:0:0:0:
36,192,211479,1,0,0:0:0:0:
182,192,211573,1,0,0:0:0:0:
36,192,211667,1,0,0:0:0:0:
475,192,211667,1,0,0:0:0:0:
329,192,211760,1,0,0:0:0:0:
182,192,211760,1,0,0:0:0:0:
36,192,211854,1,0,0:0:0:0:
475,192,211854,1,0,0:0:0:0:
182,192,211948,1,0,0:0:0:0:
36,192,212042,1,0,0:0:0:0:
182,192,212065,1,0,0:0:0:0:
475,192,212088,1,0,0:0:0:0:
329,192,212112,1,0,0:0:0:0:
36,192,212135,1,0,0:0:0:0:
182,192,212159,1,0,0:0:0:0:
475,192,212182,1,0,0:0:0:0:
329,192,212206,1,0,0:0:0:0:
36,192,212229,1,0,0:0:0:0:
182,192,212252,1,0,0:0:0:0:
475,192,212276,1,0,0:0:0:0:
329,192,212299,1,0,0:0:0:0:
36,192,212323,1,0,0:0:0:0:
182,192,212346,1,0,0:0:0:0:
475,192,212370,1,0,0:0:0:0:
329,192,212393,1,0,0:0:0:0:
36,192,212417,1,0,0:0:0:0:
182,192,212440,1,0,0:0:0:0:
475,192,212463,1,0,0:0:0:0:
329,192,212487,1,0,0:0:0:0:
36,192,212510,1,0,0:0:0:0:
182,192,212534,1,0,0:0:0:0:
475,192,212557,1,0,0:0:0:0:
329,192,212581,1,0,0:0:0:0:
36,192,212604,1,0,0:0:0:0:
182,192,212627,1,0,0:0:0:0:
475,192,212651,1,0,0:0:0:0:
329,192,212674,1,0,0:0:0:0:
36,192,212698,1,0,0:0:0:0:
182,192,212721,1,0,0:0:0:0:
475,192,212745,1,0,0:0:0:0:
329,192,212768,1,0,0:0:0:0:
36,192,212792,1,0,0:0:0:0:
182,192,212815,1,0,0:0:0:0:
475,192,212838,1,0,0:0:0:0:
329,192,212862,1,0,0:0:0:0:
36,192,212885,1,0,0:0:0:0:
182,192,212909,1,0,0:0:0:0:
475,192,212932,1,0,0:0:0:0:
329,192,212956,1,0,0:0:0:0:
36,192,212979,1,0,0:0:0:0:
182,192,213002,1,0,0:0:0:0:
475,192,213026,1,0,0:0:0:0:
329,192,213049,1,0,0:0:0:0:
36,192,213073,1,0,0:0:0:0:
182,192,213096,1,0,0:0:0:0:
448,192,213120,1,0,0:0:0:0:
320,192,213143,1,0,0:0:0:0:
192,192,213167,1,0,0:0:0:0:
64,192,213167,1,0,0:0:0:0:
182,192,213354,1,0,0:0:0:0:
329,192,213354,1,0,0:0:0:0:
329,192,213542,1,0,0:0:0:0:
475,192,213565,1,0,0:0:0:0:
182,192,213588,1,0,0:0:0:0:
36,192,213612,1,0,0:0:0:0:
329,192,213635,1,0,0:0:0:0:
475,192,213659,1,0,0:0:0:0:
182,192,213682,1,0,0:0:0:0:
36,192,213706,1,0,0:0:0:0:
329,192,213729,1,0,0:0:0:0:
475,192,213752,1,0,0:0:0:0:
182,192,213776,1,0,0:0:0:0:
36,192,213799,1,0,0:0:0:0:
329,192,213823,1,0,0:0:0:0:
475,192,213846,1,0,0:0:0:0:
182,192,213870,1,0,0:0:0:0:
36,192,213893,1,0,0:0:0:0:
329,192,213917,1,0,0:0:0:0:
475,192,213940,1,0,0:0:0:0:
182,192,213963,1,0,0:0:0:0:
36,192,213987,1,0,0:0:0:0:
329,192,214010,1,0,0:0:0:0:
475,192,214034,1,0,0:0:0:0:
182,192,214057,1,0,0:0:0:0:
36,192,214081,1,0,0:0:0:0:
329,192,214104,1,0,0:0:0:0:
475,192,214127,1,0,0:0:0:0:
182,192,214151,1,0,0:0:0:0:
36,192,214174,1,0,0:0:0:0:
329,192,214198,1,0,0:0:0:0:
475,192,214221,1,0,0:0:0:0:
182,192,214245,1,0,0:0:0:0:
36,192,214268,1,0,0:0:0:0:
329,192,214292,1,0,0:0:0:0:
475,192,214315,1,0,0:0:0:0:
182,192,214338,1,0,0:0:0:0:
36,192,214362,1,0,0:0:0:0:
329,192,214385,1,0,0:0:0:0:
475,192,214409,1,0,0:0:0:0:
182,192,214432,1,0,0:0:0:0:
36,192,214456,1,0,0:0:0:0:
329,192,214479,1,0,0:0:0:0:
475,192,214502,1,0,0:0:0:0:
182,192,214526,1,0,0:0:0:0:
36,192,214549,1,0,0:0:0:0:
329,192,214573,1,0,0:0:0:0:
475,192,214596,1,0,0:0:0:0:
182,192,214620,1,0,0:0:0:0:
36,192,214643,1,0,0:0:0:0:
329,192,214667,1,0,0:0:0:0:
448,192,214667,1,0,0:0:0:0:
182,192,214760,1,0,0:0:0:0:
475,192,214854,1,0,0:0:0:0:
36,192,214854,1,0,0:0:0:0:
329,192,214948,1,0,0:0:0:0:
475,192,215042,1,0,0:0:0:0:
36,192,215042,1,0,0:0:0:0:
182,192,215088,1,0,0:0:0:0:
329,192,215135,1,0,0:0:0:0:
182,192,215182,1,0,0:0:0:0:
36,192,215229,1,0,0:0:0:0:
475,192,215229,1,0,0:0:0:0:
329,192,215323,1,0,0:0:0:0:
475,192,215417,1,0,0:0:0:0:
182,192,215417,1,0,0:0:0:0:
36,192,215417,1,0,0:0:0:0:
182,192,215510,1,0,0:0:0:0:
329,192,215604,1,0,0:0:0:0:
36,192,215604,1,0,0:0:0:0:
329,192,215698,1,0,0:0:0:0:
475,192,215792,1,0,0:0:0:0:
36,192,215792,1,0,0:0:0:0:
182,192,215792,1,0,0:0:0:0:
329,192,215885,1,0,0:0:0:0:
475,192,215979,1,0,0:0:0:0:
182,192,215979,1,0,0:0:0:0:
329,192,216073,1,0,0:0:0:0:
475,192,216167,1,0,0:0:0:0:
36,192,216167,1,0,0:0:0:0:
329,192,216167,1,0,0:0:0:0:
182,192,216167,1,0,0:0:0:0:
182,192,216260,1,0,0:0:0:0:
329,192,216354,1,0,0:0:0:0:
475,192,216354,1,0,0:0:0:0:
36,192,216448,1,0,0:0:0:0:
182,192,216448,1,0,0:0:0:0:
475,192,216542,1,0,0:0:0:0:
182,192,216542,1,0,0:0:0:0:
329,192,216542,1,0,0:0:0:0:
36,192,216542,1,0,0:0:0:0:
182,192,216917,1,0,0:0:0:0:
329,192,216917,1,0,0:0:0:0:
475,192,217292,1,0,0:0:0:0:
36,192,217292,1,0,0:0:0:0:
329,192,217385,1,0,0:0:0:0:
182,192,217385,1,0,0:0:0:0:
475,192,217479,1,0,0:0:0:0:
36,192,217479,1,0,0:0:0:0:
329,192,217573,1,0,0:0:0:0:
182,192,217573,1,0,0:0:0:0:
36,192,217667,128,0,217948:0:0:0:0:
475,192,217667,128,0,217760:0:0:0:0:
182,192,217760,128,0,217948:0:0:0:0:
329,192,217760,1,0,0:0:0:0:
329,192,217854,128,0,217948:0:0:0:0:
475,192,217854,128,0,218042:0:0:0:0:
329,192,218042,1,0,0:0:0:0:
182,192,218042,1,0,0:0:0:0:
36,192,218042,1,0,0:0:0:0:
182,192,218135,1,0,0:0:0:0:
475,192,218229,128,0,218604:0:0:0:0:
36,192,218229,128,0,218323:0:0:0:0:
329,192,218229,1,0,0:0:0:0:
182,192,218323,128,0,218510:0:0:0:0:
36,192,218417,1,0,0:0:0:0:
329,192,218417,128,0,218510:0:0:0:0:
36,192,218510,128,0,218604:0:0:0:0:
329,192,218604,128,0,218698:0:0:0:0:
182,192,218604,1,0,0:0:0:0:
36,192,218698,1,0,0:0:0:0:
329,192,218792,1,0,0:0:0:0:
182,192,218792,1,0,0:0:0:0:
475,192,218792,1,0,0:0:0:0:
36,192,218885,128,0,219073:0:0:0:0:
475,192,218885,1,0,0:0:0:0:
329,192,218885,1,0,0:0:0:0:
182,192,218979,128,0,219073:0:0:0:0:
475,192,218979,128,0,219167:0:0:0:0:
329,192,219073,128,0,219167:0:0:0:0:
36,192,219167,1,0,0:0:0:0:
182,192,219167,1,0,0:0:0:0:
475,192,219260,128,0,219448:0:0:0:0:
36,192,219260,1,0,0:0:0:0:
182,192,219260,1,0,0:0:0:0:
329,192,219354,128,0,219448:0:0:0:0:
182,192,219448,128,0,219542:0:0:0:0:
36,192,219448,128,0,219542:0:0:0:0:
475,192,219542,1,0,0:0:0:0:
329,192,219542,1,0,0:0:0:0:
329,192,219635,1,0,0:0:0:0:
182,192,219635,1,0,0:0:0:0:
475,192,219729,128,0,220104:0:0:0:0:
36,192,219729,128,0,219823:0:0:0:0:
182,192,219823,128,0,220010:0:0:0:0:
329,192,219823,1,0,0:0:0:0:
36,192,219917,1,0,0:0:0:0:
329,192,219917,128,0,220010:0:0:0:0:
36,192,220010,128,0,220198:0:0:0:0:
329,192,220104,128,0,220198:0:0:0:0:
182,192,220104,1,0,0:0:0:0:
182,192,220198,128,0,220292:0:0:0:0:
475,192,220292,1,0,0:0:0:0:
329,192,220292,1,0,0:0:0:0:
36,192,220292,1,0,0:0:0:0:
36,192,220385,128,0,220573:0:0:0:0:
475,192,220385,1,0,0:0:0:0:
329,192,220385,1,0,0:0:0:0:
182,192,220479,128,0,220573:0:0:0:0:
475,192,220573,128,0,220667:0:0:0:0:
329,192,220573,128,0,220667:0:0:0:0:
36,192,220667,1,0,0:0:0:0:
182,192,220667,1,0,0:0:0:0:
475,192,220760,128,0,220854:0:0:0:0:
182,192,220760,1,0,0:0:0:0:
36,192,220760,1,0,0:0:0:0:
329,192,220854,128,0,220948:0:0:0:0:
36,192,220948,128,0,221042:0:0:0:0:
475,192,220948,128,0,221042:0:0:0:0:
182,192,221042,1,0,0:0:0:0:
329,192,221042,128,0,221229:0:0:0:0:
64,192,221135,1,0,0:0:0:0:
182,192,221229,1,0,0:0:0:0:
36,192,221229,128,0,221323:0:0:0:0:
475,192,221323,128,0,221417:0:0:0:0:
329,192,221323,1,0,0:0:0:0:
182,192,221417,1,0,0:0:0:0:
36,192,221417,1,0,0:0:0:0:
182,192,221510,1,0,0:0:0:0:
36,192,221510,1,0,0:0:0:0:
475,192,221510,128,0,221604:0:0:0:0:
329,192,221510,128,0,221698:0:0:0:0:
182,192,221604,128,0,221792:0:0:0:0:
36,192,221698,128,0,221792:0:0:0:0:
475,192,221792,1,0,0:0:0:0:
329,192,221792,1,0,0:0:0:0:
475,192,221885,1,0,0:0:0:0:
329,192,221885,1,0,0:0:0:0:
182,192,221979,128,0,222073:0:0:0:0:
36,192,221979,1,0,0:0:0:0:
329,192,222073,128,0,222260:0:0:0:0:
36,192,222167,1,0,0:0:0:0:
182,192,222167,1,0,0:0:0:0:
475,192,222167,128,0,222260:0:0:0:0:
182,192,222260,128,0,222448:0:0:0:0:
329,192,222354,128,0,222448:0:0:0:0:
475,192,222354,128,0,222448:0:0:0:0:
36,192,222448,128,0,222542:0:0:0:0:
329,192,222542,1,0,0:0:0:0:
475,192,222542,1,0,0:0:0:0:
182,192,222542,1,0,0:0:0:0:
182,192,222635,1,0,0:0:0:0:
36,192,222635,1,0,0:0:0:0:
475,192,222729,128,0,222823:0:0:0:0:
329,192,222729,128,0,222823:0:0:0:0:
182,192,222823,128,0,223010:0:0:0:0:
36,192,222823,128,0,223010:0:0:0:0:
475,192,222917,1,0,0:0:0:0:
329,192,222917,1,0,0:0:0:0:
475,192,223010,128,0,223104:0:0:0:0:
329,192,223010,128,0,223104:0:0:0:0:
182,192,223104,1,0,0:0:0:0:
36,192,223104,1,0,0:0:0:0:
36,192,223198,1,0,0:0:0:0:
329,192,223292,1,0,0:0:0:0:
475,192,223292,128,0,223385:0:0:0:0:
182,192,223292,1,0,0:0:0:0:
182,192,223385,1,0,0:0:0:0:
36,192,223479,1,0,0:0:0:0:
329,192,223479,128,0,223573:0:0:0:0:
182,192,223573,128,0,223667:0:0:0:0:
475,192,223573,1,0,0:0:0:0:
36,192,223667,1,0,0:0:0:0:
475,192,223667,1,0,0:0:0:0:
329,192,223667,1,0,0:0:0:0:
182,192,223760,1,0,0:0:0:0:
36,192,223760,1,0,0:0:0:0:
329,192,223760,1,0,0:0:0:0:
475,192,223854,128,0,223948:0:0:0:0:
182,192,223854,128,0,224042:0:0:0:0:
36,192,223854,1,0,0:0:0:0:
329,192,223948,128,0,224042:0:0:0:0:
475,192,224042,1,0,0:0:0:0:
36,192,224042,1,0,0:0:0:0:
182,192,224135,1,0,0:0:0:0:
329,192,224135,1,0,0:0:0:0:
475,192,224229,128,0,224417:0:0:0:0:
36,192,224229,128,0,224323:0:0:0:0:
329,192,224323,128,0,224510:0:0:0:0:
182,192,224323,1,0,0:0:0:0:
182,192,224417,128,0,224604:0:0:0:0:
36,192,224417,1,0,0:0:0:0:
36,192,224510,1,0,0:0:0:0:
475,192,224510,128,0,224604:0:0:0:0:
329,192,224604,128,0,224698:0:0:0:0:
36,192,224698,128,0,224792:0:0:0:0:
182,192,224698,128,0,224792:0:0:0:0:
475,192,224792,1,0,0:0:0:0:
329,192,224792,1,0,0:0:0:0:
329,192,224885,1,0,0:0:0:0:
36,192,224885,128,0,225073:0:0:0:0:
475,192,224885,1,0,0:0:0:0:
182,192,224979,128,0,225073:0:0:0:0:
475,192,224979,128,0,225167:0:0:0:0:
329,192,225073,1,0,0:0:0:0:
182,192,225167,1,0,0:0:0:0:
36,192,225167,1,0,0:0:0:0:
329,192,225167,1,0,0:0:0:0:
36,192,225260,1,0,0:0:0:0:
182,192,225260,1,0,0:0:0:0:
475,192,225260,128,0,225448:0:0:0:0:
329,192,225354,128,0,225448:0:0:0:0:
182,192,225354,128,0,225542:0:0:0:0:
36,192,225448,128,0,225542:0:0:0:0:
329,192,225542,1,0,0:0:0:0:
475,192,225542,1,0,0:0:0:0:
329,192,225635,1,0,0:0:0:0:
182,192,225635,1,0,0:0:0:0:
36,192,225729,128,0,225823:0:0:0:0:
475,192,225729,128,0,225823:0:0:0:0:
329,192,225823,128,0,226010:0:0:0:0:
182,192,225823,1,0,0:0:0:0:
36,192,225917,1,0,0:0:0:0:
182,192,225917,128,0,226104:0:0:0:0:
475,192,225917,128,0,226010:0:0:0:0:
36,192,226010,1,0,0:0:0:0:
329,192,226104,128,0,226198:0:0:0:0:
475,192,226104,1,0,0:0:0:0:
36,192,226198,128,0,226292:0:0:0:0:
182,192,226198,1,0,0:0:0:0:
329,192,226292,1,0,0:0:0:0:
182,192,226292,1,0,0:0:0:0:
475,192,226292,1,0,0:0:0:0:
36,192,226385,128,0,226573:0:0:0:0:
475,192,226385,1,0,0:0:0:0:
329,192,226385,1,0,0:0:0:0:
182,192,226479,128,0,226573:0:0:0:0:
475,192,226479,128,0,226667:0:0:0:0:
329,192,226573,128,0,226667:0:0:0:0:
36,192,226667,1,0,0:0:0:0:
182,192,226667,1,0,0:0:0:0:
475,192,226760,128,0,226854:0:0:0:0:
182,192,226760,1,0,0:0:0:0:
36,192,226760,1,0,0:0:0:0:
329,192,226854,128,0,226948:0:0:0:0:
182,192,226854,128,0,226948:0:0:0:0:
475,192,226948,128,0,227042:0:0:0:0:
36,192,226948,128,0,227042:0:0:0:0:
329,192,227042,1,0,0:0:0:0:
182,192,227042,1,0,0:0:0:0:
475,192,227135,128,0,227323:0:0:0:0:
182,192,227135,1,0,0:0:0:0:
36,192,227229,128,0,227698:0:0:0:0:
329,192,227229,128,0,227323:0:0:0:0:
182,192,227323,128,0,227510:0:0:0:0:
475,192,227417,1,0,0:0:0:0:
329,192,227417,1,0,0:0:0:0:
329,192,227510,128,0,227604:0:0:0:0:
475,192,227510,1,0,0:0:0:0:
182,192,227604,128,0,227698:0:0:0:0:
475,192,227698,128,0,227792:0:0:0:0:
329,192,227698,128,0,227792:0:0:0:0:
36,192,227792,1,0,0:0:0:0:
182,192,227792,128,0,227885:0:0:0:0:
36,192,227885,128,0,227979:0:0:0:0:
329,192,227885,128,0,227979:0:0:0:0:
475,192,227979,1,0,0:0:0:0:
182,192,227979,128,0,228167:0:0:0:0:
329,192,228073,128,0,228167:0:0:0:0:
475,192,228073,128,0,228167:0:0:0:0:
36,192,228073,128,0,228260:0:0:0:0:
182,192,228260,128,0,228354:0:0:0:0:
475,192,228354,128,0,228448:0:0:0:0:
329,192,228354,128,0,228448:0:0:0:0:
36,192,228354,128,0,228448:0:0:0:0:
182,192,228448,128,0,228542:0:0:0:0:
475,192,228542,1,0,0:0:0:0:
329,192,228542,1,0,0:0:0:0:
36,192,228542,1,0,0:0:0:0:
182,192,228635,1,0,0:0:0:0:
329,192,228682,1,0,0:0:0:0:
475,192,228729,1,0,0:0:0:0:
36,192,228729,1,0,0:0:0:0:
182,192,228729,1,0,0:0:0:0:
475,192,228823,1,0,0:0:0:0:
36,192,228823,1,0,0:0:0:0:
329,192,228823,1,0,0:0:0:0:
182,192,228917,1,0,0:0:0:0:
36,192,228963,1,0,0:0:0:0:
329,192,229010,1,0,0:0:0:0:
475,192,229010,1,0,0:0:0:0:
182,192,229057,1,0,0:0:0:0:
475,192,229104,1,0,0:0:0:0:
36,192,229104,1,0,0:0:0:0:
329,192,229104,1,0,0:0:0:0:
475,192,229198,1,0,0:0:0:0:
329,192,229198,1,0,0:0:0:0:
182,192,229198,1,0,0:0:0:0:
36,192,229292,1,0,0:0:0:0:
475,192,229385,1,0,0:0:0:0:
329,192,229385,1,0,0:0:0:0:
182,192,229479,1,0,0:0:0:0:
36,192,229479,1,0,0:0:0:0:
329,192,229479,1,0,0:0:0:0:
475,192,229573,1,0,0:0:0:0:
36,192,229667,1,0,0:0:0:0:
182,192,229667,1,0,0:0:0:0:
36,192,229760,1,0,0:0:0:0:
182,192,229760,1,0,0:0:0:0:
36,192,229854,1,0,0:0:0:0:
182,192,229854,1,0,0:0:0:0:
36,192,229948,1,0,0:0:0:0:
182,192,229948,1,0,0:0:0:0:
36,192,230042,1,0,0:0:0:0:
182,192,230042,1,0,0:0:0:0:
329,192,230073,1,0,0:0:0:0:
475,192,230104,1,0,0:0:0:0:
36,192,230135,1,0,0:0:0:0:
182,192,230167,1,0,0:0:0:0:
329,192,230198,1,0,0:0:0:0:
475,192,230229,1,0,0:0:0:0:
182,192,230260,1,0,0:0:0:0:
36,192,230292,1,0,0:0:0:0:
329,192,230323,1,0,0:0:0:0:
182,192,230354,1,0,0:0:0:0:
329,192,230417,1,0,0:0:0:0:
36,192,230417,1,0,0:0:0:0:
475,192,230417,128,0,230510:0:0:0:0:
36,192,230510,128,0,230698:0:0:0:0:
182,192,230510,128,0,230604:0:0:0:0:
329,192,230604,128,0,230698:0:0:0:0:
475,192,230698,128,0,230792:0:0:0:0:
182,192,230698,128,0,230792:0:0:0:0:
36,192,230792,1,0,0:0:0:0:
329,192,230792,128,0,230885:0:0:0:0:
36,192,230885,1,0,0:0:0:0:
475,192,230885,128,0,231073:0:0:0:0:
182,192,230885,1,0,0:0:0:0:
182,192,230979,128,0,231073:0:0:0:0:
329,192,230979,128,0,231167:0:0:0:0:
475,192,231167,1,0,0:0:0:0:
182,192,231167,128,0,231260:0:0:0:0:
36,192,231167,128,0,231354:0:0:0:0:
329,192,231260,1,0,0:0:0:0:
475,192,231260,128,0,231448:0:0:0:0:
182,192,231354,128,0,231448:0:0:0:0:
329,192,231354,128,0,231542:0:0:0:0:
182,192,231542,1,0,0:0:0:0:
36,192,231542,1,0,0:0:0:0:
475,192,231542,1,0,0:0:0:0:
182,192,231635,1,0,0:0:0:0:
329,192,231635,1,0,0:0:0:0:
475,192,231729,128,0,231823:0:0:0:0:
36,192,231729,128,0,231917:0:0:0:0:
329,192,231729,128,0,231823:0:0:0:0:
182,192,231823,128,0,232010:0:0:0:0:
475,192,231917,1,0,0:0:0:0:
329,192,231917,1,0,0:0:0:0:
36,192,232010,128,0,232198:0:0:0:0:
329,192,232010,1,0,0:0:0:0:
475,192,232010,1,0,0:0:0:0:
329,192,232104,128,0,232198:0:0:0:0:
182,192,232104,128,0,232198:0:0:0:0:
475,192,232198,128,0,232292:0:0:0:0:
36,192,232292,1,0,0:0:0:0:
182,192,232292,1,0,0:0:0:0:
329,192,232292,128,0,232385:0:0:0:0:
475,192,232385,128,0,232573:0:0:0:0:
36,192,232385,1,0,0:0:0:0:
182,192,232479,128,0,232573:0:0:0:0:
329,192,232479,128,0,232667:0:0:0:0:
36,192,232573,128,0,232667:0:0:0:0:
475,192,232667,1,0,0:0:0:0:
182,192,232667,128,0,232760:0:0:0:0:
36,192,232760,128,0,232948:0:0:0:0:
475,192,232760,1,0,0:0:0:0:
329,192,232760,1,0,0:0:0:0:
182,192,232854,128,0,232948:0:0:0:0:
475,192,232854,128,0,233042:0:0:0:0:
329,192,232948,128,0,233042:0:0:0:0:
36,192,233042,1,0,0:0:0:0:
182,192,233042,1,0,0:0:0:0:
329,192,233135,1,0,0:0:0:0:
475,192,233135,1,0,0:0:0:0:
182,192,233229,1,0,0:0:0:0:
36,192,233323,128,0,233417:0:0:0:0:
329,192,233323,1,0,0:0:0:0:
182,192,233417,128,0,233510:0:0:0:0:
329,192,233417,1,0,0:0:0:0:
475,192,233417,1,0,0:0:0:0:
475,192,233510,128,0,233698:0:0:0:0:
329,192,233510,128,0,233604:0:0:0:0:
182,192,233604,128,0,233698:0:0:0:0:
329,192,233698,128,0,233792:0:0:0:0:
36,192,233792,1,0,0:0:0:0:
182,192,233792,1,0,0:0:0:0:
475,192,233792,128,0,233885:0:0:0:0:
36,192,233885,1,0,0:0:0:0:
329,192,233885,128,0,234073:0:0:0:0:
182,192,233885,1,0,0:0:0:0:
182,192,233979,128,0,234073:0:0:0:0:
36,192,234073,128,0,234167:0:0:0:0:
475,192,234167,1,0,0:0:0:0:
329,192,234167,1,0,0:0:0:0:
329,192,234260,1,0,0:0:0:0:
475,192,234260,1,0,0:0:0:0:
182,192,234260,128,0,234448:0:0:0:0:
36,192,234354,128,0,234448:0:0:0:0:
329,192,234354,128,0,234542:0:0:0:0:
475,192,234448,128,0,234542:0:0:0:0:
182,192,234542,1,0,0:0:0:0:
36,192,234542,1,0,0:0:0:0:
475,192,234729,1,0,0:0:0:0:
329,192,234729,1,0,0:0:0:0:
36,192,234776,1,0,0:0:0:0:
182,192,234776,1,0,0:0:0:0:
329,192,234823,1,0,0:0:0:0:
475,192,234823,1,0,0:0:0:0:
182,192,234870,1,0,0:0:0:0:
36,192,234870,1,0,0:0:0:0:
475,192,234917,1,0,0:0:0:0:
329,192,234917,1,0,0:0:0:0:
36,192,235104,1,0,0:0:0:0:
182,192,235104,1,0,0:0:0:0:
329,192,235151,1,0,0:0:0:0:
475,192,235151,1,0,0:0:0:0:
36,192,235198,1,0,0:0:0:0:
182,192,235198,1,0,0:0:0:0:
329,192,235245,1,0,0:0:0:0:
475,192,235245,1,0,0:0:0:0:
36,192,235292,1,0,0:0:0:0:
182,192,235292,1,0,0:0:0:0:
475,192,235479,1,0,0:0:0:0:
36,192,235479,1,0,0:0:0:0:
182,192,235479,1,0,0:0:0:0:
329,192,235573,1,0,0:0:0:0:
182,192,235573,1,0,0:0:0:0:
36,192,235667,1,0,0:0:0:0:
329,192,235667,1,0,0:0:0:0:
182,192,235667,1,0,0:0:0:0:
36,192,235760,1,0,0:0:0:0:
475,192,235760,1,0,0:0:0:0:
475,192,235854,1,0,0:0:0:0:
329,192,235854,1,0,0:0:0:0:
182,192,235854,1,0,0:0:0:0:
182,192,235948,1,0,0:0:0:0:
329,192,235948,1,0,0:0:0:0:
182,192,236042,1,0,0:0:0:0:
36,192,236042,1,0,0:0:0:0:
475,192,236042,1,0,0:0:0:0:
329,192,236088,1,0,0:0:0:0:
182,192,236135,1,0,0:0:0:0:
475,192,236182,1,0,0:0:0:0:
329,192,236229,1,0,0:0:0:0:
36,192,236229,1,0,0:0:0:0:
182,192,236323,1,0,0:0:0:0:
475,192,236417,1,0,0:0:0:0:
329,192,236417,1,0,0:0:0:0:
36,192,236417,1,0,0:0:0:0:
36,192,236510,1,0,0:0:0:0:
36,192,236604,1,0,0:0:0:0:
475,192,236604,1,0,0:0:0:0:
329,192,236604,1,0,0:0:0:0:
182,192,236604,1,0,0:0:0:0:
182,192,236698,1,0,0:0:0:0:
475,192,236792,1,0,0:0:0:0:
329,192,236792,1,0,0:0:0:0:
36,192,236885,1,0,0:0:0:0:
182,192,236885,1,0,0:0:0:0:
475,192,236979,1,0,0:0:0:0:
182,192,237073,1,0,0:0:0:0:
329,192,237073,1,0,0:0:0:0:
182,192,237260,1,0,0:0:0:0:
36,192,237260,1,0,0:0:0:0:
475,192,237354,1,0,0:0:0:0:
36,192,237354,1,0,0:0:0:0:
329,192,237354,1,0,0:0:0:0:
182,192,237401,1,0,0:0:0:0:
36,192,237448,1,0,0:0:0:0:
329,192,237495,1,0,0:0:0:0:
182,192,237542,1,0,0:0:0:0:
475,192,237542,1,0,0:0:0:0:
329,192,237588,1,0,0:0:0:0:
182,192,237635,1,0,0:0:0:0:
329,192,237682,1,0,0:0:0:0:
36,192,237729,1,0,0:0:0:0:
182,192,237729,1,0,0:0:0:0:
329,192,237823,1,0,0:0:0:0:
475,192,237823,1,0,0:0:0:0:
182,192,237917,1,0,0:0:0:0:
36,192,237917,1,0,0:0:0:0:
475,192,238010,1,0,0:0:0:0:
329,192,238010,1,0,0:0:0:0:
329,192,238104,1,0,0:0:0:0:
182,192,238198,1,0,0:0:0:0:
36,192,238198,1,0,0:0:0:0:
182,192,238292,1,0,0:0:0:0:
36,192,238292,1,0,0:0:0:0:
475,192,238292,1,0,0:0:0:0:
329,192,238292,1,0,0:0:0:0:
329,192,238385,1,0,0:0:0:0:
182,192,238479,1,0,0:0:0:0:
36,192,238573,1,0,0:0:0:0:
182,192,238667,1,0,0:0:0:0:
36,192,238667,1,0,0:0:0:0:
329,192,238760,1,0,0:0:0:0:
475,192,238854,1,0,0:0:0:0:
329,192,238854,1,0,0:0:0:0:
182,192,238948,1,0,0:0:0:0:
36,192,239042,1,0,0:0:0:0:
475,192,239042,1,0,0:0:0:0:
329,192,239042,1,0,0:0:0:0:
182,192,239088,1,0,0:0:0:0:
329,192,239135,1,0,0:0:0:0:
182,192,239182,1,0,0:0:0:0:
475,192,239229,1,0,0:0:0:0:
182,192,239323,1,0,0:0:0:0:
36,192,239417,1,0,0:0:0:0:
329,192,239417,1,0,0:0:0:0:
475,192,239510,1,0,0:0:0:0:
36,192,239604,1,0,0:0:0:0:
329,192,239604,1,0,0:0:0:0:
182,192,239651,1,0,0:0:0:0:
329,192,239698,1,0,0:0:0:0:
182,192,239745,1,0,0:0:0:0:
475,192,239792,1,0,0:0:0:0:
329,192,239792,1,0,0:0:0:0:
36,192,239885,1,0,0:0:0:0:
182,192,239885,1,0,0:0:0:0:
329,192,239979,1,0,0:0:0:0:
475,192,240073,1,0,0:0:0:0:
182,192,240073,1,0,0:0:0:0:
329,192,240167,1,0,0:0:0:0:
36,192,240167,1,0,0:0:0:0:
182,192,240260,1,0,0:0:0:0:
475,192,240354,128,0,240635:0:0:0:0:
329,192,240354,128,0,240635:0:0:0:0:
475,192,240729,1,0,0:0:0:0:
329,192,240729,1,0,0:0:0:0:
475,192,240823,128,0,240917:0:0:0:0:
329,192,240823,128,0,240917:0:0:0:0:
475,192,241010,1,0,0:0:0:0:
329,192,241010,1,0,0:0:0:0:
329,192,241104,128,0,241198:0:0:0:0:
475,192,241104,128,0,241198:0:0:0:0:
329,192,241292,1,0,0:0:0:0:
475,192,241292,1,0,0:0:0:0:
475,192,241385,128,0,241479:0:0:0:0:
329,192,241385,128,0,241479:0:0:0:0:
182,192,241479,1,0,0:0:0:0:
475,192,241573,1,0,0:0:0:0:
329,192,241573,1,0,0:0:0:0:
182,192,241667,1,0,0:0:0:0:
329,192,241713,1,0,0:0:0:0:
182,192,241760,1,0,0:0:0:0:
329,192,241807,1,0,0:0:0:0:
182,192,241854,1,0,0:0:0:0:
329,192,241901,1,0,0:0:0:0:
182,192,241948,1,0,0:0:0:0:
329,192,241995,1,0,0:0:0:0:
475,192,242042,1,0,0:0:0:0:
36,192,242042,128,0,242323:0:0:0:0:
182,192,242042,1,0,0:0:0:0:
182,192,242135,128,0,242229:0:0:0:0:
475,192,242135,128,0,242229:0:0:0:0:
329,192,242229,128,0,242323:0:0:0:0:
475,192,242323,128,0,242417:0:0:0:0:
182,192,242323,128,0,242417:0:0:0:0:
36,192,242417,1,0,0:0:0:0:
329,192,242417,128,0,242510:0:0:0:0:
475,192,242510,128,0,242604:0:0:0:0:
36,192,242510,128,0,242604:0:0:0:0:
182,192,242604,128,0,242698:0:0:0:0:
329,192,242604,1,0,0:0:0:0:
329,192,242698,128,0,242792:0:0:0:0:
475,192,242792,1,0,0:0:0:0:
182,192,242792,128,0,242885:0:0:0:0:
36,192,242792,128,0,243120:0:0:0:0:
475,192,242885,128,0,242979:0:0:0:0:
329,192,242979,128,0,243073:0:0:0:0:
182,192,242979,128,0,243120:0:0:0:0:
36,192,243167,1,0,0:0:0:0:
329,192,243167,128,0,243260:0:0:0:0:
182,192,243167,1,0,0:0:0:0:
475,192,243167,128,0,243495:0:0:0:0:
36,192,243260,128,0,243354:0:0:0:0:
182,192,243354,128,0,243448:0:0:0:0:
329,192,243354,128,0,243495:0:0:0:0:
475,192,243542,1,0,0:0:0:0:
329,192,243542,1,0,0:0:0:0:
36,192,243542,128,0,243729:0:0:0:0:
182,192,243542,128,0,243635:0:0:0:0:
475,192,243635,1,0,0:0:0:0:
182,192,243729,128,0,243823:0:0:0:0:
329,192,243729,128,0,243917:0:0:0:0:
475,192,243823,128,0,243917:0:0:0:0:
36,192,243917,1,0,0:0:0:0:
182,192,243917,1,0,0:0:0:0:
36,192,244010,1,0,0:0:0:0:
182,192,244010,1,0,0:0:0:0:
475,192,244010,128,0,244198:0:0:0:0:
329,192,244104,128,0,244198:0:0:0:0:
182,192,244104,128,0,244292:0:0:0:0:
36,192,244198,128,0,244292:0:0:0:0:
475,192,244292,1,0,0:0:0:0:
329,192,244292,1,0,0:0:0:0:
475,192,244385,1,0,0:0:0:0:
36,192,244385,1,0,0:0:0:0:
329,192,244385,1,0,0:0:0:0:
329,192,244479,1,0,0:0:0:0:
182,192,244479,1,0,0:0:0:0:
36,192,244573,1,0,0:0:0:0:
475,192,244573,1,0,0:0:0:0:
475,192,244667,1,0,0:0:0:0:
36,192,244667,1,0,0:0:0:0:
182,192,244667,128,0,245042:0:0:0:0:
329,192,244667,128,0,245042:0:0:0:0:
475,192,244854,1,0,0:0:0:0:
36,192,244854,1,0,0:0:0:0:
475,192,245042,1,0,0:0:0:0:
36,192,245042,1,0,0:0:0:0:
36,192,245135,1,0,0:0:0:0:
475,192,245135,1,0,0:0:0:0:
329,192,245229,1,0,0:0:0:0:
182,192,245229,1,0,0:0:0:0:
329,192,245323,1,0,0:0:0:0:
182,192,245323,1,0,0:0:0:0:
36,192,245417,1,0,0:0:0:0:
475,192,245417,128,0,245510:0:0:0:0:
182,192,245417,1,0,0:0:0:0:
36,192,245510,128,0,245698:0:0:0:0:
329,192,245510,128,0,245604:0:0:0:0:
182,192,245604,128,0,245698:0:0:0:0:
475,192,245604,128,0,245698:0:0:0:0:
329,192,245698,128,0,245792:0:0:0:0:
475,192,245792,1,0,0:0:0:0:
36,192,245792,128,0,245885:0:0:0:0:
182,192,245792,1,0,0:0:0:0:
475,192,245885,128,0,246073:0:0:0:0:
329,192,245885,1,0,0:0:0:0:
182,192,245885,128,0,246073:0:0:0:0:
36,192,245979,128,0,246073:0:0:0:0:
329,192,245979,128,0,246167:0:0:0:0:
182,192,246167,1,0,0:0:0:0:
36,192,246167,1,0,0:0:0:0:
475,192,246167,128,0,246260:0:0:0:0:
36,192,246260,128,0,246448:0:0:0:0:
329,192,246260,128,0,246354:0:0:0:0:
475,192,246354,128,0,246448:0:0:0:0:
182,192,246354,128,0,246542:0:0:0:0:
329,192,246448,1,0,0:0:0:0:
329,192,246542,1,0,0:0:0:0:
475,192,246542,1,0,0:0:0:0:
36,192,246542,1,0,0:0:0:0:
182,192,246635,128,0,246729:0:0:0:0:
36,192,246635,128,0,246729:0:0:0:0:
475,192,246729,1,0,0:0:0:0:
329,192,246729,1,0,0:0:0:0:
329,192,246823,128,0,246917:0:0:0:0:
475,192,246823,128,0,246917:0:0:0:0:
182,192,246823,1,0,0:0:0:0:
182,192,246917,128,0,247010:0:0:0:0:
36,192,246917,128,0,247010:0:0:0:0:
329,192,247010,1,0,0:0:0:0:
475,192,247010,1,0,0:0:0:0:
329,192,247104,128,0,247198:0:0:0:0:
475,192,247104,128,0,247198:0:0:0:0:
36,192,247104,1,0,0:0:0:0:
182,192,247104,1,0,0:0:0:0:
36,192,247198,128,0,247292:0:0:0:0:
182,192,247198,128,0,247292:0:0:0:0:
475,192,247292,1,0,0:0:0:0:
182,192,247385,1,0,0:0:0:0:
329,192,247385,128,0,247479:0:0:0:0:
475,192,247385,128,0,247479:0:0:0:0:
182,192,247479,128,0,247573:0:0:0:0:
36,192,247479,128,0,247573:0:0:0:0:
475,192,247573,1,0,0:0:0:0:
329,192,247573,1,0,0:0:0:0:
36,192,247667,1,0,0:0:0:0:
182,192,247667,1,0,0:0:0:0:
329,192,247667,128,0,247760:0:0:0:0:
475,192,247667,128,0,247854:0:0:0:0:
36,192,247760,128,0,247948:0:0:0:0:
182,192,247760,1,0,0:0:0:0:
329,192,247854,1,0,0:0:0:0:
182,192,247854,128,0,247948:0:0:0:0:
475,192,247948,1,0,0:0:0:0:
329,192,247948,1,0,0:0:0:0:
36,192,248042,1,0,0:0:0:0:
182,192,248042,1,0,0:0:0:0:
475,192,248042,128,0,248135:0:0:0:0:
329,192,248042,128,0,248229:0:0:0:0:
36,192,248135,1,0,0:0:0:0:
182,192,248135,128,0,248323:0:0:0:0:
475,192,248229,128,0,248323:0:0:0:0:
36,192,248229,128,0,248323:0:0:0:0:
329,192,248323,128,0,248417:0:0:0:0:
475,192,248417,1,0,0:0:0:0:
182,192,248417,128,0,248510:0:0:0:0:
36,192,248417,1,0,0:0:0:0:
475,192,248510,128,0,248698:0:0:0:0:
329,192,248604,128,0,248698:0:0:0:0:
36,192,248604,128,0,248698:0:0:0:0:
182,192,248698,128,0,248792:0:0:0:0:
36,192,248792,1,0,0:0:0:0:
329,192,248792,128,0,248885:0:0:0:0:
475,192,248792,128,0,248979:0:0:0:0:
36,192,248885,128,0,248979:0:0:0:0:
182,192,248979,128,0,249073:0:0:0:0:
475,192,249073,1,0,0:0:0:0:
329,192,249073,1,0,0:0:0:0:
36,192,249073,1,0,0:0:0:0:
475,192,249167,128,0,249213:0:0:0:0:
36,192,249167,128,0,249213:0:0:0:0:
182,192,249167,128,0,249307:0:0:0:0:
329,192,249167,128,0,249307:0:0:0:0:
36,192,249354,128,0,249588:0:0:0:0:
475,192,249354,128,0,249588:0:0:0:0:
182,192,249354,128,0,249401:0:0:0:0:
329,192,249354,128,0,249401:0:0:0:0:
182,192,249542,128,0,249682:0:0:0:0:
329,192,249542,128,0,249682:0:0:0:0:
36,192,249729,128,0,249776:0:0:0:0:
475,192,249729,128,0,249776:0:0:0:0:
182,192,249729,1,0,0:0:0:0:
329,192,249729,1,0,0:0:0:0:
36,192,249917,1,0,0:0:0:0:
182,192,249917,1,0,0:0:0:0:
475,192,249917,1,0,0:0:0:0:
329,192,249917,128,0,250245:0:0:0:0:
36,192,250010,128,0,250104:0:0:0:0:
182,192,250104,128,0,250198:0:0:0:0:
475,192,250104,128,0,250245:0:0:0:0:
36,192,250198,128,0,250292:0:0:0:0:
475,192,250292,1,0,0:0:0:0:
329,192,250292,1,0,0:0:0:0:
182,192,250292,128,0,250573:0:0:0:0:
475,192,250385,128,0,250479:0:0:0:0:
36,192,250479,128,0,250573:0:0:0:0:
329,192,250479,128,0,250573:0:0:0:0:
475,192,250573,128,0,250667:0:0:0:0:
182,192,250667,128,0,250995:0:0:0:0:
36,192,250667,1,0,0:0:0:0:
329,192,250667,128,0,250760:0:0:0:0:
475,192,250760,128,0,250854:0:0:0:0:
36,192,250854,128,0,250995:0:0:0:0:
329,192,250854,128,0,250948:0:0:0:0:
475,192,250948,128,0,251042:0:0:0:0:
329,192,251042,128,0,251370:0:0:0:0:
36,192,251042,1,0,0:0:0:0:
182,192,251042,1,0,0:0:0:0:
475,192,251229,128,0,251370:0:0:0:0:
475,192,251417,1,0,0:0:0:0:
36,192,251417,1,0,0:0:0:0:
182,192,251417,1,0,0:0:0:0:
329,192,251417,1,0,0:0:0:0:
182,192,251510,1,0,0:0:0:0:
329,192,251604,1,0,0:0:0:0:
182,192,251698,1,0,0:0:0:0:
329,192,251792,1,0,0:0:0:0:
36,192,251792,128,0,251979:0:0:0:0:
475,192,251792,128,0,251979:0:0:0:0:
329,192,251979,128,0,252026:0:0:0:0:
182,192,251979,128,0,252026:0:0:0:0:
329,192,252167,1,0,0:0:0:0:
182,192,252167,1,0,0:0:0:0:
475,192,252167,128,0,252448:0:0:0:0:
36,192,252167,128,0,252354:0:0:0:0:
329,192,252260,128,0,252448:0:0:0:0:
182,192,252354,128,0,252448:0:0:0:0:
36,192,252448,128,0,252542:0:0:0:0:
182,192,252542,1,0,0:0:0:0:
475,192,252542,1,0,0:0:0:0:
329,192,252542,1,0,0:0:0:0:
182,192,252635,1,0,0:0:0:0:
182,192,252729,1,0,0:0:0:0:
329,192,252823,1,0,0:0:0:0:
182,192,252823,1,0,0:0:0:0:
475,192,252917,1,0,0:0:0:0:
36,192,252917,1,0,0:0:0:0:
329,192,252917,1,0,0:0:0:0:
182,192,253010,1,0,0:0:0:0:
182,192,253104,128,0,253198:0:0:0:0:
36,192,253104,128,0,253198:0:0:0:0:
329,192,253198,128,0,253292:0:0:0:0:
475,192,253198,128,0,253292:0:0:0:0:
182,192,253292,1,0,0:0:0:0:
36,192,253292,1,0,0:0:0:0:
329,192,253385,1,0,0:0:0:0:
475,192,253479,1,0,0:0:0:0:
182,192,253479,1,0,0:0:0:0:
182,192,253573,1,0,0:0:0:0:
36,192,253573,1,0,0:0:0:0:
329,192,253573,1,0,0:0:0:0:
36,192,253760,1,0,0:0:0:0:
329,192,253760,1,0,0:0:0:0:
182,192,253854,1,0,0:0:0:0:
329,192,253854,1,0,0:0:0:0:
475,192,253854,1,0,0:0:0:0:
475,192,254042,1,0,0:0:0:0:
36,192,254042,1,0,0:0:0:0:
182,192,254042,1,0,0:0:0:0:
329,192,254135,1,0,0:0:0:0:
182,192,254229,1,0,0:0:0:0:
329,192,254323,1,0,0:0:0:0:
36,192,254323,1,0,0:0:0:0:
182,192,254417,1,0,0:0:0:0:
475,192,254417,1,0,0:0:0:0:
329,192,254510,1,0,0:0:0:0:
182,192,254604,1,0,0:0:0:0:
475,192,254698,1,0,0:0:0:0:
182,192,254792,1,0,0:0:0:0:
329,192,254885,1,0,0:0:0:0:
36,192,254885,1,0,0:0:0:0:
182,192,254979,1,0,0:0:0:0:
475,192,254979,1,0,0:0:0:0:
329,192,255073,1,0,0:0:0:0:
182,192,255167,1,0,0:0:0:0:
36,192,255260,1,0,0:0:0:0:
182,192,255354,1,0,0:0:0:0:
329,192,255448,1,0,0:0:0:0:
182,192,255542,1,0,0:0:0:0:
36,192,255542,1,0,0:0:0:0:
329,192,255635,1,0,0:0:0:0:
182,192,255729,1,0,0:0:0:0:
475,192,255729,1,0,0:0:0:0:
329,192,255823,1,0,0:0:0:0:
36,192,255823,1,0,0:0:0:0:
182,192,255917,1,0,0:0:0:0:
329,192,256010,1,0,0:0:0:0:
182,192,256104,1,0,0:0:0:0:
36,192,256198,1,0,0:0:0:0:
329,192,256198,1,0,0:0:0:0:
182,192,256292,1,0,0:0:0:0:
475,192,256292,1,0,0:0:0:0:
329,192,256385,1,0,0:0:0:0:
475,192,256479,1,0,0:0:0:0:
36,192,256479,1,0,0:0:0:0:
182,192,256573,1,0,0:0:0:0:
36,192,256620,1,0,0:0:0:0:
329,192,256667,1,0,0:0:0:0:
475,192,256713,1,0,0:0:0:0:
182,192,256760,1,0,0:0:0:0:
329,192,256807,1,0,0:0:0:0:
182,192,256854,1,0,0:0:0:0:
329,192,256901,1,0,0:0:0:0:
182,192,256948,1,0,0:0:0:0:
329,192,256995,1,0,0:0:0:0:
475,192,257042,1,0,0:0:0:0:
36,192,257042,1,0,0:0:0:0:
182,192,257042,1,0,0:0:0:0:
182,192,257229,1,0,0:0:0:0:
36,192,257229,1,0,0:0:0:0:
475,192,257229,1,0,0:0:0:0:
475,192,257417,1,0,0:0:0:0:
329,192,257510,1,0,0:0:0:0:
475,192,257604,1,0,0:0:0:0:
182,192,257698,1,0,0:0:0:0:
329,192,257792,1,0,0:0:0:0:
182,192,257885,1,0,0:0:0:0:
329,192,257979,1,0,0:0:0:0:
36,192,258073,1,0,0:0:0:0:
182,192,258167,1,0,0:0:0:0:
36,192,258260,1,0,0:0:0:0:
475,192,258354,1,0,0:0:0:0:
329,192,258448,1,0,0:0:0:0:
182,192,258542,1,0,0:0:0:0:
36,192,258542,1,0,0:0:0:0:
182,192,258635,1,0,0:0:0:0:
36,192,258635,1,0,0:0:0:0:
329,192,258729,1,0,0:0:0:0:
475,192,258729,1,0,0:0:0:0:
329,192,258823,1,0,0:0:0:0:
182,192,258823,1,0,0:0:0:0:
36,192,258823,1,0,0:0:0:0:
36,192,258917,1,0,0:0:0:0:
475,192,258917,1,0,0:0:0:0:
329,192,259010,1,0,0:0:0:0:
182,192,259010,1,0,0:0:0:0:
182,192,259104,1,0,0:0:0:0:
36,192,259104,1,0,0:0:0:0:
329,192,259104,1,0,0:0:0:0:
36,192,259198,1,0,0:0:0:0:
475,192,259198,1,0,0:0:0:0:
329,192,259292,1,0,0:0:0:0:
182,192,259292,1,0,0:0:0:0:
329,192,259385,1,0,0:0:0:0:
182,192,259385,1,0,0:0:0:0:
475,192,259385,1,0,0:0:0:0:
36,192,259479,1,0,0:0:0:0:
475,192,259573,1,0,0:0:0:0:
329,192,259573,1,0,0:0:0:0:
182,192,259573,1,0,0:0:0:0:
329,192,259667,1,0,0:0:0:0:
182,192,259667,1,0,0:0:0:0:
36,192,259667,1,0,0:0:0:0:
182,192,259854,1,0,0:0:0:0:
329,192,259854,1,0,0:0:0:0:
475,192,260042,1,0,0:0:0:0:
329,192,260042,1,0,0:0:0:0:
36,192,260042,1,0,0:0:0:0:
182,192,260042,1,0,0:0:0:0:
329,192,260135,1,0,0:0:0:0:
182,192,260135,1,0,0:0:0:0:
475,192,260229,1,0,0:0:0:0:
36,192,260229,1,0,0:0:0:0:
329,192,260323,1,0,0:0:0:0:
182,192,260323,1,0,0:0:0:0:
475,192,260417,1,0,0:0:0:0:
329,192,260417,1,0,0:0:0:0:
36,192,260417,1,0,0:0:0:0:
475,192,260510,1,0,0:0:0:0:
329,192,260510,1,0,0:0:0:0:
182,192,260604,1,0,0:0:0:0:
36,192,260604,1,0,0:0:0:0:
475,192,260604,1,0,0:0:0:0:
36,192,260698,1,0,0:0:0:0:
182,192,260698,1,0,0:0:0:0:
329,192,260792,1,0,0:0:0:0:
475,192,260792,1,0,0:0:0:0:
36,192,260792,1,0,0:0:0:0:
329,192,260885,1,0,0:0:0:0:
182,192,260885,1,0,0:0:0:0:
475,192,260979,1,0,0:0:0:0:
36,192,260979,1,0,0:0:0:0:
182,192,261073,1,0,0:0:0:0:
329,192,261073,1,0,0:0:0:0:
182,192,261167,1,0,0:0:0:0:
329,192,261167,1,0,0:0:0:0:
475,192,261167,1,0,0:0:0:0:
36,192,261167,1,0,0:0:0:0:
329,192,261354,1,0,0:0:0:0:
182,192,261354,1,0,0:0:0:0:
36,192,261354,1,0,0:0:0:0:
475,192,261354,1,0,0:0:0:0:
475,192,261542,1,0,0:0:0:0:
36,192,261542,1,0,0:0:0:0:
182,192,261542,1,0,0:0:0:0:
329,192,261542,1,0,0:0:0:0:
329,192,261635,1,0,0:0:0:0:
182,192,261635,1,0,0:0:0:0:
36,192,261729,1,0,0:0:0:0:
475,192,261729,1,0,0:0:0:0:
329,192,261823,1,0,0:0:0:0:
182,192,261823,1,0,0:0:0:0:
36,192,261917,1,0,0:0:0:0:
475,192,261917,1,0,0:0:0:0:
182,192,261917,1,0,0:0:0:0:
36,192,262010,1,0,0:0:0:0:
182,192,262010,1,0,0:0:0:0:
475,192,262104,1,0,0:0:0:0:
329,192,262104,1,0,0:0:0:0:
36,192,262104,1,0,0:0:0:0:
329,192,262198,1,0,0:0:0:0:
475,192,262198,1,0,0:0:0:0:
475,192,262292,1,0,0:0:0:0:
36,192,262292,1,0,0:0:0:0:
182,192,262292,1,0,0:0:0:0:
182,192,262385,1,0,0:0:0:0:
329,192,262385,1,0,0:0:0:0:
36,192,262479,1,0,0:0:0:0:
475,192,262479,1,0,0:0:0:0:
329,192,262573,1,0,0:0:0:0:
182,192,262573,1,0,0:0:0:0:
36,192,262667,128,0,262854:0:0:0:0:
182,192,262667,128,0,263042:0:0:0:0:
329,192,262667,128,0,263042:0:0:0:0:
475,192,262854,128,0,263042:0:0:0:0:
36,192,263042,1,0,0:0:0:0:
182,192,263088,1,0,0:0:0:0:
329,192,263135,1,0,0:0:0:0:
182,192,263182,1,0,0:0:0:0:
36,192,263229,1,0,0:0:0:0:
475,192,263229,1,0,0:0:0:0:
329,192,263276,1,0,0:0:0:0:
182,192,263323,1,0,0:0:0:0:
475,192,263370,1,0,0:0:0:0:
36,192,263417,1,0,0:0:0:0:
329,192,263417,1,0,0:0:0:0:
182,192,263463,1,0,0:0:0:0:
36,192,263510,1,0,0:0:0:0:
329,192,263557,1,0,0:0:0:0:
182,192,263604,1,0,0:0:0:0:
475,192,263604,1,0,0:0:0:0:
329,192,263651,1,0,0:0:0:0:
182,192,263698,1,0,0:0:0:0:
36,192,263745,1,0,0:0:0:0:
475,192,263792,1,0,0:0:0:0:
36,192,263838,1,0,0:0:0:0:
329,192,263885,1,0,0:0:0:0:
182,192,263932,1,0,0:0:0:0:
475,192,263979,1,0,0:0:0:0:
36,192,264026,1,0,0:0:0:0:
329,192,264073,1,0,0:0:0:0:
475,192,264096,1,0,0:0:0:0:
182,192,264120,1,0,0:0:0:0:
36,192,264143,1,0,0:0:0:0:
329,192,264167,1,0,0:0:0:0:
475,192,264190,1,0,0:0:0:0:
182,192,264213,1,0,0:0:0:0:
36,192,264237,1,0,0:0:0:0:
329,192,264260,1,0,0:0:0:0:
448,192,264284,1,0,0:0:0:0:
182,192,264307,1,0,0:0:0:0:
64,192,264331,1,0,0:0:0:0:
329,192,264354,1,0,0:0:0:0:
475,192,264354,1,0,0:0:0:0:
182,192,264401,1,0,0:0:0:0:
36,192,264401,1,0,0:0:0:0:
475,192,264448,1,0,0:0:0:0:
329,192,264448,1,0,0:0:0:0:
36,192,264495,1,0,0:0:0:0:
182,192,264495,1,0,0:0:0:0:
475,192,264542,1,0,0:0:0:0:
329,192,264542,1,0,0:0:0:0:
36,192,264588,1,0,0:0:0:0:
182,192,264635,1,0,0:0:0:0:
329,192,264682,1,0,0:0:0:0:
475,192,264729,1,0,0:0:0:0:
36,192,264776,1,0,0:0:0:0:
329,192,264917,1,0,0:0:0:0:
182,192,264963,1,0,0:0:0:0:
329,192,265010,1,0,0:0:0:0:
182,192,265057,1,0,0:0:0:0:
475,192,265104,1,0,0:0:0:0:
36,192,265151,1,0,0:0:0:0:
475,192,265198,1,0,0:0:0:0:
36,192,265245,1,0,0:0:0:0:
329,192,265292,1,0,0:0:0:0:
475,192,265292,1,0,0:0:0:0:
182,192,265385,1,0,0:0:0:0:
36,192,265385,1,0,0:0:0:0:
329,192,265479,1,0,0:0:0:0:
475,192,265479,1,0,0:0:0:0:
182,192,265573,1,0,0:0:0:0:
36,192,265573,1,0,0:0:0:0:
329,192,265667,1,0,0:0:0:0:
475,192,265667,1,0,0:0:0:0:
329,192,265854,1,0,0:0:0:0:
182,192,265854,1,0,0:0:0:0:
475,192,266042,1,0,0:0:0:0:
36,192,266042,1,0,0:0:0:0:
182,192,266042,1,0,0:0:0:0:
329,192,266042,1,0,0:0:0:0:
329,192,266135,1,0,0:0:0:0:
475,192,266135,1,0,0:0:0:0:
182,192,266229,1,0,0:0:0:0:
36,192,266229,1,0,0:0:0:0:
329,192,266323,1,0,0:0:0:0:
475,192,266323,1,0,0:0:0:0:
182,192,266417,1,0,0:0:0:0:
36,192,266417,1,0,0:0:0:0:
475,192,266417,1,0,0:0:0:0:
329,192,266417,1,0,0:0:0:0:
36,192,266510,1,0,0:0:0:0:
182,192,266510,1,0,0:0:0:0:
475,192,266604,1,0,0:0:0:0:
329,192,266604,1,0,0:0:0:0:
182,192,266698,1,0,0:0:0:0:
36,192,266698,1,0,0:0:0:0:
475,192,266792,1,0,0:0:0:0:
329,192,266792,1,0,0:0:0:0:
36,192,266792,1,0,0:0:0:0:
182,192,266792,1,0,0:0:0:0:
475,192,266885,1,0,0:0:0:0:
329,192,266885,1,0,0:0:0:0:
36,192,266979,1,0,0:0:0:0:
182,192,266979,1,0,0:0:0:0:
475,192,267073,1,0,0:0:0:0:
329,192,267073,1,0,0:0:0:0:
475,192,267167,1,0,0:0:0:0:
329,192,267167,1,0,0:0:0:0:
182,192,267167,1,0,0:0:0:0:
36,192,267167,1,0,0:0:0:0:
36,192,267260,1,0,0:0:0:0:
182,192,267260,1,0,0:0:0:0:
475,192,267354,1,0,0:0:0:0:
329,192,267354,1,0,0:0:0:0:
36,192,267448,1,0,0:0:0:0:
182,192,267448,1,0,0:0:0:0:
182,192,267542,1,0,0:0:0:0:
36,192,267542,1,0,0:0:0:0:
475,192,267542,1,0,0:0:0:0:
329,192,267542,1,0,0:0:0:0:
329,192,267635,1,0,0:0:0:0:
475,192,267729,1,0,0:0:0:0:
36,192,267729,1,0,0:0:0:0:
182,192,267729,1,0,0:0:0:0:
475,192,267823,1,0,0:0:0:0:
36,192,267823,1,0,0:0:0:0:
329,192,267823,1,0,0:0:0:0:
475,192,267917,1,0,0:0:0:0:
36,192,267917,1,0,0:0:0:0:
329,192,267917,1,0,0:0:0:0:
182,192,267917,1,0,0:0:0:0:
329,192,268010,1,0,0:0:0:0:
182,192,268010,1,0,0:0:0:0:
36,192,268104,1,0,0:0:0:0:
475,192,268104,1,0,0:0:0:0:
475,192,268198,1,0,0:0:0:0:
329,192,268198,1,0,0:0:0:0:
329,192,268292,1,0,0:0:0:0:
182,192,268292,1,0,0:0:0:0:
36,192,268292,1,0,0:0:0:0:
475,192,268292,1,0,0:0:0:0:
182,192,268385,1,0,0:0:0:0:
329,192,268479,1,0,0:0:0:0:
329,192,268573,1,0,0:0:0:0:
182,192,268573,1,0,0:0:0:0:
36,192,268573,1,0,0:0:0:0:
475,192,268573,1,0,0:0:0:0:
182,192,268667,1,0,0:0:0:0:
329,192,268760,1,0,0:0:0:0:
329,192,268854,1,0,0:0:0:0:
182,192,268854,1,0,0:0:0:0:
36,192,268854,1,0,0:0:0:0:
475,192,268854,1,0,0:0:0:0:
182,192,268948,1,0,0:0:0:0:
475,192,269042,1,0,0:0:0:0:
329,192,269042,1,0,0:0:0:0:
182,192,269042,1,0,0:0:0:0:
36,192,269042,1,0,0:0:0:0:
329,192,269229,128,0,269417:0:0:0:0:
182,192,269417,1,0,0:0:0:0:
36,192,269417,1,0,0:0:0:0:
475,192,269417,1,0,0:0:0:0:
182,192,269604,128,0,269651:0:0:0:0:
182,192,269698,1,0,0:0:0:0:
475,192,269792,1,0,0:0:0:0:
329,192,269792,1,0,0:0:0:0:
36,192,269792,1,0,0:0:0:0:
182,192,269979,128,0,270167:0:0:0:0:
36,192,270167,1,0,0:0:0:0:
475,192,270167,1,0,0:0:0:0:
329,192,270167,1,0,0:0:0:0:
475,192,270354,1,0,0:0:0:0:
329,192,270401,1,0,0:0:0:0:
36,192,270448,1,0,0:0:0:0:
182,192,270495,1,0,0:0:0:0:
475,192,270542,1,0,0:0:0:0:
329,192,270542,1,0,0:0:0:0:
36,192,270542,1,0,0:0:0:0:
182,192,270635,1,0,0:0:0:0:
329,192,270729,1,0,0:0:0:0:
182,192,270823,1,0,0:0:0:0:
475,192,270917,1,0,0:0:0:0:
36,192,270917,1,0,0:0:0:0:
329,192,270917,1,0,0:0:0:0:
182,192,271010,1,0,0:0:0:0:
329,192,271104,1,0,0:0:0:0:
475,192,271198,1,0,0:0:0:0:
36,192,271292,1,0,0:0:0:0:
182,192,271385,1,0,0:0:0:0:
329,192,271479,1,0,0:0:0:0:
182,192,271573,1,0,0:0:0:0:
475,192,271667,1,0,0:0:0:0:
36,192,271667,1,0,0:0:0:0:
329,192,271760,1,0,0:0:0:0:
182,192,271854,1,0,0:0:0:0:
475,192,271854,1,0,0:0:0:0:
329,192,271948,1,0,0:0:0:0:
36,192,271948,1,0,0:0:0:0:
36,192,272042,1,0,0:0:0:0:
475,192,272042,1,0,0:0:0:0:
182,192,272042,1,0,0:0:0:0:
36,192,272167,1,0,0:0:0:0:
182,192,272167,1,0,0:0:0:0:
36,192,272292,1,0,0:0:0:0:
182,192,272292,1,0,0:0:0:0:
475,192,272417,1,0,0:0:0:0:
36,192,272417,1,0,0:0:0:0:
329,192,272417,1,0,0:0:0:0:
182,192,272417,1,0,0:0:0:0:
475,192,272542,1,0,0:0:0:0:
182,192,272542,1,0,0:0:0:0:
329,192,272667,1,0,0:0:0:0:
182,192,272667,1,0,0:0:0:0:
36,192,272792,1,0,0:0:0:0:
475,192,272792,1,0,0:0:0:0:
329,192,272792,1,0,0:0:0:0:
182,192,272792,1,0,0:0:0:0:
182,192,272917,1,0,0:0:0:0:
329,192,272917,1,0,0:0:0:0:
475,192,272917,1,0,0:0:0:0:
329,192,273042,1,0,0:0:0:0:
475,192,273042,1,0,0:0:0:0:
36,192,273042,1,0,0:0:0:0:
182,192,273167,1,0,0:0:0:0:
329,192,273167,1,0,0:0:0:0:
475,192,273167,1,0,0:0:0:0:
36,192,273167,1,0,0:0:0:0:
182,192,273292,1,0,0:0:0:0:
475,192,273292,1,0,0:0:0:0:
329,192,273292,1,0,0:0:0:0:
329,192,273417,1,0,0:0:0:0:
36,192,273417,1,0,0:0:0:0:
182,192,273417,1,0,0:0:0:0:
475,192,273542,1,0,0:0:0:0:
182,192,273542,1,0,0:0:0:0:
36,192,273542,1,0,0:0:0:0:
329,192,273542,1,0,0:0:0:0:
329,192,273667,1,0,0:0:0:0:
182,192,273667,1,0,0:0:0:0:
36,192,273667,1,0,0:0:0:0:
182,192,273792,1,0,0:0:0:0:
329,192,273792,1,0,0:0:0:0:
475,192,273792,1,0,0:0:0:0:
475,192,273917,1,0,0:0:0:0:
329,192,273917,1,0,0:0:0:0:
36,192,273917,1,0,0:0:0:0:
182,192,273917,1,0,0:0:0:0:
329,192,274042,1,0,0:0:0:0:
475,192,274042,1,0,0:0:0:0:
329,192,274167,1,0,0:0:0:0:
182,192,274167,1,0,0:0:0:0:
182,192,274292,1,0,0:0:0:0:
36,192,274292,1,0,0:0:0:0:
475,192,274292,1,0,0:0:0:0:
329,192,274292,1,0,0:0:0:0:
475,192,274479,1,0,0:0:0:0:
36,192,274479,1,0,0:0:0:0:
329,192,274479,1,0,0:0:0:0:
182,192,274573,1,0,0:0:0:0:
329,192,274667,1,0,0:0:0:0:
329,192,274760,1,0,0:0:0:0:
36,192,274854,1,0,0:0:0:0:
36,192,274948,1,0,0:0:0:0:
475,192,275042,1,0,0:0:0:0:
329,192,275042,1,0,0:0:0:0:
182,192,275042,1,0,0:0:0:0:
329,192,275135,1,0,0:0:0:0:
475,192,275229,1,0,0:0:0:0:
329,192,275229,1,0,0:0:0:0:
182,192,275229,1,0,0:0:0:0:
36,192,275229,1,0,0:0:0:0:
182,192,275323,1,0,0:0:0:0:
36,192,275323,1,0,0:0:0:0:
475,192,275323,1,0,0:0:0:0:
329,192,275417,1,0,0:0:0:0:
329,192,275510,1,0,0:0:0:0:
36,192,275510,1,0,0:0:0:0:
475,192,275510,1,0,0:0:0:0:
182,192,275510,1,0,0:0:0:0:
329,192,275604,1,0,0:0:0:0:
475,192,275604,1,0,0:0:0:0:
36,192,275604,1,0,0:0:0:0:
182,192,275698,1,0,0:0:0:0:
182,192,275792,1,0,0:0:0:0:
36,192,275792,1,0,0:0:0:0:
475,192,275792,1,0,0:0:0:0:
329,192,275792,1,0,0:0:0:0:
182,192,275885,1,0,0:0:0:0:
36,192,275885,1,0,0:0:0:0:
329,192,275885,1,0,0:0:0:0:
475,192,275979,1,0,0:0:0:0:
329,192,276073,1,0,0:0:0:0:
475,192,276073,1,0,0:0:0:0:
182,192,276073,1,0,0:0:0:0:
36,192,276073,1,0,0:0:0:0:
329,192,276167,1,0,0:0:0:0:
475,192,276167,1,0,0:0:0:0:
182,192,276167,1,0,0:0:0:0:
36,192,276260,1,0,0:0:0:0:
182,192,276354,1,0,0:0:0:0:
36,192,276354,1,0,0:0:0:0:
329,192,276354,1,0,0:0:0:0:
475,192,276354,1,0,0:0:0:0:
182,192,276448,1,0,0:0:0:0:
36,192,276448,1,0,0:0:0:0:
475,192,276542,1,0,0:0:0:0:
329,192,276542,1,0,0:0:0:0:
182,192,276635,1,0,0:0:0:0:
36,192,276635,1,0,0:0:0:0:
475,192,276729,1,0,0:0:0:0:
329,192,276729,1,0,0:0:0:0:
182,192,276823,1,0,0:0:0:0:
36,192,276823,1,0,0:0:0:0:
329,192,276917,1,0,0:0:0:0:
475,192,276917,1,0,0:0:0:0:
182,192,277010,1,0,0:0:0:0:
36,192,277010,1,0,0:0:0:0:
329,192,277104,1,0,0:0:0:0:
475,192,277104,1,0,0:0:0:0:
182,192,277198,1,0,0:0:0:0:
36,192,277198,1,0,0:0:0:0:
329,192,277292,1,0,0:0:0:0:
475,192,277338,1,0,0:0:0:0:
36,192,277385,1,0,0:0:0:0:
182,192,277432,1,0,0:0:0:0:
329,192,277479,1,0,0:0:0:0:
475,192,277479,1,0,0:0:0:0:
182,192,277573,1,0,0:0:0:0:
36,192,277573,1,0,0:0:0:0:
329,192,277667,1,0,0:0:0:0:
475,192,277713,1,0,0:0:0:0:
182,192,277760,1,0,0:0:0:0:
36,192,277807,1,0,0:0:0:0:
329,192,277854,1,0,0:0:0:0:
182,192,277901,1,0,0:0:0:0:
475,192,277948,1,0,0:0:0:0:
36,192,277995,1,0,0:0:0:0:
329,192,278042,1,0,0:0:0:0:
182,192,278042,1,0,0:0:0:0:
329,192,278229,1,0,0:0:0:0:
182,192,278229,1,0,0:0:0:0:
475,192,278417,1,0,0:0:0:0:
36,192,278417,1,0,0:0:0:0:
475,192,278581,1,0,0:0:0:0:
36,192,278581,1,0,0:0:0:0:
36,192,278709,1,0,0:0:0:0:
475,192,278709,1,0,0:0:0:0:
329,192,278827,1,0,0:0:0:0:
182,192,278827,1,0,0:0:0:0:
475,192,278920,1,0,0:0:0:0:
36,192,278920,1,0,0:0:0:0:
329,192,279002,1,0,0:0:0:0:
182,192,279002,1,0,0:0:0:0:
475,192,279084,1,0,0:0:0:0:
36,192,279084,1,0,0:0:0:0:
329,192,279155,1,0,0:0:0:0:
182,192,279155,1,0,0:0:0:0:
475,192,279225,1,0,0:0:0:0:
36,192,279225,1,0,0:0:0:0:
329,192,279284,1,0,0:0:0:0:
182,192,279284,1,0,0:0:0:0:
475,192,279342,1,0,0:0:0:0:
36,192,279342,1,0,0:0:0:0:
182,192,279366,1,0,0:0:0:0:
329,192,279413,1,0,0:0:0:0:
36,192,279448,1,0,0:0:0:0:
475,192,279459,1,0,0:0:0:0:
182,192,279479,1,0,0:0:0:0:
329,192,279510,1,0,0:0:0:0:
475,192,279542,1,0,0:0:0:0:
36,192,279542,1,0,0:0:0:0:
182,192,279542,1,0,0:0:0:0:
36,192,279729,1,0,0:0:0:0:
182,192,279729,1,0,0:0:0:0:
329,192,279729,1,0,0:0:0:0:
329,192,279917,1,0,0:0:0:0:
475,192,279917,1,0,0:0:0:0:
36,192,280104,1,0,0:0:0:0:
182,192,280151,1,0,0:0:0:0:
36,192,280198,1,0,0:0:0:0:
182,192,280245,1,0,0:0:0:0:
329,192,280292,1,0,0:0:0:0:
475,192,280292,1,0,0:0:0:0:
329,192,280385,1,0,0:0:0:0:
475,192,280385,1,0,0:0:0:0:
36,192,280479,1,0,0:0:0:0:
182,192,280479,1,0,0:0:0:0:
475,192,280573,1,0,0:0:0:0:
329,192,280573,1,0,0:0:0:0:
182,192,280854,128,0,281042:0:0:0:0:
475,192,281042,1,0,0:0:0:0:
329,192,281042,1,0,0:0:0:0:
36,192,281042,1,0,0:0:0:0:
475,192,281135,1,0,0:0:0:0:
329,192,281135,1,0,0:0:0:0:
182,192,281229,1,0,0:0:0:0:
36,192,281229,1,0,0:0:0:0:
182,192,281323,1,0,0:0:0:0:
329,192,281323,1,0,0:0:0:0:
475,192,281323,1,0,0:0:0:0:
475,192,281417,1,0,0:0:0:0:
36,192,281417,1,0,0:0:0:0:
329,192,281417,1,0,0:0:0:0:
182,192,281417,1,0,0:0:0:0:
182,192,281510,1,0,0:0:0:0:
36,192,281510,1,0,0:0:0:0:
475,192,281604,1,0,0:0:0:0:
329,192,281604,1,0,0:0:0:0:
329,192,281698,1,0,0:0:0:0:
182,192,281698,1,0,0:0:0:0:
36,192,281698,1,0,0:0:0:0:
475,192,281792,1,0,0:0:0:0:
182,192,281792,1,0,0:0:0:0:
36,192,281792,1,0,0:0:0:0:
329,192,281792,1,0,0:0:0:0:
475,192,281885,1,0,0:0:0:0:
329,192,281885,1,0,0:0:0:0:
182,192,281979,1,0,0:0:0:0:
36,192,281979,1,0,0:0:0:0:
475,192,282073,1,0,0:0:0:0:
329,192,282073,1,0,0:0:0:0:
36,192,282073,1,0,0:0:0:0:
475,192,282167,1,0,0:0:0:0:
329,192,282167,1,0,0:0:0:0:
182,192,282167,1,0,0:0:0:0:
36,192,282167,1,0,0:0:0:0:
182,192,282260,1,0,0:0:0:0:
36,192,282260,1,0,0:0:0:0:
329,192,282354,1,0,0:0:0:0:
475,192,282354,1,0,0:0:0:0:
36,192,282448,1,0,0:0:0:0:
182,192,282448,1,0,0:0:0:0:
475,192,282448,1,0,0:0:0:0:
182,192,282542,1,0,0:0:0:0:
36,192,282542,1,0,0:0:0:0:
329,192,282542,1,0,0:0:0:0:
475,192,282542,1,0,0:0:0:0:
329,192,282635,1,0,0:0:0:0:
475,192,282635,1,0,0:0:0:0:
36,192,282729,1,0,0:0:0:0:
182,192,282729,1,0,0:0:0:0:
475,192,282776,1,0,0:0:0:0:
329,192,282823,1,0,0:0:0:0:
36,192,282870,1,0,0:0:0:0:
475,192,282917,1,0,0:0:0:0:
182,192,282917,1,0,0:0:0:0:
329,192,282963,1,0,0:0:0:0:
182,192,283010,1,0,0:0:0:0:
36,192,283057,1,0,0:0:0:0:
475,192,283104,1,0,0:0:0:0:
329,192,283104,1,0,0:0:0:0:
182,192,283151,1,0,0:0:0:0:
36,192,283198,1,0,0:0:0:0:
329,192,283198,1,0,0:0:0:0:
182,192,283245,1,0,0:0:0:0:
475,192,283292,1,0,0:0:0:0:
36,192,283292,1,0,0:0:0:0:
329,192,283385,1,0,0:0:0:0:
182,192,283385,1,0,0:0:0:0:
36,192,283479,1,0,0:0:0:0:
475,192,283479,1,0,0:0:0:0:
182,192,283573,1,0,0:0:0:0:
36,192,283667,1,0,0:0:0:0:
475,192,283667,1,0,0:0:0:0:
329,192,283667,128,0,284042:0:0:0:0:
36,192,284042,1,0,0:0:0:0:
475,192,284042,1,0,0:0:0:0:
182,192,284042,1,0,0:0:0:0:
329,192,284292,1,0,0:0:0:0:
182,192,284292,1,0,0:0:0:0:
36,192,284292,1,0,0:0:0:0:
475,192,284417,1,0,0:0:0:0:
182,192,284542,1,0,0:0:0:0:
36,192,284542,1,0,0:0:0:0:
329,192,284542,1,0,0:0:0:0:
475,192,284542,1,0,0:0:0:0:
475,192,284792,1,0,0:0:0:0:
329,192,284792,1,0,0:0:0:0:
475,192,284917,128,0,285167:0:0:0:0:
329,192,285042,1,0,0:0:0:0:
182,192,285042,1,0,0:0:0:0:
36,192,285042,1,0,0:0:0:0:
36,192,285167,1,0,0:0:0:0:
182,192,285292,1,0,0:0:0:0:
329,192,285542,1,0,0:0:0:0:
182,192,285542,1,0,0:0:0:0:
36,192,285542,1,0,0:0:0:0:
475,192,285792,1,0,0:0:0:0:
329,192,285792,1,0,0:0:0:0:
182,192,285917,1,0,0:0:0:0:
329,192,286042,1,0,0:0:0:0:
182,192,286042,1,0,0:0:0:0:
36,192,286042,1,0,0:0:0:0:
475,192,286042,1,0,0:0:0:0:
182,192,286292,1,0,0:0:0:0:
329,192,286292,1,0,0:0:0:0:
36,192,286542,1,0,0:0:0:0:
329,192,286542,128,0,286667:0:0:0:0:
475,192,286667,128,0,286854:0:0:0:0:
329,192,286760,128,0,286948:0:0:0:0:
36,192,286854,128,0,286901:0:0:0:0:
182,192,286854,128,0,287042:0:0:0:0:
329,192,287042,1,0,0:0:0:0:
36,192,287042,1,0,0:0:0:0:
475,192,287042,1,0,0:0:0:0:
36,192,287229,1,0,0:0:0:0:
182,192,287229,1,0,0:0:0:0:
329,192,287276,1,0,0:0:0:0:
475,192,287276,1,0,0:0:0:0:
36,192,287323,1,0,0:0:0:0:
182,192,287323,1,0,0:0:0:0:
329,192,287370,1,0,0:0:0:0:
36,192,287417,1,0,0:0:0:0:
182,192,287417,1,0,0:0:0:0:
475,192,287417,1,0,0:0:0:0:
475,192,287604,1,0,0:0:0:0:
329,192,287604,1,0,0:0:0:0:
182,192,287651,1,0,0:0:0:0:
36,192,287651,1,0,0:0:0:0:
329,192,287698,1,0,0:0:0:0:
475,192,287698,1,0,0:0:0:0:
182,192,287745,1,0,0:0:0:0:
36,192,287792,1,0,0:0:0:0:
475,192,287792,1,0,0:0:0:0:
329,192,287792,1,0,0:0:0:0:
475,192,287979,1,0,0:0:0:0:
36,192,287979,1,0,0:0:0:0:
329,192,287979,1,0,0:0:0:0:
182,192,287979,1,0,0:0:0:0:
182,192,288073,1,0,0:0:0:0:
36,192,288073,1,0,0:0:0:0:
475,192,288073,1,0,0:0:0:0:
329,192,288260,1,0,0:0:0:0:
475,192,288260,1,0,0:0:0:0:
182,192,288260,1,0,0:0:0:0:
36,192,288260,1,0,0:0:0:0:
475,192,288354,1,0,0:0:0:0:
36,192,288354,1,0,0:0:0:0:
182,192,288448,1,0,0:0:0:0:
329,192,288448,1,0,0:0:0:0:
475,192,288542,1,0,0:0:0:0:
329,192,288542,1,0,0:0:0:0:
182,192,288542,1,0,0:0:0:0:
36,192,288542,1,0,0:0:0:0:
36,192,288635,1,0,0:0:0:0:
329,192,288729,1,0,0:0:0:0:
475,192,288729,1,0,0:0:0:0:
182,192,288823,1,0,0:0:0:0:
36,192,288823,1,0,0:0:0:0:
475,192,288917,1,0,0:0:0:0:
329,192,288917,1,0,0:0:0:0:
182,192,289010,1,0,0:0:0:0:
329,192,289104,1,0,0:0:0:0:
475,192,289104,1,0,0:0:0:0:
36,192,289104,1,0,0:0:0:0:
182,192,289198,1,0,0:0:0:0:
329,192,289292,1,0,0:0:0:0:
36,192,289292,1,0,0:0:0:0:
475,192,289385,1,0,0:0:0:0:
36,192,289385,1,0,0:0:0:0:
329,192,289385,1,0,0:0:0:0:
182,192,289479,1,0,0:0:0:0:
36,192,289479,128,0,289573:0:0:0:0:
475,192,289479,1,0,0:0:0:0:
329,192,289573,1,0,0:0:0:0:
182,192,289667,1,0,0:0:0:0:
329,192,289667,1,0,0:0:0:0:
475,192,289667,128,0,289854:0:0:0:0:
36,192,289667,128,0,289854:0:0:0:0:
329,192,289760,128,0,289995:0:0:0:0:
182,192,289854,128,0,289995:0:0:0:0:
475,192,290042,1,0,0:0:0:0:
329,192,290042,1,0,0:0:0:0:
36,192,290042,1,0,0:0:0:0:
182,192,290042,1,0,0:0:0:0:
