osu file format v14

[General]
AudioFilename: audio.mp3
AudioLeadIn: 0
PreviewTime: 216542
Countdown: 0
SampleSet: None
StackLeniency: 0.7
Mode: 3
LetterboxInBreaks: 0
SpecialStyle: 0
WidescreenStoryboard: 1

[Editor]
Bookmarks: 110042,146042,290042
DistanceSpacing: 1.1
BeatDivisor: 6
GridSize: 4
TimelineZoom: 1.4

[Metadata]
Title:Hypnotize
TitleUnicode:Hypnotize
Artist:Camellia VS. lapix
ArtistUnicode:Camellia VS. lapix
Creator:Evening
Version:return eyes::unstable_cast(*this, 4_K);
Source:
Tags:
BeatmapID:2477459
BeatmapSetID:1188934

[Difficulty]
HPDrainRate:8
CircleSize:4
OverallDifficulty:7.5
ApproachRate:5
SliderMultiplier:1.4
SliderTickRate:1

[Events]
//Background and Video events
0,0,"94920.jpg",0,0
//Break Periods
//Storyboard Layer 0 (Background)
//Storyboard Layer 1 (Fail)
//Storyboard Layer 2 (Pass)
//Storyboard Layer 3 (Foreground)
//Storyboard Layer 4 (Overlay)
//Storyboard Sound Samples

[TimingPoints]
542,375,4,1,0,20,1,0
1104,-188.679,4,2,0,5,0,0
1113.38,-190.804,4,2,0,5,0,0
1122.76,-192.971,4,2,0,5,0,0
1132.14,-195.173,4,2,0,5,0,0
1141.52,-197.404,4,2,0,5,0,0
1150.9,-199.657,4,2,0,5,0,0
1160.28,-201.925,4,2,0,5,0,0
1169.66,-204.198,4,2,0,5,0,0
1179.04,-206.467,4,2,0,5,0,0
1188.42,-208.723,4,2,0,5,0,0
1197.8,-210.956,4,2,0,5,0,0
1207.18,-213.153,4,2,0,5,0,0
1216.56,-215.303,4,2,0,5,0,0
1225.94,-217.393,4,2,0,5,0,0
1235.32,-219.411,4,2,0,5,0,0
1244.7,-221.343,4,2,0,5,0,0
1254.08,-223.174,4,2,0,5,0,0
1263.46,-224.891,4,2,0,5,0,0
1272.84,-226.48,4,2,0,5,0,0
1282.22,-227.926,4,2,0,5,0,0
1291.6,-229.215,4,2,0,5,0,0
1300.98,-230.334,4,2,0,5,0,0
1310.36,-231.268,4,2,0,5,0,0
1319.74,-232.006,4,2,0,5,0,0
1329.12,-232.537,4,2,0,5,0,0
1338.5,-232.849,4,2,0,5,0,0
1347.88,-232.934,4,2,0,5,0,0
1357.26,-232.784,4,2,0,5,0,0
1366.64,-232.393,4,2,0,5,0,0
1376.02,-231.758,4,2,0,5,0,0
1385.4,-230.876,4,2,0,5,0,0
1394.78,-229.746,4,2,0,5,0,0
1404.16,-228.371,4,2,0,5,0,0
1413.54,-226.755,4,2,0,5,0,0
1422.92,-224.902,4,2,0,5,0,0
1432.3,-222.82,4,2,0,5,0,0
1441.68,-220.519,4,2,0,5,0,0
1451.06,-218.01,4,2,0,5,0,0
1460.44,-215.304,4,2,0,5,0,0
1469.82,-212.414,4,2,0,5,0,0
1479.2,-209.356,4,2,0,5,0,0
1488.58,-206.145,4,2,0,5,0,0
1497.96,-202.796,4,2,0,5,0,0
1507.34,-199.325,4,2,0,5,0,0
1516.72,-195.749,4,2,0,5,0,0
1526.1,-192.083,4,2,0,5,0,0
1535.48,-188.343,4,2,0,5,0,0
1544.86,-184.546,4,2,0,5,0,0
1554.24,-180.705,4,2,0,5,0,0
1563.62,-176.836,4,2,0,5,0,0
1573,-172.951,4,2,0,5,0,0
1582.38,-169.063,4,2,0,5,0,0
1591.76,-165.183,4,2,0,5,0,0
1601.14,-161.324,4,2,0,5,0,0
1610.52,-157.494,4,2,0,5,0,0
1619.9,-153.702,4,2,0,5,0,0
1629.28,-149.957,4,2,0,5,0,0
1638.66,-146.264,4,2,0,5,0,0
1648.04,-142.632,4,2,0,5,0,0
1657.42,-139.064,4,2,0,5,0,0
1666.8,-135.565,4,2,0,5,0,0
1676.18,-132.139,4,2,0,5,0,0
1685.56,-128.79,4,2,0,5,0,0
1694.94,-125.519,4,2,0,5,0,0
1704.32,-122.328,4,2,0,5,0,0
1713.7,-119.219,4,2,0,5,0,0
1723.08,-116.193,4,2,0,5,0,0
1732.46,-113.25,4,2,0,5,0,0
1741.84,-110.389,4,2,0,5,0,0
1751.22,-107.612,4,2,0,5,0,0
1760.6,-104.917,4,2,0,5,0,0
1769.98,-102.303,4,2,0,5,0,0
1779.36,-99.77,4,2,0,5,0,0
1788.74,-97.3157,4,2,0,5,0,0
1798.12,-94.9391,4,2,0,5,0,0
1807.5,-92.6386,4,2,0,5,0,0
1816.88,-90.4127,4,2,0,5,0,0
1826.26,-88.2595,4,2,0,5,0,0
1835.64,-86.1773,4,2,0,5,0,0
1845.02,-84.1643,4,2,0,5,0,0
1854.4,-82.2185,4,2,0,5,0,0
1863.78,-80.3382,4,2,0,5,0,0
1873.16,-78.5213,4,2,0,5,0,0
1882.54,-76.7661,4,2,0,5,0,0
1891.92,-75.0705,4,2,0,5,0,0
1901.3,-73.4328,4,2,0,5,0,0
1910.68,-71.8512,4,2,0,5,0,0
1920.06,-70.3237,4,2,0,5,0,0
1929.44,-68.8486,4,2,0,5,0,0
1938.82,-67.4242,4,2,0,5,0,0
1948.2,-66.0487,4,2,0,5,0,0
1957.58,-64.7206,4,2,0,5,0,0
1966.96,-63.4382,4,2,0,5,0,0
1976.34,-62.1998,4,2,0,5,0,0
1985.72,-61.0041,4,2,0,5,0,0
1995.1,-59.8495,4,2,0,5,0,0
2004.48,-58.7346,4,2,0,5,0,0
2013.86,-57.658,4,2,0,5,0,0
2023.24,-56.6183,4,2,0,5,0,0
2032.62,-55.6144,4,2,0,5,0,0
2042,375,4,1,0,20,1,0
2042,-10,4,2,0,5,0,0
2088,-125,4,2,0,5,0,0
12917,-125,4,2,0,5,0,0
12928.3,-125.323,4,2,0,5,0,0
12939.5,-125.646,4,2,0,5,0,0
12950.8,-125.968,4,2,0,5,0,0
12962,-126.289,4,2,0,5,0,0
12973.3,-126.607,4,2,0,5,0,0
12984.5,-126.92,4,2,0,5,0,0
12995.8,-127.228,4,2,0,5,0,0
13007,-127.53,4,2,0,5,0,0
13018.3,-127.823,4,2,0,5,0,0
13029.5,-128.107,4,2,0,5,0,0
13040.8,-128.381,4,2,0,5,0,0
13052,-128.642,4,2,0,5,0,0
13063.3,-128.891,4,2,0,5,0,0
13074.5,-129.126,4,2,0,5,0,0
13085.8,-129.344,4,2,0,5,0,0
13097,-129.546,4,2,0,5,0,0
13108.3,-129.73,4,2,0,5,0,0
13119.5,-129.894,4,2,0,5,0,0
13130.8,-130.038,4,2,0,5,0,0
13142,-130.161,4,2,0,5,0,0
13153.3,-130.26,4,2,0,5,0,0
13164.5,-130.335,4,2,0,5,0,0
13175.8,-130.386,4,2,0,5,0,0
13187,-130.41,4,2,0,5,0,0
13198.3,-130.408,4,2,0,5,0,0
13209.5,-130.378,4,2,0,5,0,0
13220.8,-130.319,4,2,0,5,0,0
13232,-130.231,4,2,0,5,0,0
13243.3,-130.112,4,2,0,5,0,0
13254.5,-129.963,4,2,0,5,0,0
13265.8,-129.783,4,2,0,5,0,0
13277,-129.572,4,2,0,5,0,0
13288.3,-129.328,4,2,0,5,0,0
13299.5,-129.052,4,2,0,5,0,0
13310.8,-128.744,4,2,0,5,0,0
13322,-128.403,4,2,0,5,0,0
13333.3,-128.029,4,2,0,5,0,0
13344.5,-127.624,4,2,0,5,0,0
13355.8,-127.186,4,2,0,5,0,0
13367,-126.716,4,2,0,5,0,0
13378.3,-126.214,4,2,0,5,0,0
13389.5,-125.682,4,2,0,5,0,0
13400.8,-125.118,4,2,0,5,0,0
13412,-124.525,4,2,0,5,0,0
13423.3,-123.903,4,2,0,5,0,0
13434.5,-123.252,4,2,0,5,0,0
13445.8,-122.573,4,2,0,5,0,0
13457,-121.868,4,2,0,5,0,0
13468.3,-121.136,4,2,0,5,0,0
13479.5,-120.38,4,2,0,5,0,0
13490.8,-119.601,4,2,0,5,0,0
13502,-118.798,4,2,0,5,0,0
13513.3,-117.975,4,2,0,5,0,0
13524.5,-117.131,4,2,0,5,0,0
13535.8,-116.268,4,2,0,5,0,0
13547,-115.387,4,2,0,5,0,0
13558.3,-114.489,4,2,0,5,0,0
13569.5,-113.577,4,2,0,5,0,0
13580.8,-112.65,4,2,0,5,0,0
13592,-111.711,4,2,0,5,0,0
13603.3,-110.76,4,2,0,5,0,0
13614.5,-109.799,4,2,0,5,0,0
13625.8,-108.829,4,2,0,5,0,0
13637,-107.852,4,2,0,5,0,0
13648.3,-106.868,4,2,0,5,0,0
13659.5,-105.878,4,2,0,5,0,0
13670.8,-104.885,4,2,0,5,0,0
13682,-103.888,4,2,0,5,0,0
13693.3,-102.89,4,2,0,5,0,0
13704.5,-101.89,4,2,0,5,0,0
13715.8,-100.891,4,2,0,5,0,0
13727,-99.8932,4,2,0,5,0,0
13738.3,-98.8974,4,2,0,5,0,0
13749.5,-97.9046,4,2,0,5,0,0
13760.8,-96.9157,4,2,0,5,0,0
13772,-95.9315,4,2,0,5,0,0
13783.3,-94.9528,4,2,0,5,0,0
13794.5,-93.9804,4,2,0,5,0,0
13805.8,-93.015,4,2,0,5,0,0
13817,-92.0571,4,2,0,5,0,0
13828.3,-91.1076,4,2,0,5,0,0
13839.5,-90.1668,4,2,0,5,0,0
13850.8,-89.2354,4,2,0,5,0,0
13862,-88.3139,4,2,0,5,0,0
13873.3,-87.4027,4,2,0,5,0,0
13884.5,-86.5022,4,2,0,5,0,0
13895.8,-85.6129,4,2,0,5,0,0
13907,-84.7351,4,2,0,5,0,0
13918.3,-83.8691,4,2,0,5,0,0
13929.5,-83.0153,4,2,0,5,0,0
13940.8,-82.1738,4,2,0,5,0,0
13952,-81.345,4,2,0,5,0,0
13963.3,-80.529,4,2,0,5,0,0
13974.5,-79.726,4,2,0,5,0,0
13985.8,-78.9361,4,2,0,5,0,0
13997,-78.1595,4,2,0,5,0,0
14008.3,-77.3964,4,2,0,5,0,0
14019.5,-76.6467,4,2,0,5,0,0
14030.8,-75.9105,4,2,0,5,0,0
14042,-10,4,2,0,5,0,0
14088,-111.111111111111,4,2,0,5,0,0
14417,-111.111,4,2,0,5,0,0
14516.4,-110.668,4,2,0,5,0,0
14615.7,-110.229,4,2,0,5,0,0
14715.1,-109.794,4,2,0,5,0,0
14814.5,-109.361,4,2,0,5,0,0
14913.9,-108.932,4,2,0,5,0,0
15013.2,-108.507,4,2,0,5,0,0
15112.6,-108.085,4,2,0,5,0,0
15212,-107.666,4,2,0,5,0,0
15311.3,-107.25,4,2,0,5,0,0
15410.7,-106.838,4,2,0,5,0,0
15510.1,-106.428,4,2,0,5,0,0
15609.4,-106.022,4,2,0,5,0,0
15708.8,-105.619,4,2,0,5,0,0
15808.2,-105.219,4,2,0,5,0,0
15907.5,-104.822,4,2,0,5,0,0
16006.9,-104.428,4,2,0,5,0,0
16106.3,-104.037,4,2,0,5,0,0
16205.7,-103.648,4,2,0,5,0,0
16305,-103.263,4,2,0,5,0,0
16404.4,-102.881,4,2,0,5,0,0
16503.8,-102.501,4,2,0,5,0,0
16603.1,-102.124,4,2,0,5,0,0
16702.5,-101.75,4,2,0,5,0,0
16801.9,-101.379,4,2,0,5,0,0
16901.3,-101.01,4,2,0,5,0,0
17000.6,-100.644,4,2,0,5,0,0
17100,-100.281,4,2,0,5,0,0
17199.4,-99.9201,4,2,0,5,0,0
17298.7,-99.5619,4,2,0,5,0,0
17398.1,-99.2063,4,2,0,5,0,0
17497.5,-98.8533,4,2,0,5,0,0
17596.8,-98.5028,4,2,0,5,0,0
17696.2,-98.1547,4,2,0,5,0,0
17795.6,-97.8091,4,2,0,5,0,0
17895,-97.4659,4,2,0,5,0,0
17994.3,-97.1251,4,2,0,5,0,0
18093.7,-96.7867,4,2,0,5,0,0
18193.1,-96.4506,4,2,0,5,0,0
18292.4,-96.1169,4,2,0,5,0,0
18391.8,-95.7854,4,2,0,5,0,0
18491.2,-95.4563,4,2,0,5,0,0
18590.5,-95.1294,4,2,0,5,0,0
18689.9,-94.8047,4,2,0,5,0,0
18789.3,-94.4822,4,2,0,5,0,0
18888.7,-94.162,4,2,0,5,0,0
18988,-93.8438,4,2,0,5,0,0
19087.4,-93.5279,4,2,0,5,0,0
19186.8,-93.214,4,2,0,5,0,0
19286.1,-92.9023,4,2,0,5,0,0
19385.5,-92.5926,4,2,0,5,0,0
19484.9,-92.285,4,2,0,5,0,0
19584.2,-91.9794,4,2,0,5,0,0
19683.6,-91.6758,4,2,0,5,0,0
19783,-91.3743,4,2,0,5,0,0
19882.4,-91.0747,4,2,0,5,0,0
19981.7,-90.7771,4,2,0,5,0,0
20081.1,-90.4814,4,2,0,5,0,0
20180.5,-90.1876,4,2,0,5,0,0
20279.8,-89.8957,4,2,0,5,0,0
20379.2,-89.6057,4,2,0,5,0,0
20478.6,-89.3176,4,2,0,5,0,0
20577.9,-89.0313,4,2,0,5,0,0
20677.3,-88.7469,4,2,0,5,0,0
20776.7,-88.4643,4,2,0,5,0,0
20876,-88.1834,4,2,0,5,0,0
20975.4,-87.9044,4,2,0,5,0,0
21074.8,-87.6271,4,2,0,5,0,0
21174.2,-87.3515,4,2,0,5,0,0
21273.5,-87.0777,4,2,0,5,0,0
21372.9,-86.8056,4,2,0,5,0,0
21472.3,-86.5351,4,2,0,5,0,0
21571.6,-86.2664,4,2,0,5,0,0
21671,-85.9993,4,2,0,5,0,0
21770.4,-85.7339,4,2,0,5,0,0
21869.8,-85.4701,4,2,0,5,0,0
21969.1,-85.2079,4,2,0,5,0,0
22068.5,-84.9473,4,2,0,5,0,0
22167.9,-84.6883,4,2,0,5,0,0
22267.2,-84.4309,4,2,0,5,0,0
22366.6,-84.1751,4,2,0,5,0,0
22466,-83.9208,4,2,0,5,0,0
22565.3,-83.668,4,2,0,5,0,0
22664.7,-83.4168,4,2,0,5,0,0
22764.1,-83.167,4,2,0,5,0,0
22863.5,-82.9187,4,2,0,5,0,0
22962.8,-82.672,4,2,0,5,0,0
23062.2,-82.4266,4,2,0,5,0,0
23161.6,-82.1828,4,2,0,5,0,0
23260.9,-81.9403,4,2,0,5,0,0
23360.3,-81.6993,4,2,0,5,0,0
23459.7,-81.4598,4,2,0,5,0,0
23559,-81.2216,4,2,0,5,0,0
23658.4,-80.9848,4,2,0,5,0,0
23757.8,-80.7494,4,2,0,5,0,0
23857.1,-80.5153,4,2,0,5,0,0
23956.5,-80.2826,4,2,0,5,0,0
24055.9,-80.0512,4,2,0,5,0,0
24155.3,-79.8212,4,2,0,5,0,0
24254.6,-79.5925,4,2,0,5,0,0
24354,-111.111,4,2,0,5,0,0
24367.1,-110.583,4,2,0,5,0,0
24380.3,-110.059,4,2,0,5,0,0
24393.4,-109.541,4,2,0,5,0,0
24406.5,-109.027,4,2,0,5,0,0
24419.7,-108.519,4,2,0,5,0,0
24432.8,-108.015,4,2,0,5,0,0
24445.9,-107.515,4,2,0,5,0,0
24459,-107.021,4,2,0,5,0,0
24472.2,-106.53,4,2,0,5,0,0
24485.3,-106.045,4,2,0,5,0,0
24498.4,-105.563,4,2,0,5,0,0
24511.6,-105.086,4,2,0,5,0,0
24524.7,-104.613,4,2,0,5,0,0
24537.8,-104.145,4,2,0,5,0,0
24551,-103.681,4,2,0,5,0,0
24564.1,-103.22,4,2,0,5,0,0
24577.2,-102.764,4,2,0,5,0,0
24590.3,-102.312,4,2,0,5,0,0
24603.5,-101.864,4,2,0,5,0,0
24616.6,-101.42,4,2,0,5,0,0
24629.7,-100.98,4,2,0,5,0,0
24642.9,-100.543,4,2,0,5,0,0
24656,-100.11,4,2,0,5,0,0
24669.1,-99.681,4,2,0,5,0,0
24682.3,-99.2556,4,2,0,5,0,0
24695.4,-98.8338,4,2,0,5,0,0
24708.5,-98.4155,4,2,0,5,0,0
24721.6,-98.0008,4,2,0,5,0,0
24734.8,-97.5895,4,2,0,5,0,0
24747.9,-97.1817,4,2,0,5,0,0
24761,-96.7773,4,2,0,5,0,0
24774.2,-96.3763,4,2,0,5,0,0
24787.3,-95.9785,4,2,0,5,0,0
24800.4,-95.584,4,2,0,5,0,0
24813.5,-95.1928,4,2,0,5,0,0
24826.7,-94.8047,4,2,0,5,0,0
24839.8,-94.4198,4,2,0,5,0,0
24852.9,-94.038,4,2,0,5,0,0
24866.1,-93.6593,4,2,0,5,0,0
24879.2,-93.2836,4,2,0,5,0,0
24892.3,-92.9109,4,2,0,5,0,0
24905.5,-92.5412,4,2,0,5,0,0
24918.6,-92.1744,4,2,0,5,0,0
24931.7,-91.8105,4,2,0,5,0,0
24944.8,-91.4495,4,2,0,5,0,0
24958,-91.0913,4,2,0,5,0,0
24971.1,-90.7359,4,2,0,5,0,0
24984.2,-90.3832,4,2,0,5,0,0
24997.4,-90.0333,4,2,0,5,0,0
25010.5,-89.6861,4,2,0,5,0,0
25023.6,-89.3416,4,2,0,5,0,0
25036.8,-88.9996,4,2,0,5,0,0
25049.9,-88.6603,4,2,0,5,0,0
25063,-88.3236,4,2,0,5,0,0
25076.2,-87.9894,4,2,0,5,0,0
25089.3,-87.6578,4,2,0,5,0,0
25102.4,-87.3286,4,2,0,5,0,0
25115.5,-87.0019,4,2,0,5,0,0
25128.7,-86.6776,4,2,0,5,0,0
25141.8,-86.3558,4,2,0,5,0,0
25154.9,-86.0363,4,2,0,5,0,0
25168.1,-85.7192,4,2,0,5,0,0
25181.2,-85.4044,4,2,0,5,0,0
25194.3,-85.0919,4,2,0,5,0,0
25207.5,-84.7817,4,2,0,5,0,0
25220.6,-84.4737,4,2,0,5,0,0
25233.7,-84.168,4,2,0,5,0,0
25246.8,-83.8645,4,2,0,5,0,0
25260,-83.5631,4,2,0,5,0,0
25273.1,-83.2639,4,2,0,5,0,0
25286.2,-82.9669,4,2,0,5,0,0
25299.4,-82.672,4,2,0,5,0,0
25312.5,-82.3791,4,2,0,5,0,0
25325.6,-82.0883,4,2,0,5,0,0
25338.8,-81.7996,4,2,0,5,0,0
25351.9,-81.5129,4,2,0,5,0,0
25365,-81.2282,4,2,0,5,0,0
25378.1,-80.9454,4,2,0,5,0,0
25391.3,-80.6647,4,2,0,5,0,0
25404.4,-80.3859,4,2,0,5,0,0
25417.5,-80.1089,4,2,0,5,0,0
25430.7,-79.8339,4,2,0,5,0,0
25443.8,-79.5608,4,2,0,5,0,0
25456.9,-79.2896,4,2,0,5,0,0
25470,-79.0202,4,2,0,5,0,0
25483.2,-78.7526,4,2,0,5,0,0
25496.3,-78.4868,4,2,0,5,0,0
25509.4,-78.2228,4,2,0,5,0,0
25522.6,-77.9606,4,2,0,5,0,0
25535.7,-77.7001,4,2,0,5,0,0
25548.8,-77.4413,4,2,0,5,0,0
25562,-77.1843,4,2,0,5,0,0
25575.1,-76.929,4,2,0,5,0,0
25588.2,-76.6754,4,2,0,5,0,0
25601.3,-76.4234,4,2,0,5,0,0
25614.5,-76.1731,4,2,0,5,0,0
25627.6,-75.9244,4,2,0,5,0,0
25640.7,-75.6773,4,2,0,5,0,0
25653.9,-75.4318,4,2,0,5,0,0
25667,-11.0375,4,2,0,5,0,0
25676.3,-306.122,4,2,0,5,0,0
25760,-11.0375,4,2,0,5,0,0
25769.4,-306.122,4,2,0,5,0,0
25854,-11.0375,4,2,0,5,0,0
25863.4,-306.122,4,2,0,5,0,0
25948,-11.0375,4,2,0,5,0,0
25957.4,-306.122,4,2,0,5,0,0
26042,-100,4,2,0,5,0,0
37854,-58.8235294117647,4,2,0,5,0,0
37901,-333.333333333333,4,2,0,5,0,0
38018,-32.258064516129,4,2,0,5,0,0
38042,-100,4,2,0,5,0,0
48354,-71.4286,4,2,0,5,0,0
48363.4,-72.1639,4,2,0,5,0,0
48372.8,-72.9142,4,2,0,5,0,0
48382.1,-73.6794,4,2,0,5,0,0
48391.5,-74.4595,4,2,0,5,0,0
48400.9,-75.2546,4,2,0,5,0,0
48410.3,-76.0647,4,2,0,5,0,0
48419.7,-76.8897,4,2,0,5,0,0
48429,-77.7296,4,2,0,5,0,0
48438.4,-78.5843,4,2,0,5,0,0
48447.8,-79.4536,4,2,0,5,0,0
48457.2,-80.3376,4,2,0,5,0,0
48466.6,-81.236,4,2,0,5,0,0
48475.9,-82.1487,4,2,0,5,0,0
48485.3,-83.0754,4,2,0,5,0,0
48494.7,-84.0159,4,2,0,5,0,0
48504.1,-84.97,4,2,0,5,0,0
48513.5,-85.9373,4,2,0,5,0,0
48522.8,-86.9175,4,2,0,5,0,0
48532.2,-87.9102,4,2,0,5,0,0
48541.6,-88.915,4,2,0,5,0,0
48551,-89.9314,4,2,0,5,0,0
48560.4,-90.959,4,2,0,5,0,0
48569.7,-91.9971,4,2,0,5,0,0
48579.1,-93.0453,4,2,0,5,0,0
48588.5,-94.1028,4,2,0,5,0,0
48597.9,-95.169,4,2,0,5,0,0
48607.3,-96.2431,4,2,0,5,0,0
48616.6,-97.3245,4,2,0,5,0,0
48626,-98.4122,4,2,0,5,0,0
48635.4,-99.5054,4,2,0,5,0,0
48644.8,-100.603,4,2,0,5,0,0
48654.2,-101.705,4,2,0,5,0,0
48663.5,-102.809,4,2,0,5,0,0
48672.9,-103.914,4,2,0,5,0,0
48682.3,-105.02,4,2,0,5,0,0
48691.7,-106.125,4,2,0,5,0,0
48701.1,-107.229,4,2,0,5,0,0
48710.4,-108.329,4,2,0,5,0,0
48719.8,-109.425,4,2,0,5,0,0
48729.2,-110.515,4,2,0,5,0,0
48738.6,-111.599,4,2,0,5,0,0
48748,-112.674,4,2,0,5,0,0
48757.3,-113.739,4,2,0,5,0,0
48766.7,-114.793,4,2,0,5,0,0
48776.1,-115.835,4,2,0,5,0,0
48785.5,-116.863,4,2,0,5,0,0
48794.9,-117.876,4,2,0,5,0,0
48804.2,-118.872,4,2,0,5,0,0
48813.6,-119.851,4,2,0,5,0,0
48823,-120.809,4,2,0,5,0,0
48832.4,-121.748,4,2,0,5,0,0
48841.8,-122.664,4,2,0,5,0,0
48851.1,-123.556,4,2,0,5,0,0
48860.5,-124.425,4,2,0,5,0,0
48869.9,-125.267,4,2,0,5,0,0
48879.3,-126.083,4,2,0,5,0,0
48888.7,-126.871,4,2,0,5,0,0
48898,-127.63,4,2,0,5,0,0
48907.4,-128.359,4,2,0,5,0,0
48916.8,-129.057,4,2,0,5,0,0
48926.2,-129.724,4,2,0,5,0,0
48935.6,-130.359,4,2,0,5,0,0
48944.9,-130.961,4,2,0,5,0,0
48954.3,-131.53,4,2,0,5,0,0
48963.7,-132.066,4,2,0,5,0,0
48973.1,-132.567,4,2,0,5,0,0
48982.5,-133.035,4,2,0,5,0,0
48991.8,-133.469,4,2,0,5,0,0
49001.2,-133.868,4,2,0,5,0,0
49010.6,-134.233,4,2,0,5,0,0
49020,-134.565,4,2,0,5,0,0
49029.4,-134.863,4,2,0,5,0,0
49038.7,-135.129,4,2,0,5,0,0
49048.1,-135.361,4,2,0,5,0,0
49057.5,-135.562,4,2,0,5,0,0
49066.9,-135.732,4,2,0,5,0,0
49076.3,-135.871,4,2,0,5,0,0
49085.6,-135.981,4,2,0,5,0,0
49095,-136.062,4,2,0,5,0,0
49104.4,-136.116,4,2,0,5,0,0
49113.8,-136.142,4,2,0,5,0,0
49123.2,-136.144,4,2,0,5,0,0
49132.5,-136.121,4,2,0,5,0,0
49141.9,-136.075,4,2,0,5,0,0
49151.3,-136.008,4,2,0,5,0,0
49160.7,-135.92,4,2,0,5,0,0
49170.1,-135.813,4,2,0,5,0,0
49179.4,-135.689,4,2,0,5,0,0
49188.8,-135.548,4,2,0,5,0,0
49198.2,-135.392,4,2,0,5,0,0
49207.6,-135.223,4,2,0,5,0,0
49217,-135.042,4,2,0,5,0,0
49226.3,-134.85,4,2,0,5,0,0
49235.7,-134.649,4,2,0,5,0,0
49245.1,-134.441,4,2,0,5,0,0
49254.5,-134.226,4,2,0,5,0,0
49263.9,-134.007,4,2,0,5,0,0
49273.2,-133.784,4,2,0,5,0,0
49282.6,-133.559,4,2,0,5,0,0
49292,-133.333,4,2,0,5,0,0
49995,-1000,4,2,0,5,0,0
50018,-34.4827586206897,4,2,0,5,0,0
50042,-133.333,4,2,0,5,0,0
50370,-1000,4,2,0,5,0,0
50393,-34.4828,4,2,0,5,0,0
50417,-133.333,4,2,0,5,0,0
50745,-1000,4,2,0,5,0,0
50768,-34.4828,4,2,0,5,0,0
50792,-133.333,4,2,0,5,0,0
51120,-1000,4,2,0,5,0,0
51143,-34.4828,4,2,0,5,0,0
51167,-133.333,4,2,0,5,0,0
51495,-1000,4,2,0,5,0,0
51518,-34.4828,4,2,0,5,0,0
51542,-133.333,4,2,0,5,0,0
51870,-1000,4,2,0,5,0,0
51893,-34.4828,4,2,0,5,0,0
51917,-133.333,4,2,0,5,0,0
52245,-1000,4,2,0,5,0,0
52268,-34.4828,4,2,0,5,0,0
52292,-133.333,4,2,0,5,0,0
52620,-1000,4,2,0,5,0,0
52643,-34.4828,4,2,0,5,0,0
52667,-133.333,4,2,0,5,0,0
52995,-1000,4,2,0,5,0,0
53018,-34.4828,4,2,0,5,0,0
53042,-133.333,4,2,0,5,0,0
53370,-1000,4,2,0,5,0,0
53393,-34.4828,4,2,0,5,0,0
53417,-133.333,4,2,0,5,0,0
53745,-1000,4,2,0,5,0,0
53768,-34.4828,4,2,0,5,0,0
53792,-133.333,4,2,0,5,0,0
54120,-1000,4,2,0,5,0,0
54143,-34.4828,4,2,0,5,0,0
54167,-133.333,4,2,0,5,0,0
54495,-1000,4,2,0,5,0,0
54518,-34.4828,4,2,0,5,0,0
54542,-133.333,4,2,0,5,0,0
54870,-1000,4,2,0,5,0,0
54893,-34.4828,4,2,0,5,0,0
54917,-133.333,4,2,0,5,0,0
55245,-1000,4,2,0,5,0,0
55268,-34.4828,4,2,0,5,0,0
55292,-133.333,4,2,0,5,0,0
55620,-1000,4,2,0,5,0,0
55643,-34.4828,4,2,0,5,0,0
55667,-133.333,4,2,0,5,0,0
55995,-1000,4,2,0,5,0,0
56018,-34.4828,4,2,0,5,0,0
56042,-32.7869,4,2,0,5,0,0
56050.7,-475.073,4,2,0,5,0,0
56088,-32.7869,4,2,0,5,0,0
56096.9,-475.073,4,2,0,5,0,0
56135,-32.7869,4,2,0,5,0,0
56143.9,-475.073,4,2,0,5,0,0
56182,-32.7869,4,2,0,5,0,0
56190.9,-475.073,4,2,0,5,0,0
56229,-133.333,4,2,0,5,0,0
56242.1,-133.191,4,2,0,5,0,0
56255.3,-133.049,4,2,0,5,0,0
56268.4,-132.908,4,2,0,5,0,0
56281.5,-132.767,4,2,0,5,0,0
56294.7,-132.626,4,2,0,5,0,0
56307.8,-132.485,4,2,0,5,0,0
56320.9,-132.345,4,2,0,5,0,0
56334,-132.205,4,2,0,5,0,0
56347.2,-132.066,4,2,0,5,0,0
56360.3,-131.926,4,2,0,5,0,0
56373.4,-131.787,4,2,0,5,0,0
56386.6,-131.648,4,2,0,5,0,0
56399.7,-131.51,4,2,0,5,0,0
56412.8,-131.372,4,2,0,5,0,0
56425.9,-131.234,4,2,0,5,0,0
56439.1,-131.096,4,2,0,5,0,0
56452.2,-130.959,4,2,0,5,0,0
56465.3,-130.822,4,2,0,5,0,0
56478.5,-130.685,4,2,0,5,0,0
56491.6,-130.548,4,2,0,5,0,0
56504.7,-130.412,4,2,0,5,0,0
56517.9,-130.276,4,2,0,5,0,0
56531,-130.141,4,2,0,5,0,0
56544.1,-130.005,4,2,0,5,0,0
56557.3,-129.87,4,2,0,5,0,0
56570.4,-129.735,4,2,0,5,0,0
56583.5,-129.601,4,2,0,5,0,0
56596.6,-129.467,4,2,0,5,0,0
56609.8,-129.333,4,2,0,5,0,0
56622.9,-129.199,4,2,0,5,0,0
56636,-129.066,4,2,0,5,0,0
56649.2,-128.932,4,2,0,5,0,0
56662.3,-128.8,4,2,0,5,0,0
56675.4,-128.667,4,2,0,5,0,0
56688.6,-128.535,4,2,0,5,0,0
56701.7,-128.403,4,2,0,5,0,0
56714.8,-128.271,4,2,0,5,0,0
56727.9,-128.139,4,2,0,5,0,0
56741.1,-128.008,4,2,0,5,0,0
56754.2,-127.877,4,2,0,5,0,0
56767.3,-127.747,4,2,0,5,0,0
56780.5,-127.616,4,2,0,5,0,0
56793.6,-127.486,4,2,0,5,0,0
56806.7,-127.356,4,2,0,5,0,0
56819.8,-127.226,4,2,0,5,0,0
56833,-127.097,4,2,0,5,0,0
56846.1,-126.968,4,2,0,5,0,0
56859.2,-126.839,4,2,0,5,0,0
56872.4,-126.711,4,2,0,5,0,0
56885.5,-126.582,4,2,0,5,0,0
56898.6,-126.454,4,2,0,5,0,0
56911.8,-126.326,4,2,0,5,0,0
56924.9,-126.199,4,2,0,5,0,0
56938,-126.072,4,2,0,5,0,0
56951.2,-125.945,4,2,0,5,0,0
56964.3,-125.818,4,2,0,5,0,0
56977.4,-125.691,4,2,0,5,0,0
56990.5,-125.565,4,2,0,5,0,0
57003.7,-125.439,4,2,0,5,0,0
57016.8,-125.313,4,2,0,5,0,0
57029.9,-125.188,4,2,0,5,0,0
57043.1,-125.063,4,2,0,5,0,0
57056.2,-124.938,4,2,0,5,0,0
57069.3,-124.813,4,2,0,5,0,0
57082.4,-124.688,4,2,0,5,0,0
57095.6,-124.564,4,2,0,5,0,0
57108.7,-124.44,4,2,0,5,0,0
57121.8,-124.316,4,2,0,5,0,0
57135,-124.193,4,2,0,5,0,0
57148.1,-124.069,4,2,0,5,0,0
57161.2,-123.946,4,2,0,5,0,0
57174.4,-123.824,4,2,0,5,0,0
57187.5,-123.701,4,2,0,5,0,0
57200.6,-123.579,4,2,0,5,0,0
57213.8,-123.457,4,2,0,5,0,0
57226.9,-123.335,4,2,0,5,0,0
57240,-123.213,4,2,0,5,0,0
57253.1,-123.092,4,2,0,5,0,0
57266.3,-122.971,4,2,0,5,0,0
57279.4,-122.85,4,2,0,5,0,0
57292.5,-122.73,4,2,0,5,0,0
57305.7,-122.609,4,2,0,5,0,0
57318.8,-122.489,4,2,0,5,0,0
57331.9,-122.369,4,2,0,5,0,0
57345.1,-122.249,4,2,0,5,0,0
57358.2,-122.13,4,2,0,5,0,0
57371.3,-122.011,4,2,0,5,0,0
57384.4,-121.892,4,2,0,5,0,0
57397.6,-121.773,4,2,0,5,0,0
57410.7,-121.655,4,2,0,5,0,0
57423.8,-121.536,4,2,0,5,0,0
57437,-121.418,4,2,0,5,0,0
57450.1,-121.3,4,2,0,5,0,0
57463.2,-121.183,4,2,0,5,0,0
57476.3,-121.065,4,2,0,5,0,0
57489.5,-120.948,4,2,0,5,0,0
57502.6,-120.831,4,2,0,5,0,0
57515.7,-120.715,4,2,0,5,0,0
57528.9,-120.598,4,2,0,5,0,0
57542,-27.248,4,2,0,5,0,0
57550.3,-457.079,4,2,0,5,0,0
57588,-27.248,4,2,0,5,0,0
57596.5,-457.079,4,2,0,5,0,0
57635,-27.248,4,2,0,5,0,0
57643.5,-457.079,4,2,0,5,0,0
57682,-27.248,4,2,0,5,0,0
57690.5,-457.079,4,2,0,5,0,0
57729,-120.482,4,2,0,5,0,0
57742.1,-120.279,4,2,0,5,0,0
57755.3,-120.077,4,2,0,5,0,0
57768.4,-119.875,4,2,0,5,0,0
57781.5,-119.674,4,2,0,5,0,0
57794.7,-119.474,4,2,0,5,0,0
57807.8,-119.275,4,2,0,5,0,0
57820.9,-119.076,4,2,0,5,0,0
57834,-118.878,4,2,0,5,0,0
57847.2,-118.68,4,2,0,5,0,0
57860.3,-118.483,4,2,0,5,0,0
57873.4,-118.287,4,2,0,5,0,0
57886.6,-118.092,4,2,0,5,0,0
57899.7,-117.897,4,2,0,5,0,0
57912.8,-117.702,4,2,0,5,0,0
57925.9,-117.509,4,2,0,5,0,0
57939.1,-117.316,4,2,0,5,0,0
57952.2,-117.123,4,2,0,5,0,0
57965.3,-116.932,4,2,0,5,0,0
57978.5,-116.741,4,2,0,5,0,0
57991.6,-116.55,4,2,0,5,0,0
58004.7,-116.36,4,2,0,5,0,0
58017.9,-116.171,4,2,0,5,0,0
58031,-115.982,4,2,0,5,0,0
58044.1,-115.794,4,2,0,5,0,0
58057.3,-115.607,4,2,0,5,0,0
58070.4,-115.42,4,2,0,5,0,0
58083.5,-115.234,4,2,0,5,0,0
58096.6,-115.048,4,2,0,5,0,0
58109.8,-114.863,4,2,0,5,0,0
58122.9,-114.679,4,2,0,5,0,0
58136,-114.495,4,2,0,5,0,0
58149.2,-114.312,4,2,0,5,0,0
58162.3,-114.129,4,2,0,5,0,0
58175.4,-113.947,4,2,0,5,0,0
58188.6,-113.766,4,2,0,5,0,0
58201.7,-113.585,4,2,0,5,0,0
58214.8,-113.404,4,2,0,5,0,0
58227.9,-113.225,4,2,0,5,0,0
58241.1,-113.045,4,2,0,5,0,0
58254.2,-112.867,4,2,0,5,0,0
58267.3,-112.689,4,2,0,5,0,0
58280.5,-112.511,4,2,0,5,0,0
58293.6,-112.334,4,2,0,5,0,0
58306.7,-112.158,4,2,0,5,0,0
58319.8,-111.982,4,2,0,5,0,0
58333,-111.807,4,2,0,5,0,0
58346.1,-111.632,4,2,0,5,0,0
58359.2,-111.458,4,2,0,5,0,0
58372.4,-111.284,4,2,0,5,0,0
58385.5,-111.111,4,2,0,5,0,0
58398.6,-110.939,4,2,0,5,0,0
58411.8,-110.767,4,2,0,5,0,0
58424.9,-110.595,4,2,0,5,0,0
58438,-110.424,4,2,0,5,0,0
58451.2,-110.254,4,2,0,5,0,0
58464.3,-110.084,4,2,0,5,0,0
58477.4,-109.914,4,2,0,5,0,0
58490.5,-109.745,4,2,0,5,0,0
58503.7,-109.577,4,2,0,5,0,0
58516.8,-109.409,4,2,0,5,0,0
58529.9,-109.242,4,2,0,5,0,0
58543.1,-109.075,4,2,0,5,0,0
58556.2,-108.909,4,2,0,5,0,0
58569.3,-108.743,4,2,0,5,0,0
58582.4,-108.578,4,2,0,5,0,0
58595.6,-108.413,4,2,0,5,0,0
58608.7,-108.249,4,2,0,5,0,0
58621.8,-108.085,4,2,0,5,0,0
58635,-107.921,4,2,0,5,0,0
58648.1,-107.759,4,2,0,5,0,0
58661.2,-107.596,4,2,0,5,0,0
58674.4,-107.434,4,2,0,5,0,0
58687.5,-107.273,4,2,0,5,0,0
58700.6,-107.112,4,2,0,5,0,0
58713.8,-106.952,4,2,0,5,0,0
58726.9,-106.792,4,2,0,5,0,0
58740,-106.633,4,2,0,5,0,0
58753.1,-106.474,4,2,0,5,0,0
58766.3,-106.315,4,2,0,5,0,0
58779.4,-106.157,4,2,0,5,0,0
58792.5,-106,4,2,0,5,0,0
58805.7,-105.843,4,2,0,5,0,0
58818.8,-105.686,4,2,0,5,0,0
58831.9,-105.53,4,2,0,5,0,0
58845.1,-105.374,4,2,0,5,0,0
58858.2,-105.219,4,2,0,5,0,0
58871.3,-105.064,4,2,0,5,0,0
58884.4,-104.91,4,2,0,5,0,0
58897.6,-104.756,4,2,0,5,0,0
58910.7,-104.603,4,2,0,5,0,0
58923.8,-104.45,4,2,0,5,0,0
58937,-104.297,4,2,0,5,0,0
58950.1,-104.145,4,2,0,5,0,0
58963.2,-103.993,4,2,0,5,0,0
58976.3,-103.842,4,2,0,5,0,0
58989.5,-103.691,4,2,0,5,0,0
59002.6,-103.541,4,2,0,5,0,0
59015.7,-103.391,4,2,0,5,0,0
59028.9,-103.242,4,2,0,5,0,0
59042,-22.0264,4,2,0,5,0,0
59050.3,-448.578,4,2,0,5,0,0
59088,-22.0264,4,2,0,5,0,0
59096.5,-448.578,4,2,0,5,0,0
59135,-22.0264,4,2,0,5,0,0
59143.5,-448.578,4,2,0,5,0,0
59182,-22.0264,4,2,0,5,0,0
59190.5,-448.578,4,2,0,5,0,0
59229,-22.0264,4,2,0,5,0,0
59245.9,-448.578,4,2,0,5,0,0
59323,-22.0264,4,2,0,5,0,0
59339.9,-448.578,4,2,0,5,0,0
59417,-20.7469,4,2,0,5,0,0
59433.7,-449.561,4,2,0,5,0,0
59510,-20.7469,4,2,0,5,0,0
59526.9,-449.561,4,2,0,5,0,0
59604,-20.7469,4,2,0,5,0,0
59620.9,-449.561,4,2,0,5,0,0
59698,-20.7469,4,2,0,5,0,0
59714.9,-449.561,4,2,0,5,0,0
59792,-17.6678,4,2,0,5,0,0
59799.4,-432.099,4,2,0,5,0,0
59838,-17.6678,4,2,0,5,0,0
59845.5,-432.099,4,2,0,5,0,0
59885,-17.6678,4,2,0,5,0,0
59892.5,-432.099,4,2,0,5,0,0
59932,-17.6678,4,2,0,5,0,0
59939.5,-432.099,4,2,0,5,0,0
59979,-17.6678,4,2,0,5,0,0
59994,-432.099,4,2,0,5,0,0
60073,-17.6678,4,2,0,5,0,0
60088,-432.099,4,2,0,5,0,0
60167,-14.4509,4,2,0,5,0,0
60180,-474.614,4,2,0,5,0,0
60260,-14.4509,4,2,0,5,0,0
60273.2,-474.614,4,2,0,5,0,0
60354,-14.4509,4,2,0,5,0,0
60367.2,-474.614,4,2,0,5,0,0
60448,-14.4509,4,2,0,5,0,0
60461.2,-474.614,4,2,0,5,0,0
60542,-322.581,4,2,0,5,0,0
60583.4,-11.4811,4,2,0,5,0,0
60588,-322.581,4,2,0,5,0,0
60630.3,-11.4811,4,2,0,5,0,0
60635,-322.581,4,2,0,5,0,0
60677.3,-11.4811,4,2,0,5,0,0
60682,-322.581,4,2,0,5,0,0
60724.3,-11.4811,4,2,0,5,0,0
60729,-86.9565,4,2,0,5,0,0
60917,-322.581,4,2,0,5,0,0
61000.7,-11.4811,4,2,0,5,0,0
61010,-86.9565,4,2,0,5,0,0
61104,-322.581,4,2,0,5,0,0
61188.6,-11.4811,4,2,0,5,0,0
61198,-86.9565,4,2,0,5,0,0
61292,-212.766,4,2,0,5,0,0
61375.7,-13.7552,4,2,0,5,0,0
61385,-212.766,4,2,0,5,0,0
61469.6,-13.7552,4,2,0,5,0,0
61479,-212.766,4,2,0,5,0,0
61563.6,-13.7552,4,2,0,5,0,0
61573,-212.766,4,2,0,5,0,0
61657.6,-13.7552,4,2,0,5,0,0
61667,-212.766,4,2,0,5,0,0
61750.7,-13.7552,4,2,0,5,0,0
61760,-212.766,4,2,0,5,0,0
61844.6,-13.7552,4,2,0,5,0,0
61854,-212.766,4,2,0,5,0,0
61938.6,-13.7552,4,2,0,5,0,0
61948,-212.766,4,2,0,5,0,0
62032.6,-13.7552,4,2,0,5,0,0
62042,-10,4,2,0,5,0,0
62050.4,-910,4,2,0,5,0,0
62135,-100,4,2,0,5,0,0
62417,-10,4,2,0,5,0,0
62425.4,-910,4,2,0,5,0,0
62510,-100,4,2,0,5,0,0
62792,-10,4,2,0,5,0,0
62800.4,-910,4,2,0,5,0,0
62885,-100,4,2,0,5,0,0
63167,-10,4,2,0,5,0,0
63175.4,-910,4,2,0,5,0,0
63260,-100,4,2,0,5,0,0
63542,-10,4,2,0,5,0,0
63550.4,-910,4,2,0,5,0,0
63635,-100,4,2,0,5,0,0
63917,-10,4,2,0,5,0,0
63925.4,-910,4,2,0,5,0,0
64010,-100,4,2,0,5,0,0
64292,-10,4,2,0,5,0,0
64300.4,-910,4,2,0,5,0,0
64385,-100,4,2,0,5,0,0
64667,-10,4,2,0,5,0,0
64675.4,-910,4,2,0,5,0,0
64760,-666.667,4,2,0,5,0,0
64842.7,-13.8249,4,2,0,5,0,0
64854,-666.667,4,2,0,5,0,0
64936.7,-13.8249,4,2,0,5,0,0
64948,-666.667,4,2,0,5,0,0
65030.7,-13.8249,4,2,0,5,0,0
65042,-10,4,2,0,5,0,0
65050.4,-910,4,2,0,5,0,0
65135,-100,4,2,0,5,0,0
65417,-10,4,2,0,5,0,0
65425.4,-910,4,2,0,5,0,0
65510,-100,4,2,0,5,0,0
65792,-10,4,2,0,5,0,0
65800.4,-910,4,2,0,5,0,0
65885,-100,4,2,0,5,0,0
66167,-10,4,2,0,5,0,0
66175.4,-910,4,2,0,5,0,0
66260,-100,4,2,0,5,0,0
66542,-100,4,2,0,5,0,0
66555.1,-100.251,4,2,0,5,0,0
66568.2,-100.503,4,2,0,5,0,0
66581.4,-100.756,4,2,0,5,0,0
66594.5,-101.01,4,2,0,5,0,0
66607.6,-101.266,4,2,0,5,0,0
66620.7,-101.523,4,2,0,5,0,0
66633.8,-101.781,4,2,0,5,0,0
66647,-102.041,4,2,0,5,0,0
66660.1,-102.302,4,2,0,5,0,0
66673.2,-102.564,4,2,0,5,0,0
66686.3,-102.828,4,2,0,5,0,0
66699.4,-103.093,4,2,0,5,0,0
66712.6,-103.359,4,2,0,5,0,0
66725.7,-103.627,4,2,0,5,0,0
66738.8,-103.896,4,2,0,5,0,0
66751.9,-104.167,4,2,0,5,0,0
66765,-104.439,4,2,0,5,0,0
66778.2,-104.712,4,2,0,5,0,0
66791.3,-104.987,4,2,0,5,0,0
66804.4,-105.263,4,2,0,5,0,0
66817.5,-105.541,4,2,0,5,0,0
66830.6,-105.82,4,2,0,5,0,0
66843.8,-106.101,4,2,0,5,0,0
66856.9,-106.383,4,2,0,5,0,0
66870,-106.667,4,2,0,5,0,0
66883.1,-106.952,4,2,0,5,0,0
66896.2,-107.239,4,2,0,5,0,0
66909.4,-107.527,4,2,0,5,0,0
66922.5,-107.817,4,2,0,5,0,0
66935.6,-108.108,4,2,0,5,0,0
66948.7,-108.401,4,2,0,5,0,0
66961.8,-108.696,4,2,0,5,0,0
66975,-108.992,4,2,0,5,0,0
66988.1,-109.29,4,2,0,5,0,0
67001.2,-109.589,4,2,0,5,0,0
67014.3,-109.89,4,2,0,5,0,0
67027.4,-110.193,4,2,0,5,0,0
67040.6,-110.497,4,2,0,5,0,0
67053.7,-110.803,4,2,0,5,0,0
67066.8,-111.111,4,2,0,5,0,0
67079.9,-111.421,4,2,0,5,0,0
67093,-111.732,4,2,0,5,0,0
67106.2,-112.045,4,2,0,5,0,0
67119.3,-112.36,4,2,0,5,0,0
67132.4,-112.676,4,2,0,5,0,0
67145.5,-112.994,4,2,0,5,0,0
67158.6,-113.314,4,2,0,5,0,0
67171.8,-113.636,4,2,0,5,0,0
67184.9,-113.96,4,2,0,5,0,0
67198,-114.286,4,2,0,5,0,0
67211.1,-114.613,4,2,0,5,0,0
67224.2,-114.943,4,2,0,5,0,0
67237.4,-115.274,4,2,0,5,0,0
67250.5,-115.607,4,2,0,5,0,0
67263.6,-115.942,4,2,0,5,0,0
67276.7,-116.279,4,2,0,5,0,0
67289.8,-116.618,4,2,0,5,0,0
67303,-116.959,4,2,0,5,0,0
67316.1,-117.302,4,2,0,5,0,0
67329.2,-117.647,4,2,0,5,0,0
67342.3,-117.994,4,2,0,5,0,0
67355.4,-118.343,4,2,0,5,0,0
67368.6,-118.694,4,2,0,5,0,0
67381.7,-119.048,4,2,0,5,0,0
67394.8,-119.403,4,2,0,5,0,0
67407.9,-119.76,4,2,0,5,0,0
67421,-120.12,4,2,0,5,0,0
67434.2,-120.482,4,2,0,5,0,0
67447.3,-120.846,4,2,0,5,0,0
67460.4,-121.212,4,2,0,5,0,0
67473.5,-121.581,4,2,0,5,0,0
67486.6,-121.951,4,2,0,5,0,0
67499.8,-122.324,4,2,0,5,0,0
67512.9,-122.699,4,2,0,5,0,0
67526,-123.077,4,2,0,5,0,0
67539.1,-123.457,4,2,0,5,0,0
67552.2,-123.839,4,2,0,5,0,0
67565.4,-124.224,4,2,0,5,0,0
67578.5,-124.611,4,2,0,5,0,0
67591.6,-125,4,2,0,5,0,0
67604.7,-125.392,4,2,0,5,0,0
67617.8,-125.786,4,2,0,5,0,0
67631,-126.183,4,2,0,5,0,0
67644.1,-126.582,4,2,0,5,0,0
67657.2,-126.984,4,2,0,5,0,0
67667,-14.2857142857143,4,2,0,5,0,0
67674.5,-127.818,4,2,0,5,0,0
67678.3,-128.443,4,2,0,5,0,0
67682,-129.07,4,2,0,5,0,0
67685.8,-129.7,4,2,0,5,0,0
67689.5,-130.33,4,2,0,5,0,0
67693.3,-130.961,4,2,0,5,0,0
67697,-131.59,4,2,0,5,0,0
67700.8,-132.216,4,2,0,5,0,0
67704.5,-132.838,4,2,0,5,0,0
67708.3,-133.456,4,2,0,5,0,0
67712,-134.067,4,2,0,5,0,0
67715.8,-134.67,4,2,0,5,0,0
67719.5,-135.265,4,2,0,5,0,0
67723.3,-135.849,4,2,0,5,0,0
67727,-136.421,4,2,0,5,0,0
67730.8,-136.981,4,2,0,5,0,0
67734.5,-137.525,4,2,0,5,0,0
67738.3,-138.054,4,2,0,5,0,0
67742,-138.566,4,2,0,5,0,0
67745.8,-139.058,4,2,0,5,0,0
67749.5,-139.531,4,2,0,5,0,0
67753.3,-139.982,4,2,0,5,0,0
67757,-140.41,4,2,0,5,0,0
67760.8,-14.2857142857143,4,2,0,5,0,0
67768.3,-141.542,4,2,0,5,0,0
67772,-141.865,4,2,0,5,0,0
67775.8,-142.158,4,2,0,5,0,0
67779.5,-142.421,4,2,0,5,0,0
67783.3,-142.652,4,2,0,5,0,0
67787,-142.85,4,2,0,5,0,0
67790.8,-143.014,4,2,0,5,0,0
67794.5,-143.144,4,2,0,5,0,0
67798.3,-143.238,4,2,0,5,0,0
67802,-143.296,4,2,0,5,0,0
67805.8,-143.317,4,2,0,5,0,0
67809.5,-143.3,4,2,0,5,0,0
67813.3,-143.246,4,2,0,5,0,0
67817,-143.153,4,2,0,5,0,0
67820.8,-143.022,4,2,0,5,0,0
67824.5,-142.852,4,2,0,5,0,0
67828.3,-142.644,4,2,0,5,0,0
67832,-142.396,4,2,0,5,0,0
67835.8,-142.11,4,2,0,5,0,0
67839.5,-141.786,4,2,0,5,0,0
67843.3,-141.424,4,2,0,5,0,0
67847,-141.024,4,2,0,5,0,0
67850.8,-140.588,4,2,0,5,0,0
67854.5,-10,4,2,0,5,0,0
67862,-139.063,4,2,0,5,0,0
67865.8,-138.486,4,2,0,5,0,0
67869.5,-137.876,4,2,0,5,0,0
67873.3,-137.235,4,2,0,5,0,0
67877,-136.562,4,2,0,5,0,0
67880.8,-135.861,4,2,0,5,0,0
67884.5,-135.131,4,2,0,5,0,0
67888.3,-134.374,4,2,0,5,0,0
67892,-133.591,4,2,0,5,0,0
67895.8,-132.784,4,2,0,5,0,0
67899.5,-131.955,4,2,0,5,0,0
67903.3,-131.104,4,2,0,5,0,0
67907,-130.232,4,2,0,5,0,0
67910.8,-129.343,4,2,0,5,0,0
67914.5,-128.436,4,2,0,5,0,0
67918.3,-127.513,4,2,0,5,0,0
67922,-126.576,4,2,0,5,0,0
67925.8,-125.627,4,2,0,5,0,0
67929.5,-124.666,4,2,0,5,0,0
67933.3,-123.695,4,2,0,5,0,0
67937,-122.715,4,2,0,5,0,0
67940.8,-121.728,4,2,0,5,0,0
67944.5,-120.735,4,2,0,5,0,0
67948.3,-14.2857142857143,4,2,0,5,0,0
67955.8,-117.733,4,2,0,5,0,0
67959.5,-116.729,4,2,0,5,0,0
67963.3,-115.724,4,2,0,5,0,0
67967,-114.721,4,2,0,5,0,0
67970.8,-113.72,4,2,0,5,0,0
67974.5,-112.722,4,2,0,5,0,0
67978.3,-111.728,4,2,0,5,0,0
67982,-110.739,4,2,0,5,0,0
67985.8,-109.756,4,2,0,5,0,0
67989.5,-108.78,4,2,0,5,0,0
67993.3,-107.81,4,2,0,5,0,0
67997,-106.849,4,2,0,5,0,0
68000.8,-105.897,4,2,0,5,0,0
68004.5,-104.954,4,2,0,5,0,0
68008.3,-104.022,4,2,0,5,0,0
68012,-103.099,4,2,0,5,0,0
68015.8,-102.188,4,2,0,5,0,0
68019.5,-101.288,4,2,0,5,0,0
68023.3,-100.401,4,2,0,5,0,0
68027,-99.5252,4,2,0,5,0,0
68030.8,-98.6625,4,2,0,5,0,0
68034.5,-97.8129,4,2,0,5,0,0
68038.3,-96.9766,4,2,0,5,0,0
68042,-10,4,2,0,5,0,0
68050.4,-910,4,2,0,5,0,0
68135,-100,4,2,0,5,0,0
68417,-10,4,2,0,5,0,0
68425.4,-910,4,2,0,5,0,0
68510,-100,4,2,0,5,0,0
68792,-10,4,2,0,5,0,0
68800.4,-910,4,2,0,5,0,0
68885,-100,4,2,0,5,0,0
69167,-10,4,2,0,5,0,0
69175.4,-910,4,2,0,5,0,0
69260,-100,4,2,0,5,0,0
69542,-10,4,2,0,5,0,0
69550.4,-910,4,2,0,5,0,0
69635,-100,4,2,0,5,0,0
69917,-10,4,2,0,5,0,0
69925.4,-910,4,2,0,5,0,0
70010,-100,4,2,0,5,0,0
70292,-10,4,2,0,5,0,0
70300.4,-910,4,2,0,5,0,0
70385,-100,4,2,0,5,0,0
70479,-28.6533,4,2,0,5,0,0
70500.6,-390.269,4,2,0,5,0,0
70573,-28.6533,4,2,0,5,0,0
70594.6,-390.269,4,2,0,5,0,0
70667,-10,4,2,0,5,0,0
70675.4,-910,4,2,0,5,0,0
70760,-100,4,2,0,5,0,0
71229,-11.0011,4,2,0,5,0,0
71233.7,-989.011,4,2,0,5,0,0
71276,-11.0011,4,2,0,5,0,0
71280.7,-989.011,4,2,0,5,0,0
71323,-11.0011,4,2,0,5,0,0
71327.7,-989.011,4,2,0,5,0,0
71370,-11.0011,4,2,0,5,0,0
71374.7,-989.011,4,2,0,5,0,0
71417,-100,4,2,0,5,0,0
71604,-434.783,4,2,0,5,0,0
71685.8,-16.252,4,2,0,5,0,0
71698,-434.783,4,2,0,5,0,0
71779.8,-16.252,4,2,0,5,0,0
71792,-100,4,2,0,5,0,0
71885,-434.783,4,2,0,5,0,0
71966.8,-16.252,4,2,0,5,0,0
71979,-434.783,4,2,0,5,0,0
72060.8,-16.252,4,2,0,5,0,0
72073,-100,4,2,0,5,0,0
72260,-434.783,4,2,0,5,0,0
72341.8,-16.252,4,2,0,5,0,0
72354,-10,4,2,0,5,0,0
72377,-125,4,2,0,5,0,0
72542,-126.582,4,2,0,5,0,0
72555.1,-126.283,4,2,0,5,0,0
72568.2,-125.984,4,2,0,5,0,0
72581.4,-125.683,4,2,0,5,0,0
72594.5,-125.38,4,2,0,5,0,0
72607.6,-125.072,4,2,0,5,0,0
72620.7,-124.759,4,2,0,5,0,0
72633.8,-124.438,4,2,0,5,0,0
72647,-124.11,4,2,0,5,0,0
72660.1,-123.772,4,2,0,5,0,0
72673.2,-123.423,4,2,0,5,0,0
72686.3,-123.063,4,2,0,5,0,0
72699.4,-122.689,4,2,0,5,0,0
72712.6,-122.302,4,2,0,5,0,0
72725.7,-121.9,4,2,0,5,0,0
72738.8,-121.482,4,2,0,5,0,0
72751.9,-121.048,4,2,0,5,0,0
72765,-120.596,4,2,0,5,0,0
72778.2,-120.126,4,2,0,5,0,0
72791.3,-119.637,4,2,0,5,0,0
72804.4,-119.129,4,2,0,5,0,0
72817.5,-118.601,4,2,0,5,0,0
72830.6,-118.052,4,2,0,5,0,0
72843.8,-117.483,4,2,0,5,0,0
72856.9,-116.892,4,2,0,5,0,0
72870,-116.281,4,2,0,5,0,0
72883.1,-115.648,4,2,0,5,0,0
72896.2,-114.993,4,2,0,5,0,0
72909.4,-114.317,4,2,0,5,0,0
72922.5,-113.62,4,2,0,5,0,0
72935.6,-112.902,4,2,0,5,0,0
72948.7,-112.163,4,2,0,5,0,0
72961.8,-111.404,4,2,0,5,0,0
72975,-110.624,4,2,0,5,0,0
72988.1,-109.825,4,2,0,5,0,0
73001.2,-109.007,4,2,0,5,0,0
73014.3,-108.171,4,2,0,5,0,0
73027.4,-107.316,4,2,0,5,0,0
73040.6,-106.445,4,2,0,5,0,0
73053.7,-105.557,4,2,0,5,0,0
73066.8,-104.653,4,2,0,5,0,0
73079.9,-103.735,4,2,0,5,0,0
73093,-102.803,4,2,0,5,0,0
73106.2,-101.859,4,2,0,5,0,0
73119.3,-100.902,4,2,0,5,0,0
73132.4,-99.9344,4,2,0,5,0,0
73145.5,-98.9568,4,2,0,5,0,0
73158.6,-97.9702,4,2,0,5,0,0
73171.8,-96.9757,4,2,0,5,0,0
73184.9,-95.9742,4,2,0,5,0,0
73198,-94.9668,4,2,0,5,0,0
73211.1,-93.9544,4,2,0,5,0,0
73224.2,-92.938,4,2,0,5,0,0
73237.4,-91.9187,4,2,0,5,0,0
73250.5,-90.8974,4,2,0,5,0,0
73263.6,-89.875,4,2,0,5,0,0
73276.7,-88.8525,4,2,0,5,0,0
73289.8,-87.8308,4,2,0,5,0,0
73303,-86.8108,4,2,0,5,0,0
73316.1,-85.7933,4,2,0,5,0,0
73329.2,-84.7791,4,2,0,5,0,0
73342.3,-83.769,4,2,0,5,0,0
73355.4,-82.7639,4,2,0,5,0,0
73368.6,-81.7644,4,2,0,5,0,0
73381.7,-80.7711,4,2,0,5,0,0
73394.8,-79.7848,4,2,0,5,0,0
73407.9,-78.8061,4,2,0,5,0,0
73421,-77.8356,4,2,0,5,0,0
73434.2,-76.8737,4,2,0,5,0,0
73447.3,-75.9211,4,2,0,5,0,0
73460.4,-74.9781,4,2,0,5,0,0
73473.5,-74.0453,4,2,0,5,0,0
73486.6,-73.1231,4,2,0,5,0,0
73499.8,-72.2117,4,2,0,5,0,0
73512.9,-71.3116,4,2,0,5,0,0
73526,-70.4231,4,2,0,5,0,0
73539.1,-69.5464,4,2,0,5,0,0
73552.2,-68.6818,4,2,0,5,0,0
73565.4,-67.8295,4,2,0,5,0,0
73578.5,-66.9897,4,2,0,5,0,0
73591.6,-66.1626,4,2,0,5,0,0
73604.7,-65.3483,4,2,0,5,0,0
73617.8,-64.547,4,2,0,5,0,0
73631,-63.7586,4,2,0,5,0,0
73644.1,-62.9834,4,2,0,5,0,0
73657.2,-62.2214,4,2,0,5,0,0
73670.3,-61.4725,4,2,0,5,0,0
73683.4,-60.7368,4,2,0,5,0,0
73696.6,-60.0144,4,2,0,5,0,0
73709.7,-59.3051,4,2,0,5,0,0
73722.8,-58.609,4,2,0,5,0,0
73735.9,-57.926,4,2,0,5,0,0
73749,-57.2561,4,2,0,5,0,0
73762.2,-56.5991,4,2,0,5,0,0
73775.3,-55.9551,4,2,0,5,0,0
73788.4,-55.3238,4,2,0,5,0,0
73801.5,-54.7053,4,2,0,5,0,0
73814.6,-54.0994,4,2,0,5,0,0
73827.8,-53.5059,4,2,0,5,0,0
73840.9,-52.9249,4,2,0,5,0,0
73854,-10,4,2,0,5,0,0
73877,-166.666666666667,4,2,0,5,0,0
74018,-20,4,2,0,5,0,0
74042,-1000,4,2,0,5,0,0
74212.2,-10,4,2,0,5,0,0
74229,-1000,4,2,0,5,0,0
74400.1,-10,4,2,0,5,0,0
74417,-10,4,2,0,5,0,0
74425.4,-910,4,2,0,5,0,0
74510,-100,4,2,0,5,0,0
74792,-10,4,2,0,5,0,0
74800.4,-910,4,2,0,5,0,0
74885,-100,4,2,0,5,0,0
75167,-10,4,2,0,5,0,0
75175.4,-910,4,2,0,5,0,0
75260,-100,4,2,0,5,0,0
75542,-10,4,2,0,5,0,0
75550.4,-910,4,2,0,5,0,0
75635,-100,4,2,0,5,0,0
75917,-10,4,2,0,5,0,0
75925.4,-910,4,2,0,5,0,0
76010,-100,4,2,0,5,0,0
76292,-10,4,2,0,5,0,0
76300.4,-910,4,2,0,5,0,0
76385,-100,4,2,0,5,0,0
76667,-10,4,2,0,5,0,0
76854,-153.846,4,2,0,5,0,0
77027,-19.9005,4,2,0,5,0,0
77042,-11.0011,4,2,0,5,0,0
77051.3,-989.011,4,2,0,5,0,0
77135,-100,4,2,0,5,0,0
77323,-11.0011,4,2,0,5,0,0
77332.4,-989.011,4,2,0,5,0,0
77417,-10,4,2,0,5,0,0
77425.4,-910,4,2,0,5,0,0
77510,-100,4,2,0,5,0,0
77792,-10,4,2,0,5,0,0
77800.4,-910,4,2,0,5,0,0
77885,-100,4,2,0,5,0,0
78167,-10,4,2,0,5,0,0
78175.4,-910,4,2,0,5,0,0
78260,-100,4,2,0,5,0,0
78542,-10,4,2,0,5,0,0
78550.4,-910,4,2,0,5,0,0
78635,-100,4,2,0,5,0,0
78917,-100,4,2,0,5,0,0
78928.3,-99.8004,4,2,0,5,0,0
78939.5,-99.6016,4,2,0,5,0,0
78950.8,-99.4036,4,2,0,5,0,0
78962,-99.2063,4,2,0,5,0,0
78973.3,-99.0099,4,2,0,5,0,0
78984.5,-98.8142,4,2,0,5,0,0
78995.8,-98.6193,4,2,0,5,0,0
79007,-98.4252,4,2,0,5,0,0
79018.3,-98.2318,4,2,0,5,0,0
79029.5,-98.0392,4,2,0,5,0,0
79040.8,-97.8474,4,2,0,5,0,0
79052,-97.6563,4,2,0,5,0,0
79063.3,-97.4659,4,2,0,5,0,0
79074.5,-97.2763,4,2,0,5,0,0
79085.8,-97.0874,4,2,0,5,0,0
79097,-96.8992,4,2,0,5,0,0
79108.3,-96.7118,4,2,0,5,0,0
79119.5,-96.5251,4,2,0,5,0,0
79130.8,-96.3391,4,2,0,5,0,0
79142,-96.1538,4,2,0,5,0,0
79153.3,-95.9693,4,2,0,5,0,0
79164.5,-95.7854,4,2,0,5,0,0
79175.8,-95.6023,4,2,0,5,0,0
79187,-95.4198,4,2,0,5,0,0
79198.3,-95.2381,4,2,0,5,0,0
79209.5,-95.057,4,2,0,5,0,0
79220.8,-94.8767,4,2,0,5,0,0
79232,-94.697,4,2,0,5,0,0
79243.3,-94.518,4,2,0,5,0,0
79254.5,-94.3396,4,2,0,5,0,0
79265.8,-94.162,4,2,0,5,0,0
79277,-93.985,4,2,0,5,0,0
79288.3,-93.8086,4,2,0,5,0,0
79299.5,-93.633,4,2,0,5,0,0
79310.8,-93.4579,4,2,0,5,0,0
79322,-93.2836,4,2,0,5,0,0
79333.3,-93.1099,4,2,0,5,0,0
79344.5,-92.9368,4,2,0,5,0,0
79355.8,-92.7644,4,2,0,5,0,0
79367,-92.5926,4,2,0,5,0,0
79378.3,-92.4214,4,2,0,5,0,0
79389.5,-92.2509,4,2,0,5,0,0
79400.8,-92.081,4,2,0,5,0,0
79412,-91.9118,4,2,0,5,0,0
79423.3,-91.7431,4,2,0,5,0,0
79434.5,-91.5751,4,2,0,5,0,0
79445.8,-91.4077,4,2,0,5,0,0
79457,-91.2409,4,2,0,5,0,0
79468.3,-91.0747,4,2,0,5,0,0
79479.5,-90.9091,4,2,0,5,0,0
79490.8,-90.7441,4,2,0,5,0,0
79502,-90.5797,4,2,0,5,0,0
79513.3,-90.4159,4,2,0,5,0,0
79524.5,-90.2527,4,2,0,5,0,0
79535.8,-90.0901,4,2,0,5,0,0
79547,-89.9281,4,2,0,5,0,0
79558.3,-89.7666,4,2,0,5,0,0
79569.5,-89.6057,4,2,0,5,0,0
79580.8,-89.4454,4,2,0,5,0,0
79592,-89.2857,4,2,0,5,0,0
79603.3,-89.1266,4,2,0,5,0,0
79614.5,-88.968,4,2,0,5,0,0
79625.8,-88.8099,4,2,0,5,0,0
79637,-88.6525,4,2,0,5,0,0
79648.3,-88.4956,4,2,0,5,0,0
79659.5,-88.3392,4,2,0,5,0,0
79670.8,-88.1834,4,2,0,5,0,0
79682,-88.0282,4,2,0,5,0,0
79693.3,-87.8735,4,2,0,5,0,0
79704.5,-87.7193,4,2,0,5,0,0
79715.8,-87.5657,4,2,0,5,0,0
79727,-87.4126,4,2,0,5,0,0
79738.3,-87.26,4,2,0,5,0,0
79749.5,-87.108,4,2,0,5,0,0
79760.8,-86.9565,4,2,0,5,0,0
79772,-86.8056,4,2,0,5,0,0
79783.3,-86.6551,4,2,0,5,0,0
79794.5,-86.5052,4,2,0,5,0,0
79805.8,-86.3558,4,2,0,5,0,0
79817,-86.2069,4,2,0,5,0,0
79828.3,-86.0585,4,2,0,5,0,0
79839.5,-85.9107,4,2,0,5,0,0
79850.8,-85.7633,4,2,0,5,0,0
79862,-85.6164,4,2,0,5,0,0
79873.3,-85.4701,4,2,0,5,0,0
79884.5,-85.3242,4,2,0,5,0,0
79895.8,-85.1789,4,2,0,5,0,0
79907,-85.034,4,2,0,5,0,0
79918.3,-84.8896,4,2,0,5,0,0
79929.5,-84.7458,4,2,0,5,0,0
79940.8,-84.6024,4,2,0,5,0,0
79952,-84.4595,4,2,0,5,0,0
79963.3,-84.317,4,2,0,5,0,0
79974.5,-84.1751,4,2,0,5,0,0
79985.8,-84.0336,4,2,0,5,0,0
79997,-83.8926,4,2,0,5,0,0
80008.3,-83.7521,4,2,0,5,0,0
80019.5,-83.612,4,2,0,5,0,0
80030.8,-83.4725,4,2,0,5,0,0
80042,-11.0011,4,2,0,5,0,0
80046.6,-989.011,4,2,0,5,0,0
80088,-11.0011,4,2,0,5,0,0
80092.7,-989.011,4,2,0,5,0,0
80135,-11.0011,4,2,0,5,0,0
80139.7,-989.011,4,2,0,5,0,0
80182,-11.0011,4,2,0,5,0,0
80186.7,-989.011,4,2,0,5,0,0
80229,-11.0011,4,2,0,5,0,0
80233.7,-989.011,4,2,0,5,0,0
80276,-11.0011,4,2,0,5,0,0
80280.7,-989.011,4,2,0,5,0,0
80323,-11.0011,4,2,0,5,0,0
80327.7,-989.011,4,2,0,5,0,0
80370,-11.0011,4,2,0,5,0,0
80374.7,-989.011,4,2,0,5,0,0
80417,-10,4,2,0,5,0,0
80425.4,-910,4,2,0,5,0,0
80510,-100,4,2,0,5,0,0
80792,-10,4,2,0,5,0,0
80800.4,-910,4,2,0,5,0,0
80885,-100,4,2,0,5,0,0
81167,-13.1579,4,2,0,5,0,0
81172.5,-1000,4,2,0,5,0,0
81213,-13.1579,4,2,0,5,0,0
81218.6,-1000,4,2,0,5,0,0
81260,-13.1579,4,2,0,5,0,0
81265.6,-1000,4,2,0,5,0,0
81307,-13.1579,4,2,0,5,0,0
81312.6,-1000,4,2,0,5,0,0
81354,-13.1579,4,2,0,5,0,0
81359.6,-1000,4,2,0,5,0,0
81401,-13.1579,4,2,0,5,0,0
81406.6,-1000,4,2,0,5,0,0
81448,-13.1579,4,2,0,5,0,0
81453.6,-1000,4,2,0,5,0,0
81495,-13.1579,4,2,0,5,0,0
81500.6,-1000,4,2,0,5,0,0
81542,-526.316,4,2,0,5,0,0
81583.4,-12.0627,4,2,0,5,0,0
81588,-526.316,4,2,0,5,0,0
81630.3,-12.0627,4,2,0,5,0,0
81635,-526.316,4,2,0,5,0,0
81677.3,-12.0627,4,2,0,5,0,0
81682,-526.316,4,2,0,5,0,0
81724.3,-12.0627,4,2,0,5,0,0
81729,-526.316,4,2,0,5,0,0
81771.3,-12.0627,4,2,0,5,0,0
81776,-526.316,4,2,0,5,0,0
81818.3,-12.0627,4,2,0,5,0,0
81823,-526.316,4,2,0,5,0,0
81865.3,-12.0627,4,2,0,5,0,0
81870,-526.316,4,2,0,5,0,0
81912.3,-12.0627,4,2,0,5,0,0
81917,-10,4,2,0,5,0,0
81925.4,-910,4,2,0,5,0,0
82010,-100,4,2,0,5,0,0
82292,-10,4,2,0,5,0,0
82300.4,-910,4,2,0,5,0,0
82385,-100,4,2,0,5,0,0
82667,-17.2117,4,2,0,5,0,0
82670.8,-17.6271,4,2,0,5,0,0
82674.5,-18.0627,4,2,0,5,0,0
82678.3,-18.5197,4,2,0,5,0,0
82682,-18.9994,4,2,0,5,0,0
82685.8,-19.503,4,2,0,5,0,0
82689.5,-20.0321,4,2,0,5,0,0
82693.3,-20.5882,4,2,0,5,0,0
82697,-21.1728,4,2,0,5,0,0
82700.8,-21.7879,4,2,0,5,0,0
82704.5,-22.4353,4,2,0,5,0,0
82708.3,-23.1171,4,2,0,5,0,0
82712,-23.8355,4,2,0,5,0,0
82715.8,-24.5929,4,2,0,5,0,0
82719.5,-25.3918,4,2,0,5,0,0
82723.3,-26.235,4,2,0,5,0,0
82727,-27.1255,4,2,0,5,0,0
82730.8,-28.0664,4,2,0,5,0,0
82734.5,-29.0613,4,2,0,5,0,0
82738.3,-30.1137,4,2,0,5,0,0
82742,-31.2278,4,2,0,5,0,0
82745.8,-32.4077,4,2,0,5,0,0
82749.5,-33.6582,4,2,0,5,0,0
82753.3,-34.9841,4,2,0,5,0,0
82757,-36.3908,4,2,0,5,0,0
82760.8,-37.8841,4,2,0,5,0,0
82764.5,-39.4699,4,2,0,5,0,0
82768.3,-41.155,4,2,0,5,0,0
82772,-42.9461,4,2,0,5,0,0
82775.8,-44.8507,4,2,0,5,0,0
82779.5,-46.8767,4,2,0,5,0,0
82783.3,-49.0322,4,2,0,5,0,0
82787,-51.326,4,2,0,5,0,0
82790.8,-53.7669,4,2,0,5,0,0
82794.5,-56.3642,4,2,0,5,0,0
82798.3,-59.1273,4,2,0,5,0,0
82802,-62.0656,4,2,0,5,0,0
82805.8,-65.1883,4,2,0,5,0,0
82809.5,-68.5043,4,2,0,5,0,0
82813.3,-72.0215,4,2,0,5,0,0
82817,-75.7469,4,2,0,5,0,0
82820.8,-79.6857,4,2,0,5,0,0
82824.5,-83.8406,4,2,0,5,0,0
82828.3,-88.2117,4,2,0,5,0,0
82832,-92.7947,4,2,0,5,0,0
82835.8,-97.5808,4,2,0,5,0,0
82839.5,-102.555,4,2,0,5,0,0
82843.3,-107.696,4,2,0,5,0,0
82847,-112.972,4,2,0,5,0,0
82850.8,-118.344,4,2,0,5,0,0
82854.5,-123.762,4,2,0,5,0,0
82858.3,-129.166,4,2,0,5,0,0
82862,-134.485,4,2,0,5,0,0
82865.8,-139.637,4,2,0,5,0,0
82869.5,-144.533,4,2,0,5,0,0
82873.3,-149.078,4,2,0,5,0,0
82877,-153.175,4,2,0,5,0,0
82880.8,-156.731,4,2,0,5,0,0
82884.5,-159.658,4,2,0,5,0,0
82888.3,-161.883,4,2,0,5,0,0
82892,-163.349,4,2,0,5,0,0
82895.8,-164.022,4,2,0,5,0,0
82899.5,-163.891,4,2,0,5,0,0
82903.3,-162.968,4,2,0,5,0,0
82907,-161.291,4,2,0,5,0,0
82910.8,-158.915,4,2,0,5,0,0
82914.5,-155.915,4,2,0,5,0,0
82918.3,-152.374,4,2,0,5,0,0
82922,-148.383,4,2,0,5,0,0
82925.8,-144.035,4,2,0,5,0,0
82929.5,-139.42,4,2,0,5,0,0
82933.3,-134.622,4,2,0,5,0,0
82937,-129.718,4,2,0,5,0,0
82940.8,-124.775,4,2,0,5,0,0
82944.5,-119.85,4,2,0,5,0,0
82948.3,-114.991,4,2,0,5,0,0
82952,-110.236,4,2,0,5,0,0
82955.8,-105.614,4,2,0,5,0,0
82959.5,-101.148,4,2,0,5,0,0
82963.3,-96.8538,4,2,0,5,0,0
82967,-92.7405,4,2,0,5,0,0
82970.8,-88.8142,4,2,0,5,0,0
82974.5,-85.0769,4,2,0,5,0,0
82978.3,-81.5276,4,2,0,5,0,0
82982,-78.1633,4,2,0,5,0,0
82985.8,-74.9792,4,2,0,5,0,0
82989.5,-71.9693,4,2,0,5,0,0
82993.3,-69.1267,4,2,0,5,0,0
82997,-66.4442,4,2,0,5,0,0
83000.8,-63.9141,4,2,0,5,0,0
83004.5,-61.5287,4,2,0,5,0,0
83008.3,-59.2803,4,2,0,5,0,0
83012,-57.1613,4,2,0,5,0,0
83015.8,-55.1645,4,2,0,5,0,0
83019.5,-53.2826,4,2,0,5,0,0
83023.3,-51.5091,4,2,0,5,0,0
83027,-49.8375,4,2,0,5,0,0
83030.8,-48.2616,4,2,0,5,0,0
83034.5,-46.7757,4,2,0,5,0,0
83038.3,-45.3745,4,2,0,5,0,0
83042,-10,4,2,0,5,0,0
83046.1,-910,4,2,0,5,0,0
83088,-100,4,2,0,5,0,0
83229,-10,4,2,0,5,0,0
83233.1,-910,4,2,0,5,0,0
83275,-100,4,2,0,5,0,0
83510,-10,4,2,0,5,0,0
83514.1,-910,4,2,0,5,0,0
83556,-100,4,2,0,5,0,0
83604,-10,4,2,0,5,0,0
83608.1,-910,4,2,0,5,0,0
83650,-100,4,2,0,5,0,0
83792,-10,4,2,0,5,0,0
83796.1,-910,4,2,0,5,0,0
83838,-100,4,2,0,5,0,0
84073,-10,4,2,0,5,0,0
84077.1,-910,4,2,0,5,0,0
84119,-100,4,2,0,5,0,0
84167,-10,4,2,0,5,0,0
84171.1,-910,4,2,0,5,0,0
84213,-100,4,2,0,5,0,0
84354,-10,4,2,0,5,0,0
84358.1,-910,4,2,0,5,0,0
84400,-100,4,2,0,5,0,0
85667,-12.0773,4,2,0,5,0,0
85687.6,-997.758,4,2,0,5,0,0
85854,-1000,4,2,0,5,0,0
85855.9,-953.594,4,2,0,5,0,0
85857.8,-911.078,4,2,0,5,0,0
85859.6,-871.777,4,2,0,5,0,0
85861.5,-835.156,4,2,0,5,0,0
85863.4,-800.789,4,2,0,5,0,0
85865.3,-768.337,4,2,0,5,0,0
85867.2,-737.526,4,2,0,5,0,0
85869,-708.14,4,2,0,5,0,0
85870.9,-680.006,4,2,0,5,0,0
85872.8,-652.987,4,2,0,5,0,0
85874.7,-626.978,4,2,0,5,0,0
85876.6,-601.893,4,2,0,5,0,0
85878.4,-577.67,4,2,0,5,0,0
85880.3,-554.26,4,2,0,5,0,0
85882.2,-531.627,4,2,0,5,0,0
85884.1,-509.743,4,2,0,5,0,0
85886,-488.589,4,2,0,5,0,0
85887.8,-468.151,4,2,0,5,0,0
85889.7,-448.416,4,2,0,5,0,0
85891.6,-429.376,4,2,0,5,0,0
85893.5,-411.024,4,2,0,5,0,0
85895.4,-393.35,4,2,0,5,0,0
85897.2,-376.349,4,2,0,5,0,0
85899.1,-360.01,4,2,0,5,0,0
85901,-344.326,4,2,0,5,0,0
85902.9,-329.283,4,2,0,5,0,0
85904.8,-314.872,4,2,0,5,0,0
85906.6,-301.077,4,2,0,5,0,0
85908.5,-287.885,4,2,0,5,0,0
85910.4,-275.279,4,2,0,5,0,0
85912.3,-263.244,4,2,0,5,0,0
85914.2,-251.761,4,2,0,5,0,0
85916,-240.812,4,2,0,5,0,0
85917.9,-230.378,4,2,0,5,0,0
85919.8,-220.441,4,2,0,5,0,0
85921.7,-210.98,4,2,0,5,0,0
85923.6,-201.977,4,2,0,5,0,0
85925.4,-193.413,4,2,0,5,0,0
85927.3,-185.267,4,2,0,5,0,0
85929.2,-177.523,4,2,0,5,0,0
85931.1,-170.16,4,2,0,5,0,0
85933,-163.162,4,2,0,5,0,0
85934.8,-156.51,4,2,0,5,0,0
85936.7,-150.188,4,2,0,5,0,0
85938.6,-144.179,4,2,0,5,0,0
85940.5,-138.468,4,2,0,5,0,0
85942.4,-133.04,4,2,0,5,0,0
85944.2,-127.88,4,2,0,5,0,0
85946.1,-122.973,4,2,0,5,0,0
85948,-118.308,4,2,0,5,0,0
85949.9,-113.871,4,2,0,5,0,0
85951.8,-109.651,4,2,0,5,0,0
85953.6,-105.635,4,2,0,5,0,0
85955.5,-101.814,4,2,0,5,0,0
85957.4,-98.1758,4,2,0,5,0,0
85959.3,-94.712,4,2,0,5,0,0
85961.2,-91.4129,4,2,0,5,0,0
85963,-88.2699,4,2,0,5,0,0
85964.9,-85.2746,4,2,0,5,0,0
85966.8,-82.4193,4,2,0,5,0,0
85968.7,-79.6965,4,2,0,5,0,0
85970.6,-77.0993,4,2,0,5,0,0
85972.4,-74.621,4,2,0,5,0,0
85974.3,-72.2555,4,2,0,5,0,0
85976.2,-69.9968,4,2,0,5,0,0
85978.1,-67.8394,4,2,0,5,0,0
85980,-65.7781,4,2,0,5,0,0
85981.8,-63.808,4,2,0,5,0,0
85983.7,-61.9243,4,2,0,5,0,0
85985.6,-60.1226,4,2,0,5,0,0
85987.5,-58.3989,4,2,0,5,0,0
85989.4,-56.7491,4,2,0,5,0,0
85991.2,-55.1697,4,2,0,5,0,0
85993.1,-53.657,4,2,0,5,0,0
85995,-52.2078,4,2,0,5,0,0
85996.9,-50.819,4,2,0,5,0,0
85998.8,-49.4875,4,2,0,5,0,0
86000.6,-48.2107,4,2,0,5,0,0
86002.5,-46.986,4,2,0,5,0,0
86004.4,-45.8107,4,2,0,5,0,0
86006.3,-44.6826,4,2,0,5,0,0
86008.2,-43.5995,4,2,0,5,0,0
86010,-42.5592,4,2,0,5,0,0
86011.9,-41.5597,4,2,0,5,0,0
86013.8,-40.5992,4,2,0,5,0,0
86015.7,-39.6759,4,2,0,5,0,0
86017.6,-38.7881,4,2,0,5,0,0
86019.4,-37.9342,4,2,0,5,0,0
86021.3,-37.1127,4,2,0,5,0,0
86023.2,-36.3221,4,2,0,5,0,0
86025.1,-35.5611,4,2,0,5,0,0
86027,-34.8285,4,2,0,5,0,0
86028.8,-34.1228,4,2,0,5,0,0
86030.7,-33.4431,4,2,0,5,0,0
86032.6,-32.7882,4,2,0,5,0,0
86034.5,-32.157,4,2,0,5,0,0
86036.4,-31.5486,4,2,0,5,0,0
86038.2,-30.9621,4,2,0,5,0,0
86040.1,-30.3964,4,2,0,5,0,0
86042,-10,4,2,0,5,0,0
86050.4,-910,4,2,0,5,0,0
86135,-100,4,2,0,5,0,0
86417,-10,4,2,0,5,0,0
86425.4,-910,4,2,0,5,0,0
86510,-100,4,2,0,5,0,0
86792,-10,4,2,0,5,0,0
86800.4,-910,4,2,0,5,0,0
86885,-100,4,2,0,5,0,0
87167,-10,4,2,0,5,0,0
87175.4,-910,4,2,0,5,0,0
87260,-100,4,2,0,5,0,0
87542,-10,4,2,0,5,0,0
87550.4,-910,4,2,0,5,0,0
87635,-100,4,2,0,5,0,0
87917,-10,4,2,0,5,0,0
87925.4,-910,4,2,0,5,0,0
88010,-100,4,2,0,5,0,0
88292,-10,4,2,0,5,0,0
88300.4,-910,4,2,0,5,0,0
88385,-100,4,2,0,5,0,0
88667,-10,4,2,0,5,0,0
88675.4,-910,4,2,0,5,0,0
88760,-100,4,2,0,5,0,0
89042,-10,4,2,0,5,0,0
89050.4,-910,4,2,0,5,0,0
89135,-100,4,2,0,5,0,0
89417,-10,4,2,0,5,0,0
89425.4,-910,4,2,0,5,0,0
89510,-100,4,2,0,5,0,0
89792,-10,4,2,0,5,0,0
89800.4,-910,4,2,0,5,0,0
89885,-100,4,2,0,5,0,0
90167,-10,4,2,0,5,0,0
90175.4,-910,4,2,0,5,0,0
90260,-100,4,2,0,5,0,0
90542,-10,4,2,0,5,0,0
90550.4,-910,4,2,0,5,0,0
90635,-100,4,2,0,5,0,0
90917,-10,4,2,0,5,0,0
90925.4,-910,4,2,0,5,0,0
91010,-100,4,2,0,5,0,0
91292,-10,4,2,0,5,0,0
91300.4,-910,4,2,0,5,0,0
91385,-100,4,2,0,5,0,0
91667,-19.6464,4,2,0,5,0,0
91668.2,-995.851,4,2,0,5,0,0
91698,-19.6464,4,2,0,5,0,0
91699.2,-995.851,4,2,0,5,0,0
91729,-19.6464,4,2,0,5,0,0
91730.2,-995.851,4,2,0,5,0,0
91760,-19.6464,4,2,0,5,0,0
91761.3,-995.851,4,2,0,5,0,0
91792,-41.6666666666667,4,2,0,5,0,0
91854,-19.6464,4,2,0,5,0,0
91855.2,-995.851,4,2,0,5,0,0
91885,-19.6464,4,2,0,5,0,0
91886.3,-995.851,4,2,0,5,0,0
91917,-19.6464,4,2,0,5,0,0
91918.2,-995.851,4,2,0,5,0,0
91948,-19.6464,4,2,0,5,0,0
91949.2,-995.851,4,2,0,5,0,0
91979,-41.6666666666667,4,2,0,5,0,0
92042,-10,4,2,0,5,0,0
92050.4,-910,4,2,0,5,0,0
92135,-100,4,2,0,5,0,0
92417,-10,4,2,0,5,0,0
92425.4,-910,4,2,0,5,0,0
92510,-100,4,2,0,5,0,0
92792,-10,4,2,0,5,0,0
92800.4,-910,4,2,0,5,0,0
92885,-100,4,2,0,5,0,0
93167,-10,4,2,0,5,0,0
93175.4,-910,4,2,0,5,0,0
93260,-100,4,2,0,5,0,0
93542,-10,4,2,0,5,0,0
93550.4,-910,4,2,0,5,0,0
93635,-100,4,2,0,5,0,0
93917,-10,4,2,0,5,0,0
93925.4,-910,4,2,0,5,0,0
94010,-100,4,2,0,5,0,0
94292,-10,4,2,0,5,0,0
94300.4,-910,4,2,0,5,0,0
94385,-100,4,2,0,5,0,0
94573,-10,4,2,0,5,0,0
94581.5,-910,4,2,0,5,0,0
94667,-10,4,2,0,5,0,0
94675.4,-910,4,2,0,5,0,0
94760,-100,4,2,0,5,0,0
94854,-10,4,2,0,5,0,0
94862.5,-910,4,2,0,5,0,0
94948,-100,4,2,0,5,0,0
95042,-10,4,2,0,5,0,0
95050.4,-910,4,2,0,5,0,0
95135,-111.111111111111,4,2,0,5,0,0
96542,-1000,4,2,0,5,0,0
96626.6,-10,4,2,0,5,0,0
96635,-100,4,2,0,5,0,0
96823,-909.091,4,2,0,5,0,0
96907.6,-10,4,2,0,5,0,0
96917,-90.9091,4,2,0,5,0,0
97104,-909.091,4,2,0,5,0,0
97185.8,-11.7722,4,2,0,5,0,0
97198,-83.3333,4,2,0,5,0,0
97385,-909.091,4,2,0,5,0,0
97467.7,-10,4,2,0,5,0,0
97479,-76.9231,4,2,0,5,0,0
97667,-10,4,2,0,5,0,0
97713,-333.333,4,2,0,5,0,0
97716.3,-331.934,4,2,0,5,0,0
97719.6,-330.515,4,2,0,5,0,0
97722.9,-329.046,4,2,0,5,0,0
97726.2,-327.497,4,2,0,5,0,0
97729.4,-325.84,4,2,0,5,0,0
97732.7,-324.049,4,2,0,5,0,0
97736,-322.099,4,2,0,5,0,0
97739.3,-319.967,4,2,0,5,0,0
97742.6,-317.633,4,2,0,5,0,0
97745.9,-315.077,4,2,0,5,0,0
97749.2,-312.286,4,2,0,5,0,0
97752.5,-309.245,4,2,0,5,0,0
97755.8,-305.946,4,2,0,5,0,0
97759.1,-302.383,4,2,0,5,0,0
97762.4,-298.554,4,2,0,5,0,0
97765.6,-294.457,4,2,0,5,0,0
97768.9,-290.099,4,2,0,5,0,0
97772.2,-285.487,4,2,0,5,0,0
97775.5,-280.63,4,2,0,5,0,0
97778.8,-275.544,4,2,0,5,0,0
97782.1,-270.243,4,2,0,5,0,0
97785.4,-264.748,4,2,0,5,0,0
97788.7,-259.078,4,2,0,5,0,0
97792,-253.256,4,2,0,5,0,0
97795.3,-247.304,4,2,0,5,0,0
97798.5,-241.247,4,2,0,5,0,0
97801.8,-235.109,4,2,0,5,0,0
97805.1,-228.914,4,2,0,5,0,0
97808.4,-222.686,4,2,0,5,0,0
97811.7,-216.447,4,2,0,5,0,0
97815,-210.219,4,2,0,5,0,0
97818.3,-204.023,4,2,0,5,0,0
97821.6,-197.877,4,2,0,5,0,0
97824.9,-191.8,4,2,0,5,0,0
97828.1,-185.806,4,2,0,5,0,0
97831.4,-179.91,4,2,0,5,0,0
97834.7,-174.125,4,2,0,5,0,0
97838,-168.461,4,2,0,5,0,0
97841.3,-162.926,4,2,0,5,0,0
97844.6,-157.529,4,2,0,5,0,0
97847.9,-152.275,4,2,0,5,0,0
97851.2,-147.169,4,2,0,5,0,0
97854.5,-142.214,4,2,0,5,0,0
97857.8,-137.412,4,2,0,5,0,0
97861.1,-132.765,4,2,0,5,0,0
97864.3,-128.273,4,2,0,5,0,0
97867.6,-123.934,4,2,0,5,0,0
97870.9,-119.748,4,2,0,5,0,0
97874.2,-115.713,4,2,0,5,0,0
97877.5,-111.826,4,2,0,5,0,0
97880.8,-108.084,4,2,0,5,0,0
97884.1,-104.484,4,2,0,5,0,0
97887.4,-101.022,4,2,0,5,0,0
97890.7,-97.6954,4,2,0,5,0,0
97893.9,-94.4993,4,2,0,5,0,0
97897.2,-91.4297,4,2,0,5,0,0
97900.5,-88.4826,4,2,0,5,0,0
97903.8,-85.6537,4,2,0,5,0,0
97907.1,-82.9389,4,2,0,5,0,0
97910.4,-80.3339,4,2,0,5,0,0
97913.7,-77.8346,4,2,0,5,0,0
97917,-75.4369,4,2,0,5,0,0
97920.3,-73.1368,4,2,0,5,0,0
97923.6,-70.9304,4,2,0,5,0,0
97926.9,-68.8139,4,2,0,5,0,0
97930.1,-66.7834,4,2,0,5,0,0
97933.4,-64.8355,4,2,0,5,0,0
97936.7,-62.9667,4,2,0,5,0,0
97940,-61.1735,4,2,0,5,0,0
97943.3,-59.4528,4,2,0,5,0,0
97946.6,-57.8014,4,2,0,5,0,0
97949.9,-56.2163,4,2,0,5,0,0
97953.2,-54.6946,4,2,0,5,0,0
97956.5,-53.2336,4,2,0,5,0,0
97959.8,-51.8306,4,2,0,5,0,0
97963,-50.4832,4,2,0,5,0,0
97966.3,-49.1888,4,2,0,5,0,0
97969.6,-47.9451,4,2,0,5,0,0
97972.9,-46.75,4,2,0,5,0,0
97976.2,-45.6013,4,2,0,5,0,0
97979.5,-44.497,4,2,0,5,0,0
97982.8,-43.4352,4,2,0,5,0,0
97986.1,-42.414,4,2,0,5,0,0
97989.4,-41.4318,4,2,0,5,0,0
97992.6,-40.4867,4,2,0,5,0,0
97995.9,-39.5772,4,2,0,5,0,0
97999.2,-38.7019,4,2,0,5,0,0
98002.5,-37.8592,4,2,0,5,0,0
98005.8,-37.0477,4,2,0,5,0,0
98009.1,-36.2663,4,2,0,5,0,0
98012.4,-35.5135,4,2,0,5,0,0
98015.7,-34.7883,4,2,0,5,0,0
98019,-34.0894,4,2,0,5,0,0
98022.3,-33.4158,4,2,0,5,0,0
98025.6,-32.7665,4,2,0,5,0,0
98028.8,-32.1404,4,2,0,5,0,0
98032.1,-31.5367,4,2,0,5,0,0
98035.4,-30.9544,4,2,0,5,0,0
98038.7,-30.3927,4,2,0,5,0,0
98042,-10,4,2,0,5,0,0
98050.4,-910,4,2,0,5,0,0
98135,-100,4,2,0,5,0,0
98417,-10,4,2,0,5,0,0
98425.4,-910,4,2,0,5,0,0
98510,-100,4,2,0,5,0,0
98792,-10,4,2,0,5,0,0
98800.4,-910,4,2,0,5,0,0
98885,-100,4,2,0,5,0,0
99167,-10,4,2,0,5,0,0
99175.4,-910,4,2,0,5,0,0
99260,-100,4,2,0,5,0,0
99542,-10,4,2,0,5,0,0
99550.4,-910,4,2,0,5,0,0
99635,-100,4,2,0,5,0,0
99917,-10,4,2,0,5,0,0
99925.4,-910,4,2,0,5,0,0
100010,-100,4,2,0,5,0,0
100292,-10,4,2,0,5,0,0
100300,-910,4,2,0,5,0,0
100385,-100,4,2,0,5,0,0
100667,-10,4,2,0,5,0,0
100675,-910,4,2,0,5,0,0
100760,-100,4,2,0,5,0,0
101042,-10,4,2,0,5,0,0
101050,-910,4,2,0,5,0,0
101135,-10,4,2,0,5,0,0
101143,-910,4,2,0,5,0,0
101229,-100,4,2,0,5,0,0
101323,-10,4,2,0,5,0,0
101331,-910,4,2,0,5,0,0
101417,-10,4,2,0,5,0,0
101425,-910,4,2,0,5,0,0
101510,-100,4,2,0,5,0,0
101792,-10,4,2,0,5,0,0
101800,-910,4,2,0,5,0,0
101885,-100,4,2,0,5,0,0
102167,-10,4,2,0,5,0,0
102175,-910,4,2,0,5,0,0
102260,-100,4,2,0,5,0,0
102542,-10,4,2,0,5,0,0
102546,-910,4,2,0,5,0,0
102588,-100,4,2,0,5,0,0
102823,-10,4,2,0,5,0,0
102831,-910,4,2,0,5,0,0
102917,-100,4,2,0,5,0,0
103104,-10,4,2,0,5,0,0
103112,-910,4,2,0,5,0,0
103198,-10,4,2,0,5,0,0
103206,-910,4,2,0,5,0,0
103292,-1000,4,2,0,5,0,0
103334,-10,4,2,0,5,0,0
103338,-1000,4,2,0,5,0,0
103466,-10,4,2,0,5,0,0
103479,-1000,4,2,0,5,0,0
103650,-10,4,2,0,5,0,0
103667,-1000,4,2,0,5,0,0
103837,-10,4,2,0,5,0,0
103854,-66.6666666666667,4,2,0,5,0,0
104025,-200,4,2,0,5,0,0
104042,-11.0011,4,2,0,5,0,0
104047,-989.011,4,2,0,5,0,0
104088,-11.0011,4,2,0,5,0,0
104093,-989.011,4,2,0,5,0,0
104135,-11.0011,4,2,0,5,0,0
104140,-989.011,4,2,0,5,0,0
104182,-11.0011,4,2,0,5,0,0
104187,-989.011,4,2,0,5,0,0
104229,-100,4,2,0,5,0,0
105542,-11.0011,4,2,0,5,0,0
105547,-989.011,4,2,0,5,0,0
105588,-11.0011,4,2,0,5,0,0
105593,-989.011,4,2,0,5,0,0
105635,-11.0011,4,2,0,5,0,0
105640,-989.011,4,2,0,5,0,0
105682,-11.0011,4,2,0,5,0,0
105687,-989.011,4,2,0,5,0,0
105729,-100,4,2,0,5,0,0
106573,-10,4,2,0,5,0,0
106577,-910,4,2,0,5,0,0
106620,-10,4,2,0,5,0,0
106624,-910,4,2,0,5,0,0
106667,-10,4,2,0,5,0,0
106671,-910,4,2,0,5,0,0
106713,-10,4,2,0,5,0,0
106717,-910,4,2,0,5,0,0
106760,-10,4,2,0,5,0,0
106764,-910,4,2,0,5,0,0
106807,-10,4,2,0,5,0,0
106811,-910,4,2,0,5,0,0
106854,-10,4,2,0,5,0,0
106858,-910,4,2,0,5,0,0
106901,-10,4,2,0,5,0,0
106905,-910,4,2,0,5,0,0
106948,-10,4,2,0,5,0,0
106952,-910,4,2,0,5,0,0
106995,-10,4,2,0,5,0,0
106999,-910,4,2,0,5,0,0
107042,-11.0011,4,2,0,5,0,0
107047,-989.011,4,2,0,5,0,0
107088,-11.0011,4,2,0,5,0,0
107093,-989.011,4,2,0,5,0,0
107135,-11.0011,4,2,0,5,0,0
107140,-989.011,4,2,0,5,0,0
107182,-11.0011,4,2,0,5,0,0
107187,-989.011,4,2,0,5,0,0
107229,-100,4,2,0,5,0,0
107792,-11.0011,4,2,0,5,0,0
107797,-989.011,4,2,0,5,0,0
107838,-11.0011,4,2,0,5,0,0
107843,-989.011,4,2,0,5,0,0
107885,-11.0011,4,2,0,5,0,0
107890,-989.011,4,2,0,5,0,0
107932,-11.0011,4,2,0,5,0,0
107937,-989.011,4,2,0,5,0,0
107979,-100,4,2,0,5,0,0
108542,-434.783,4,2,0,5,0,0
108665,-40.0849,4,2,0,5,0,0
108729,-100,4,2,0,5,0,0
108823,-434.783,4,2,0,5,0,0
108946,-40.0849,4,2,0,5,0,0
109010,-100,4,2,0,5,0,0
109104,-434.783,4,2,0,5,0,0
109228,-40.0849,4,2,0,5,0,0
109292,-100,4,2,0,5,0,0
109667,-34.3643,4,2,0,5,0,0
109682,-988.372,4,2,0,5,0,0
109713,-34.3643,4,2,0,5,0,0
109728,-988.372,4,2,0,5,0,0
109760,-34.3643,4,2,0,5,0,0
109775,-988.372,4,2,0,5,0,0
109807,-34.3643,4,2,0,5,0,0
109822,-988.372,4,2,0,5,0,0
109854,-34.3643,4,2,0,5,0,0
109869,-988.372,4,2,0,5,0,0
109901,-34.3643,4,2,0,5,0,0
109916,-988.372,4,2,0,5,0,0
109948,-34.3643,4,2,0,5,0,0
109963,-988.372,4,2,0,5,0,0
109995,-34.3643,4,2,0,5,0,0
110010,-988.372,4,2,0,5,0,0
110042,-100,4,2,0,5,0,0
110087,-100.472,4,2,0,5,0,0
110132,-100.949,4,2,0,5,0,0
110177,-101.43,4,2,0,5,0,0
110222,-101.916,4,2,0,5,0,0
110267,-102.407,4,2,0,5,0,0
110312,-102.902,4,2,0,5,0,0
110357,-103.402,4,2,0,5,0,0
110402,-103.907,4,2,0,5,0,0
110447,-104.417,4,2,0,5,0,0
110492,-104.932,4,2,0,5,0,0
110537,-105.452,4,2,0,5,0,0
110582,-105.977,4,2,0,5,0,0
110627,-106.508,4,2,0,5,0,0
110672,-107.043,4,2,0,5,0,0
110717,-107.585,4,2,0,5,0,0
110762,-108.131,4,2,0,5,0,0
110807,-108.684,4,2,0,5,0,0
110852,-109.242,4,2,0,5,0,0
110897,-109.806,4,2,0,5,0,0
110942,-110.375,4,2,0,5,0,0
110987,-110.951,4,2,0,5,0,0
111032,-111.532,4,2,0,5,0,0
111077,-112.12,4,2,0,5,0,0
111122,-112.714,4,2,0,5,0,0
111167,-113.314,4,2,0,5,0,0
111212,-113.921,4,2,0,5,0,0
111257,-114.534,4,2,0,5,0,0
111302,-115.154,4,2,0,5,0,0
111347,-115.781,4,2,0,5,0,0
111392,-116.414,4,2,0,5,0,0
111437,-117.055,4,2,0,5,0,0
111482,-117.702,4,2,0,5,0,0
111527,-118.357,4,2,0,5,0,0
111572,-119.019,4,2,0,5,0,0
111617,-119.689,4,2,0,5,0,0
111662,-120.366,4,2,0,5,0,0
111707,-121.051,4,2,0,5,0,0
111752,-121.743,4,2,0,5,0,0
111797,-122.444,4,2,0,5,0,0
111842,-123.153,4,2,0,5,0,0
111887,-123.87,4,2,0,5,0,0
111932,-124.595,4,2,0,5,0,0
111977,-125.329,4,2,0,5,0,0
112022,-126.072,4,2,0,5,0,0
112067,-126.823,4,2,0,5,0,0
112112,-127.584,4,2,0,5,0,0
112157,-128.353,4,2,0,5,0,0
112202,-129.132,4,2,0,5,0,0
112247,-129.921,4,2,0,5,0,0
112292,-130.719,4,2,0,5,0,0
112337,-131.527,4,2,0,5,0,0
112382,-132.345,4,2,0,5,0,0
112427,-133.174,4,2,0,5,0,0
112472,-134.012,4,2,0,5,0,0
112517,-134.862,4,2,0,5,0,0
112562,-135.722,4,2,0,5,0,0
112607,-136.593,4,2,0,5,0,0
112652,-137.476,4,2,0,5,0,0
112697,-138.37,4,2,0,5,0,0
112742,-139.276,4,2,0,5,0,0
112787,-140.193,4,2,0,5,0,0
112832,-141.123,4,2,0,5,0,0
112877,-142.066,4,2,0,5,0,0
112922,-143.021,4,2,0,5,0,0
112967,-143.988,4,2,0,5,0,0
113012,-144.97,4,2,0,5,0,0
113057,-145.964,4,2,0,5,0,0
113102,-146.972,4,2,0,5,0,0
113147,-147.995,4,2,0,5,0,0
113192,-149.031,4,2,0,5,0,0
113237,-150.083,4,2,0,5,0,0
113282,-151.149,4,2,0,5,0,0
113327,-152.23,4,2,0,5,0,0
113372,-153.327,4,2,0,5,0,0
113417,-154.44,4,2,0,5,0,0
113462,-155.569,4,2,0,5,0,0
113507,-156.715,4,2,0,5,0,0
113552,-157.878,4,2,0,5,0,0
113597,-159.058,4,2,0,5,0,0
113642,-160.256,4,2,0,5,0,0
113687,-161.473,4,2,0,5,0,0
113732,-162.707,4,2,0,5,0,0
113777,-163.961,4,2,0,5,0,0
113822,-165.235,4,2,0,5,0,0
113867,-166.528,4,2,0,5,0,0
113912,-167.842,4,2,0,5,0,0
113957,-169.176,4,2,0,5,0,0
114002,-170.532,4,2,0,5,0,0
114047,-171.91,4,2,0,5,0,0
114092,-173.31,4,2,0,5,0,0
114137,-174.734,4,2,0,5,0,0
114182,-176.18,4,2,0,5,0,0
114227,-177.651,4,2,0,5,0,0
114272,-179.147,4,2,0,5,0,0
114317,-180.668,4,2,0,5,0,0
114362,-182.216,4,2,0,5,0,0
114407,-183.79,4,2,0,5,0,0
114452,-185.391,4,2,0,5,0,0
114497,-187.021,4,2,0,5,0,0
114542,-625,4,2,0,5,0,0
114701,-32.3276,4,2,0,5,0,0
114729,-526.316,4,2,0,5,0,0
114889,-27.8552,4,2,0,5,0,0
114917,-526.316,4,2,0,5,0,0
115076,-23.4926,4,2,0,5,0,0
115104,-526.316,4,2,0,5,0,0
115264,-20.3114,4,2,0,5,0,0
115292,-588.235,4,2,0,5,0,0
115451,-17.5336,4,2,0,5,0,0
115479,-294.118,4,2,0,5,0,0
115652,-11.6414,4,2,0,5,0,0
115667,-333.333,4,2,0,5,0,0
115748,-17.5913,4,2,0,5,0,0
115760,-333.333,4,2,0,5,0,0
115842,-17.5913,4,2,0,5,0,0
115854,-333.333,4,2,0,5,0,0
115936,-17.5913,4,2,0,5,0,0
115948,-333.333,4,2,0,5,0,0
116030,-17.5913,4,2,0,5,0,0
116042,-10,4,2,0,5,0,0
116046,-910,4,2,0,5,0,0
116088,-10,4,2,0,5,0,0
116092,-910,4,2,0,5,0,0
116135,-10,4,2,0,5,0,0
116139,-910,4,2,0,5,0,0
116182,-10,4,2,0,5,0,0
116186,-910,4,2,0,5,0,0
116229,-100,4,2,0,5,0,0
117542,-10,4,2,0,5,0,0
117546,-606.667,4,2,0,5,0,0
117588,-10,4,2,0,5,0,0
117592,-606.667,4,2,0,5,0,0
117635,-10,4,2,0,5,0,0
117639,-606.667,4,2,0,5,0,0
117682,-10,4,2,0,5,0,0
117686,-606.667,4,2,0,5,0,0
117729,-95.2381,4,2,0,5,0,0
119042,-10,4,2,0,5,0,0
119047,-900,4,2,0,5,0,0
119088,-10,4,2,0,5,0,0
119093,-900,4,2,0,5,0,0
119135,-10,4,2,0,5,0,0
119140,-900,4,2,0,5,0,0
119182,-10,4,2,0,5,0,0
119187,-900,4,2,0,5,0,0
119229,-90.9091,4,2,0,5,0,0
119792,-10,4,2,0,5,0,0
119797,-600,4,2,0,5,0,0
119838,-10,4,2,0,5,0,0
119843,-600,4,2,0,5,0,0
119885,-10,4,2,0,5,0,0
119890,-600,4,2,0,5,0,0
119932,-10,4,2,0,5,0,0
119937,-600,4,2,0,5,0,0
119979,-86.9565,4,2,0,5,0,0
120542,-10,4,2,0,5,0,0
120546,-920,4,2,0,5,0,0
120588,-10,4,2,0,5,0,0
120592,-920,4,2,0,5,0,0
120635,-10,4,2,0,5,0,0
120639,-920,4,2,0,5,0,0
120682,-10,4,2,0,5,0,0
120686,-920,4,2,0,5,0,0
120729,-10,4,2,0,5,0,0
120733,-920,4,2,0,5,0,0
120776,-10,4,2,0,5,0,0
120780,-920,4,2,0,5,0,0
120823,-10,4,2,0,5,0,0
120827,-920,4,2,0,5,0,0
120870,-10,4,2,0,5,0,0
120874,-920,4,2,0,5,0,0
120917,-10,4,2,0,5,0,0
120921,-920,4,2,0,5,0,0
120963,-10,4,2,0,5,0,0
120967,-920,4,2,0,5,0,0
121010,-10,4,2,0,5,0,0
121014,-920,4,2,0,5,0,0
121057,-10,4,2,0,5,0,0
121061,-920,4,2,0,5,0,0
121104,-10,4,2,0,5,0,0
121108,-920,4,2,0,5,0,0
121151,-10,4,2,0,5,0,0
121155,-920,4,2,0,5,0,0
121198,-10,4,2,0,5,0,0
121202,-920,4,2,0,5,0,0
121245,-10,4,2,0,5,0,0
121249,-920,4,2,0,5,0,0
121292,-10,4,2,0,5,0,0
121300,-910,4,2,0,5,0,0
121385,-10,4,2,0,5,0,0
121393,-910,4,2,0,5,0,0
121479,-10,4,2,0,5,0,0
121487,-910,4,2,0,5,0,0
121573,-10,4,2,0,5,0,0
121581,-910,4,2,0,5,0,0
121667,-10,4,2,0,5,0,0
121675,-910,4,2,0,5,0,0
121760,-10,4,2,0,5,0,0
121768,-910,4,2,0,5,0,0
121854,-10,4,2,0,5,0,0
121862,-910,4,2,0,5,0,0
121948,-10,4,2,0,5,0,0
121956,-910,4,2,0,5,0,0
122042,-42.735,4,2,0,5,0,0
122046,-43.1954,4,2,0,5,0,0
122050,-43.6656,4,2,0,5,0,0
122053,-44.1457,4,2,0,5,0,0
122057,-44.6358,4,2,0,5,0,0
122061,-45.136,4,2,0,5,0,0
122065,-45.6463,4,2,0,5,0,0
122068,-46.1669,4,2,0,5,0,0
122072,-46.6977,4,2,0,5,0,0
122076,-47.2389,4,2,0,5,0,0
122080,-47.7905,4,2,0,5,0,0
122083,-48.3524,4,2,0,5,0,0
122087,-48.9249,4,2,0,5,0,0
122091,-49.5077,4,2,0,5,0,0
122095,-50.101,4,2,0,5,0,0
122098,-50.7047,4,2,0,5,0,0
122102,-51.3188,4,2,0,5,0,0
122106,-51.9432,4,2,0,5,0,0
122110,-52.578,4,2,0,5,0,0
122113,-53.2229,4,2,0,5,0,0
122117,-53.8779,4,2,0,5,0,0
122121,-54.5429,4,2,0,5,0,0
122125,-55.2178,4,2,0,5,0,0
122128,-55.9023,4,2,0,5,0,0
122132,-56.5964,4,2,0,5,0,0
122136,-57.2997,4,2,0,5,0,0
122140,-58.0121,4,2,0,5,0,0
122143,-58.7334,4,2,0,5,0,0
122147,-59.4632,4,2,0,5,0,0
122151,-60.2012,4,2,0,5,0,0
122155,-60.9471,4,2,0,5,0,0
122158,-61.7006,4,2,0,5,0,0
122162,-62.4612,4,2,0,5,0,0
122166,-63.2286,4,2,0,5,0,0
122170,-64.0023,4,2,0,5,0,0
122173,-64.7818,4,2,0,5,0,0
122177,-65.5666,4,2,0,5,0,0
122181,-66.3563,4,2,0,5,0,0
122185,-67.1501,4,2,0,5,0,0
122188,-67.9477,4,2,0,5,0,0
122192,-68.7483,4,2,0,5,0,0
122196,-69.5513,4,2,0,5,0,0
122200,-70.356,4,2,0,5,0,0
122203,-71.1618,4,2,0,5,0,0
122207,-71.9679,4,2,0,5,0,0
122211,-72.7737,4,2,0,5,0,0
122215,-73.5783,4,2,0,5,0,0
122218,-74.3809,4,2,0,5,0,0
122222,-75.1809,4,2,0,5,0,0
122226,-75.9774,4,2,0,5,0,0
122230,-76.7695,4,2,0,5,0,0
122233,-77.5566,4,2,0,5,0,0
122237,-78.3377,4,2,0,5,0,0
122241,-79.112,4,2,0,5,0,0
122245,-79.8788,4,2,0,5,0,0
122248,-80.6371,4,2,0,5,0,0
122252,-81.3863,4,2,0,5,0,0
122256,-82.1255,4,2,0,5,0,0
122260,-82.854,4,2,0,5,0,0
122263,-83.5709,4,2,0,5,0,0
122267,-84.2757,4,2,0,5,0,0
122271,-84.9675,4,2,0,5,0,0
122275,-85.6458,4,2,0,5,0,0
122278,-86.3098,4,2,0,5,0,0
122282,-86.9591,4,2,0,5,0,0
122286,-87.593,4,2,0,5,0,0
122290,-88.211,4,2,0,5,0,0
122293,-88.8128,4,2,0,5,0,0
122297,-89.3979,4,2,0,5,0,0
122301,-89.966,4,2,0,5,0,0
122305,-90.5168,4,2,0,5,0,0
122308,-91.05,4,2,0,5,0,0
122312,-91.5656,4,2,0,5,0,0
122316,-92.0633,4,2,0,5,0,0
122320,-92.5432,4,2,0,5,0,0
122323,-93.0052,4,2,0,5,0,0
122327,-93.4494,4,2,0,5,0,0
122331,-93.8761,4,2,0,5,0,0
122335,-94.2853,4,2,0,5,0,0
122338,-94.6774,4,2,0,5,0,0
122342,-95.0527,4,2,0,5,0,0
122346,-95.4116,4,2,0,5,0,0
122350,-95.7545,4,2,0,5,0,0
122353,-96.082,4,2,0,5,0,0
122357,-96.3945,4,2,0,5,0,0
122361,-96.6927,4,2,0,5,0,0
122365,-96.9773,4,2,0,5,0,0
122368,-97.249,4,2,0,5,0,0
122372,-97.5086,4,2,0,5,0,0
122376,-97.7567,4,2,0,5,0,0
122380,-97.9943,4,2,0,5,0,0
122383,-98.2223,4,2,0,5,0,0
122387,-98.4415,4,2,0,5,0,0
122391,-98.653,4,2,0,5,0,0
122395,-98.8576,4,2,0,5,0,0
122398,-99.0564,4,2,0,5,0,0
122402,-99.2504,4,2,0,5,0,0
122406,-99.4407,4,2,0,5,0,0
122410,-99.6283,4,2,0,5,0,0
122413,-99.8144,4,2,0,5,0,0
122417,-100,4,2,0,5,0,0
122463,-169.492,4,2,0,5,0,0
122576,-37.8788,4,2,0,5,0,0
122604,-100,4,2,0,5,0,0
122651,-169.492,4,2,0,5,0,0
122764,-37.8788,4,2,0,5,0,0
122792,-100,4,2,0,5,0,0
122838,-33.4448,4,2,0,5,0,0
122841,-34.0492,4,2,0,5,0,0
122845,-34.6755,4,2,0,5,0,0
122848,-35.3246,4,2,0,5,0,0
122851,-35.9974,4,2,0,5,0,0
122854,-36.695,4,2,0,5,0,0
122858,-37.4182,4,2,0,5,0,0
122861,-38.1682,4,2,0,5,0,0
122864,-38.9461,4,2,0,5,0,0
122868,-39.7529,4,2,0,5,0,0
122871,-40.59,4,2,0,5,0,0
122874,-41.4587,4,2,0,5,0,0
122877,-42.3601,4,2,0,5,0,0
122881,-43.2957,4,2,0,5,0,0
122884,-44.267,4,2,0,5,0,0
122887,-45.2754,4,2,0,5,0,0
122891,-46.3225,4,2,0,5,0,0
122894,-47.4101,4,2,0,5,0,0
122897,-48.5397,4,2,0,5,0,0
122901,-49.7131,4,2,0,5,0,0
122904,-50.9324,4,2,0,5,0,0
122907,-52.1993,4,2,0,5,0,0
122910,-53.5159,4,2,0,5,0,0
122914,-54.8843,4,2,0,5,0,0
122917,-56.3067,4,2,0,5,0,0
122920,-57.7853,4,2,0,5,0,0
122924,-59.3225,4,2,0,5,0,0
122927,-60.9207,4,2,0,5,0,0
122930,-62.5823,4,2,0,5,0,0
122933,-64.3101,4,2,0,5,0,0
122937,-66.1066,4,2,0,5,0,0
122940,-67.9745,4,2,0,5,0,0
122943,-69.9167,4,2,0,5,0,0
122947,-71.9359,4,2,0,5,0,0
122950,-74.0351,4,2,0,5,0,0
122953,-76.2171,4,2,0,5,0,0
122956,-78.485,4,2,0,5,0,0
122960,-80.8416,4,2,0,5,0,0
122963,-83.2899,4,2,0,5,0,0
122966,-85.8329,4,2,0,5,0,0
122970,-88.4733,4,2,0,5,0,0
122973,-91.214,4,2,0,5,0,0
122976,-94.0576,4,2,0,5,0,0
122979,-97.0066,4,2,0,5,0,0
122983,-100.063,4,2,0,5,0,0
122986,-103.23,4,2,0,5,0,0
122989,-106.508,4,2,0,5,0,0
122993,-109.899,4,2,0,5,0,0
122996,-113.404,4,2,0,5,0,0
122999,-117.024,4,2,0,5,0,0
123003,-120.758,4,2,0,5,0,0
123006,-124.607,4,2,0,5,0,0
123009,-128.568,4,2,0,5,0,0
123012,-132.639,4,2,0,5,0,0
123016,-136.818,4,2,0,5,0,0
123019,-141.101,4,2,0,5,0,0
123022,-145.483,4,2,0,5,0,0
123026,-149.957,4,2,0,5,0,0
123029,-154.517,4,2,0,5,0,0
123032,-159.154,4,2,0,5,0,0
123035,-163.858,4,2,0,5,0,0
123039,-168.618,4,2,0,5,0,0
123042,-173.423,4,2,0,5,0,0
123045,-178.257,4,2,0,5,0,0
123049,-183.107,4,2,0,5,0,0
123052,-187.955,4,2,0,5,0,0
123055,-192.785,4,2,0,5,0,0
123058,-197.579,4,2,0,5,0,0
123062,-202.317,4,2,0,5,0,0
123065,-206.98,4,2,0,5,0,0
123068,-211.547,4,2,0,5,0,0
123072,-215.999,4,2,0,5,0,0
123075,-220.315,4,2,0,5,0,0
123078,-224.477,4,2,0,5,0,0
123081,-228.466,4,2,0,5,0,0
123085,-232.264,4,2,0,5,0,0
123088,-235.855,4,2,0,5,0,0
123091,-239.226,4,2,0,5,0,0
123095,-242.363,4,2,0,5,0,0
123098,-245.257,4,2,0,5,0,0
123101,-247.9,4,2,0,5,0,0
123104,-250.288,4,2,0,5,0,0
123108,-252.416,4,2,0,5,0,0
123111,-254.287,4,2,0,5,0,0
123114,-255.901,4,2,0,5,0,0
123118,-257.264,4,2,0,5,0,0
123121,-258.384,4,2,0,5,0,0
123124,-259.27,4,2,0,5,0,0
123128,-259.934,4,2,0,5,0,0
123131,-260.388,4,2,0,5,0,0
123134,-260.649,4,2,0,5,0,0
123137,-260.731,4,2,0,5,0,0
123141,-260.651,4,2,0,5,0,0
123144,-260.429,4,2,0,5,0,0
123147,-260.081,4,2,0,5,0,0
123151,-25,4,2,0,5,0,0
123167,-10,4,2,0,5,0,0
123190,-66.6667,4,2,0,5,0,0
123205,-66.8896,4,2,0,5,0,0
123220,-67.1141,4,2,0,5,0,0
123234,-67.3401,4,2,0,5,0,0
123249,-67.5676,4,2,0,5,0,0
123264,-67.7966,4,2,0,5,0,0
123279,-68.0272,4,2,0,5,0,0
123293,-68.2594,4,2,0,5,0,0
123308,-68.4932,4,2,0,5,0,0
123323,-68.7285,4,2,0,5,0,0
123338,-68.9655,4,2,0,5,0,0
123352,-69.2042,4,2,0,5,0,0
123367,-69.4444,4,2,0,5,0,0
123382,-69.6864,4,2,0,5,0,0
123397,-69.9301,4,2,0,5,0,0
123412,-70.1754,4,2,0,5,0,0
123426,-70.4225,4,2,0,5,0,0
123441,-70.6714,4,2,0,5,0,0
123456,-70.922,4,2,0,5,0,0
123471,-71.1744,4,2,0,5,0,0
123485,-71.4286,4,2,0,5,0,0
123500,-71.6846,4,2,0,5,0,0
123515,-71.9424,4,2,0,5,0,0
123530,-72.2022,4,2,0,5,0,0
123544,-72.4638,4,2,0,5,0,0
123559,-72.7273,4,2,0,5,0,0
123574,-72.9927,4,2,0,5,0,0
123589,-73.2601,4,2,0,5,0,0
123604,-73.5294,4,2,0,5,0,0
123618,-73.8007,4,2,0,5,0,0
123633,-74.0741,4,2,0,5,0,0
123648,-74.3494,4,2,0,5,0,0
123663,-74.6269,4,2,0,5,0,0
123677,-74.9064,4,2,0,5,0,0
123692,-75.188,4,2,0,5,0,0
123707,-75.4717,4,2,0,5,0,0
123722,-75.7576,4,2,0,5,0,0
123736,-76.0456,4,2,0,5,0,0
123751,-76.3359,4,2,0,5,0,0
123766,-76.6284,4,2,0,5,0,0
123781,-76.9231,4,2,0,5,0,0
123796,-77.2201,4,2,0,5,0,0
123810,-77.5194,4,2,0,5,0,0
123825,-77.821,4,2,0,5,0,0
123840,-78.125,4,2,0,5,0,0
123855,-78.4314,4,2,0,5,0,0
123869,-78.7402,4,2,0,5,0,0
123884,-79.0514,4,2,0,5,0,0
123899,-79.3651,4,2,0,5,0,0
123914,-79.6813,4,2,0,5,0,0
123929,-80,4,2,0,5,0,0
123943,-80.3213,4,2,0,5,0,0
123958,-80.6452,4,2,0,5,0,0
123973,-80.9717,4,2,0,5,0,0
123988,-81.3008,4,2,0,5,0,0
124002,-81.6327,4,2,0,5,0,0
124017,-81.9672,4,2,0,5,0,0
124032,-82.3045,4,2,0,5,0,0
124047,-82.6446,4,2,0,5,0,0
124061,-82.9876,4,2,0,5,0,0
124076,-83.3333,4,2,0,5,0,0
124091,-83.682,4,2,0,5,0,0
124106,-84.0336,4,2,0,5,0,0
124121,-84.3882,4,2,0,5,0,0
124135,-84.7458,4,2,0,5,0,0
124150,-85.1064,4,2,0,5,0,0
124165,-85.4701,4,2,0,5,0,0
124180,-85.8369,4,2,0,5,0,0
124194,-86.2069,4,2,0,5,0,0
124209,-86.5801,4,2,0,5,0,0
124224,-86.9565,4,2,0,5,0,0
124239,-87.3362,4,2,0,5,0,0
124253,-87.7193,4,2,0,5,0,0
124268,-88.1057,4,2,0,5,0,0
124283,-88.4956,4,2,0,5,0,0
124298,-88.8889,4,2,0,5,0,0
124313,-89.2857,4,2,0,5,0,0
124327,-89.6861,4,2,0,5,0,0
124342,-90.0901,4,2,0,5,0,0
124357,-90.4977,4,2,0,5,0,0
124372,-90.9091,4,2,0,5,0,0
124386,-91.3242,4,2,0,5,0,0
124401,-91.7431,4,2,0,5,0,0
124416,-92.1659,4,2,0,5,0,0
124431,-92.5926,4,2,0,5,0,0
124445,-93.0233,4,2,0,5,0,0
124460,-93.4579,4,2,0,5,0,0
124475,-93.8967,4,2,0,5,0,0
124490,-94.3396,4,2,0,5,0,0
124505,-94.7867,4,2,0,5,0,0
124519,-95.2381,4,2,0,5,0,0
124534,-95.6938,4,2,0,5,0,0
124549,-96.1538,4,2,0,5,0,0
124564,-96.6184,4,2,0,5,0,0
124578,-97.0874,4,2,0,5,0,0
124593,-97.561,4,2,0,5,0,0
124608,-98.0392,4,2,0,5,0,0
124623,-98.5222,4,2,0,5,0,0
124637,-99.0099,4,2,0,5,0,0
124652,-99.5025,4,2,0,5,0,0
124667,-20.7039,4,2,0,5,0,0
124676,-984.204,4,2,0,5,0,0
124713,-20.7039,4,2,0,5,0,0
124722,-984.204,4,2,0,5,0,0
124760,-20.7039,4,2,0,5,0,0
124769,-984.204,4,2,0,5,0,0
124807,-20.7039,4,2,0,5,0,0
124816,-984.204,4,2,0,5,0,0
124854,-20.7039,4,2,0,5,0,0
124863,-984.204,4,2,0,5,0,0
124901,-20.7039,4,2,0,5,0,0
124910,-984.204,4,2,0,5,0,0
124948,-20.7039,4,2,0,5,0,0
124957,-984.204,4,2,0,5,0,0
124995,-20.7039,4,2,0,5,0,0
125004,-984.204,4,2,0,5,0,0
125042,-100,4,2,0,5,0,0
125229,-12.0773,4,2,0,5,0,0
125239,-997.758,4,2,0,5,0,0
125323,-12.0773,4,2,0,5,0,0
125333,-997.758,4,2,0,5,0,0
125417,-12.0773,4,2,0,5,0,0
125427,-997.758,4,2,0,5,0,0
125510,-12.0773,4,2,0,5,0,0
125520,-997.758,4,2,0,5,0,0
125604,-12.0773,4,2,0,5,0,0
125614,-997.758,4,2,0,5,0,0
125698,-12.0773,4,2,0,5,0,0
125708,-997.758,4,2,0,5,0,0
125792,-1000,4,2,0,5,0,0
125962,-10,4,2,0,5,0,0
125979,-1000,4,2,0,5,0,0
126150,-10,4,2,0,5,0,0
126167,-100,4,2,0,5,0,0
126178,-100.503,4,2,0,5,0,0
126190,-101.01,4,2,0,5,0,0
126201,-101.523,4,2,0,5,0,0
126212,-102.041,4,2,0,5,0,0
126223,-102.564,4,2,0,5,0,0
126235,-103.093,4,2,0,5,0,0
126246,-103.627,4,2,0,5,0,0
126257,-104.167,4,2,0,5,0,0
126268,-104.712,4,2,0,5,0,0
126280,-105.263,4,2,0,5,0,0
126291,-105.82,4,2,0,5,0,0
126302,-106.383,4,2,0,5,0,0
126313,-106.952,4,2,0,5,0,0
126325,-107.527,4,2,0,5,0,0
126336,-108.108,4,2,0,5,0,0
126347,-108.696,4,2,0,5,0,0
126358,-109.29,4,2,0,5,0,0
126370,-109.89,4,2,0,5,0,0
126381,-110.497,4,2,0,5,0,0
126392,-111.111,4,2,0,5,0,0
126403,-111.732,4,2,0,5,0,0
126415,-112.36,4,2,0,5,0,0
126426,-112.994,4,2,0,5,0,0
126437,-113.636,4,2,0,5,0,0
126448,-114.286,4,2,0,5,0,0
126460,-114.943,4,2,0,5,0,0
126471,-115.607,4,2,0,5,0,0
126482,-116.279,4,2,0,5,0,0
126493,-116.959,4,2,0,5,0,0
126505,-117.647,4,2,0,5,0,0
126516,-118.343,4,2,0,5,0,0
126527,-119.048,4,2,0,5,0,0
126538,-119.76,4,2,0,5,0,0
126550,-120.482,4,2,0,5,0,0
126561,-121.212,4,2,0,5,0,0
126572,-121.951,4,2,0,5,0,0
126583,-122.699,4,2,0,5,0,0
126595,-123.457,4,2,0,5,0,0
126606,-124.224,4,2,0,5,0,0
126617,-125,4,2,0,5,0,0
126628,-125.786,4,2,0,5,0,0
126640,-126.582,4,2,0,5,0,0
126651,-127.389,4,2,0,5,0,0
126662,-128.205,4,2,0,5,0,0
126673,-129.032,4,2,0,5,0,0
126685,-129.87,4,2,0,5,0,0
126696,-130.719,4,2,0,5,0,0
126707,-131.579,4,2,0,5,0,0
126718,-132.45,4,2,0,5,0,0
126730,-133.333,4,2,0,5,0,0
126741,-134.228,4,2,0,5,0,0
126752,-135.135,4,2,0,5,0,0
126763,-136.054,4,2,0,5,0,0
126775,-136.986,4,2,0,5,0,0
126786,-137.931,4,2,0,5,0,0
126797,-138.889,4,2,0,5,0,0
126808,-139.86,4,2,0,5,0,0
126820,-140.845,4,2,0,5,0,0
126831,-141.844,4,2,0,5,0,0
126842,-142.857,4,2,0,5,0,0
126853,-143.885,4,2,0,5,0,0
126865,-144.928,4,2,0,5,0,0
126876,-145.985,4,2,0,5,0,0
126887,-147.059,4,2,0,5,0,0
126898,-148.148,4,2,0,5,0,0
126910,-149.254,4,2,0,5,0,0
126921,-150.376,4,2,0,5,0,0
126932,-151.515,4,2,0,5,0,0
126943,-152.672,4,2,0,5,0,0
126955,-153.846,4,2,0,5,0,0
126966,-155.039,4,2,0,5,0,0
126977,-156.25,4,2,0,5,0,0
126988,-157.48,4,2,0,5,0,0
127000,-158.73,4,2,0,5,0,0
127011,-160,4,2,0,5,0,0
127022,-161.29,4,2,0,5,0,0
127033,-162.602,4,2,0,5,0,0
127045,-163.934,4,2,0,5,0,0
127056,-165.289,4,2,0,5,0,0
127067,-166.667,4,2,0,5,0,0
127078,-168.067,4,2,0,5,0,0
127090,-169.492,4,2,0,5,0,0
127101,-170.94,4,2,0,5,0,0
127112,-172.414,4,2,0,5,0,0
127123,-173.913,4,2,0,5,0,0
127135,-175.439,4,2,0,5,0,0
127146,-176.991,4,2,0,5,0,0
127157,-178.571,4,2,0,5,0,0
127168,-180.18,4,2,0,5,0,0
127180,-181.818,4,2,0,5,0,0
127191,-183.486,4,2,0,5,0,0
127202,-185.185,4,2,0,5,0,0
127213,-186.916,4,2,0,5,0,0
127225,-188.679,4,2,0,5,0,0
127236,-190.476,4,2,0,5,0,0
127247,-192.308,4,2,0,5,0,0
127258,-194.175,4,2,0,5,0,0
127270,-196.078,4,2,0,5,0,0
127292,-200,4,2,0,5,0,0
127300,-194.07,4,2,0,5,0,0
127307,-188.481,4,2,0,5,0,0
127315,-183.202,4,2,0,5,0,0
127322,-178.208,4,2,0,5,0,0
127330,-173.475,4,2,0,5,0,0
127337,-168.983,4,2,0,5,0,0
127345,-164.713,4,2,0,5,0,0
127352,-160.648,4,2,0,5,0,0
127360,-156.772,4,2,0,5,0,0
127367,-153.073,4,2,0,5,0,0
127375,-149.537,4,2,0,5,0,0
127382,-146.154,4,2,0,5,0,0
127390,-142.914,4,2,0,5,0,0
127397,-139.806,4,2,0,5,0,0
127405,-136.823,4,2,0,5,0,0
127412,-133.956,4,2,0,5,0,0
127420,-131.199,4,2,0,5,0,0
127427,-128.545,4,2,0,5,0,0
127435,-125.988,4,2,0,5,0,0
127442,-123.522,4,2,0,5,0,0
127450,-121.142,4,2,0,5,0,0
127457,-118.844,4,2,0,5,0,0
127465,-116.623,4,2,0,5,0,0
127472,-114.475,4,2,0,5,0,0
127480,-112.396,4,2,0,5,0,0
127487,-110.383,4,2,0,5,0,0
127495,-108.432,4,2,0,5,0,0
127502,-106.54,4,2,0,5,0,0
127510,-104.706,4,2,0,5,0,0
127517,-102.925,4,2,0,5,0,0
127525,-101.195,4,2,0,5,0,0
127532,-99.515,4,2,0,5,0,0
127540,-97.8816,4,2,0,5,0,0
127547,-96.2932,4,2,0,5,0,0
127555,-94.7478,4,2,0,5,0,0
127562,-93.2436,4,2,0,5,0,0
127570,-91.7789,4,2,0,5,0,0
127577,-90.3522,4,2,0,5,0,0
127585,-88.9619,4,2,0,5,0,0
127592,-87.6067,4,2,0,5,0,0
127600,-86.2852,4,2,0,5,0,0
127607,-84.9962,4,2,0,5,0,0
127615,-83.7385,4,2,0,5,0,0
127622,-82.5109,4,2,0,5,0,0
127630,-81.3125,4,2,0,5,0,0
127637,-80.1421,4,2,0,5,0,0
127645,-78.9989,4,2,0,5,0,0
127652,-77.8819,4,2,0,5,0,0
127660,-76.7902,4,2,0,5,0,0
127667,-75.7232,4,2,0,5,0,0
127675,-74.6799,4,2,0,5,0,0
127682,-73.6596,4,2,0,5,0,0
127690,-72.6617,4,2,0,5,0,0
127697,-71.6854,4,2,0,5,0,0
127705,-70.7302,4,2,0,5,0,0
127712,-69.7953,4,2,0,5,0,0
127720,-68.8803,4,2,0,5,0,0
127727,-67.9845,4,2,0,5,0,0
127735,-67.1075,4,2,0,5,0,0
127742,-66.2486,4,2,0,5,0,0
127750,-65.4075,4,2,0,5,0,0
127757,-64.5836,4,2,0,5,0,0
127765,-63.7765,4,2,0,5,0,0
127772,-62.9858,4,2,0,5,0,0
127780,-62.211,4,2,0,5,0,0
127787,-61.4517,4,2,0,5,0,0
127795,-60.7075,4,2,0,5,0,0
127802,-59.9782,4,2,0,5,0,0
127810,-59.2632,4,2,0,5,0,0
127817,-58.5623,4,2,0,5,0,0
127825,-57.8751,4,2,0,5,0,0
127832,-57.2013,4,2,0,5,0,0
127840,-56.5407,4,2,0,5,0,0
127847,-55.8928,4,2,0,5,0,0
127855,-55.2574,4,2,0,5,0,0
127862,-54.6342,4,2,0,5,0,0
127870,-54.0229,4,2,0,5,0,0
127877,-53.4234,4,2,0,5,0,0
127885,-52.8352,4,2,0,5,0,0
127892,-52.2582,4,2,0,5,0,0
127900,-51.6922,4,2,0,5,0,0
127907,-51.1368,4,2,0,5,0,0
127915,-50.5919,4,2,0,5,0,0
127922,-50.0572,4,2,0,5,0,0
127930,-49.5326,4,2,0,5,0,0
127937,-49.0177,4,2,0,5,0,0
127945,-48.5125,4,2,0,5,0,0
127952,-48.0167,4,2,0,5,0,0
127960,-47.5301,4,2,0,5,0,0
127967,-47.0525,4,2,0,5,0,0
127975,-46.5838,4,2,0,5,0,0
127982,-46.1238,4,2,0,5,0,0
127990,-45.6722,4,2,0,5,0,0
127997,-45.2289,4,2,0,5,0,0
128005,-44.7938,4,2,0,5,0,0
128012,-44.3667,4,2,0,5,0,0
128020,-43.9474,4,2,0,5,0,0
128027,-43.5358,4,2,0,5,0,0
128035,-43.1317,4,2,0,5,0,0
128042,-42.735,4,2,0,5,0,0
128229,-10,4,2,0,5,0,0
128252,-133.333333333333,4,2,0,5,0,0
128463,-169.492,4,2,0,5,0,0
128576,-37.8788,4,2,0,5,0,0
128604,-100,4,2,0,5,0,0
128651,-169.492,4,2,0,5,0,0
128764,-37.8788,4,2,0,5,0,0
128792,-100,4,2,0,5,0,0
128838,-33.4448,4,2,0,5,0,0
128841,-34.0492,4,2,0,5,0,0
128845,-34.6755,4,2,0,5,0,0
128848,-35.3246,4,2,0,5,0,0
128851,-35.9974,4,2,0,5,0,0
128854,-36.695,4,2,0,5,0,0
128858,-37.4182,4,2,0,5,0,0
128861,-38.1682,4,2,0,5,0,0
128864,-38.9461,4,2,0,5,0,0
128868,-39.7529,4,2,0,5,0,0
128871,-40.59,4,2,0,5,0,0
128874,-41.4587,4,2,0,5,0,0
128877,-42.3601,4,2,0,5,0,0
128881,-43.2957,4,2,0,5,0,0
128884,-44.267,4,2,0,5,0,0
128887,-45.2754,4,2,0,5,0,0
128891,-46.3225,4,2,0,5,0,0
128894,-47.4101,4,2,0,5,0,0
128897,-48.5397,4,2,0,5,0,0
128901,-49.7131,4,2,0,5,0,0
128904,-50.9324,4,2,0,5,0,0
128907,-52.1993,4,2,0,5,0,0
128910,-53.5159,4,2,0,5,0,0
128914,-54.8843,4,2,0,5,0,0
128917,-56.3067,4,2,0,5,0,0
128920,-57.7853,4,2,0,5,0,0
128924,-59.3225,4,2,0,5,0,0
128927,-60.9207,4,2,0,5,0,0
128930,-62.5823,4,2,0,5,0,0
128933,-64.3101,4,2,0,5,0,0
128937,-66.1066,4,2,0,5,0,0
128940,-67.9745,4,2,0,5,0,0
128943,-69.9167,4,2,0,5,0,0
128947,-71.9359,4,2,0,5,0,0
128950,-74.0351,4,2,0,5,0,0
128953,-76.2171,4,2,0,5,0,0
128956,-78.485,4,2,0,5,0,0
128960,-80.8416,4,2,0,5,0,0
128963,-83.2899,4,2,0,5,0,0
128966,-85.8329,4,2,0,5,0,0
128970,-88.4733,4,2,0,5,0,0
128973,-91.214,4,2,0,5,0,0
128976,-94.0576,4,2,0,5,0,0
128979,-97.0066,4,2,0,5,0,0
128983,-100.063,4,2,0,5,0,0
128986,-103.23,4,2,0,5,0,0
128989,-106.508,4,2,0,5,0,0
128993,-109.899,4,2,0,5,0,0
128996,-113.404,4,2,0,5,0,0
128999,-117.024,4,2,0,5,0,0
129003,-120.758,4,2,0,5,0,0
129006,-124.607,4,2,0,5,0,0
129009,-128.568,4,2,0,5,0,0
129012,-132.639,4,2,0,5,0,0
129016,-136.818,4,2,0,5,0,0
129019,-141.101,4,2,0,5,0,0
129022,-145.483,4,2,0,5,0,0
129026,-149.957,4,2,0,5,0,0
129029,-154.517,4,2,0,5,0,0
129032,-159.154,4,2,0,5,0,0
129035,-163.858,4,2,0,5,0,0
129039,-168.618,4,2,0,5,0,0
129042,-173.423,4,2,0,5,0,0
129045,-178.257,4,2,0,5,0,0
129049,-183.107,4,2,0,5,0,0
129052,-187.955,4,2,0,5,0,0
129055,-192.785,4,2,0,5,0,0
129058,-197.579,4,2,0,5,0,0
129062,-202.317,4,2,0,5,0,0
129065,-206.98,4,2,0,5,0,0
129068,-211.547,4,2,0,5,0,0
129072,-215.999,4,2,0,5,0,0
129075,-220.315,4,2,0,5,0,0
129078,-224.477,4,2,0,5,0,0
129081,-228.466,4,2,0,5,0,0
129085,-232.264,4,2,0,5,0,0
129088,-235.855,4,2,0,5,0,0
129091,-239.226,4,2,0,5,0,0
129095,-242.363,4,2,0,5,0,0
129098,-245.257,4,2,0,5,0,0
129101,-247.9,4,2,0,5,0,0
129104,-250.288,4,2,0,5,0,0
129108,-252.416,4,2,0,5,0,0
129111,-254.287,4,2,0,5,0,0
129114,-255.901,4,2,0,5,0,0
129118,-257.264,4,2,0,5,0,0
129121,-258.384,4,2,0,5,0,0
129124,-259.27,4,2,0,5,0,0
129128,-259.934,4,2,0,5,0,0
129131,-260.388,4,2,0,5,0,0
129134,-260.649,4,2,0,5,0,0
129137,-260.731,4,2,0,5,0,0
129141,-260.651,4,2,0,5,0,0
129144,-260.429,4,2,0,5,0,0
129147,-260.081,4,2,0,5,0,0
129151,-25,4,2,0,5,0,0
129167,-10,4,2,0,5,0,0
129190,-66.6667,4,2,0,5,0,0
129205,-66.8896,4,2,0,5,0,0
129220,-67.1141,4,2,0,5,0,0
129234,-67.3401,4,2,0,5,0,0
129249,-67.5676,4,2,0,5,0,0
129264,-67.7966,4,2,0,5,0,0
129279,-68.0272,4,2,0,5,0,0
129293,-68.2594,4,2,0,5,0,0
129308,-68.4932,4,2,0,5,0,0
129323,-68.7285,4,2,0,5,0,0
129338,-68.9655,4,2,0,5,0,0
129352,-69.2042,4,2,0,5,0,0
129367,-69.4444,4,2,0,5,0,0
129382,-69.6864,4,2,0,5,0,0
129397,-69.9301,4,2,0,5,0,0
129412,-70.1754,4,2,0,5,0,0
129426,-70.4225,4,2,0,5,0,0
129441,-70.6714,4,2,0,5,0,0
129456,-70.922,4,2,0,5,0,0
129471,-71.1744,4,2,0,5,0,0
129485,-71.4286,4,2,0,5,0,0
129500,-71.6846,4,2,0,5,0,0
129515,-71.9424,4,2,0,5,0,0
129530,-72.2022,4,2,0,5,0,0
129544,-72.4638,4,2,0,5,0,0
129559,-72.7273,4,2,0,5,0,0
129574,-72.9927,4,2,0,5,0,0
129589,-73.2601,4,2,0,5,0,0
129604,-73.5294,4,2,0,5,0,0
129618,-73.8007,4,2,0,5,0,0
129633,-74.0741,4,2,0,5,0,0
129648,-74.3494,4,2,0,5,0,0
129663,-74.6269,4,2,0,5,0,0
129677,-74.9064,4,2,0,5,0,0
129692,-75.188,4,2,0,5,0,0
129707,-75.4717,4,2,0,5,0,0
129722,-75.7576,4,2,0,5,0,0
129736,-76.0456,4,2,0,5,0,0
129751,-76.3359,4,2,0,5,0,0
129766,-76.6284,4,2,0,5,0,0
129781,-76.9231,4,2,0,5,0,0
129796,-77.2201,4,2,0,5,0,0
129810,-77.5194,4,2,0,5,0,0
129825,-77.821,4,2,0,5,0,0
129840,-78.125,4,2,0,5,0,0
129855,-78.4314,4,2,0,5,0,0
129869,-78.7402,4,2,0,5,0,0
129884,-79.0514,4,2,0,5,0,0
129899,-79.3651,4,2,0,5,0,0
129914,-79.6813,4,2,0,5,0,0
129929,-80,4,2,0,5,0,0
129943,-80.3213,4,2,0,5,0,0
129958,-80.6452,4,2,0,5,0,0
129973,-80.9717,4,2,0,5,0,0
129988,-81.3008,4,2,0,5,0,0
130002,-81.6327,4,2,0,5,0,0
130017,-81.9672,4,2,0,5,0,0
130032,-82.3045,4,2,0,5,0,0
130047,-82.6446,4,2,0,5,0,0
130061,-82.9876,4,2,0,5,0,0
130076,-83.3333,4,2,0,5,0,0
130091,-83.682,4,2,0,5,0,0
130106,-84.0336,4,2,0,5,0,0
130121,-84.3882,4,2,0,5,0,0
130135,-84.7458,4,2,0,5,0,0
130150,-85.1064,4,2,0,5,0,0
130165,-85.4701,4,2,0,5,0,0
130180,-85.8369,4,2,0,5,0,0
130194,-86.2069,4,2,0,5,0,0
130209,-86.5801,4,2,0,5,0,0
130224,-86.9565,4,2,0,5,0,0
130239,-87.3362,4,2,0,5,0,0
130253,-87.7193,4,2,0,5,0,0
130268,-88.1057,4,2,0,5,0,0
130283,-88.4956,4,2,0,5,0,0
130298,-88.8889,4,2,0,5,0,0
130313,-89.2857,4,2,0,5,0,0
130327,-89.6861,4,2,0,5,0,0
130342,-90.0901,4,2,0,5,0,0
130357,-90.4977,4,2,0,5,0,0
130372,-90.9091,4,2,0,5,0,0
130386,-91.3242,4,2,0,5,0,0
130401,-91.7431,4,2,0,5,0,0
130416,-92.1659,4,2,0,5,0,0
130431,-92.5926,4,2,0,5,0,0
130445,-93.0233,4,2,0,5,0,0
130460,-93.4579,4,2,0,5,0,0
130475,-93.8967,4,2,0,5,0,0
130490,-94.3396,4,2,0,5,0,0
130505,-94.7867,4,2,0,5,0,0
130519,-95.2381,4,2,0,5,0,0
130534,-95.6938,4,2,0,5,0,0
130549,-96.1538,4,2,0,5,0,0
130564,-96.6184,4,2,0,5,0,0
130578,-97.0874,4,2,0,5,0,0
130593,-97.561,4,2,0,5,0,0
130608,-98.0392,4,2,0,5,0,0
130623,-98.5222,4,2,0,5,0,0
130637,-99.0099,4,2,0,5,0,0
130652,-99.5025,4,2,0,5,0,0
130667,-20.7039,4,2,0,5,0,0
130676,-984.204,4,2,0,5,0,0
130713,-20.7039,4,2,0,5,0,0
130722,-984.204,4,2,0,5,0,0
130760,-20.7039,4,2,0,5,0,0
130769,-984.204,4,2,0,5,0,0
130807,-20.7039,4,2,0,5,0,0
130816,-984.204,4,2,0,5,0,0
130854,-20.7039,4,2,0,5,0,0
130863,-984.204,4,2,0,5,0,0
130901,-20.7039,4,2,0,5,0,0
130910,-984.204,4,2,0,5,0,0
130948,-20.7039,4,2,0,5,0,0
130957,-984.204,4,2,0,5,0,0
130995,-20.7039,4,2,0,5,0,0
131004,-984.204,4,2,0,5,0,0
131042,-142.857142857143,4,2,0,5,0,0
131792,-10,4,2,0,5,0,0
131794,-960,4,2,0,5,0,0
131838,-200,4,2,0,5,0,0
131979,-10,4,2,0,5,0,0
131983,-640,4,2,0,5,0,0
132073,-181.818,4,2,0,5,0,0
132167,-10,4,2,0,5,0,0
132172,-950,4,2,0,5,0,0
132260,-166.667,4,2,0,5,0,0
132448,-10,4,2,0,5,0,0
132453,-633.333,4,2,0,5,0,0
132542,-83.3333333333333,4,2,0,5,0,0
132589,-1000,4,2,0,5,0,0
132636,-141.593,4,2,0,5,0,0
132683,-136.17,4,2,0,5,0,0
132730,-131.148,4,2,0,5,0,0
132776,-126.482,4,2,0,5,0,0
132823,-71.4285714285714,4,2,0,5,0,0
132870,-714.285714285714,4,2,0,5,0,0
132917,-114.286,4,2,0,5,0,0
132964,-110.727,4,2,0,5,0,0
133011,-107.383,4,2,0,5,0,0
133058,-104.235,4,2,0,5,0,0
133105,-52.6315789473684,4,2,0,5,0,0
133151,-1000,4,2,0,5,0,0
133198,-95.8084,4,2,0,5,0,0
133245,-93.2945,4,2,0,5,0,0
133292,-90.9091,4,2,0,5,0,0
133339,-88.6427,4,2,0,5,0,0
133386,-46.2962962962963,4,2,0,5,0,0
133433,-1000,4,2,0,5,0,0
133480,-82.4742,4,2,0,5,0,0
133526,-80.6045,4,2,0,5,0,0
133573,-78.8177,4,2,0,5,0,0
133620,-77.1084,4,2,0,5,0,0
133667,-39.6825396825397,4,2,0,5,0,0
133714,-1000,4,2,0,5,0,0
133761,-72.3982,4,2,0,5,0,0
133808,-70.9534,4,2,0,5,0,0
133855,-69.5652,4,2,0,5,0,0
133901,-68.2303,4,2,0,5,0,0
133948,-66.9456,4,2,0,5,0,0
133995,-65.7084,4,2,0,5,0,0
134042,-25,4,2,0,5,0,0
134054,-26.2551,4,2,0,5,0,0
134065,-27.6373,4,2,0,5,0,0
134077,-29.1607,4,2,0,5,0,0
134089,-30.8411,4,2,0,5,0,0
134101,-32.6964,4,2,0,5,0,0
134112,-34.7465,4,2,0,5,0,0
134124,-37.0138,4,2,0,5,0,0
134136,-39.5233,4,2,0,5,0,0
134147,-42.3028,4,2,0,5,0,0
134159,-45.3834,4,2,0,5,0,0
134171,-48.7991,4,2,0,5,0,0
134183,-52.5875,4,2,0,5,0,0
134194,-56.7897,4,2,0,5,0,0
134206,-61.4499,4,2,0,5,0,0
134218,-66.6158,4,2,0,5,0,0
134230,-72.338,4,2,0,5,0,0
134241,-78.6693,4,2,0,5,0,0
134253,-85.6647,4,2,0,5,0,0
134265,-93.3809,4,2,0,5,0,0
134276,-101.875,4,2,0,5,0,0
134288,-111.208,4,2,0,5,0,0
134300,-121.44,4,2,0,5,0,0
134312,-132.642,4,2,0,5,0,0
134323,-144.895,4,2,0,5,0,0
134335,-158.304,4,2,0,5,0,0
134347,-173.014,4,2,0,5,0,0
134358,-189.236,4,2,0,5,0,0
134370,-207.286,4,2,0,5,0,0
134382,-227.648,4,2,0,5,0,0
134394,-251.068,4,2,0,5,0,0
134405,-278.721,4,2,0,5,0,0
134417,-100,4,2,0,5,0,0
134463,-169.491525423729,4,2,0,5,0,0
134576,-37.8788,4,2,0,5,0,0
134604,-100,4,2,0,5,0,0
134651,-169.492,4,2,0,5,0,0
134764,-37.8788,4,2,0,5,0,0
134792,-100,4,2,0,5,0,0
134838,-33.4448,4,2,0,5,0,0
134841,-34.0492,4,2,0,5,0,0
134845,-34.6755,4,2,0,5,0,0
134848,-35.3246,4,2,0,5,0,0
134851,-35.9974,4,2,0,5,0,0
134854,-36.695,4,2,0,5,0,0
134858,-37.4182,4,2,0,5,0,0
134861,-38.1682,4,2,0,5,0,0
134864,-38.9461,4,2,0,5,0,0
134868,-39.7529,4,2,0,5,0,0
134871,-40.59,4,2,0,5,0,0
134874,-41.4587,4,2,0,5,0,0
134877,-42.3601,4,2,0,5,0,0
134881,-43.2957,4,2,0,5,0,0
134884,-44.267,4,2,0,5,0,0
134887,-45.2754,4,2,0,5,0,0
134891,-46.3225,4,2,0,5,0,0
134894,-47.4101,4,2,0,5,0,0
134897,-48.5397,4,2,0,5,0,0
134901,-49.7131,4,2,0,5,0,0
134904,-50.9324,4,2,0,5,0,0
134907,-52.1993,4,2,0,5,0,0
134910,-53.5159,4,2,0,5,0,0
134914,-54.8843,4,2,0,5,0,0
134917,-56.3067,4,2,0,5,0,0
134920,-57.7853,4,2,0,5,0,0
134924,-59.3225,4,2,0,5,0,0
134927,-60.9207,4,2,0,5,0,0
134930,-62.5823,4,2,0,5,0,0
134933,-64.3101,4,2,0,5,0,0
134937,-66.1066,4,2,0,5,0,0
134940,-67.9745,4,2,0,5,0,0
134943,-69.9167,4,2,0,5,0,0
134947,-71.9359,4,2,0,5,0,0
134950,-74.0351,4,2,0,5,0,0
134953,-76.2171,4,2,0,5,0,0
134956,-78.485,4,2,0,5,0,0
134960,-80.8416,4,2,0,5,0,0
134963,-83.2899,4,2,0,5,0,0
134966,-85.8329,4,2,0,5,0,0
134970,-88.4733,4,2,0,5,0,0
134973,-91.214,4,2,0,5,0,0
134976,-94.0576,4,2,0,5,0,0
134979,-97.0066,4,2,0,5,0,0
134983,-100.063,4,2,0,5,0,0
134986,-103.23,4,2,0,5,0,0
134989,-106.508,4,2,0,5,0,0
134993,-109.899,4,2,0,5,0,0
134996,-113.404,4,2,0,5,0,0
134999,-117.024,4,2,0,5,0,0
135003,-120.758,4,2,0,5,0,0
135006,-124.607,4,2,0,5,0,0
135009,-128.568,4,2,0,5,0,0
135012,-132.639,4,2,0,5,0,0
135016,-136.818,4,2,0,5,0,0
135019,-141.101,4,2,0,5,0,0
135022,-145.483,4,2,0,5,0,0
135026,-149.957,4,2,0,5,0,0
135029,-154.517,4,2,0,5,0,0
135032,-159.154,4,2,0,5,0,0
135035,-163.858,4,2,0,5,0,0
135039,-168.618,4,2,0,5,0,0
135042,-173.423,4,2,0,5,0,0
135045,-178.257,4,2,0,5,0,0
135049,-183.107,4,2,0,5,0,0
135052,-187.955,4,2,0,5,0,0
135055,-192.785,4,2,0,5,0,0
135058,-197.579,4,2,0,5,0,0
135062,-202.317,4,2,0,5,0,0
135065,-206.98,4,2,0,5,0,0
135068,-211.547,4,2,0,5,0,0
135072,-215.999,4,2,0,5,0,0
135075,-220.315,4,2,0,5,0,0
135078,-224.477,4,2,0,5,0,0
135081,-228.466,4,2,0,5,0,0
135085,-232.264,4,2,0,5,0,0
135088,-235.855,4,2,0,5,0,0
135091,-239.226,4,2,0,5,0,0
135095,-242.363,4,2,0,5,0,0
135098,-245.257,4,2,0,5,0,0
135101,-247.9,4,2,0,5,0,0
135104,-250.288,4,2,0,5,0,0
135108,-252.416,4,2,0,5,0,0
135111,-254.287,4,2,0,5,0,0
135114,-255.901,4,2,0,5,0,0
135118,-257.264,4,2,0,5,0,0
135121,-258.384,4,2,0,5,0,0
135124,-259.27,4,2,0,5,0,0
135128,-259.934,4,2,0,5,0,0
135131,-260.388,4,2,0,5,0,0
135134,-260.649,4,2,0,5,0,0
135137,-260.731,4,2,0,5,0,0
135141,-260.651,4,2,0,5,0,0
135144,-260.429,4,2,0,5,0,0
135147,-260.081,4,2,0,5,0,0
135151,-25,4,2,0,5,0,0
135167,-10,4,2,0,5,0,0
135213,-50,4,2,0,5,0,0
135228,-50.2513,4,2,0,5,0,0
135242,-50.5051,4,2,0,5,0,0
135257,-50.7614,4,2,0,5,0,0
135271,-51.0204,4,2,0,5,0,0
135286,-51.2821,4,2,0,5,0,0
135300,-51.5464,4,2,0,5,0,0
135315,-51.8135,4,2,0,5,0,0
135329,-52.0833,4,2,0,5,0,0
135344,-52.356,4,2,0,5,0,0
135358,-52.6316,4,2,0,5,0,0
135373,-52.9101,4,2,0,5,0,0
135387,-53.1915,4,2,0,5,0,0
135402,-53.4759,4,2,0,5,0,0
135417,-53.7634,4,2,0,5,0,0
135431,-54.0541,4,2,0,5,0,0
135446,-54.3478,4,2,0,5,0,0
135460,-54.6448,4,2,0,5,0,0
135475,-54.9451,4,2,0,5,0,0
135489,-55.2486,4,2,0,5,0,0
135504,-55.5556,4,2,0,5,0,0
135518,-55.8659,4,2,0,5,0,0
135533,-56.1798,4,2,0,5,0,0
135547,-56.4972,4,2,0,5,0,0
135562,-56.8182,4,2,0,5,0,0
135577,-57.1429,4,2,0,5,0,0
135591,-57.4713,4,2,0,5,0,0
135606,-57.8035,4,2,0,5,0,0
135620,-58.1395,4,2,0,5,0,0
135635,-58.4795,4,2,0,5,0,0
135649,-58.8235,4,2,0,5,0,0
135664,-59.1716,4,2,0,5,0,0
135678,-59.5238,4,2,0,5,0,0
135693,-59.8802,4,2,0,5,0,0
135707,-60.241,4,2,0,5,0,0
135722,-60.6061,4,2,0,5,0,0
135736,-60.9756,4,2,0,5,0,0
135751,-61.3497,4,2,0,5,0,0
135766,-61.7284,4,2,0,5,0,0
135780,-62.1118,4,2,0,5,0,0
135795,-62.5,4,2,0,5,0,0
135809,-62.8931,4,2,0,5,0,0
135824,-63.2911,4,2,0,5,0,0
135838,-63.6943,4,2,0,5,0,0
135853,-64.1026,4,2,0,5,0,0
135867,-64.5161,4,2,0,5,0,0
135882,-64.9351,4,2,0,5,0,0
135896,-65.3595,4,2,0,5,0,0
135911,-65.7895,4,2,0,5,0,0
135925,-66.2252,4,2,0,5,0,0
135940,-66.6667,4,2,0,5,0,0
135955,-67.1141,4,2,0,5,0,0
135969,-67.5676,4,2,0,5,0,0
135984,-68.0272,4,2,0,5,0,0
135998,-68.4932,4,2,0,5,0,0
136013,-68.9655,4,2,0,5,0,0
136027,-69.4444,4,2,0,5,0,0
136042,-69.9301,4,2,0,5,0,0
136056,-70.4225,4,2,0,5,0,0
136071,-70.922,4,2,0,5,0,0
136085,-71.4286,4,2,0,5,0,0
136100,-71.9424,4,2,0,5,0,0
136114,-72.4638,4,2,0,5,0,0
136129,-72.9927,4,2,0,5,0,0
136144,-73.5294,4,2,0,5,0,0
136158,-74.0741,4,2,0,5,0,0
136173,-74.6269,4,2,0,5,0,0
136187,-75.188,4,2,0,5,0,0
136202,-75.7576,4,2,0,5,0,0
136216,-76.3359,4,2,0,5,0,0
136231,-76.9231,4,2,0,5,0,0
136245,-77.5194,4,2,0,5,0,0
136260,-78.125,4,2,0,5,0,0
136274,-78.7402,4,2,0,5,0,0
136289,-79.3651,4,2,0,5,0,0
136304,-80,4,2,0,5,0,0
136318,-80.6452,4,2,0,5,0,0
136333,-81.3008,4,2,0,5,0,0
136347,-81.9672,4,2,0,5,0,0
136362,-82.6446,4,2,0,5,0,0
136376,-83.3333,4,2,0,5,0,0
136391,-84.0336,4,2,0,5,0,0
136405,-84.7458,4,2,0,5,0,0
136420,-85.4701,4,2,0,5,0,0
136434,-86.2069,4,2,0,5,0,0
136449,-86.9565,4,2,0,5,0,0
136463,-87.7193,4,2,0,5,0,0
136478,-88.4956,4,2,0,5,0,0
136493,-89.2857,4,2,0,5,0,0
136507,-90.0901,4,2,0,5,0,0
136522,-90.9091,4,2,0,5,0,0
136536,-91.7431,4,2,0,5,0,0
136551,-92.5926,4,2,0,5,0,0
136565,-93.4579,4,2,0,5,0,0
136580,-94.3396,4,2,0,5,0,0
136594,-95.2381,4,2,0,5,0,0
136609,-96.1538,4,2,0,5,0,0
136623,-97.0874,4,2,0,5,0,0
136638,-98.0392,4,2,0,5,0,0
136652,-99.0099,4,2,0,5,0,0
136667,-12.0773,4,2,0,5,0,0
136672,-997.758,4,2,0,5,0,0
136713,-12.0773,4,2,0,5,0,0
136718,-997.758,4,2,0,5,0,0
136760,-12.0773,4,2,0,5,0,0
136765,-997.758,4,2,0,5,0,0
136807,-12.0773,4,2,0,5,0,0
136812,-997.758,4,2,0,5,0,0
136854,-12.0773,4,2,0,5,0,0
136859,-997.758,4,2,0,5,0,0
136901,-12.0773,4,2,0,5,0,0
136906,-997.758,4,2,0,5,0,0
136948,-12.0773,4,2,0,5,0,0
136953,-997.758,4,2,0,5,0,0
136995,-12.0773,4,2,0,5,0,0
137000,-997.758,4,2,0,5,0,0
137042,-312.5,4,2,0,5,0,0
137044,-312.589,4,2,0,5,0,0
137046,-312.653,4,2,0,5,0,0
137048,-312.669,4,2,0,5,0,0
137049,-312.611,4,2,0,5,0,0
137051,-312.455,4,2,0,5,0,0
137053,-312.178,4,2,0,5,0,0
137055,-311.756,4,2,0,5,0,0
137057,-311.166,4,2,0,5,0,0
137059,-310.388,4,2,0,5,0,0
137061,-309.4,4,2,0,5,0,0
137063,-308.184,4,2,0,5,0,0
137064,-306.724,4,2,0,5,0,0
137066,-305.003,4,2,0,5,0,0
137068,-303.011,4,2,0,5,0,0
137070,-300.737,4,2,0,5,0,0
137072,-298.174,4,2,0,5,0,0
137074,-295.319,4,2,0,5,0,0
137076,-292.172,4,2,0,5,0,0
137078,-288.734,4,2,0,5,0,0
137079,-285.011,4,2,0,5,0,0
137081,-281.012,4,2,0,5,0,0
137083,-276.749,4,2,0,5,0,0
137085,-272.236,4,2,0,5,0,0
137087,-267.49,4,2,0,5,0,0
137089,-262.529,4,2,0,5,0,0
137091,-257.375,4,2,0,5,0,0
137092,-252.049,4,2,0,5,0,0
137094,-246.575,4,2,0,5,0,0
137096,-240.977,4,2,0,5,0,0
137098,-235.277,4,2,0,5,0,0
137100,-229.5,4,2,0,5,0,0
137102,-223.67,4,2,0,5,0,0
137104,-217.808,4,2,0,5,0,0
137106,-211.937,4,2,0,5,0,0
137107,-206.077,4,2,0,5,0,0
137109,-200.247,4,2,0,5,0,0
137111,-194.464,4,2,0,5,0,0
137113,-188.745,4,2,0,5,0,0
137115,-183.104,4,2,0,5,0,0
137117,-177.553,4,2,0,5,0,0
137119,-172.103,4,2,0,5,0,0
137121,-166.765,4,2,0,5,0,0
137122,-161.546,4,2,0,5,0,0
137124,-156.453,4,2,0,5,0,0
137126,-151.492,4,2,0,5,0,0
137128,-146.665,4,2,0,5,0,0
137130,-141.977,4,2,0,5,0,0
137132,-137.43,4,2,0,5,0,0
137134,-133.023,4,2,0,5,0,0
137136,-128.758,4,2,0,5,0,0
137137,-124.634,4,2,0,5,0,0
137139,-120.65,4,2,0,5,0,0
137141,-116.804,4,2,0,5,0,0
137143,-113.094,4,2,0,5,0,0
137145,-109.517,4,2,0,5,0,0
137147,-106.071,4,2,0,5,0,0
137149,-102.752,4,2,0,5,0,0
137150,-99.5574,4,2,0,5,0,0
137152,-96.4835,4,2,0,5,0,0
137154,-93.5267,4,2,0,5,0,0
137156,-90.6833,4,2,0,5,0,0
137158,-87.9496,4,2,0,5,0,0
137160,-85.3218,4,2,0,5,0,0
137162,-82.7963,4,2,0,5,0,0
137164,-80.3694,4,2,0,5,0,0
137165,-78.0374,4,2,0,5,0,0
137167,-75.7967,4,2,0,5,0,0
137169,-73.6438,4,2,0,5,0,0
137171,-71.5753,4,2,0,5,0,0
137173,-69.5879,4,2,0,5,0,0
137175,-67.6783,4,2,0,5,0,0
137177,-65.8434,4,2,0,5,0,0
137179,-64.0801,4,2,0,5,0,0
137180,-62.3854,4,2,0,5,0,0
137182,-60.7567,4,2,0,5,0,0
137184,-59.191,4,2,0,5,0,0
137186,-57.6858,4,2,0,5,0,0
137188,-56.2386,4,2,0,5,0,0
137190,-54.8469,4,2,0,5,0,0
137192,-53.5084,4,2,0,5,0,0
137193,-52.221,4,2,0,5,0,0
137195,-50.9823,4,2,0,5,0,0
137197,-49.7905,4,2,0,5,0,0
137199,-48.6435,4,2,0,5,0,0
137201,-47.5394,4,2,0,5,0,0
137203,-46.4766,4,2,0,5,0,0
137205,-45.4532,4,2,0,5,0,0
137207,-44.4676,4,2,0,5,0,0
137208,-43.5184,4,2,0,5,0,0
137210,-42.6038,4,2,0,5,0,0
137212,-41.7227,4,2,0,5,0,0
137214,-40.8735,4,2,0,5,0,0
137216,-40.0551,4,2,0,5,0,0
137218,-39.266,4,2,0,5,0,0
137220,-38.5053,4,2,0,5,0,0
137222,-37.7717,4,2,0,5,0,0
137223,-37.0641,4,2,0,5,0,0
137225,-36.3816,4,2,0,5,0,0
137227,-35.7231,4,2,0,5,0,0
137229,-12.0773,4,2,0,5,0,0
137239,-997.758,4,2,0,5,0,0
137323,-1000,4,2,0,5,0,0
137407,-12.0746,4,2,0,5,0,0
137417,-12.0773,4,2,0,5,0,0
137427,-997.758,4,2,0,5,0,0
137511,-1000,4,2,0,5,0,0
137595,-12.0746,4,2,0,5,0,0
137604,-12.0773,4,2,0,5,0,0
137614,-997.758,4,2,0,5,0,0
137698,-1000,4,2,0,5,0,0
137782,-12.0746,4,2,0,5,0,0
137792,-1000,4,2,0,5,0,0
137958,-12.0746,4,2,0,5,0,0
137979,-1000,4,2,0,5,0,0
138146,-12.0746,4,2,0,5,0,0
138167,-50,4,2,0,5,0,0
138178,-50.2513,4,2,0,5,0,0
138190,-50.5051,4,2,0,5,0,0
138201,-50.7614,4,2,0,5,0,0
138212,-51.0204,4,2,0,5,0,0
138223,-51.2821,4,2,0,5,0,0
138235,-51.5464,4,2,0,5,0,0
138246,-51.8135,4,2,0,5,0,0
138257,-52.0833,4,2,0,5,0,0
138268,-52.356,4,2,0,5,0,0
138280,-52.6316,4,2,0,5,0,0
138291,-52.9101,4,2,0,5,0,0
138302,-53.1915,4,2,0,5,0,0
138313,-53.4759,4,2,0,5,0,0
138325,-53.7634,4,2,0,5,0,0
138336,-54.0541,4,2,0,5,0,0
138347,-54.3478,4,2,0,5,0,0
138358,-54.6448,4,2,0,5,0,0
138370,-54.9451,4,2,0,5,0,0
138381,-55.2486,4,2,0,5,0,0
138392,-55.5556,4,2,0,5,0,0
138403,-55.8659,4,2,0,5,0,0
138415,-56.1798,4,2,0,5,0,0
138426,-56.4972,4,2,0,5,0,0
138437,-56.8182,4,2,0,5,0,0
138448,-57.1429,4,2,0,5,0,0
138460,-57.4713,4,2,0,5,0,0
138471,-57.8035,4,2,0,5,0,0
138482,-58.1395,4,2,0,5,0,0
138493,-58.4795,4,2,0,5,0,0
138505,-58.8235,4,2,0,5,0,0
138516,-59.1716,4,2,0,5,0,0
138527,-59.5238,4,2,0,5,0,0
138538,-59.8802,4,2,0,5,0,0
138550,-60.241,4,2,0,5,0,0
138561,-60.6061,4,2,0,5,0,0
138572,-60.9756,4,2,0,5,0,0
138583,-61.3497,4,2,0,5,0,0
138595,-61.7284,4,2,0,5,0,0
138606,-62.1118,4,2,0,5,0,0
138617,-62.5,4,2,0,5,0,0
138628,-62.8931,4,2,0,5,0,0
138640,-63.2911,4,2,0,5,0,0
138651,-63.6943,4,2,0,5,0,0
138662,-64.1026,4,2,0,5,0,0
138673,-64.5161,4,2,0,5,0,0
138685,-64.9351,4,2,0,5,0,0
138696,-65.3595,4,2,0,5,0,0
138707,-65.7895,4,2,0,5,0,0
138718,-66.2252,4,2,0,5,0,0
138730,-66.6667,4,2,0,5,0,0
138741,-67.1141,4,2,0,5,0,0
138752,-67.5676,4,2,0,5,0,0
138763,-68.0272,4,2,0,5,0,0
138775,-68.4932,4,2,0,5,0,0
138786,-68.9655,4,2,0,5,0,0
138797,-69.4444,4,2,0,5,0,0
138808,-69.9301,4,2,0,5,0,0
138820,-70.4225,4,2,0,5,0,0
138831,-70.922,4,2,0,5,0,0
138842,-71.4286,4,2,0,5,0,0
138853,-71.9424,4,2,0,5,0,0
138865,-72.4638,4,2,0,5,0,0
138876,-72.9927,4,2,0,5,0,0
138887,-73.5294,4,2,0,5,0,0
138898,-74.0741,4,2,0,5,0,0
138910,-74.6269,4,2,0,5,0,0
138921,-75.188,4,2,0,5,0,0
138932,-75.7576,4,2,0,5,0,0
138943,-76.3359,4,2,0,5,0,0
138955,-76.9231,4,2,0,5,0,0
138966,-77.5194,4,2,0,5,0,0
138977,-78.125,4,2,0,5,0,0
138988,-78.7402,4,2,0,5,0,0
139000,-79.3651,4,2,0,5,0,0
139011,-80,4,2,0,5,0,0
139022,-80.6452,4,2,0,5,0,0
139033,-81.3008,4,2,0,5,0,0
139045,-81.9672,4,2,0,5,0,0
139056,-82.6446,4,2,0,5,0,0
139067,-83.3333,4,2,0,5,0,0
139078,-84.0336,4,2,0,5,0,0
139090,-84.7458,4,2,0,5,0,0
139101,-85.4701,4,2,0,5,0,0
139112,-86.2069,4,2,0,5,0,0
139123,-86.9565,4,2,0,5,0,0
139135,-87.7193,4,2,0,5,0,0
139146,-88.4956,4,2,0,5,0,0
139157,-89.2857,4,2,0,5,0,0
139168,-90.0901,4,2,0,5,0,0
139180,-90.9091,4,2,0,5,0,0
139191,-91.7431,4,2,0,5,0,0
139202,-92.5926,4,2,0,5,0,0
139213,-93.4579,4,2,0,5,0,0
139225,-94.3396,4,2,0,5,0,0
139236,-95.2381,4,2,0,5,0,0
139247,-96.1538,4,2,0,5,0,0
139258,-97.0874,4,2,0,5,0,0
139270,-98.0392,4,2,0,5,0,0
139281,-99.0099,4,2,0,5,0,0
139292,-100,4,2,0,5,0,0
139300,-100.05,4,2,0,5,0,0
139307,-100.098,4,2,0,5,0,0
139315,-100.145,4,2,0,5,0,0
139322,-100.189,4,2,0,5,0,0
139330,-100.228,4,2,0,5,0,0
139337,-100.263,4,2,0,5,0,0
139345,-100.292,4,2,0,5,0,0
139352,-100.313,4,2,0,5,0,0
139360,-100.326,4,2,0,5,0,0
139367,-100.331,4,2,0,5,0,0
139375,-100.325,4,2,0,5,0,0
139382,-100.308,4,2,0,5,0,0
139390,-100.279,4,2,0,5,0,0
139397,-100.238,4,2,0,5,0,0
139405,-100.182,4,2,0,5,0,0
139412,-100.112,4,2,0,5,0,0
139420,-100.026,4,2,0,5,0,0
139427,-99.9245,4,2,0,5,0,0
139435,-99.8055,4,2,0,5,0,0
139442,-99.6687,4,2,0,5,0,0
139450,-99.5135,4,2,0,5,0,0
139457,-99.3392,4,2,0,5,0,0
139465,-99.1452,4,2,0,5,0,0
139472,-98.931,4,2,0,5,0,0
139480,-98.6962,4,2,0,5,0,0
139487,-98.4403,4,2,0,5,0,0
139495,-98.163,4,2,0,5,0,0
139502,-97.864,4,2,0,5,0,0
139510,-97.5432,4,2,0,5,0,0
139517,-97.2002,4,2,0,5,0,0
139525,-96.8351,4,2,0,5,0,0
139532,-96.4479,4,2,0,5,0,0
139540,-96.0385,4,2,0,5,0,0
139547,-95.6072,4,2,0,5,0,0
139555,-95.154,4,2,0,5,0,0
139562,-94.6792,4,2,0,5,0,0
139570,-94.1832,4,2,0,5,0,0
139577,-93.6663,4,2,0,5,0,0
139585,-93.129,4,2,0,5,0,0
139592,-92.5717,4,2,0,5,0,0
139600,-91.995,4,2,0,5,0,0
139607,-91.3995,4,2,0,5,0,0
139615,-90.7857,4,2,0,5,0,0
139622,-90.1546,4,2,0,5,0,0
139630,-89.5066,4,2,0,5,0,0
139637,-88.8427,4,2,0,5,0,0
139645,-88.1636,4,2,0,5,0,0
139652,-87.4702,4,2,0,5,0,0
139660,-86.7632,4,2,0,5,0,0
139667,-86.0437,4,2,0,5,0,0
139675,-85.3125,4,2,0,5,0,0
139682,-84.5704,4,2,0,5,0,0
139690,-83.8184,4,2,0,5,0,0
139697,-83.0575,4,2,0,5,0,0
139705,-82.2886,4,2,0,5,0,0
139712,-81.5125,4,2,0,5,0,0
139720,-80.7302,4,2,0,5,0,0
139727,-79.9425,4,2,0,5,0,0
139735,-79.1505,4,2,0,5,0,0
139742,-78.3549,4,2,0,5,0,0
139750,-77.5567,4,2,0,5,0,0
139757,-76.7566,4,2,0,5,0,0
139765,-75.9555,4,2,0,5,0,0
139772,-75.1542,4,2,0,5,0,0
139780,-74.3534,4,2,0,5,0,0
139787,-73.5539,4,2,0,5,0,0
139795,-72.7564,4,2,0,5,0,0
139802,-71.9616,4,2,0,5,0,0
139810,-71.1702,4,2,0,5,0,0
139817,-70.3827,4,2,0,5,0,0
139825,-69.5997,4,2,0,5,0,0
139832,-68.8219,4,2,0,5,0,0
139840,-68.0497,4,2,0,5,0,0
139847,-67.2837,4,2,0,5,0,0
139855,-66.5243,4,2,0,5,0,0
139862,-65.7719,4,2,0,5,0,0
139870,-65.027,4,2,0,5,0,0
139877,-64.29,4,2,0,5,0,0
139885,-63.5611,4,2,0,5,0,0
139892,-62.8408,4,2,0,5,0,0
139900,-62.1292,4,2,0,5,0,0
139907,-61.4267,4,2,0,5,0,0
139915,-60.7336,4,2,0,5,0,0
139922,-60.0499,4,2,0,5,0,0
139930,-59.376,4,2,0,5,0,0
139937,-58.712,4,2,0,5,0,0
139945,-58.058,4,2,0,5,0,0
139952,-57.4142,4,2,0,5,0,0
139960,-56.7807,4,2,0,5,0,0
139967,-56.1576,4,2,0,5,0,0
139975,-55.5449,4,2,0,5,0,0
139982,-54.9427,4,2,0,5,0,0
139990,-54.351,4,2,0,5,0,0
139997,-53.7699,4,2,0,5,0,0
140005,-53.1994,4,2,0,5,0,0
140012,-52.6395,4,2,0,5,0,0
140020,-52.0901,4,2,0,5,0,0
140027,-51.5512,4,2,0,5,0,0
140035,-51.0229,4,2,0,5,0,0
140042,-500,4,2,0,5,0,0
140125,-13.382,4,2,0,5,0,0
140135,-11.0011,4,2,0,5,0,0
140141,-989.011,4,2,0,5,0,0
140198,-11.0011,4,2,0,5,0,0
140204,-989.011,4,2,0,5,0,0
140260,-11.0011,4,2,0,5,0,0
140266,-989.011,4,2,0,5,0,0
140323,-11.0011,4,2,0,5,0,0
140329,-989.011,4,2,0,5,0,0
140385,-11.0011,4,2,0,5,0,0
140391,-989.011,4,2,0,5,0,0
140448,-11.0011,4,2,0,5,0,0
140454,-989.011,4,2,0,5,0,0
140510,-11.0011,4,2,0,5,0,0
140515,-989.011,4,2,0,5,0,0
140557,-11.0011,4,2,0,5,0,0
140562,-989.011,4,2,0,5,0,0
140604,-11.0011,4,2,0,5,0,0
140609,-989.011,4,2,0,5,0,0
140651,-11.0011,4,2,0,5,0,0
140656,-989.011,4,2,0,5,0,0
140698,-11.0011,4,2,0,5,0,0
140703,-989.011,4,2,0,5,0,0
140745,-11.0011,4,2,0,5,0,0
140750,-989.011,4,2,0,5,0,0
140792,-11.0011,4,2,0,5,0,0
140795,-989.011,4,2,0,5,0,0
140823,-11.0011,4,2,0,5,0,0
140829,-989.011,4,2,0,5,0,0
140885,-11.0011,4,2,0,5,0,0
140892,-989.011,4,2,0,5,0,0
140956,-11.0011,4,2,0,5,0,0
140963,-989.011,4,2,0,5,0,0
141026,-11.0011,4,2,0,5,0,0
141031,-989.011,4,2,0,5,0,0
141073,-11.0011,4,2,0,5,0,0
141078,-989.011,4,2,0,5,0,0
141120,-11.0011,4,2,0,5,0,0
141125,-989.011,4,2,0,5,0,0
141167,-10,4,2,0,5,0,0
141182,-10,4,2,0,5,0,0
141197,-50.5051,4,2,0,5,0,0
141212,-50.7614,4,2,0,5,0,0
141227,-51.0204,4,2,0,5,0,0
141242,-51.2821,4,2,0,5,0,0
141257,-51.5464,4,2,0,5,0,0
141272,-51.8135,4,2,0,5,0,0
141287,-52.0833,4,2,0,5,0,0
141302,-52.356,4,2,0,5,0,0
141317,-52.6316,4,2,0,5,0,0
141332,-52.9101,4,2,0,5,0,0
141347,-53.1915,4,2,0,5,0,0
141362,-53.4759,4,2,0,5,0,0
141377,-53.7634,4,2,0,5,0,0
141392,-54.0541,4,2,0,5,0,0
141407,-54.3478,4,2,0,5,0,0
141422,-54.6448,4,2,0,5,0,0
141437,-54.9451,4,2,0,5,0,0
141452,-55.2486,4,2,0,5,0,0
141467,-55.5556,4,2,0,5,0,0
141482,-55.8659,4,2,0,5,0,0
141497,-56.1798,4,2,0,5,0,0
141512,-56.4972,4,2,0,5,0,0
141527,-56.8182,4,2,0,5,0,0
141542,-57.1429,4,2,0,5,0,0
141557,-57.4713,4,2,0,5,0,0
141572,-57.8035,4,2,0,5,0,0
141587,-58.1395,4,2,0,5,0,0
141602,-58.4795,4,2,0,5,0,0
141617,-58.8235,4,2,0,5,0,0
141632,-59.1716,4,2,0,5,0,0
141647,-59.5238,4,2,0,5,0,0
141662,-59.8802,4,2,0,5,0,0
141677,-60.241,4,2,0,5,0,0
141692,-60.6061,4,2,0,5,0,0
141707,-60.9756,4,2,0,5,0,0
141722,-61.3497,4,2,0,5,0,0
141737,-61.7284,4,2,0,5,0,0
141752,-62.1118,4,2,0,5,0,0
141767,-62.5,4,2,0,5,0,0
141782,-62.8931,4,2,0,5,0,0
141797,-63.2911,4,2,0,5,0,0
141812,-63.6943,4,2,0,5,0,0
141827,-64.1026,4,2,0,5,0,0
141842,-64.5161,4,2,0,5,0,0
141857,-64.9351,4,2,0,5,0,0
141872,-65.3595,4,2,0,5,0,0
141887,-65.7895,4,2,0,5,0,0
141902,-66.2252,4,2,0,5,0,0
141917,-66.6667,4,2,0,5,0,0
141932,-67.1141,4,2,0,5,0,0
141947,-67.5676,4,2,0,5,0,0
141962,-68.0272,4,2,0,5,0,0
141977,-68.4932,4,2,0,5,0,0
141992,-68.9655,4,2,0,5,0,0
142007,-69.4444,4,2,0,5,0,0
142022,-69.9301,4,2,0,5,0,0
142037,-70.4225,4,2,0,5,0,0
142052,-70.922,4,2,0,5,0,0
142067,-71.4286,4,2,0,5,0,0
142082,-71.9424,4,2,0,5,0,0
142097,-72.4638,4,2,0,5,0,0
142112,-72.9927,4,2,0,5,0,0
142127,-73.5294,4,2,0,5,0,0
142142,-74.0741,4,2,0,5,0,0
142157,-74.6269,4,2,0,5,0,0
142172,-75.188,4,2,0,5,0,0
142187,-75.7576,4,2,0,5,0,0
142202,-76.3359,4,2,0,5,0,0
142217,-76.9231,4,2,0,5,0,0
142232,-77.5194,4,2,0,5,0,0
142247,-78.125,4,2,0,5,0,0
142262,-78.7402,4,2,0,5,0,0
142277,-79.3651,4,2,0,5,0,0
142292,-80,4,2,0,5,0,0
142307,-80.6452,4,2,0,5,0,0
142322,-81.3008,4,2,0,5,0,0
142337,-81.9672,4,2,0,5,0,0
142352,-82.6446,4,2,0,5,0,0
142367,-83.3333,4,2,0,5,0,0
142382,-84.0336,4,2,0,5,0,0
142397,-84.7458,4,2,0,5,0,0
142412,-85.4701,4,2,0,5,0,0
142427,-86.2069,4,2,0,5,0,0
142442,-86.9565,4,2,0,5,0,0
142457,-87.7193,4,2,0,5,0,0
142472,-88.4956,4,2,0,5,0,0
142487,-89.2857,4,2,0,5,0,0
142502,-90.0901,4,2,0,5,0,0
142517,-90.9091,4,2,0,5,0,0
142532,-91.7431,4,2,0,5,0,0
142547,-92.5926,4,2,0,5,0,0
142562,-93.4579,4,2,0,5,0,0
142577,-94.3396,4,2,0,5,0,0
142592,-95.2381,4,2,0,5,0,0
142607,-96.1538,4,2,0,5,0,0
142622,-97.0874,4,2,0,5,0,0
142637,-98.0392,4,2,0,5,0,0
142652,-99.0099,4,2,0,5,0,0
142667,-12.9366,4,2,0,5,0,0
142672,-396.476,4,2,0,5,0,0
142713,-12.9366,4,2,0,5,0,0
142718,-396.476,4,2,0,5,0,0
142760,-12.9366,4,2,0,5,0,0
142765,-396.476,4,2,0,5,0,0
142807,-12.9366,4,2,0,5,0,0
142812,-396.476,4,2,0,5,0,0
142854,-12.9366,4,2,0,5,0,0
142859,-396.476,4,2,0,5,0,0
142901,-12.9366,4,2,0,5,0,0
142906,-396.476,4,2,0,5,0,0
142948,-12.9366,4,2,0,5,0,0
142953,-396.476,4,2,0,5,0,0
142995,-12.9366,4,2,0,5,0,0
143000,-396.476,4,2,0,5,0,0
143042,-100,4,2,0,5,0,0
143069,-99.6711,4,2,0,5,0,0
143096,-99.3432,4,2,0,5,0,0
143124,-99.0151,4,2,0,5,0,0
143151,-98.6856,4,2,0,5,0,0
143178,-98.3535,4,2,0,5,0,0
143205,-98.0179,4,2,0,5,0,0
143232,-97.6777,4,2,0,5,0,0
143259,-97.3318,4,2,0,5,0,0
143287,-96.9794,4,2,0,5,0,0
143314,-96.6194,4,2,0,5,0,0
143341,-96.251,4,2,0,5,0,0
143368,-95.8734,4,2,0,5,0,0
143395,-95.4857,4,2,0,5,0,0
143423,-95.0873,4,2,0,5,0,0
143450,-94.6775,4,2,0,5,0,0
143477,-94.2556,4,2,0,5,0,0
143504,-93.821,4,2,0,5,0,0
143531,-93.3733,4,2,0,5,0,0
143558,-92.9119,4,2,0,5,0,0
143586,-92.4365,4,2,0,5,0,0
143613,-91.9468,4,2,0,5,0,0
143640,-91.4424,4,2,0,5,0,0
143667,-90.9231,4,2,0,5,0,0
143694,-90.3888,4,2,0,5,0,0
143722,-89.8394,4,2,0,5,0,0
143749,-89.2749,4,2,0,5,0,0
143776,-88.6952,4,2,0,5,0,0
143803,-88.1005,4,2,0,5,0,0
143830,-87.491,4,2,0,5,0,0
143857,-86.8667,4,2,0,5,0,0
143885,-86.2281,4,2,0,5,0,0
143912,-85.5753,4,2,0,5,0,0
143939,-84.9089,4,2,0,5,0,0
143966,-84.2291,4,2,0,5,0,0
143993,-83.5365,4,2,0,5,0,0
144020,-82.8315,4,2,0,5,0,0
144048,-82.1148,4,2,0,5,0,0
144075,-81.3869,4,2,0,5,0,0
144102,-80.6483,4,2,0,5,0,0
144129,-79.8999,4,2,0,5,0,0
144156,-79.1422,4,2,0,5,0,0
144184,-78.3759,4,2,0,5,0,0
144211,-77.6017,4,2,0,5,0,0
144238,-76.8205,4,2,0,5,0,0
144265,-76.0328,4,2,0,5,0,0
144292,-75.2396,4,2,0,5,0,0
144319,-74.4414,4,2,0,5,0,0
144347,-73.6392,4,2,0,5,0,0
144374,-72.8336,4,2,0,5,0,0
144401,-72.0254,4,2,0,5,0,0
144428,-71.2153,4,2,0,5,0,0
144455,-70.4041,4,2,0,5,0,0
144483,-69.5924,4,2,0,5,0,0
144510,-68.7811,4,2,0,5,0,0
144537,-67.9707,4,2,0,5,0,0
144564,-67.162,4,2,0,5,0,0
144591,-66.3556,4,2,0,5,0,0
144618,-65.5522,4,2,0,5,0,0
144646,-64.7522,4,2,0,5,0,0
144673,-63.9564,4,2,0,5,0,0
144700,-63.1652,4,2,0,5,0,0
144727,-62.3792,4,2,0,5,0,0
144754,-61.5988,4,2,0,5,0,0
144782,-60.8247,4,2,0,5,0,0
144809,-60.0571,4,2,0,5,0,0
144836,-59.2966,4,2,0,5,0,0
144863,-58.5434,4,2,0,5,0,0
144890,-57.7981,4,2,0,5,0,0
144917,-57.0608,4,2,0,5,0,0
144945,-56.332,4,2,0,5,0,0
144972,-55.6119,4,2,0,5,0,0
144999,-54.9008,4,2,0,5,0,0
145026,-54.1989,4,2,0,5,0,0
145053,-53.5064,4,2,0,5,0,0
145081,-52.8235,4,2,0,5,0,0
145108,-52.1504,4,2,0,5,0,0
145135,-51.4872,4,2,0,5,0,0
145162,-50.8341,4,2,0,5,0,0
145189,-50.1911,4,2,0,5,0,0
145216,-49.5584,4,2,0,5,0,0
145244,-48.9359,4,2,0,5,0,0
145271,-48.3239,4,2,0,5,0,0
145298,-47.7222,4,2,0,5,0,0
145325,-47.131,4,2,0,5,0,0
145352,-46.5502,4,2,0,5,0,0
145379,-45.9799,4,2,0,5,0,0
145407,-45.4199,4,2,0,5,0,0
145434,-44.8704,4,2,0,5,0,0
145461,-44.3311,4,2,0,5,0,0
145488,-43.8022,4,2,0,5,0,0
145515,-43.2835,4,2,0,5,0,0
145543,-42.775,4,2,0,5,0,0
145570,-42.2766,4,2,0,5,0,0
145597,-41.7882,4,2,0,5,0,0
145624,-41.3097,4,2,0,5,0,0
145651,-40.841,4,2,0,5,0,0
145678,-40.3821,4,2,0,5,0,0
145706,-39.9327,4,2,0,5,0,0
145733,-39.4929,4,2,0,5,0,0
145760,-39.0625,4,2,0,5,0,0
146042,-39.0625,4,2,0,5,0,0
146132,-39.541,4,2,0,5,0,0
146222,-40.0311,4,2,0,5,0,0
146312,-40.5332,4,2,0,5,0,0
146402,-41.0475,4,2,0,5,0,0
146492,-41.5744,4,2,0,5,0,0
146582,-42.114,4,2,0,5,0,0
146672,-42.6666,4,2,0,5,0,0
146762,-43.2326,4,2,0,5,0,0
146852,-43.8122,4,2,0,5,0,0
146942,-44.4057,4,2,0,5,0,0
147032,-45.0134,4,2,0,5,0,0
147122,-45.6355,4,2,0,5,0,0
147212,-46.2725,4,2,0,5,0,0
147302,-46.9246,4,2,0,5,0,0
147392,-47.5921,4,2,0,5,0,0
147482,-48.2753,4,2,0,5,0,0
147572,-48.9746,4,2,0,5,0,0
147662,-49.6901,4,2,0,5,0,0
147752,-50.4223,4,2,0,5,0,0
147842,-51.1715,4,2,0,5,0,0
147932,-51.938,4,2,0,5,0,0
148022,-52.7221,4,2,0,5,0,0
148112,-53.524,4,2,0,5,0,0
148202,-54.3442,4,2,0,5,0,0
148292,-55.1829,4,2,0,5,0,0
148382,-56.0405,4,2,0,5,0,0
148472,-56.9172,4,2,0,5,0,0
148562,-57.8134,4,2,0,5,0,0
148652,-58.7293,4,2,0,5,0,0
148742,-59.6653,4,2,0,5,0,0
148832,-60.6217,4,2,0,5,0,0
148922,-61.5986,4,2,0,5,0,0
149012,-62.5965,4,2,0,5,0,0
149102,-63.6155,4,2,0,5,0,0
149192,-64.656,4,2,0,5,0,0
149282,-65.7182,4,2,0,5,0,0
149372,-66.8023,4,2,0,5,0,0
149462,-67.9085,4,2,0,5,0,0
149552,-69.0372,4,2,0,5,0,0
149642,-70.1884,4,2,0,5,0,0
149732,-71.3625,4,2,0,5,0,0
149822,-72.5595,4,2,0,5,0,0
149912,-73.7797,4,2,0,5,0,0
150002,-75.0232,4,2,0,5,0,0
150092,-76.2902,4,2,0,5,0,0
150182,-77.5807,4,2,0,5,0,0
150272,-78.8949,4,2,0,5,0,0
150362,-80.233,4,2,0,5,0,0
150452,-81.5948,4,2,0,5,0,0
150542,-82.9807,4,2,0,5,0,0
150632,-84.3905,4,2,0,5,0,0
150722,-85.8243,4,2,0,5,0,0
150812,-87.2822,4,2,0,5,0,0
150902,-88.7642,4,2,0,5,0,0
150992,-90.2702,4,2,0,5,0,0
151082,-91.8003,4,2,0,5,0,0
151172,-93.3545,4,2,0,5,0,0
151262,-94.9326,4,2,0,5,0,0
151352,-96.5348,4,2,0,5,0,0
151442,-98.1609,4,2,0,5,0,0
151532,-99.8109,4,2,0,5,0,0
151622,-101.485,4,2,0,5,0,0
151712,-103.183,4,2,0,5,0,0
151802,-104.904,4,2,0,5,0,0
151892,-106.65,4,2,0,5,0,0
151982,-108.419,4,2,0,5,0,0
152072,-110.213,4,2,0,5,0,0
152162,-112.031,4,2,0,5,0,0
152252,-113.872,4,2,0,5,0,0
152342,-115.739,4,2,0,5,0,0
152432,-117.63,4,2,0,5,0,0
152522,-119.545,4,2,0,5,0,0
152612,-121.486,4,2,0,5,0,0
152702,-123.453,4,2,0,5,0,0
152792,-125.446,4,2,0,5,0,0
152882,-127.466,4,2,0,5,0,0
152972,-129.514,4,2,0,5,0,0
153062,-131.589,4,2,0,5,0,0
153152,-133.695,4,2,0,5,0,0
153242,-135.83,4,2,0,5,0,0
153332,-137.998,4,2,0,5,0,0
153422,-140.199,4,2,0,5,0,0
153512,-142.435,4,2,0,5,0,0
153602,-144.707,4,2,0,5,0,0
153692,-147.018,4,2,0,5,0,0
153782,-149.37,4,2,0,5,0,0
153872,-151.766,4,2,0,5,0,0
153962,-154.208,4,2,0,5,0,0
154052,-156.7,4,2,0,5,0,0
154142,-159.245,4,2,0,5,0,0
154232,-161.846,4,2,0,5,0,0
154322,-164.509,4,2,0,5,0,0
154412,-167.237,4,2,0,5,0,0
154502,-170.036,4,2,0,5,0,0
154592,-172.912,4,2,0,5,0,0
154682,-175.871,4,2,0,5,0,0
154772,-178.919,4,2,0,5,0,0
154862,-182.064,4,2,0,5,0,0
154952,-185.314,4,2,0,5,0,0
155042,-188.679,4,2,0,5,0,0
155070,-188.283,4,2,0,5,0,0
155098,-187.886,4,2,0,5,0,0
155126,-187.487,4,2,0,5,0,0
155154,-187.083,4,2,0,5,0,0
155183,-186.672,4,2,0,5,0,0
155211,-186.253,4,2,0,5,0,0
155239,-185.823,4,2,0,5,0,0
155267,-185.38,4,2,0,5,0,0
155295,-184.923,4,2,0,5,0,0
155323,-184.449,4,2,0,5,0,0
155351,-183.958,4,2,0,5,0,0
155379,-183.447,4,2,0,5,0,0
155408,-182.915,4,2,0,5,0,0
155436,-182.361,4,2,0,5,0,0
155464,-181.782,4,2,0,5,0,0
155492,-181.178,4,2,0,5,0,0
155520,-180.548,4,2,0,5,0,0
155548,-179.89,4,2,0,5,0,0
155576,-179.203,4,2,0,5,0,0
155604,-178.487,4,2,0,5,0,0
155633,-177.74,4,2,0,5,0,0
155661,-176.963,4,2,0,5,0,0
155689,-176.153,4,2,0,5,0,0
155717,-175.312,4,2,0,5,0,0
155745,-174.438,4,2,0,5,0,0
155773,-173.531,4,2,0,5,0,0
155801,-172.591,4,2,0,5,0,0
155829,-171.619,4,2,0,5,0,0
155857,-170.614,4,2,0,5,0,0
155886,-169.576,4,2,0,5,0,0
155914,-168.507,4,2,0,5,0,0
155942,-167.406,4,2,0,5,0,0
155970,-166.273,4,2,0,5,0,0
155998,-165.11,4,2,0,5,0,0
156026,-163.918,4,2,0,5,0,0
156054,-162.697,4,2,0,5,0,0
156082,-161.448,4,2,0,5,0,0
156111,-160.172,4,2,0,5,0,0
156139,-158.871,4,2,0,5,0,0
156167,-157.546,4,2,0,5,0,0
156195,-156.197,4,2,0,5,0,0
156223,-154.826,4,2,0,5,0,0
156251,-153.435,4,2,0,5,0,0
156279,-152.025,4,2,0,5,0,0
156307,-150.597,4,2,0,5,0,0
156336,-149.153,4,2,0,5,0,0
156364,-147.694,4,2,0,5,0,0
156392,-146.223,4,2,0,5,0,0
156420,-144.739,4,2,0,5,0,0
156448,-143.246,4,2,0,5,0,0
156476,-141.744,4,2,0,5,0,0
156504,-140.235,4,2,0,5,0,0
156532,-138.721,4,2,0,5,0,0
156560,-137.202,4,2,0,5,0,0
156589,-135.681,4,2,0,5,0,0
156617,-134.158,4,2,0,5,0,0
156645,-132.636,4,2,0,5,0,0
156673,-131.116,4,2,0,5,0,0
156701,-129.598,4,2,0,5,0,0
156729,-128.084,4,2,0,5,0,0
156757,-126.576,4,2,0,5,0,0
156785,-125.074,4,2,0,5,0,0
156814,-123.58,4,2,0,5,0,0
156842,-122.094,4,2,0,5,0,0
156870,-120.618,4,2,0,5,0,0
156898,-119.153,4,2,0,5,0,0
156926,-117.7,4,2,0,5,0,0
156954,-116.259,4,2,0,5,0,0
156982,-114.831,4,2,0,5,0,0
157010,-113.417,4,2,0,5,0,0
157039,-112.017,4,2,0,5,0,0
157067,-110.633,4,2,0,5,0,0
157095,-109.265,4,2,0,5,0,0
157123,-107.914,4,2,0,5,0,0
157151,-106.579,4,2,0,5,0,0
157179,-105.262,4,2,0,5,0,0
157207,-103.962,4,2,0,5,0,0
157235,-102.681,4,2,0,5,0,0
157263,-101.418,4,2,0,5,0,0
157292,-100.174,4,2,0,5,0,0
157320,-98.9486,4,2,0,5,0,0
157348,-97.7426,4,2,0,5,0,0
157376,-96.5559,4,2,0,5,0,0
157404,-95.3887,4,2,0,5,0,0
157432,-94.241,4,2,0,5,0,0
157460,-93.113,4,2,0,5,0,0
157488,-92.0047,4,2,0,5,0,0
157517,-90.916,4,2,0,5,0,0
157545,-89.8471,4,2,0,5,0,0
157573,-88.7978,4,2,0,5,0,0
157601,-87.7681,4,2,0,5,0,0
157629,-86.7579,4,2,0,5,0,0
157657,-85.7671,4,2,0,5,0,0
157685,-84.7957,4,2,0,5,0,0
157713,-83.8435,4,2,0,5,0,0
157742,-82.9104,4,2,0,5,0,0
157770,-81.9961,4,2,0,5,0,0
157798,-81.1006,4,2,0,5,0,0
157826,-80.2236,4,2,0,5,0,0
157854,-79.3651,4,2,0,5,0,0
157856,-79.5263,4,2,0,5,0,0
157858,-79.6875,4,2,0,5,0,0
157860,-79.8478,4,2,0,5,0,0
157862,-80.0065,4,2,0,5,0,0
157863,-80.1628,4,2,0,5,0,0
157865,-80.316,4,2,0,5,0,0
157867,-80.4651,4,2,0,5,0,0
157869,-80.6095,4,2,0,5,0,0
157871,-80.7483,4,2,0,5,0,0
157873,-80.8808,4,2,0,5,0,0
157875,-81.006,4,2,0,5,0,0
157877,-81.1233,4,2,0,5,0,0
157878,-81.2318,4,2,0,5,0,0
157880,-81.3307,4,2,0,5,0,0
157882,-81.4192,4,2,0,5,0,0
157884,-81.4966,4,2,0,5,0,0
157886,-81.5622,4,2,0,5,0,0
157888,-81.615,4,2,0,5,0,0
157890,-81.6546,4,2,0,5,0,0
157892,-81.6801,4,2,0,5,0,0
157893,-81.6908,4,2,0,5,0,0
157895,-81.6862,4,2,0,5,0,0
157897,-81.6657,4,2,0,5,0,0
157899,-81.6286,4,2,0,5,0,0
157901,-81.5744,4,2,0,5,0,0
157903,-81.5026,4,2,0,5,0,0
157905,-81.4128,4,2,0,5,0,0
157907,-81.3046,4,2,0,5,0,0
157909,-81.1776,4,2,0,5,0,0
157910,-81.0315,4,2,0,5,0,0
157912,-80.866,4,2,0,5,0,0
157914,-80.681,4,2,0,5,0,0
157916,-80.4763,4,2,0,5,0,0
157918,-80.2518,4,2,0,5,0,0
157920,-80.0075,4,2,0,5,0,0
157922,-79.7434,4,2,0,5,0,0
157924,-79.4595,4,2,0,5,0,0
157925,-79.1561,4,2,0,5,0,0
157927,-78.8332,4,2,0,5,0,0
157929,-78.4912,4,2,0,5,0,0
157931,-78.1304,4,2,0,5,0,0
157933,-77.751,4,2,0,5,0,0
157935,-77.3535,4,2,0,5,0,0
157937,-76.9384,4,2,0,5,0,0
157939,-76.5061,4,2,0,5,0,0
157940,-76.0571,4,2,0,5,0,0
157942,-75.5921,4,2,0,5,0,0
157944,-75.1117,4,2,0,5,0,0
157946,-74.6164,4,2,0,5,0,0
157948,-74.107,4,2,0,5,0,0
157950,-73.5842,4,2,0,5,0,0
157952,-73.0486,4,2,0,5,0,0
157954,-72.5011,4,2,0,5,0,0
157956,-71.9424,4,2,0,5,0,0
157957,-71.3732,4,2,0,5,0,0
157959,-70.7944,4,2,0,5,0,0
157961,-70.2067,4,2,0,5,0,0
157963,-69.6109,4,2,0,5,0,0
157965,-69.0078,4,2,0,5,0,0
157967,-68.3981,4,2,0,5,0,0
157969,-67.7828,4,2,0,5,0,0
157971,-67.1625,4,2,0,5,0,0
157972,-66.5379,4,2,0,5,0,0
157974,-65.9099,4,2,0,5,0,0
157976,-65.2791,4,2,0,5,0,0
157978,-64.6464,4,2,0,5,0,0
157980,-64.0122,4,2,0,5,0,0
157982,-63.3774,4,2,0,5,0,0
157984,-62.7426,4,2,0,5,0,0
157986,-62.1084,4,2,0,5,0,0
157987,-61.4754,4,2,0,5,0,0
157989,-60.8442,4,2,0,5,0,0
157991,-60.2153,4,2,0,5,0,0
157993,-59.5893,4,2,0,5,0,0
157995,-58.9666,4,2,0,5,0,0
157997,-58.3478,4,2,0,5,0,0
157999,-57.7332,4,2,0,5,0,0
158001,-57.1234,4,2,0,5,0,0
158003,-56.5186,4,2,0,5,0,0
158004,-55.9194,4,2,0,5,0,0
158006,-55.3259,4,2,0,5,0,0
158008,-54.7386,4,2,0,5,0,0
158010,-54.1577,4,2,0,5,0,0
158012,-53.5835,4,2,0,5,0,0
158014,-53.0163,4,2,0,5,0,0
158016,-52.4563,4,2,0,5,0,0
158018,-51.9037,4,2,0,5,0,0
158019,-51.3586,4,2,0,5,0,0
158021,-50.8214,4,2,0,5,0,0
158023,-50.292,4,2,0,5,0,0
158025,-49.7707,4,2,0,5,0,0
158027,-49.2575,4,2,0,5,0,0
158029,-48.7526,4,2,0,5,0,0
158031,-48.256,4,2,0,5,0,0
158033,-47.7678,4,2,0,5,0,0
158034,-47.2881,4,2,0,5,0,0
158036,-10,4,2,0,5,0,0
158042,-10,4,2,0,5,0,0
158065,-100,4,2,0,5,0,0
158112,-133.333,4,2,0,5,0,0
158291,-133.967,4,2,0,5,0,0
158471,-134.605,4,2,0,5,0,0
158650,-135.248,4,2,0,5,0,0
158829,-135.893,4,2,0,5,0,0
159009,-136.54,4,2,0,5,0,0
159188,-137.188,4,2,0,5,0,0
159367,-137.835,4,2,0,5,0,0
159546,-138.48,4,2,0,5,0,0
159726,-139.122,4,2,0,5,0,0
159905,-139.76,4,2,0,5,0,0
160084,-140.392,4,2,0,5,0,0
160264,-141.017,4,2,0,5,0,0
160443,-141.633,4,2,0,5,0,0
160622,-142.24,4,2,0,5,0,0
160802,-142.835,4,2,0,5,0,0
160981,-143.418,4,2,0,5,0,0
161160,-143.987,4,2,0,5,0,0
161339,-144.539,4,2,0,5,0,0
161519,-145.075,4,2,0,5,0,0
161698,-145.592,4,2,0,5,0,0
161877,-146.089,4,2,0,5,0,0
162057,-146.564,4,2,0,5,0,0
162236,-147.016,4,2,0,5,0,0
162415,-147.444,4,2,0,5,0,0
162595,-147.845,4,2,0,5,0,0
162774,-148.22,4,2,0,5,0,0
162953,-148.566,4,2,0,5,0,0
163132,-148.881,4,2,0,5,0,0
163312,-149.166,4,2,0,5,0,0
163491,-149.418,4,2,0,5,0,0
163670,-149.636,4,2,0,5,0,0
163850,-149.82,4,2,0,5,0,0
164029,-149.968,4,2,0,5,0,0
164208,-150.08,4,2,0,5,0,0
164388,-150.154,4,2,0,5,0,0
164567,-150.191,4,2,0,5,0,0
164746,-150.188,4,2,0,5,0,0
164925,-150.146,4,2,0,5,0,0
165105,-150.064,4,2,0,5,0,0
165284,-149.943,4,2,0,5,0,0
165463,-149.781,4,2,0,5,0,0
165643,-149.578,4,2,0,5,0,0
165822,-149.335,4,2,0,5,0,0
166001,-149.051,4,2,0,5,0,0
166181,-148.728,4,2,0,5,0,0
166360,-148.364,4,2,0,5,0,0
166539,-147.961,4,2,0,5,0,0
166718,-147.519,4,2,0,5,0,0
166898,-147.038,4,2,0,5,0,0
167077,-146.52,4,2,0,5,0,0
167256,-145.965,4,2,0,5,0,0
167436,-145.374,4,2,0,5,0,0
167615,-144.748,4,2,0,5,0,0
167794,-144.088,4,2,0,5,0,0
167974,-143.396,4,2,0,5,0,0
168153,-142.672,4,2,0,5,0,0
168332,-141.917,4,2,0,5,0,0
168511,-141.134,4,2,0,5,0,0
168691,-140.323,4,2,0,5,0,0
168870,-139.485,4,2,0,5,0,0
169049,-138.623,4,2,0,5,0,0
169229,-137.738,4,2,0,5,0,0
169408,-136.83,4,2,0,5,0,0
169587,-135.903,4,2,0,5,0,0
169667,-133.333,4,2,0,5,0,0
169671,-132.251,4,2,0,5,0,0
169675,-131.184,4,2,0,5,0,0
169678,-130.13,4,2,0,5,0,0
169682,-129.087,4,2,0,5,0,0
169686,-128.054,4,2,0,5,0,0
169690,-127.029,4,2,0,5,0,0
169693,-126.009,4,2,0,5,0,0
169697,-124.994,4,2,0,5,0,0
169701,-123.981,4,2,0,5,0,0
169705,-122.97,4,2,0,5,0,0
169708,-121.959,4,2,0,5,0,0
169712,-120.947,4,2,0,5,0,0
169716,-119.934,4,2,0,5,0,0
169720,-118.917,4,2,0,5,0,0
169723,-117.897,4,2,0,5,0,0
169727,-116.873,4,2,0,5,0,0
169731,-115.843,4,2,0,5,0,0
169735,-114.808,4,2,0,5,0,0
169738,-113.767,4,2,0,5,0,0
169742,-112.719,4,2,0,5,0,0
169746,-111.665,4,2,0,5,0,0
169750,-110.604,4,2,0,5,0,0
169753,-109.537,4,2,0,5,0,0
169757,-108.462,4,2,0,5,0,0
169761,-107.381,4,2,0,5,0,0
169765,-106.293,4,2,0,5,0,0
169768,-105.198,4,2,0,5,0,0
169772,-104.098,4,2,0,5,0,0
169776,-102.991,4,2,0,5,0,0
169780,-101.879,4,2,0,5,0,0
169783,-100.762,4,2,0,5,0,0
169787,-99.6403,4,2,0,5,0,0
169791,-98.5146,4,2,0,5,0,0
169795,-97.3854,4,2,0,5,0,0
169798,-96.2533,4,2,0,5,0,0
169802,-95.119,4,2,0,5,0,0
169806,-93.983,4,2,0,5,0,0
169810,-92.8462,4,2,0,5,0,0
169813,-91.709,4,2,0,5,0,0
169817,-90.5724,4,2,0,5,0,0
169821,-89.4368,4,2,0,5,0,0
169825,-88.3032,4,2,0,5,0,0
169828,-87.172,4,2,0,5,0,0
169832,-86.0442,4,2,0,5,0,0
169836,-84.9203,4,2,0,5,0,0
169840,-83.8011,4,2,0,5,0,0
169843,-82.6872,4,2,0,5,0,0
169847,-81.5793,4,2,0,5,0,0
169851,-80.478,4,2,0,5,0,0
169855,-79.384,4,2,0,5,0,0
169858,-78.2978,4,2,0,5,0,0
169862,-77.22,4,2,0,5,0,0
169866,-76.1512,4,2,0,5,0,0
169870,-75.0919,4,2,0,5,0,0
169873,-74.0426,4,2,0,5,0,0
169877,-73.0037,4,2,0,5,0,0
169881,-71.9758,4,2,0,5,0,0
169885,-70.9591,4,2,0,5,0,0
169888,-69.9542,4,2,0,5,0,0
169892,-68.9613,4,2,0,5,0,0
169896,-67.9807,4,2,0,5,0,0
169900,-67.0129,4,2,0,5,0,0
169903,-66.058,4,2,0,5,0,0
169907,-65.1163,4,2,0,5,0,0
169911,-64.1879,4,2,0,5,0,0
169915,-63.2732,4,2,0,5,0,0
169918,-62.3722,4,2,0,5,0,0
169922,-61.4851,4,2,0,5,0,0
169926,-60.612,4,2,0,5,0,0
169930,-59.753,4,2,0,5,0,0
169933,-58.9082,4,2,0,5,0,0
169937,-58.0775,4,2,0,5,0,0
169941,-57.2611,4,2,0,5,0,0
169945,-56.459,4,2,0,5,0,0
169948,-55.6711,4,2,0,5,0,0
169952,-54.8974,4,2,0,5,0,0
169956,-54.1379,4,2,0,5,0,0
169960,-53.3925,4,2,0,5,0,0
169963,-52.6611,4,2,0,5,0,0
169967,-51.9437,4,2,0,5,0,0
169971,-51.2402,4,2,0,5,0,0
169975,-50.5505,4,2,0,5,0,0
169978,-49.8744,4,2,0,5,0,0
169982,-49.2118,4,2,0,5,0,0
169986,-48.5626,4,2,0,5,0,0
169990,-47.9267,4,2,0,5,0,0
169993,-47.3038,4,2,0,5,0,0
169997,-46.6939,4,2,0,5,0,0
170001,-46.0968,4,2,0,5,0,0
170005,-45.5123,4,2,0,5,0,0
170008,-44.9403,4,2,0,5,0,0
170012,-44.3805,4,2,0,5,0,0
170016,-43.8329,4,2,0,5,0,0
170020,-43.2971,4,2,0,5,0,0
170023,-42.7731,4,2,0,5,0,0
170027,-42.2606,4,2,0,5,0,0
170031,-41.7595,4,2,0,5,0,0
170035,-41.2696,4,2,0,5,0,0
170038,-40.7907,4,2,0,5,0,0
170042,-133.333333333333,4,2,0,5,0,0
170125,-133.013,4,2,0,5,0,0
170304,-132.019,4,2,0,5,0,0
170484,-131.012,4,2,0,5,0,0
170663,-129.994,4,2,0,5,0,0
170842,-128.967,4,2,0,5,0,0
171022,-127.93,4,2,0,5,0,0
171201,-126.887,4,2,0,5,0,0
171380,-125.838,4,2,0,5,0,0
171560,-124.784,4,2,0,5,0,0
171739,-123.728,4,2,0,5,0,0
171918,-122.67,4,2,0,5,0,0
172097,-121.611,4,2,0,5,0,0
172277,-120.552,4,2,0,5,0,0
172456,-119.496,4,2,0,5,0,0
172635,-118.441,4,2,0,5,0,0
172815,-117.391,4,2,0,5,0,0
172994,-116.345,4,2,0,5,0,0
173173,-115.305,4,2,0,5,0,0
173353,-114.272,4,2,0,5,0,0
173532,-113.245,4,2,0,5,0,0
173711,-112.227,4,2,0,5,0,0
173890,-111.218,4,2,0,5,0,0
174070,-110.218,4,2,0,5,0,0
174249,-109.228,4,2,0,5,0,0
174428,-108.249,4,2,0,5,0,0
174608,-107.281,4,2,0,5,0,0
174787,-106.326,4,2,0,5,0,0
174966,-105.382,4,2,0,5,0,0
175146,-104.451,4,2,0,5,0,0
175325,-103.533,4,2,0,5,0,0
175504,-102.629,4,2,0,5,0,0
175683,-101.738,4,2,0,5,0,0
175863,-100.862,4,2,0,5,0,0
176042,-100,4,2,0,5,0,0
176042,-100,4,2,0,5,0,0
176083,-99.864,4,2,0,5,0,0
176125,-99.7282,4,2,0,5,0,0
176166,-99.5922,4,2,0,5,0,0
176207,-99.4558,4,2,0,5,0,0
176248,-99.3187,4,2,0,5,0,0
176290,-99.1808,4,2,0,5,0,0
176331,-99.0417,4,2,0,5,0,0
176372,-98.9012,4,2,0,5,0,0
176413,-98.7591,4,2,0,5,0,0
176455,-98.6152,4,2,0,5,0,0
176496,-98.4692,4,2,0,5,0,0
176537,-98.3209,4,2,0,5,0,0
176578,-98.1701,4,2,0,5,0,0
176620,-98.0167,4,2,0,5,0,0
176661,-97.8603,4,2,0,5,0,0
176702,-97.7008,4,2,0,5,0,0
176743,-97.5381,4,2,0,5,0,0
176785,-97.3719,4,2,0,5,0,0
176826,-97.202,4,2,0,5,0,0
176867,-97.0284,4,2,0,5,0,0
176908,-96.8508,4,2,0,5,0,0
176950,-96.6691,4,2,0,5,0,0
176991,-96.4832,4,2,0,5,0,0
177032,-96.2929,4,2,0,5,0,0
177073,-96.0981,4,2,0,5,0,0
177115,-95.8987,4,2,0,5,0,0
177156,-95.6946,4,2,0,5,0,0
177197,-95.4857,4,2,0,5,0,0
177238,-95.2719,4,2,0,5,0,0
177280,-95.0532,4,2,0,5,0,0
177321,-94.8294,4,2,0,5,0,0
177362,-94.6005,4,2,0,5,0,0
177403,-94.3665,4,2,0,5,0,0
177445,-94.1274,4,2,0,5,0,0
177486,-93.883,4,2,0,5,0,0
177527,-93.6334,4,2,0,5,0,0
177568,-93.3786,4,2,0,5,0,0
177610,-93.1186,4,2,0,5,0,0
177651,-92.8534,4,2,0,5,0,0
177692,-92.5831,4,2,0,5,0,0
177733,-92.3075,4,2,0,5,0,0
177775,-92.0269,4,2,0,5,0,0
177816,-91.7412,4,2,0,5,0,0
177857,-91.4505,4,2,0,5,0,0
177898,-91.1549,4,2,0,5,0,0
177940,-90.8544,4,2,0,5,0,0
177981,-90.5491,4,2,0,5,0,0
178022,-90.2392,4,2,0,5,0,0
178063,-89.9247,4,2,0,5,0,0
178105,-89.6057,4,2,0,5,0,0
178146,-89.2824,4,2,0,5,0,0
178187,-88.9549,4,2,0,5,0,0
178228,-88.6232,4,2,0,5,0,0
178270,-88.2876,4,2,0,5,0,0
178311,-87.9481,4,2,0,5,0,0
178352,-87.605,4,2,0,5,0,0
178393,-87.2583,4,2,0,5,0,0
178435,-86.9082,4,2,0,5,0,0
178476,-86.555,4,2,0,5,0,0
178517,-86.1986,4,2,0,5,0,0
178558,-85.8394,4,2,0,5,0,0
178600,-85.4775,4,2,0,5,0,0
178641,-85.113,4,2,0,5,0,0
178682,-84.7462,4,2,0,5,0,0
178723,-84.3771,4,2,0,5,0,0
178765,-84.0061,4,2,0,5,0,0
178806,-83.6332,4,2,0,5,0,0
178847,-83.2586,4,2,0,5,0,0
178888,-82.8826,4,2,0,5,0,0
178930,-82.5054,4,2,0,5,0,0
178971,-82.127,4,2,0,5,0,0
179012,-81.7476,4,2,0,5,0,0
179053,-81.3676,4,2,0,5,0,0
179095,-80.987,4,2,0,5,0,0
179136,-80.606,4,2,0,5,0,0
179177,-80.2248,4,2,0,5,0,0
179218,-79.8435,4,2,0,5,0,0
179260,-79.4624,4,2,0,5,0,0
179301,-79.0817,4,2,0,5,0,0
179342,-78.7014,4,2,0,5,0,0
179383,-78.3217,4,2,0,5,0,0
179425,-77.9429,4,2,0,5,0,0
179466,-77.565,4,2,0,5,0,0
179507,-77.1883,4,2,0,5,0,0
179548,-76.8129,4,2,0,5,0,0
179590,-76.4389,4,2,0,5,0,0
179631,-76.0665,4,2,0,5,0,0
179672,-75.6958,4,2,0,5,0,0
179713,-75.327,4,2,0,5,0,0
179755,-74.9601,4,2,0,5,0,0
179796,-74.5954,4,2,0,5,0,0
179837,-74.233,4,2,0,5,0,0
179878,-73.8729,4,2,0,5,0,0
179920,-73.5154,4,2,0,5,0,0
179961,-73.1604,4,2,0,5,0,0
180002,-72.8082,4,2,0,5,0,0
180043,-72.4588,4,2,0,5,0,0
180085,-72.1123,4,2,0,5,0,0
180126,-71.7689,4,2,0,5,0,0
180167,-71.4286,4,2,0,5,0,0
180354,-10,4,2,0,5,0,0
180420,-134.138,4,2,0,5,0,0
180433,-134.285,4,2,0,5,0,0
180446,-134.425,4,2,0,5,0,0
180459,-134.556,4,2,0,5,0,0
180472,-134.677,4,2,0,5,0,0
180485,-134.786,4,2,0,5,0,0
180498,-134.882,4,2,0,5,0,0
180512,-134.964,4,2,0,5,0,0
180525,-135.03,4,2,0,5,0,0
180538,-135.08,4,2,0,5,0,0
180551,-135.111,4,2,0,5,0,0
180564,-135.123,4,2,0,5,0,0
180577,-135.115,4,2,0,5,0,0
180590,-135.085,4,2,0,5,0,0
180603,-135.032,4,2,0,5,0,0
180617,-134.955,4,2,0,5,0,0
180630,-134.853,4,2,0,5,0,0
180643,-134.726,4,2,0,5,0,0
180656,-134.571,4,2,0,5,0,0
180669,-134.39,4,2,0,5,0,0
180682,-134.18,4,2,0,5,0,0
180695,-133.941,4,2,0,5,0,0
180709,-133.672,4,2,0,5,0,0
180722,-133.374,4,2,0,5,0,0
180735,-133.044,4,2,0,5,0,0
180748,-132.685,4,2,0,5,0,0
180761,-132.293,4,2,0,5,0,0
180774,-131.871,4,2,0,5,0,0
180787,-131.417,4,2,0,5,0,0
180800,-130.932,4,2,0,5,0,0
180814,-130.416,4,2,0,5,0,0
180827,-129.869,4,2,0,5,0,0
180840,-129.291,4,2,0,5,0,0
180853,-128.682,4,2,0,5,0,0
180866,-128.044,4,2,0,5,0,0
180879,-127.376,4,2,0,5,0,0
180892,-126.68,4,2,0,5,0,0
180905,-125.956,4,2,0,5,0,0
180919,-125.204,4,2,0,5,0,0
180932,-124.426,4,2,0,5,0,0
180945,-123.623,4,2,0,5,0,0
180958,-122.795,4,2,0,5,0,0
180971,-121.944,4,2,0,5,0,0
180984,-121.07,4,2,0,5,0,0
180997,-120.175,4,2,0,5,0,0
181011,-119.261,4,2,0,5,0,0
181024,-118.327,4,2,0,5,0,0
181037,-117.375,4,2,0,5,0,0
181050,-116.408,4,2,0,5,0,0
181063,-115.425,4,2,0,5,0,0
181076,-114.428,4,2,0,5,0,0
181089,-113.419,4,2,0,5,0,0
181102,-112.398,4,2,0,5,0,0
181116,-111.367,4,2,0,5,0,0
181129,-110.328,4,2,0,5,0,0
181142,-109.281,4,2,0,5,0,0
181155,-108.227,4,2,0,5,0,0
181168,-107.169,4,2,0,5,0,0
181181,-106.106,4,2,0,5,0,0
181194,-105.041,4,2,0,5,0,0
181207,-103.974,4,2,0,5,0,0
181221,-102.907,4,2,0,5,0,0
181234,-101.84,4,2,0,5,0,0
181247,-100.774,4,2,0,5,0,0
181260,-99.7113,4,2,0,5,0,0
181273,-98.6517,4,2,0,5,0,0
181286,-97.5964,4,2,0,5,0,0
181299,-96.5462,4,2,0,5,0,0
181312,-95.502,4,2,0,5,0,0
181326,-94.4645,4,2,0,5,0,0
181339,-93.4344,4,2,0,5,0,0
181352,-92.4125,4,2,0,5,0,0
181365,-91.3993,4,2,0,5,0,0
181378,-90.3955,4,2,0,5,0,0
181391,-89.4017,4,2,0,5,0,0
181404,-88.4182,4,2,0,5,0,0
181418,-87.4457,4,2,0,5,0,0
181431,-86.4845,4,2,0,5,0,0
181444,-85.535,4,2,0,5,0,0
181457,-84.5977,4,2,0,5,0,0
181470,-83.6728,4,2,0,5,0,0
181483,-82.7607,4,2,0,5,0,0
181496,-81.8616,4,2,0,5,0,0
181509,-80.9757,4,2,0,5,0,0
181523,-80.1033,4,2,0,5,0,0
181536,-79.2445,4,2,0,5,0,0
181549,-78.3995,4,2,0,5,0,0
181562,-77.5684,4,2,0,5,0,0
181575,-76.7513,4,2,0,5,0,0
181588,-75.9483,4,2,0,5,0,0
181601,-75.1595,4,2,0,5,0,0
181614,-74.3849,4,2,0,5,0,0
181628,-73.6245,4,2,0,5,0,0
181641,-72.8783,4,2,0,5,0,0
181654,-72.1464,4,2,0,5,0,0
181667,-10,4,2,0,5,0,0
181677,-890,4,2,0,5,0,0
181760,-10,4,2,0,5,0,0
181770,-890,4,2,0,5,0,0
181854,-10,4,2,0,5,0,0
181864,-890,4,2,0,5,0,0
181948,-10,4,2,0,5,0,0
181958,-890,4,2,0,5,0,0
182042,-95.2380952380952,4,2,0,5,0,0
193948,-1000,4,2,0,5,0,0
194032,-11.4464,4,2,0,5,0,0
194042,-95.2381,4,2,0,5,0,0
200042,-95.2381,4,2,0,5,0,0
200082,-95.1475,4,2,0,5,0,0
200123,-95.057,4,2,0,5,0,0
200163,-94.9668,4,2,0,5,0,0
200203,-94.8767,4,2,0,5,0,0
200244,-94.7867,4,2,0,5,0,0
200284,-94.697,4,2,0,5,0,0
200324,-94.6074,4,2,0,5,0,0
200364,-94.518,4,2,0,5,0,0
200405,-94.4287,4,2,0,5,0,0
200445,-94.3396,4,2,0,5,0,0
200485,-94.2507,4,2,0,5,0,0
200526,-94.162,4,2,0,5,0,0
200566,-94.0734,4,2,0,5,0,0
200606,-93.985,4,2,0,5,0,0
200647,-93.8967,4,2,0,5,0,0
200687,-93.8086,4,2,0,5,0,0
200727,-93.7207,4,2,0,5,0,0
200768,-93.633,4,2,0,5,0,0
200808,-93.5454,4,2,0,5,0,0
200848,-93.4579,4,2,0,5,0,0
200889,-93.3707,4,2,0,5,0,0
200929,-93.2836,4,2,0,5,0,0
200969,-93.1966,4,2,0,5,0,0
201009,-93.1099,4,2,0,5,0,0
201050,-93.0233,4,2,0,5,0,0
201090,-92.9368,4,2,0,5,0,0
201130,-92.8505,4,2,0,5,0,0
201171,-92.7644,4,2,0,5,0,0
201211,-92.6784,4,2,0,5,0,0
201251,-92.5926,4,2,0,5,0,0
201292,-92.5069,4,2,0,5,0,0
201332,-92.4214,4,2,0,5,0,0
201372,-92.3361,4,2,0,5,0,0
201413,-92.2509,4,2,0,5,0,0
201453,-92.1659,4,2,0,5,0,0
201493,-92.081,4,2,0,5,0,0
201533,-91.9963,4,2,0,5,0,0
201574,-91.9118,4,2,0,5,0,0
201614,-91.8274,4,2,0,5,0,0
201654,-91.7431,4,2,0,5,0,0
201695,-91.659,4,2,0,5,0,0
201735,-91.5751,4,2,0,5,0,0
201775,-91.4913,4,2,0,5,0,0
201816,-91.4077,4,2,0,5,0,0
201856,-91.3242,4,2,0,5,0,0
201896,-91.2409,4,2,0,5,0,0
201937,-91.1577,4,2,0,5,0,0
201977,-91.0747,4,2,0,5,0,0
202017,-90.9918,4,2,0,5,0,0
202058,-90.9091,4,2,0,5,0,0
202098,-90.8265,4,2,0,5,0,0
202138,-90.7441,4,2,0,5,0,0
202178,-90.6618,4,2,0,5,0,0
202219,-90.5797,4,2,0,5,0,0
202259,-90.4977,4,2,0,5,0,0
202299,-90.4159,4,2,0,5,0,0
202340,-90.3342,4,2,0,5,0,0
202380,-90.2527,4,2,0,5,0,0
202420,-90.1713,4,2,0,5,0,0
202461,-90.0901,4,2,0,5,0,0
202501,-90.009,4,2,0,5,0,0
202541,-89.9281,4,2,0,5,0,0
202582,-89.8473,4,2,0,5,0,0
202622,-89.7666,4,2,0,5,0,0
202662,-89.6861,4,2,0,5,0,0
202702,-89.6057,4,2,0,5,0,0
202743,-89.5255,4,2,0,5,0,0
202783,-89.4454,4,2,0,5,0,0
202823,-89.3655,4,2,0,5,0,0
202864,-89.2857,4,2,0,5,0,0
202904,-89.2061,4,2,0,5,0,0
202944,-89.1266,4,2,0,5,0,0
202985,-89.0472,4,2,0,5,0,0
203025,-88.968,4,2,0,5,0,0
203065,-88.8889,4,2,0,5,0,0
203106,-88.8099,4,2,0,5,0,0
203146,-88.7311,4,2,0,5,0,0
203186,-88.6525,4,2,0,5,0,0
203226,-88.574,4,2,0,5,0,0
203267,-88.4956,4,2,0,5,0,0
203307,-88.4173,4,2,0,5,0,0
203347,-88.3392,4,2,0,5,0,0
203388,-88.2613,4,2,0,5,0,0
203428,-88.1834,4,2,0,5,0,0
203468,-88.1057,4,2,0,5,0,0
203509,-88.0282,4,2,0,5,0,0
203549,-87.9507,4,2,0,5,0,0
203589,-87.8735,4,2,0,5,0,0
203630,-87.7963,4,2,0,5,0,0
203670,-87.7193,4,2,0,5,0,0
203710,-87.6424,4,2,0,5,0,0
203751,-87.5657,4,2,0,5,0,0
203791,-87.4891,4,2,0,5,0,0
203831,-87.4126,4,2,0,5,0,0
203871,-87.3362,4,2,0,5,0,0
203912,-87.26,4,2,0,5,0,0
203952,-87.184,4,2,0,5,0,0
203992,-87.108,4,2,0,5,0,0
204033,-87.0322,4,2,0,5,0,0
204073,-1000,4,2,0,5,0,0
204157,-11.4464,4,2,0,5,0,0
204167,-95.2381,4,2,0,5,0,0
204354,-10,4,2,0,5,0,0
204401,-166.666666666667,4,2,0,5,0,0
205948,-1000,4,2,0,5,0,0
206024,-10,4,2,0,5,0,0
206042,-133.333,4,2,0,5,0,0
206068,-132.433,4,2,0,5,0,0
206095,-131.544,4,2,0,5,0,0
206121,-130.668,4,2,0,5,0,0
206147,-129.803,4,2,0,5,0,0
206173,-128.949,4,2,0,5,0,0
206200,-128.107,4,2,0,5,0,0
206226,-127.275,4,2,0,5,0,0
206252,-126.454,4,2,0,5,0,0
206278,-125.644,4,2,0,5,0,0
206305,-124.844,4,2,0,5,0,0
206331,-124.054,4,2,0,5,0,0
206357,-123.274,4,2,0,5,0,0
206383,-122.504,4,2,0,5,0,0
206410,-121.743,4,2,0,5,0,0
206436,-120.992,4,2,0,5,0,0
206462,-120.25,4,2,0,5,0,0
206488,-119.517,4,2,0,5,0,0
206515,-118.793,4,2,0,5,0,0
206541,-118.078,4,2,0,5,0,0
206567,-117.371,4,2,0,5,0,0
206593,-116.673,4,2,0,5,0,0
206620,-115.982,4,2,0,5,0,0
206646,-115.3,4,2,0,5,0,0
206672,-114.626,4,2,0,5,0,0
206698,-113.96,4,2,0,5,0,0
206725,-113.302,4,2,0,5,0,0
206751,-112.651,4,2,0,5,0,0
206777,-112.007,4,2,0,5,0,0
206803,-111.371,4,2,0,5,0,0
206830,-110.742,4,2,0,5,0,0
206856,-110.12,4,2,0,5,0,0
206882,-109.505,4,2,0,5,0,0
206908,-108.897,4,2,0,5,0,0
206935,-108.295,4,2,0,5,0,0
206961,-107.701,4,2,0,5,0,0
206987,-107.112,4,2,0,5,0,0
207013,-106.53,4,2,0,5,0,0
207040,-105.955,4,2,0,5,0,0
207066,-105.385,4,2,0,5,0,0
207092,-104.822,4,2,0,5,0,0
207118,-104.264,4,2,0,5,0,0
207145,-103.713,4,2,0,5,0,0
207171,-103.167,4,2,0,5,0,0
207197,-102.627,4,2,0,5,0,0
207223,-102.093,4,2,0,5,0,0
207250,-101.564,4,2,0,5,0,0
207276,-101.041,4,2,0,5,0,0
207302,-100.523,4,2,0,5,0,0
207328,-100.01,4,2,0,5,0,0
207355,-99.5025,4,2,0,5,0,0
207381,-99.0001,4,2,0,5,0,0
207407,-98.5028,4,2,0,5,0,0
207433,-98.0104,4,2,0,5,0,0
207460,-97.5229,4,2,0,5,0,0
207486,-97.0403,4,2,0,5,0,0
207512,-96.5624,4,2,0,5,0,0
207538,-96.0892,4,2,0,5,0,0
207565,-95.6206,4,2,0,5,0,0
207591,-95.1565,4,2,0,5,0,0
207617,-94.697,4,2,0,5,0,0
207643,-94.2418,4,2,0,5,0,0
207670,-93.791,4,2,0,5,0,0
207696,-93.3445,4,2,0,5,0,0
207722,-92.9023,4,2,0,5,0,0
207748,-92.4642,4,2,0,5,0,0
207775,-92.0302,4,2,0,5,0,0
207801,-91.6003,4,2,0,5,0,0
207827,-91.1743,4,2,0,5,0,0
207853,-90.7523,4,2,0,5,0,0
207880,-90.3342,4,2,0,5,0,0
207906,-89.92,4,2,0,5,0,0
207932,-89.5095,4,2,0,5,0,0
207958,-89.1027,4,2,0,5,0,0
207985,-88.6997,4,2,0,5,0,0
208011,-88.3002,4,2,0,5,0,0
208037,-87.9044,4,2,0,5,0,0
208063,-87.512,4,2,0,5,0,0
208090,-87.1232,4,2,0,5,0,0
208116,-86.7378,4,2,0,5,0,0
208142,-86.3558,4,2,0,5,0,0
208168,-85.9771,4,2,0,5,0,0
208195,-85.6018,4,2,0,5,0,0
208221,-85.2297,4,2,0,5,0,0
208247,-84.8608,4,2,0,5,0,0
208273,-84.4951,4,2,0,5,0,0
208300,-84.1326,4,2,0,5,0,0
208326,-83.7731,4,2,0,5,0,0
208352,-83.4168,4,2,0,5,0,0
208378,-83.0634,4,2,0,5,0,0
208405,-82.713,4,2,0,5,0,0
208431,-82.3655,4,2,0,5,0,0
208457,-82.021,4,2,0,5,0,0
208479,-10,4,2,0,5,0,0
208526,-133.333333333333,4,2,0,5,0,0
209018,-10,4,2,0,5,0,0
209042,-133.333,4,2,0,5,0,0
209072,-132.573,4,2,0,5,0,0
209102,-131.822,4,2,0,5,0,0
209132,-131.079,4,2,0,5,0,0
209162,-130.344,4,2,0,5,0,0
209192,-129.618,4,2,0,5,0,0
209222,-128.899,4,2,0,5,0,0
209252,-128.189,4,2,0,5,0,0
209282,-127.486,4,2,0,5,0,0
209312,-126.791,4,2,0,5,0,0
209342,-126.103,4,2,0,5,0,0
209372,-125.423,4,2,0,5,0,0
209402,-124.75,4,2,0,5,0,0
209432,-124.085,4,2,0,5,0,0
209462,-123.426,4,2,0,5,0,0
209492,-122.775,4,2,0,5,0,0
209522,-122.13,4,2,0,5,0,0
209552,-121.492,4,2,0,5,0,0
209582,-120.861,4,2,0,5,0,0
209612,-120.236,4,2,0,5,0,0
209642,-119.617,4,2,0,5,0,0
209672,-119.005,4,2,0,5,0,0
209702,-118.399,4,2,0,5,0,0
209732,-117.8,4,2,0,5,0,0
209762,-117.206,4,2,0,5,0,0
209792,-116.618,4,2,0,5,0,0
209822,-116.036,4,2,0,5,0,0
209852,-115.46,4,2,0,5,0,0
209882,-114.89,4,2,0,5,0,0
209912,-114.325,4,2,0,5,0,0
209942,-113.766,4,2,0,5,0,0
209972,-113.212,4,2,0,5,0,0
210002,-112.663,4,2,0,5,0,0
210032,-112.12,4,2,0,5,0,0
210062,-111.582,4,2,0,5,0,0
210092,-111.049,4,2,0,5,0,0
210122,-110.522,4,2,0,5,0,0
210152,-109.999,4,2,0,5,0,0
210182,-109.481,4,2,0,5,0,0
210212,-108.968,4,2,0,5,0,0
210242,-108.46,4,2,0,5,0,0
210272,-107.956,4,2,0,5,0,0
210302,-107.458,4,2,0,5,0,0
210332,-106.963,4,2,0,5,0,0
210362,-106.474,4,2,0,5,0,0
210392,-105.988,4,2,0,5,0,0
210422,-105.507,4,2,0,5,0,0
210452,-105.031,4,2,0,5,0,0
210482,-104.559,4,2,0,5,0,0
210512,-104.091,4,2,0,5,0,0
210542,-103.627,4,2,0,5,0,0
210572,-103.167,4,2,0,5,0,0
210602,-102.712,4,2,0,5,0,0
210632,-102.26,4,2,0,5,0,0
210662,-101.812,4,2,0,5,0,0
210692,-101.368,4,2,0,5,0,0
210722,-100.929,4,2,0,5,0,0
210752,-100.492,4,2,0,5,0,0
210782,-100.06,4,2,0,5,0,0
210812,-99.6314,4,2,0,5,0,0
210842,-99.2063,4,2,0,5,0,0
210872,-98.7849,4,2,0,5,0,0
210902,-98.3671,4,2,0,5,0,0
210932,-97.9528,4,2,0,5,0,0
210962,-97.5419,4,2,0,5,0,0
210992,-97.1345,4,2,0,5,0,0
211022,-96.7305,4,2,0,5,0,0
211052,-96.3298,4,2,0,5,0,0
211082,-95.9325,4,2,0,5,0,0
211112,-95.5384,4,2,0,5,0,0
211142,-95.1475,4,2,0,5,0,0
211172,-94.7598,4,2,0,5,0,0
211202,-94.3752,4,2,0,5,0,0
211232,-93.9938,4,2,0,5,0,0
211262,-93.6154,4,2,0,5,0,0
211292,-93.2401,4,2,0,5,0,0
211322,-92.8678,4,2,0,5,0,0
211352,-92.4984,4,2,0,5,0,0
211382,-92.1319,4,2,0,5,0,0
211412,-91.7684,4,2,0,5,0,0
211442,-91.4077,4,2,0,5,0,0
211472,-91.0498,4,2,0,5,0,0
211502,-90.6947,4,2,0,5,0,0
211532,-90.3424,4,2,0,5,0,0
211562,-89.9928,4,2,0,5,0,0
211592,-89.6459,4,2,0,5,0,0
211622,-89.3017,4,2,0,5,0,0
211652,-88.9601,4,2,0,5,0,0
211682,-88.6211,4,2,0,5,0,0
211712,-88.2846,4,2,0,5,0,0
211742,-87.9507,4,2,0,5,0,0
211772,-87.6194,4,2,0,5,0,0
211802,-87.2905,4,2,0,5,0,0
211832,-86.9641,4,2,0,5,0,0
211862,-86.6401,4,2,0,5,0,0
211892,-86.3185,4,2,0,5,0,0
211922,-85.9993,4,2,0,5,0,0
211952,-85.6825,4,2,0,5,0,0
211982,-85.3679,4,2,0,5,0,0
212012,-85.0557,4,2,0,5,0,0
212042,-10,4,2,0,5,0,0
212046,-910,4,2,0,5,0,0
212088,-10,4,2,0,5,0,0
212092,-910,4,2,0,5,0,0
212135,-10,4,2,0,5,0,0
212139,-910,4,2,0,5,0,0
212182,-10,4,2,0,5,0,0
212186,-910,4,2,0,5,0,0
212229,-10,4,2,0,5,0,0
212233,-910,4,2,0,5,0,0
212276,-10,4,2,0,5,0,0
212280,-910,4,2,0,5,0,0
212323,-10,4,2,0,5,0,0
212327,-910,4,2,0,5,0,0
212370,-10,4,2,0,5,0,0
212374,-910,4,2,0,5,0,0
212417,-10,4,2,0,5,0,0
212421,-910,4,2,0,5,0,0
212463,-10,4,2,0,5,0,0
212467,-910,4,2,0,5,0,0
212510,-10,4,2,0,5,0,0
212514,-910,4,2,0,5,0,0
212557,-10,4,2,0,5,0,0
212561,-910,4,2,0,5,0,0
212604,-10,4,2,0,5,0,0
212608,-910,4,2,0,5,0,0
212651,-10,4,2,0,5,0,0
212655,-910,4,2,0,5,0,0
212698,-10,4,2,0,5,0,0
212702,-910,4,2,0,5,0,0
212745,-10,4,2,0,5,0,0
212749,-910,4,2,0,5,0,0
212792,-10,4,2,0,5,0,0
212796,-910,4,2,0,5,0,0
212838,-10,4,2,0,5,0,0
212842,-910,4,2,0,5,0,0
212885,-10,4,2,0,5,0,0
212889,-910,4,2,0,5,0,0
212932,-10,4,2,0,5,0,0
212936,-910,4,2,0,5,0,0
212979,-10,4,2,0,5,0,0
212983,-910,4,2,0,5,0,0
213026,-10,4,2,0,5,0,0
213030,-910,4,2,0,5,0,0
213073,-10,4,2,0,5,0,0
213077,-910,4,2,0,5,0,0
213120,-10,4,2,0,5,0,0
213124,-910,4,2,0,5,0,0
213167,-163.934,4,2,0,5,0,0
213345,-11.8906,4,2,0,5,0,0
213354,-163.934,4,2,0,5,0,0
213533,-11.8906,4,2,0,5,0,0
213542,-10,4,2,0,5,0,0
213546,-910,4,2,0,5,0,0
213588,-10,4,2,0,5,0,0
213592,-910,4,2,0,5,0,0
213635,-10,4,2,0,5,0,0
213639,-910,4,2,0,5,0,0
213682,-10,4,2,0,5,0,0
213686,-910,4,2,0,5,0,0
213729,-10,4,2,0,5,0,0
213733,-910,4,2,0,5,0,0
213776,-10,4,2,0,5,0,0
213780,-910,4,2,0,5,0,0
213823,-10,4,2,0,5,0,0
213827,-910,4,2,0,5,0,0
213870,-10,4,2,0,5,0,0
213874,-910,4,2,0,5,0,0
213917,-10,4,2,0,5,0,0
213921,-910,4,2,0,5,0,0
213963,-10,4,2,0,5,0,0
213967,-910,4,2,0,5,0,0
214010,-10,4,2,0,5,0,0
214014,-910,4,2,0,5,0,0
214057,-10,4,2,0,5,0,0
214061,-910,4,2,0,5,0,0
214104,-10,4,2,0,5,0,0
214108,-910,4,2,0,5,0,0
214151,-10,4,2,0,5,0,0
214155,-910,4,2,0,5,0,0
214198,-10,4,2,0,5,0,0
214202,-910,4,2,0,5,0,0
214245,-10,4,2,0,5,0,0
214249,-910,4,2,0,5,0,0
214292,-10,4,2,0,5,0,0
214296,-910,4,2,0,5,0,0
214338,-10,4,2,0,5,0,0
214342,-910,4,2,0,5,0,0
214385,-10,4,2,0,5,0,0
214389,-910,4,2,0,5,0,0
214432,-10,4,2,0,5,0,0
214436,-910,4,2,0,5,0,0
214479,-10,4,2,0,5,0,0
214483,-910,4,2,0,5,0,0
214526,-10,4,2,0,5,0,0
214530,-910,4,2,0,5,0,0
214573,-10,4,2,0,5,0,0
214577,-910,4,2,0,5,0,0
214620,-10,4,2,0,5,0,0
214624,-910,4,2,0,5,0,0
214667,-175.439,4,2,0,5,0,0
214841,-14.8968,4,2,0,5,0,0
214854,-175.439,4,2,0,5,0,0
215029,-14.8968,4,2,0,5,0,0
215042,-476.19,4,2,0,5,0,0
215084,-10,4,2,0,5,0,0
215088,-476.19,4,2,0,5,0,0
215131,-10,4,2,0,5,0,0
215135,-476.19,4,2,0,5,0,0
215178,-10,4,2,0,5,0,0
215182,-476.19,4,2,0,5,0,0
215225,-10,4,2,0,5,0,0
215229,-476.19,4,2,0,5,0,0
215315,-10,4,2,0,5,0,0
215323,-476.19,4,2,0,5,0,0
215409,-10,4,2,0,5,0,0
215417,-476.19,4,2,0,5,0,0
215503,-10,4,2,0,5,0,0
215510,-476.19,4,2,0,5,0,0
215596,-10,4,2,0,5,0,0
215604,-476.19,4,2,0,5,0,0
215690,-10,4,2,0,5,0,0
215698,-476.19,4,2,0,5,0,0
215784,-10,4,2,0,5,0,0
215792,-476.19,4,2,0,5,0,0
215878,-10,4,2,0,5,0,0
215885,-476.19,4,2,0,5,0,0
215971,-10,4,2,0,5,0,0
215979,-476.19,4,2,0,5,0,0
216065,-10,4,2,0,5,0,0
216073,-476.19,4,2,0,5,0,0
216159,-10,4,2,0,5,0,0
216167,-476.19,4,2,0,5,0,0
216253,-10,4,2,0,5,0,0
216260,-476.19,4,2,0,5,0,0
216346,-10,4,2,0,5,0,0
216354,-476.19,4,2,0,5,0,0
216440,-10,4,2,0,5,0,0
216448,-476.19,4,2,0,5,0,0
216534,-10,4,2,0,5,0,0
216542,-10,4,2,0,5,0,0
216565,-250,4,2,0,5,0,0
216893,-33.3333333333333,4,2,0,5,0,0
216917,-10,4,2,0,5,0,0
216940,-250,4,2,0,5,0,0
217268,-33.3333333333333,4,2,0,5,0,0
217292,-100,4,2,0,5,0,0
217667,-100,4,2,0,5,0,0
217671,-99.6711,4,2,0,5,0,0
217675,-99.3432,4,2,0,5,0,0
217678,-99.0151,4,2,0,5,0,0
217682,-98.6856,4,2,0,5,0,0
217686,-98.3535,4,2,0,5,0,0
217690,-98.0179,4,2,0,5,0,0
217693,-97.6777,4,2,0,5,0,0
217697,-97.3318,4,2,0,5,0,0
217701,-96.9794,4,2,0,5,0,0
217705,-96.6194,4,2,0,5,0,0
217708,-96.251,4,2,0,5,0,0
217712,-95.8734,4,2,0,5,0,0
217716,-95.4857,4,2,0,5,0,0
217720,-95.0873,4,2,0,5,0,0
217723,-94.6775,4,2,0,5,0,0
217727,-94.2556,4,2,0,5,0,0
217731,-93.821,4,2,0,5,0,0
217735,-93.3733,4,2,0,5,0,0
217738,-92.9119,4,2,0,5,0,0
217742,-92.4365,4,2,0,5,0,0
217746,-91.9468,4,2,0,5,0,0
217750,-91.4424,4,2,0,5,0,0
217753,-90.9231,4,2,0,5,0,0
217757,-90.3888,4,2,0,5,0,0
217761,-89.8394,4,2,0,5,0,0
217765,-89.2749,4,2,0,5,0,0
217768,-88.6952,4,2,0,5,0,0
217772,-88.1005,4,2,0,5,0,0
217776,-87.491,4,2,0,5,0,0
217780,-86.8667,4,2,0,5,0,0
217783,-86.2281,4,2,0,5,0,0
217787,-85.5753,4,2,0,5,0,0
217791,-84.9089,4,2,0,5,0,0
217795,-84.2291,4,2,0,5,0,0
217798,-83.5365,4,2,0,5,0,0
217802,-82.8315,4,2,0,5,0,0
217806,-82.1148,4,2,0,5,0,0
217810,-81.3869,4,2,0,5,0,0
217813,-80.6483,4,2,0,5,0,0
217817,-79.8999,4,2,0,5,0,0
217821,-79.1422,4,2,0,5,0,0
217825,-78.3759,4,2,0,5,0,0
217828,-77.6017,4,2,0,5,0,0
217832,-76.8205,4,2,0,5,0,0
217836,-76.0328,4,2,0,5,0,0
217840,-75.2396,4,2,0,5,0,0
217843,-74.4414,4,2,0,5,0,0
217847,-73.6392,4,2,0,5,0,0
217851,-72.8336,4,2,0,5,0,0
217855,-72.0254,4,2,0,5,0,0
217858,-71.2153,4,2,0,5,0,0
217862,-70.4041,4,2,0,5,0,0
217866,-69.5924,4,2,0,5,0,0
217870,-68.7811,4,2,0,5,0,0
217873,-67.9707,4,2,0,5,0,0
217877,-67.162,4,2,0,5,0,0
217881,-66.3556,4,2,0,5,0,0
217885,-65.5522,4,2,0,5,0,0
217888,-64.7522,4,2,0,5,0,0
217892,-63.9564,4,2,0,5,0,0
217896,-63.1652,4,2,0,5,0,0
217900,-62.3792,4,2,0,5,0,0
217903,-61.5988,4,2,0,5,0,0
217907,-60.8247,4,2,0,5,0,0
217911,-60.0571,4,2,0,5,0,0
217915,-59.2966,4,2,0,5,0,0
217918,-58.5434,4,2,0,5,0,0
217922,-57.7981,4,2,0,5,0,0
217926,-57.0608,4,2,0,5,0,0
217930,-56.332,4,2,0,5,0,0
217933,-55.6119,4,2,0,5,0,0
217937,-54.9008,4,2,0,5,0,0
217941,-54.1989,4,2,0,5,0,0
217945,-53.5064,4,2,0,5,0,0
217948,-52.8235,4,2,0,5,0,0
217952,-52.1504,4,2,0,5,0,0
217956,-51.4872,4,2,0,5,0,0
217960,-50.8341,4,2,0,5,0,0
217963,-50.1911,4,2,0,5,0,0
217967,-49.5584,4,2,0,5,0,0
217971,-48.9359,4,2,0,5,0,0
217975,-48.3239,4,2,0,5,0,0
217978,-47.7222,4,2,0,5,0,0
217982,-47.131,4,2,0,5,0,0
217986,-46.5502,4,2,0,5,0,0
217990,-45.9799,4,2,0,5,0,0
217993,-45.4199,4,2,0,5,0,0
217997,-44.8704,4,2,0,5,0,0
218001,-44.3311,4,2,0,5,0,0
218005,-43.8022,4,2,0,5,0,0
218008,-43.2835,4,2,0,5,0,0
218012,-42.775,4,2,0,5,0,0
218016,-42.2766,4,2,0,5,0,0
218020,-41.7882,4,2,0,5,0,0
218023,-41.3097,4,2,0,5,0,0
218027,-40.841,4,2,0,5,0,0
218031,-40.3821,4,2,0,5,0,0
218035,-39.9327,4,2,0,5,0,0
218038,-39.4929,4,2,0,5,0,0
218042,-100,4,2,0,5,0,0
229667,-61.3497,4,2,0,5,0,0
229714,-270.27,4,2,0,5,0,0
229760,-61.3497,4,2,0,5,0,0
229807,-270.27,4,2,0,5,0,0
229854,-61.3497,4,2,0,5,0,0
229901,-270.27,4,2,0,5,0,0
229948,-61.3497,4,2,0,5,0,0
229995,-270.27,4,2,0,5,0,0
230042,-52.9101,4,2,0,5,0,0
230058,-909.091,4,2,0,5,0,0
230073,-52.9101,4,2,0,5,0,0
230089,-909.091,4,2,0,5,0,0
230104,-52.9101,4,2,0,5,0,0
230120,-909.091,4,2,0,5,0,0
230135,-52.9101,4,2,0,5,0,0
230151,-909.091,4,2,0,5,0,0
230167,-52.9101,4,2,0,5,0,0
230183,-909.091,4,2,0,5,0,0
230198,-52.9101,4,2,0,5,0,0
230214,-909.091,4,2,0,5,0,0
230229,-52.9101,4,2,0,5,0,0
230245,-909.091,4,2,0,5,0,0
230260,-52.9101,4,2,0,5,0,0
230276,-909.091,4,2,0,5,0,0
230292,-52.9101,4,2,0,5,0,0
230308,-909.091,4,2,0,5,0,0
230323,-52.9101,4,2,0,5,0,0
230339,-909.091,4,2,0,5,0,0
230354,-52.9101,4,2,0,5,0,0
230370,-909.091,4,2,0,5,0,0
230385,-52.9101,4,2,0,5,0,0
230401,-909.091,4,2,0,5,0,0
230417,-100,4,2,0,5,0,0
234729,-16.4204,4,2,0,5,0,0
234736,-982.659,4,2,0,5,0,0
234776,-16.4204,4,2,0,5,0,0
234783,-982.659,4,2,0,5,0,0
234823,-16.4204,4,2,0,5,0,0
234830,-982.659,4,2,0,5,0,0
234870,-16.4204,4,2,0,5,0,0
234877,-982.659,4,2,0,5,0,0
234917,-100,4,2,0,5,0,0
235104,-16.4204,4,2,0,5,0,0
235111,-982.659,4,2,0,5,0,0
235151,-16.4204,4,2,0,5,0,0
235158,-982.659,4,2,0,5,0,0
235198,-16.4204,4,2,0,5,0,0
235205,-982.659,4,2,0,5,0,0
235245,-16.4204,4,2,0,5,0,0
235252,-982.659,4,2,0,5,0,0
235292,-100,4,2,0,5,0,0
235479,-16.4204,4,2,0,5,0,0
235493,-982.659,4,2,0,5,0,0
235573,-16.4204,4,2,0,5,0,0
235587,-982.659,4,2,0,5,0,0
235667,-16.4204,4,2,0,5,0,0
235681,-982.659,4,2,0,5,0,0
235760,-16.4204,4,2,0,5,0,0
235774,-982.659,4,2,0,5,0,0
235854,-16.4204,4,2,0,5,0,0
235868,-982.659,4,2,0,5,0,0
235948,-16.4204,4,2,0,5,0,0
235962,-982.659,4,2,0,5,0,0
236042,-105.263,4,2,0,5,0,0
236085,-104.921,4,2,0,5,0,0
236128,-104.581,4,2,0,5,0,0
236171,-104.243,4,2,0,5,0,0
236214,-103.907,4,2,0,5,0,0
236258,-103.573,4,2,0,5,0,0
236301,-103.242,4,2,0,5,0,0
236344,-102.912,4,2,0,5,0,0
236387,-102.585,4,2,0,5,0,0
236430,-102.26,4,2,0,5,0,0
236473,-101.937,4,2,0,5,0,0
236516,-101.616,4,2,0,5,0,0
236559,-101.297,4,2,0,5,0,0
236603,-100.98,4,2,0,5,0,0
236646,-100.664,4,2,0,5,0,0
236689,-100.351,4,2,0,5,0,0
236732,-100.04,4,2,0,5,0,0
236775,-99.7307,4,2,0,5,0,0
236818,-99.4233,4,2,0,5,0,0
236861,-99.1179,4,2,0,5,0,0
236904,-98.8142,4,2,0,5,0,0
236948,-98.5125,4,2,0,5,0,0
236991,-98.2125,4,2,0,5,0,0
237034,-97.9144,4,2,0,5,0,0
237077,-97.6181,4,2,0,5,0,0
237120,-97.3236,4,2,0,5,0,0
237163,-97.0309,4,2,0,5,0,0
237206,-96.7399,4,2,0,5,0,0
237249,-96.4506,4,2,0,5,0,0
237292,-96.1631,4,2,0,5,0,0
237336,-95.8773,4,2,0,5,0,0
237379,-95.5932,4,2,0,5,0,0
237422,-95.3107,4,2,0,5,0,0
237465,-95.0299,4,2,0,5,0,0
237508,-94.7508,4,2,0,5,0,0
237551,-94.4733,4,2,0,5,0,0
237594,-94.1974,4,2,0,5,0,0
237637,-93.9232,4,2,0,5,0,0
237681,-93.6505,4,2,0,5,0,0
237724,-93.3794,4,2,0,5,0,0
237767,-93.1099,4,2,0,5,0,0
237810,-92.8419,4,2,0,5,0,0
237853,-92.5754,4,2,0,5,0,0
237896,-92.3105,4,2,0,5,0,0
237939,-92.0471,4,2,0,5,0,0
237982,-91.7852,4,2,0,5,0,0
238026,-91.5248,4,2,0,5,0,0
238069,-91.2659,4,2,0,5,0,0
238112,-91.0084,4,2,0,5,0,0
238155,-90.7523,4,2,0,5,0,0
238198,-90.4977,4,2,0,5,0,0
238241,-90.2446,4,2,0,5,0,0
238284,-89.9928,4,2,0,5,0,0
238327,-89.7424,4,2,0,5,0,0
238370,-89.4935,4,2,0,5,0,0
238414,-89.2459,4,2,0,5,0,0
238457,-88.9996,4,2,0,5,0,0
238500,-88.7548,4,2,0,5,0,0
238543,-88.5112,4,2,0,5,0,0
238586,-88.269,4,2,0,5,0,0
238629,-88.0282,4,2,0,5,0,0
238672,-87.7886,4,2,0,5,0,0
238715,-87.5503,4,2,0,5,0,0
238759,-87.3134,4,2,0,5,0,0
238802,-87.0777,4,2,0,5,0,0
238845,-86.8432,4,2,0,5,0,0
238888,-86.6101,4,2,0,5,0,0
238931,-86.3782,4,2,0,5,0,0
238974,-86.1475,4,2,0,5,0,0
239017,-85.918,4,2,0,5,0,0
239060,-85.6898,4,2,0,5,0,0
239104,-85.4628,4,2,0,5,0,0
239147,-85.237,4,2,0,5,0,0
239190,-85.0123,4,2,0,5,0,0
239233,-84.7889,4,2,0,5,0,0
239276,-84.5666,4,2,0,5,0,0
239319,-84.3455,4,2,0,5,0,0
239362,-84.1255,4,2,0,5,0,0
239405,-83.9067,4,2,0,5,0,0
239448,-83.689,4,2,0,5,0,0
239492,-83.4725,4,2,0,5,0,0
239535,-83.257,4,2,0,5,0,0
239578,-83.0427,4,2,0,5,0,0
239621,-82.8295,4,2,0,5,0,0
239664,-82.6173,4,2,0,5,0,0
239707,-82.4063,4,2,0,5,0,0
239750,-82.1963,4,2,0,5,0,0
239793,-81.9874,4,2,0,5,0,0
239837,-81.7795,4,2,0,5,0,0
239880,-81.5727,4,2,0,5,0,0
239923,-81.367,4,2,0,5,0,0
239966,-81.1622,4,2,0,5,0,0
240009,-80.9585,4,2,0,5,0,0
240052,-80.7559,4,2,0,5,0,0
240095,-80.5542,4,2,0,5,0,0
240138,-80.3536,4,2,0,5,0,0
240182,-80.1539,4,2,0,5,0,0
240225,-79.9552,4,2,0,5,0,0
240268,-79.7575,4,2,0,5,0,0
240311,-79.5608,4,2,0,5,0,0
240354,-79.3651,4,2,0,5,0,0
240367,-78.9597,4,2,0,5,0,0
240380,-78.5541,4,2,0,5,0,0
240393,-78.1442,4,2,0,5,0,0
240407,-77.7258,4,2,0,5,0,0
240420,-77.2953,4,2,0,5,0,0
240433,-76.8489,4,2,0,5,0,0
240446,-76.3833,4,2,0,5,0,0
240459,-75.8953,4,2,0,5,0,0
240472,-75.3821,4,2,0,5,0,0
240485,-74.841,4,2,0,5,0,0
240498,-74.2696,4,2,0,5,0,0
240512,-73.666,4,2,0,5,0,0
240525,-73.0283,4,2,0,5,0,0
240538,-72.3554,4,2,0,5,0,0
240551,-71.646,4,2,0,5,0,0
240564,-70.8996,4,2,0,5,0,0
240577,-70.1158,4,2,0,5,0,0
240590,-69.2948,4,2,0,5,0,0
240603,-68.4368,4,2,0,5,0,0
240617,-67.5427,4,2,0,5,0,0
240630,-66.6136,4,2,0,5,0,0
240643,-65.6509,4,2,0,5,0,0
240656,-64.6562,4,2,0,5,0,0
240669,-63.6316,4,2,0,5,0,0
240682,-62.5792,4,2,0,5,0,0
240695,-61.5015,4,2,0,5,0,0
240709,-60.4011,4,2,0,5,0,0
240722,-59.2806,4,2,0,5,0,0
240735,-58.1429,4,2,0,5,0,0
240748,-56.9909,4,2,0,5,0,0
240761,-55.8275,4,2,0,5,0,0
240774,-54.6555,4,2,0,5,0,0
240787,-53.478,4,2,0,5,0,0
240800,-52.2977,4,2,0,5,0,0
240814,-51.1174,4,2,0,5,0,0
240827,-49.9397,4,2,0,5,0,0
240840,-48.7671,4,2,0,5,0,0
240853,-47.602,4,2,0,5,0,0
240866,-46.4465,4,2,0,5,0,0
240879,-45.3028,4,2,0,5,0,0
240892,-44.1728,4,2,0,5,0,0
240905,-43.0581,4,2,0,5,0,0
240919,-41.9603,4,2,0,5,0,0
240932,-40.8807,4,2,0,5,0,0
240945,-39.8206,4,2,0,5,0,0
240958,-38.781,4,2,0,5,0,0
240971,-37.7628,4,2,0,5,0,0
240984,-36.7667,4,2,0,5,0,0
240997,-35.7934,4,2,0,5,0,0
241011,-34.8432,4,2,0,5,0,0
241024,-33.9166,4,2,0,5,0,0
241037,-33.0137,4,2,0,5,0,0
241050,-32.1346,4,2,0,5,0,0
241063,-31.2795,4,2,0,5,0,0
241076,-30.4482,4,2,0,5,0,0
241089,-29.6407,4,2,0,5,0,0
241102,-28.8566,4,2,0,5,0,0
241116,-28.0958,4,2,0,5,0,0
241129,-27.358,4,2,0,5,0,0
241142,-26.6427,4,2,0,5,0,0
241155,-25.9497,4,2,0,5,0,0
241168,-25.2784,4,2,0,5,0,0
241181,-24.6283,4,2,0,5,0,0
241194,-23.9991,4,2,0,5,0,0
241207,-23.3903,4,2,0,5,0,0
241221,-22.8012,4,2,0,5,0,0
241234,-22.2315,4,2,0,5,0,0
241247,-21.6805,4,2,0,5,0,0
241260,-21.1478,4,2,0,5,0,0
241273,-20.6327,4,2,0,5,0,0
241286,-20.1349,4,2,0,5,0,0
241299,-19.6537,4,2,0,5,0,0
241312,-19.1887,4,2,0,5,0,0
241326,-18.7393,4,2,0,5,0,0
241339,-18.305,4,2,0,5,0,0
241352,-17.8854,4,2,0,5,0,0
241365,-17.4799,4,2,0,5,0,0
241378,-17.0881,4,2,0,5,0,0
241391,-16.7096,4,2,0,5,0,0
241404,-16.3438,4,2,0,5,0,0
241418,-15.9903,4,2,0,5,0,0
241431,-15.6487,4,2,0,5,0,0
241444,-15.3186,4,2,0,5,0,0
241457,-14.9996,4,2,0,5,0,0
241470,-14.6913,4,2,0,5,0,0
241483,-14.3933,4,2,0,5,0,0
241496,-14.1053,4,2,0,5,0,0
241509,-13.8269,4,2,0,5,0,0
241523,-13.5578,4,2,0,5,0,0
241536,-13.2976,4,2,0,5,0,0
241549,-13.046,4,2,0,5,0,0
241562,-12.8028,4,2,0,5,0,0
241575,-12.5676,4,2,0,5,0,0
241588,-12.3401,4,2,0,5,0,0
241601,-12.1201,4,2,0,5,0,0
241614,-11.9074,4,2,0,5,0,0
241628,-11.7015,4,2,0,5,0,0
241641,-11.5024,4,2,0,5,0,0
241654,-11.3098,4,2,0,5,0,0
241667,-10,4,2,0,5,0,0
241713,-10,4,2,0,5,0,0
241719,-880,4,2,0,5,0,0
241760,-10,4,2,0,5,0,0
241766,-666.666666666667,4,2,0,5,0,0
241807,-10,4,2,0,5,0,0
241813,-500,4,2,0,5,0,0
241854,-10,4,2,0,5,0,0
241860,-400,4,2,0,5,0,0
241901,-10,4,2,0,5,0,0
241907,-333.333333333333,4,2,0,5,0,0
241948,-10,4,2,0,5,0,0
241954,-250,4,2,0,5,0,0
241995,-10,4,2,0,5,0,0
242001,-200,4,2,0,5,0,0
242042,-100,4,2,0,5,0,0
244667,-58.8235,4,2,0,5,0,0
244761,-333.333,4,2,0,5,0,0
244854,-58.8235,4,2,0,5,0,0
244948,-333.333,4,2,0,5,0,0
245042,-384.615,4,2,0,5,0,0
245111,-32.1942,4,2,0,5,0,0
245135,-384.615,4,2,0,5,0,0
245205,-32.1942,4,2,0,5,0,0
245229,-384.615,4,2,0,5,0,0
245299,-32.1942,4,2,0,5,0,0
245323,-384.615,4,2,0,5,0,0
245393,-32.1942,4,2,0,5,0,0
245417,-100,4,2,0,5,0,0
246542,-36.4964,4,2,0,5,0,0
246574,-964.912,4,2,0,5,0,0
246635,-100,4,2,0,5,0,0
246823,-36.4964,4,2,0,5,0,0
246855,-964.912,4,2,0,5,0,0
246916,-100,4,2,0,5,0,0
247104,-36.4964,4,2,0,5,0,0
247136,-964.912,4,2,0,5,0,0
247197,-100,4,2,0,5,0,0
247385,-36.4964,4,2,0,5,0,0
247417,-964.912,4,2,0,5,0,0
247478,-100,4,2,0,5,0,0
247667,-36.4964,4,2,0,5,0,0
247699,-964.912,4,2,0,5,0,0
247760,-100,4,2,0,5,0,0
247763,-99.9885,4,2,0,5,0,0
247766,-99.9767,4,2,0,5,0,0
247768,-99.9644,4,2,0,5,0,0
247771,-99.9514,4,2,0,5,0,0
247774,-99.9374,4,2,0,5,0,0
247777,-99.9222,4,2,0,5,0,0
247780,-99.9056,4,2,0,5,0,0
247783,-99.8873,4,2,0,5,0,0
247785,-99.867,4,2,0,5,0,0
247788,-99.8446,4,2,0,5,0,0
247791,-99.8197,4,2,0,5,0,0
247794,-99.7923,4,2,0,5,0,0
247797,-99.762,4,2,0,5,0,0
247799,-99.7287,4,2,0,5,0,0
247802,-99.692,4,2,0,5,0,0
247805,-99.6519,4,2,0,5,0,0
247808,-99.6081,4,2,0,5,0,0
247811,-99.5603,4,2,0,5,0,0
247814,-99.5085,4,2,0,5,0,0
247816,-99.4524,4,2,0,5,0,0
247819,-99.3918,4,2,0,5,0,0
247822,-99.3266,4,2,0,5,0,0
247825,-99.2565,4,2,0,5,0,0
247828,-99.1815,4,2,0,5,0,0
247831,-99.1014,4,2,0,5,0,0
247833,-99.0159,4,2,0,5,0,0
247836,-98.9251,4,2,0,5,0,0
247839,-98.8286,4,2,0,5,0,0
247842,-98.7266,4,2,0,5,0,0
247845,-98.6187,4,2,0,5,0,0
247847,-98.5049,4,2,0,5,0,0
247850,-98.3851,4,2,0,5,0,0
247853,-98.2593,4,2,0,5,0,0
247856,-98.1273,4,2,0,5,0,0
247859,-97.9891,4,2,0,5,0,0
247862,-97.8447,4,2,0,5,0,0
247864,-97.6939,4,2,0,5,0,0
247867,-97.5367,4,2,0,5,0,0
247870,-97.3732,4,2,0,5,0,0
247873,-97.2033,4,2,0,5,0,0
247876,-97.027,4,2,0,5,0,0
247878,-96.8443,4,2,0,5,0,0
247881,-96.6552,4,2,0,5,0,0
247884,-96.4598,4,2,0,5,0,0
247887,-96.2581,4,2,0,5,0,0
247890,-96.0501,4,2,0,5,0,0
247893,-95.8358,4,2,0,5,0,0
247895,-95.6154,4,2,0,5,0,0
247898,-95.389,4,2,0,5,0,0
247901,-95.1565,4,2,0,5,0,0
247904,-94.9182,4,2,0,5,0,0
247907,-94.674,4,2,0,5,0,0
247909,-94.4242,4,2,0,5,0,0
247912,-94.1687,4,2,0,5,0,0
247915,-93.9078,4,2,0,5,0,0
247918,-93.6416,4,2,0,5,0,0
247921,-93.3702,4,2,0,5,0,0
247924,-93.0938,4,2,0,5,0,0
247926,-92.8125,4,2,0,5,0,0
247929,-92.5265,4,2,0,5,0,0
247932,-92.2359,4,2,0,5,0,0
247935,-91.9409,4,2,0,5,0,0
247938,-91.6418,4,2,0,5,0,0
247940,-91.3385,4,2,0,5,0,0
247943,-91.0315,4,2,0,5,0,0
247946,-90.7207,4,2,0,5,0,0
247949,-90.4065,4,2,0,5,0,0
247952,-90.089,4,2,0,5,0,0
247955,-89.7684,4,2,0,5,0,0
247957,-89.4449,4,2,0,5,0,0
247960,-89.1187,4,2,0,5,0,0
247963,-88.79,4,2,0,5,0,0
247966,-88.4591,4,2,0,5,0,0
247969,-88.126,4,2,0,5,0,0
247972,-87.7911,4,2,0,5,0,0
247974,-87.4545,4,2,0,5,0,0
247977,-87.1163,4,2,0,5,0,0
247980,-86.7769,4,2,0,5,0,0
247983,-86.4365,4,2,0,5,0,0
247986,-86.0951,4,2,0,5,0,0
247988,-85.7531,4,2,0,5,0,0
247991,-85.4105,4,2,0,5,0,0
247994,-85.0677,4,2,0,5,0,0
247997,-84.7247,4,2,0,5,0,0
248000,-84.3818,4,2,0,5,0,0
248003,-84.0392,4,2,0,5,0,0
248005,-83.697,4,2,0,5,0,0
248008,-83.3555,4,2,0,5,0,0
248011,-83.0147,4,2,0,5,0,0
248014,-82.6749,4,2,0,5,0,0
248017,-82.3363,4,2,0,5,0,0
248019,-81.9989,4,2,0,5,0,0
248022,-81.663,4,2,0,5,0,0
248025,-81.3287,4,2,0,5,0,0
248028,-80.9962,4,2,0,5,0,0
248031,-80.6656,4,2,0,5,0,0
248034,-80.337,4,2,0,5,0,0
248036,-80.0107,4,2,0,5,0,0
248039,-79.6866,4,2,0,5,0,0
248042,-100,4,2,0,5,0,0
250667,-100,4,2,0,5,0,0
250671,-99.864,4,2,0,5,0,0
250675,-99.7282,4,2,0,5,0,0
250678,-99.5922,4,2,0,5,0,0
250682,-99.4558,4,2,0,5,0,0
250686,-99.3187,4,2,0,5,0,0
250690,-99.1808,4,2,0,5,0,0
250693,-99.0417,4,2,0,5,0,0
250697,-98.9012,4,2,0,5,0,0
250701,-98.7591,4,2,0,5,0,0
250705,-98.6152,4,2,0,5,0,0
250708,-98.4692,4,2,0,5,0,0
250712,-98.3209,4,2,0,5,0,0
250716,-98.1701,4,2,0,5,0,0
250720,-98.0167,4,2,0,5,0,0
250723,-97.8603,4,2,0,5,0,0
250727,-97.7008,4,2,0,5,0,0
250731,-97.5381,4,2,0,5,0,0
250735,-97.3719,4,2,0,5,0,0
250738,-97.202,4,2,0,5,0,0
250742,-97.0284,4,2,0,5,0,0
250746,-96.8508,4,2,0,5,0,0
250750,-96.6691,4,2,0,5,0,0
250753,-96.4832,4,2,0,5,0,0
250757,-96.2929,4,2,0,5,0,0
250761,-96.0981,4,2,0,5,0,0
250765,-95.8987,4,2,0,5,0,0
250768,-95.6946,4,2,0,5,0,0
250772,-95.4857,4,2,0,5,0,0
250776,-95.2719,4,2,0,5,0,0
250780,-95.0532,4,2,0,5,0,0
250783,-94.8294,4,2,0,5,0,0
250787,-94.6005,4,2,0,5,0,0
250791,-94.3665,4,2,0,5,0,0
250795,-94.1274,4,2,0,5,0,0
250798,-93.883,4,2,0,5,0,0
250802,-93.6334,4,2,0,5,0,0
250806,-93.3786,4,2,0,5,0,0
250810,-93.1186,4,2,0,5,0,0
250813,-92.8534,4,2,0,5,0,0
250817,-92.5831,4,2,0,5,0,0
250821,-92.3075,4,2,0,5,0,0
250825,-92.0269,4,2,0,5,0,0
250828,-91.7412,4,2,0,5,0,0
250832,-91.4505,4,2,0,5,0,0
250836,-91.1549,4,2,0,5,0,0
250840,-90.8544,4,2,0,5,0,0
250843,-90.5491,4,2,0,5,0,0
250847,-90.2392,4,2,0,5,0,0
250851,-89.9247,4,2,0,5,0,0
250855,-89.6057,4,2,0,5,0,0
250858,-89.2824,4,2,0,5,0,0
250862,-88.9549,4,2,0,5,0,0
250866,-88.6232,4,2,0,5,0,0
250870,-88.2876,4,2,0,5,0,0
250873,-87.9481,4,2,0,5,0,0
250877,-87.605,4,2,0,5,0,0
250881,-87.2583,4,2,0,5,0,0
250885,-86.9082,4,2,0,5,0,0
250888,-86.555,4,2,0,5,0,0
250892,-86.1986,4,2,0,5,0,0
250896,-85.8394,4,2,0,5,0,0
250900,-85.4775,4,2,0,5,0,0
250903,-85.113,4,2,0,5,0,0
250907,-84.7462,4,2,0,5,0,0
250911,-84.3771,4,2,0,5,0,0
250915,-84.0061,4,2,0,5,0,0
250918,-83.6332,4,2,0,5,0,0
250922,-83.2586,4,2,0,5,0,0
250926,-82.8826,4,2,0,5,0,0
250930,-82.5054,4,2,0,5,0,0
250933,-82.127,4,2,0,5,0,0
250937,-81.7476,4,2,0,5,0,0
250941,-81.3676,4,2,0,5,0,0
250945,-80.987,4,2,0,5,0,0
250948,-80.606,4,2,0,5,0,0
250952,-80.2248,4,2,0,5,0,0
250956,-79.8435,4,2,0,5,0,0
250960,-79.4624,4,2,0,5,0,0
250963,-79.0817,4,2,0,5,0,0
250967,-78.7014,4,2,0,5,0,0
250971,-78.3217,4,2,0,5,0,0
250975,-77.9429,4,2,0,5,0,0
250978,-77.565,4,2,0,5,0,0
250982,-77.1883,4,2,0,5,0,0
250986,-76.8129,4,2,0,5,0,0
250990,-76.4389,4,2,0,5,0,0
250993,-76.0665,4,2,0,5,0,0
250997,-75.6958,4,2,0,5,0,0
251001,-75.327,4,2,0,5,0,0
251005,-74.9601,4,2,0,5,0,0
251008,-74.5954,4,2,0,5,0,0
251012,-74.233,4,2,0,5,0,0
251016,-73.8729,4,2,0,5,0,0
251020,-73.5154,4,2,0,5,0,0
251023,-73.1604,4,2,0,5,0,0
251027,-72.8082,4,2,0,5,0,0
251031,-72.4588,4,2,0,5,0,0
251035,-72.1123,4,2,0,5,0,0
251038,-71.7689,4,2,0,5,0,0
251042,-10,4,2,0,5,0,0
251065,-200,4,2,0,5,0,0
251206,-20,4,2,0,5,0,0
251230,-200,4,2,0,5,0,0
251393,-20,4,2,0,5,0,0
251417,-100,4,2,0,5,0,0
251792,-10,4,2,0,5,0,0
251815,-200,4,2,0,5,0,0
251956,-20,4,2,0,5,0,0
251979,-200,4,2,0,5,0,0
252143,-20,4,2,0,5,0,0
252167,-100,4,2,0,5,0,0
252542,-10,4,2,0,5,0,0
252565,-200,4,2,0,5,0,0
252612,-40,4,2,0,5,0,0
252635,-200,4,2,0,5,0,0
252706,-40,4,2,0,5,0,0
252729,-200,4,2,0,5,0,0
252799,-40,4,2,0,5,0,0
252823,-200,4,2,0,5,0,0
252893,-20,4,2,0,5,0,0
252917,-100,4,2,0,5,0,0
253292,-66.2252,4,2,0,5,0,0
253372,-162.532,4,2,0,5,0,0
253479,-66.2252,4,2,0,5,0,0
253519,-162.532,4,2,0,5,0,0
253573,-66.2252,4,2,0,5,0,0
253653,-162.532,4,2,0,5,0,0
253760,-66.2252,4,2,0,5,0,0
253800,-162.532,4,2,0,5,0,0
253854,-66.2252,4,2,0,5,0,0
253935,-162.532,4,2,0,5,0,0
254042,-71.4286,4,2,0,5,0,0
254072,-71.9159,4,2,0,5,0,0
254102,-72.4098,4,2,0,5,0,0
254132,-72.9103,4,2,0,5,0,0
254162,-73.4174,4,2,0,5,0,0
254192,-73.9311,4,2,0,5,0,0
254222,-74.4514,4,2,0,5,0,0
254252,-74.9783,4,2,0,5,0,0
254282,-75.5119,4,2,0,5,0,0
254312,-76.052,4,2,0,5,0,0
254342,-76.5988,4,2,0,5,0,0
254372,-77.1522,4,2,0,5,0,0
254402,-77.7121,4,2,0,5,0,0
254432,-78.2786,4,2,0,5,0,0
254462,-78.8517,4,2,0,5,0,0
254492,-79.4313,4,2,0,5,0,0
254522,-80.0174,4,2,0,5,0,0
254552,-80.6099,4,2,0,5,0,0
254582,-81.2089,4,2,0,5,0,0
254612,-81.8143,4,2,0,5,0,0
254642,-82.426,4,2,0,5,0,0
254672,-83.044,4,2,0,5,0,0
254702,-83.6683,4,2,0,5,0,0
254732,-84.2988,4,2,0,5,0,0
254762,-84.9354,4,2,0,5,0,0
254792,-85.5781,4,2,0,5,0,0
254822,-86.2269,4,2,0,5,0,0
254852,-86.8816,4,2,0,5,0,0
254882,-87.5422,4,2,0,5,0,0
254912,-88.2086,4,2,0,5,0,0
254942,-88.8807,4,2,0,5,0,0
254972,-89.5585,4,2,0,5,0,0
255002,-90.2419,4,2,0,5,0,0
255032,-90.9308,4,2,0,5,0,0
255062,-91.625,4,2,0,5,0,0
255092,-92.3246,4,2,0,5,0,0
255122,-93.0294,4,2,0,5,0,0
255152,-93.7394,4,2,0,5,0,0
255182,-94.4544,4,2,0,5,0,0
255212,-95.1743,4,2,0,5,0,0
255242,-95.8991,4,2,0,5,0,0
255272,-96.6286,4,2,0,5,0,0
255302,-97.3627,4,2,0,5,0,0
255332,-98.1014,4,2,0,5,0,0
255362,-98.8446,4,2,0,5,0,0
255392,-99.592,4,2,0,5,0,0
255422,-100.344,4,2,0,5,0,0
255452,-101.1,4,2,0,5,0,0
255482,-101.86,4,2,0,5,0,0
255512,-102.623,4,2,0,5,0,0
255542,-103.391,4,2,0,5,0,0
255572,-104.163,4,2,0,5,0,0
255602,-104.938,4,2,0,5,0,0
255632,-105.717,4,2,0,5,0,0
255662,-106.499,4,2,0,5,0,0
255692,-107.285,4,2,0,5,0,0
255722,-108.074,4,2,0,5,0,0
255752,-108.867,4,2,0,5,0,0
255782,-109.663,4,2,0,5,0,0
255812,-110.462,4,2,0,5,0,0
255842,-111.264,4,2,0,5,0,0
255872,-112.069,4,2,0,5,0,0
255902,-112.878,4,2,0,5,0,0
255932,-113.69,4,2,0,5,0,0
255962,-114.504,4,2,0,5,0,0
255992,-115.322,4,2,0,5,0,0
256022,-116.143,4,2,0,5,0,0
256052,-116.968,4,2,0,5,0,0
256082,-117.795,4,2,0,5,0,0
256112,-118.626,4,2,0,5,0,0
256142,-119.46,4,2,0,5,0,0
256172,-120.297,4,2,0,5,0,0
256202,-121.138,4,2,0,5,0,0
256232,-121.982,4,2,0,5,0,0
256262,-122.83,4,2,0,5,0,0
256292,-123.682,4,2,0,5,0,0
256322,-124.538,4,2,0,5,0,0
256352,-125.399,4,2,0,5,0,0
256382,-126.263,4,2,0,5,0,0
256412,-127.133,4,2,0,5,0,0
256442,-128.007,4,2,0,5,0,0
256472,-128.886,4,2,0,5,0,0
256502,-129.77,4,2,0,5,0,0
256532,-130.661,4,2,0,5,0,0
256562,-131.557,4,2,0,5,0,0
256592,-132.459,4,2,0,5,0,0
256622,-133.368,4,2,0,5,0,0
256652,-134.284,4,2,0,5,0,0
256682,-135.208,4,2,0,5,0,0
256712,-136.14,4,2,0,5,0,0
256742,-137.08,4,2,0,5,0,0
256772,-138.028,4,2,0,5,0,0
256802,-138.986,4,2,0,5,0,0
256832,-139.954,4,2,0,5,0,0
256862,-140.933,4,2,0,5,0,0
256892,-141.922,4,2,0,5,0,0
256922,-142.923,4,2,0,5,0,0
256952,-143.937,4,2,0,5,0,0
256982,-144.963,4,2,0,5,0,0
257012,-146.004,4,2,0,5,0,0
257042,-10,4,2,0,5,0,0
257065,-147.059,4,2,0,5,0,0
257206,-10,4,2,0,5,0,0
257229,-112.36,4,2,0,5,0,0
257242,-113.015,4,2,0,5,0,0
257255,-113.678,4,2,0,5,0,0
257268,-114.348,4,2,0,5,0,0
257282,-115.026,4,2,0,5,0,0
257295,-115.711,4,2,0,5,0,0
257308,-116.403,4,2,0,5,0,0
257321,-117.102,4,2,0,5,0,0
257334,-117.808,4,2,0,5,0,0
257347,-118.521,4,2,0,5,0,0
257360,-119.24,4,2,0,5,0,0
257373,-119.967,4,2,0,5,0,0
257387,-120.699,4,2,0,5,0,0
257400,-121.439,4,2,0,5,0,0
257413,-122.184,4,2,0,5,0,0
257426,-122.935,4,2,0,5,0,0
257439,-123.692,4,2,0,5,0,0
257452,-124.455,4,2,0,5,0,0
257465,-125.224,4,2,0,5,0,0
257478,-125.998,4,2,0,5,0,0
257492,-126.777,4,2,0,5,0,0
257505,-127.561,4,2,0,5,0,0
257518,-128.35,4,2,0,5,0,0
257531,-129.143,4,2,0,5,0,0
257544,-129.941,4,2,0,5,0,0
257557,-130.743,4,2,0,5,0,0
257570,-131.549,4,2,0,5,0,0
257584,-132.359,4,2,0,5,0,0
257597,-133.173,4,2,0,5,0,0
257610,-133.989,4,2,0,5,0,0
257623,-134.809,4,2,0,5,0,0
257636,-135.631,4,2,0,5,0,0
257649,-136.456,4,2,0,5,0,0
257662,-137.283,4,2,0,5,0,0
257675,-138.112,4,2,0,5,0,0
257689,-138.944,4,2,0,5,0,0
257702,-139.776,4,2,0,5,0,0
257715,-140.61,4,2,0,5,0,0
257728,-141.445,4,2,0,5,0,0
257741,-142.28,4,2,0,5,0,0
257754,-143.116,4,2,0,5,0,0
257767,-143.953,4,2,0,5,0,0
257780,-144.789,4,2,0,5,0,0
257794,-145.625,4,2,0,5,0,0
257807,-146.46,4,2,0,5,0,0
257820,-147.295,4,2,0,5,0,0
257833,-148.128,4,2,0,5,0,0
257846,-148.96,4,2,0,5,0,0
257859,-149.791,4,2,0,5,0,0
257872,-150.62,4,2,0,5,0,0
257886,-151.446,4,2,0,5,0,0
257899,-152.271,4,2,0,5,0,0
257912,-153.093,4,2,0,5,0,0
257925,-153.912,4,2,0,5,0,0
257938,-154.729,4,2,0,5,0,0
257951,-155.542,4,2,0,5,0,0
257964,-156.353,4,2,0,5,0,0
257977,-157.159,4,2,0,5,0,0
257991,-157.963,4,2,0,5,0,0
258004,-158.762,4,2,0,5,0,0
258017,-159.558,4,2,0,5,0,0
258030,-160.349,4,2,0,5,0,0
258043,-161.137,4,2,0,5,0,0
258056,-161.92,4,2,0,5,0,0
258069,-162.699,4,2,0,5,0,0
258082,-163.474,4,2,0,5,0,0
258096,-164.245,4,2,0,5,0,0
258109,-165.011,4,2,0,5,0,0
258122,-165.772,4,2,0,5,0,0
258135,-166.53,4,2,0,5,0,0
258148,-167.282,4,2,0,5,0,0
258161,-168.031,4,2,0,5,0,0
258174,-168.775,4,2,0,5,0,0
258187,-169.515,4,2,0,5,0,0
258201,-170.25,4,2,0,5,0,0
258214,-170.982,4,2,0,5,0,0
258227,-171.71,4,2,0,5,0,0
258240,-172.434,4,2,0,5,0,0
258253,-173.154,4,2,0,5,0,0
258266,-173.871,4,2,0,5,0,0
258279,-174.585,4,2,0,5,0,0
258293,-175.296,4,2,0,5,0,0
258306,-176.004,4,2,0,5,0,0
258319,-176.709,4,2,0,5,0,0
258332,-177.413,4,2,0,5,0,0
258345,-178.114,4,2,0,5,0,0
258358,-178.814,4,2,0,5,0,0
258371,-179.513,4,2,0,5,0,0
258384,-180.211,4,2,0,5,0,0
258398,-180.909,4,2,0,5,0,0
258411,-181.606,4,2,0,5,0,0
258424,-182.304,4,2,0,5,0,0
258437,-183.003,4,2,0,5,0,0
258450,-183.703,4,2,0,5,0,0
258463,-184.404,4,2,0,5,0,0
258476,-185.108,4,2,0,5,0,0
258489,-185.815,4,2,0,5,0,0
258503,-186.524,4,2,0,5,0,0
258516,-187.238,4,2,0,5,0,0
258529,-187.956,4,2,0,5,0,0
258542,-25.3807,4,2,0,5,0,0
258554,-990.888,4,2,0,5,0,0
258635,-25.3807,4,2,0,5,0,0
258647,-990.888,4,2,0,5,0,0
258729,-15.1745,4,2,0,5,0,0
258738,-989.011,4,2,0,5,0,0
258823,-15.1745,4,2,0,5,0,0
258832,-989.011,4,2,0,5,0,0
258917,-15.083,4,2,0,5,0,0
258929,-987.514,4,2,0,5,0,0
259010,-15.083,4,2,0,5,0,0
259022,-987.514,4,2,0,5,0,0
259104,-15.083,4,2,0,5,0,0
259116,-987.514,4,2,0,5,0,0
259198,-10,4,2,0,5,0,0
259207,-600,4,2,0,5,0,0
259292,-10,4,2,0,5,0,0
259301,-600,4,2,0,5,0,0
259385,-10,4,2,0,5,0,0
259394,-600,4,2,0,5,0,0
259479,-10,4,2,0,5,0,0
259490,-586.667,4,2,0,5,0,0
259573,-10,4,2,0,5,0,0
259584,-369.748031565539,4,2,0,5,0,0
259667,-1000,4,2,0,5,0,0
259830,-10.293,4,2,0,5,0,0
259854,-25,4,2,0,5,0,0
259873,-257.143,4,2,0,5,0,0
260018,-25,4,2,0,5,0,0
260042,-100,4,2,0,5,0,0
261073,-10,4,2,0,5,0,0
261167,-75.188,4,2,0,5,0,0
261169,-76.1754,4,2,0,5,0,0
261171,-77.1889,4,2,0,5,0,0
261173,-78.2291,4,2,0,5,0,0
261174,-79.2968,4,2,0,5,0,0
261176,-80.3928,4,2,0,5,0,0
261178,-81.5179,4,2,0,5,0,0
261180,-82.6729,4,2,0,5,0,0
261182,-83.8588,4,2,0,5,0,0
261184,-85.0764,4,2,0,5,0,0
261186,-86.3266,4,2,0,5,0,0
261188,-87.6104,4,2,0,5,0,0
261189,-88.9289,4,2,0,5,0,0
261191,-90.283,4,2,0,5,0,0
261193,-91.6737,4,2,0,5,0,0
261195,-93.1023,4,2,0,5,0,0
261197,-94.5698,4,2,0,5,0,0
261199,-96.0774,4,2,0,5,0,0
261201,-97.6263,4,2,0,5,0,0
261203,-99.2177,4,2,0,5,0,0
261204,-100.853,4,2,0,5,0,0
261206,-102.534,4,2,0,5,0,0
261208,-104.261,4,2,0,5,0,0
261210,-106.036,4,2,0,5,0,0
261212,-107.861,4,2,0,5,0,0
261214,-109.737,4,2,0,5,0,0
261216,-111.665,4,2,0,5,0,0
261217,-113.648,4,2,0,5,0,0
261219,-115.687,4,2,0,5,0,0
261221,-117.784,4,2,0,5,0,0
261223,-119.941,4,2,0,5,0,0
261225,-122.16,4,2,0,5,0,0
261227,-124.442,4,2,0,5,0,0
261229,-126.79,4,2,0,5,0,0
261231,-129.206,4,2,0,5,0,0
261232,-131.693,4,2,0,5,0,0
261234,-134.251,4,2,0,5,0,0
261236,-136.886,4,2,0,5,0,0
261238,-139.597,4,2,0,5,0,0
261240,-142.389,4,2,0,5,0,0
261242,-145.265,4,2,0,5,0,0
261244,-148.226,4,2,0,5,0,0
261246,-151.276,4,2,0,5,0,0
261247,-154.419,4,2,0,5,0,0
261249,-157.658,4,2,0,5,0,0
261251,-160.995,4,2,0,5,0,0
261253,-164.436,4,2,0,5,0,0
261255,-167.983,4,2,0,5,0,0
261257,-171.641,4,2,0,5,0,0
261259,-175.415,4,2,0,5,0,0
261261,-179.308,4,2,0,5,0,0
261262,-183.326,4,2,0,5,0,0
261264,-187.473,4,2,0,5,0,0
261266,-191.755,4,2,0,5,0,0
261268,-196.178,4,2,0,5,0,0
261270,-200.748,4,2,0,5,0,0
261272,-205.471,4,2,0,5,0,0
261274,-210.354,4,2,0,5,0,0
261275,-215.405,4,2,0,5,0,0
261277,-220.631,4,2,0,5,0,0
261279,-226.04,4,2,0,5,0,0
261281,-231.643,4,2,0,5,0,0
261283,-237.447,4,2,0,5,0,0
261285,-243.465,4,2,0,5,0,0
261287,-249.706,4,2,0,5,0,0
261289,-256.184,4,2,0,5,0,0
261290,-262.911,4,2,0,5,0,0
261292,-269.902,4,2,0,5,0,0
261294,-277.172,4,2,0,5,0,0
261296,-284.738,4,2,0,5,0,0
261298,-292.619,4,2,0,5,0,0
261300,-300.835,4,2,0,5,0,0
261302,-309.408,4,2,0,5,0,0
261304,-318.362,4,2,0,5,0,0
261305,-327.726,4,2,0,5,0,0
261307,-337.528,4,2,0,5,0,0
261309,-347.801,4,2,0,5,0,0
261311,-358.583,4,2,0,5,0,0
261313,-369.914,4,2,0,5,0,0
261315,-381.84,4,2,0,5,0,0
261317,-394.413,4,2,0,5,0,0
261318,-407.69,4,2,0,5,0,0
261320,-421.737,4,2,0,5,0,0
261322,-436.628,4,2,0,5,0,0
261324,-452.447,4,2,0,5,0,0
261326,-469.291,4,2,0,5,0,0
261328,-487.27,4,2,0,5,0,0
261330,-506.512,4,2,0,5,0,0
261332,-527.165,4,2,0,5,0,0
261333,-549.401,4,2,0,5,0,0
261335,-573.422,4,2,0,5,0,0
261337,-599.468,4,2,0,5,0,0
261339,-627.821,4,2,0,5,0,0
261341,-658.822,4,2,0,5,0,0
261343,-692.881,4,2,0,5,0,0
261345,-14.2857142857143,4,2,0,5,0,0
261354,-75.188,4,2,0,5,0,0
261356,-76.1754,4,2,0,5,0,0
261358,-77.1889,4,2,0,5,0,0
261360,-78.2291,4,2,0,5,0,0
261362,-79.2968,4,2,0,5,0,0
261363,-80.3928,4,2,0,5,0,0
261365,-81.5179,4,2,0,5,0,0
261367,-82.6729,4,2,0,5,0,0
261369,-83.8588,4,2,0,5,0,0
261371,-85.0764,4,2,0,5,0,0
261373,-86.3266,4,2,0,5,0,0
261375,-87.6104,4,2,0,5,0,0
261377,-88.9289,4,2,0,5,0,0
261378,-90.283,4,2,0,5,0,0
261380,-91.6737,4,2,0,5,0,0
261382,-93.1023,4,2,0,5,0,0
261384,-94.5698,4,2,0,5,0,0
261386,-96.0774,4,2,0,5,0,0
261388,-97.6263,4,2,0,5,0,0
261390,-99.2177,4,2,0,5,0,0
261392,-100.853,4,2,0,5,0,0
261393,-102.534,4,2,0,5,0,0
261395,-104.261,4,2,0,5,0,0
261397,-106.036,4,2,0,5,0,0
261399,-107.861,4,2,0,5,0,0
261401,-109.737,4,2,0,5,0,0
261403,-111.665,4,2,0,5,0,0
261405,-113.648,4,2,0,5,0,0
261407,-115.687,4,2,0,5,0,0
261409,-117.784,4,2,0,5,0,0
261410,-119.941,4,2,0,5,0,0
261412,-122.16,4,2,0,5,0,0
261414,-124.442,4,2,0,5,0,0
261416,-126.79,4,2,0,5,0,0
261418,-129.206,4,2,0,5,0,0
261420,-131.693,4,2,0,5,0,0
261422,-134.251,4,2,0,5,0,0
261424,-136.886,4,2,0,5,0,0
261425,-139.597,4,2,0,5,0,0
261427,-142.389,4,2,0,5,0,0
261429,-145.265,4,2,0,5,0,0
261431,-148.226,4,2,0,5,0,0
261433,-151.276,4,2,0,5,0,0
261435,-154.419,4,2,0,5,0,0
261437,-157.658,4,2,0,5,0,0
261439,-160.995,4,2,0,5,0,0
261440,-164.436,4,2,0,5,0,0
261442,-167.983,4,2,0,5,0,0
261444,-171.641,4,2,0,5,0,0
261446,-175.415,4,2,0,5,0,0
261448,-179.308,4,2,0,5,0,0
261450,-183.326,4,2,0,5,0,0
261452,-187.473,4,2,0,5,0,0
261454,-191.755,4,2,0,5,0,0
261456,-196.178,4,2,0,5,0,0
261457,-200.748,4,2,0,5,0,0
261459,-205.471,4,2,0,5,0,0
261461,-210.354,4,2,0,5,0,0
261463,-215.405,4,2,0,5,0,0
261465,-220.631,4,2,0,5,0,0
261467,-226.04,4,2,0,5,0,0
261469,-231.643,4,2,0,5,0,0
261471,-237.447,4,2,0,5,0,0
261472,-243.465,4,2,0,5,0,0
261474,-249.706,4,2,0,5,0,0
261476,-256.184,4,2,0,5,0,0
261478,-262.911,4,2,0,5,0,0
261480,-269.902,4,2,0,5,0,0
261482,-277.172,4,2,0,5,0,0
261484,-284.738,4,2,0,5,0,0
261486,-292.619,4,2,0,5,0,0
261487,-300.835,4,2,0,5,0,0
261489,-309.408,4,2,0,5,0,0
261491,-318.362,4,2,0,5,0,0
261493,-327.726,4,2,0,5,0,0
261495,-337.528,4,2,0,5,0,0
261497,-347.801,4,2,0,5,0,0
261499,-358.583,4,2,0,5,0,0
261501,-369.914,4,2,0,5,0,0
261503,-381.84,4,2,0,5,0,0
261504,-394.413,4,2,0,5,0,0
261506,-407.69,4,2,0,5,0,0
261508,-421.737,4,2,0,5,0,0
261510,-436.628,4,2,0,5,0,0
261512,-452.447,4,2,0,5,0,0
261514,-469.291,4,2,0,5,0,0
261516,-487.27,4,2,0,5,0,0
261518,-506.512,4,2,0,5,0,0
261519,-527.165,4,2,0,5,0,0
261521,-549.401,4,2,0,5,0,0
261523,-573.422,4,2,0,5,0,0
261525,-599.468,4,2,0,5,0,0
261527,-627.821,4,2,0,5,0,0
261529,-658.822,4,2,0,5,0,0
261531,-692.881,4,2,0,5,0,0
261533,-14.2857142857143,4,2,0,5,0,0
261542,-100,4,2,0,5,0,0
262667,-10,4,2,0,5,0,0
262690,-1000,4,2,0,5,0,0
262694,-918.201,4,2,0,5,0,0
262697,-848.671,4,2,0,5,0,0
262701,-788.756,4,2,0,5,0,0
262704,-736.516,4,2,0,5,0,0
262708,-690.498,4,2,0,5,0,0
262711,-649.599,4,2,0,5,0,0
262715,-612.96,4,2,0,5,0,0
262718,-579.905,4,2,0,5,0,0
262722,-549.898,4,2,0,5,0,0
262725,-522.504,4,2,0,5,0,0
262729,-497.368,4,2,0,5,0,0
262732,-474.2,4,2,0,5,0,0
262736,-452.758,4,2,0,5,0,0
262739,-432.839,4,2,0,5,0,0
262743,-414.272,4,2,0,5,0,0
262746,-396.914,4,2,0,5,0,0
262750,-380.64,4,2,0,5,0,0
262753,-365.346,4,2,0,5,0,0
262757,-350.938,4,2,0,5,0,0
262760,-337.338,4,2,0,5,0,0
262764,-324.477,4,2,0,5,0,0
262767,-312.293,4,2,0,5,0,0
262771,-300.734,4,2,0,5,0,0
262774,-289.753,4,2,0,5,0,0
262778,-279.307,4,2,0,5,0,0
262782,-269.359,4,2,0,5,0,0
262785,-259.875,4,2,0,5,0,0
262789,-250.826,4,2,0,5,0,0
262792,-242.185,4,2,0,5,0,0
262796,-233.926,4,2,0,5,0,0
262799,-226.027,4,2,0,5,0,0
262803,-218.468,4,2,0,5,0,0
262806,-211.23,4,2,0,5,0,0
262810,-204.297,4,2,0,5,0,0
262813,-197.651,4,2,0,5,0,0
262817,-191.278,4,2,0,5,0,0
262820,-185.165,4,2,0,5,0,0
262824,-179.299,4,2,0,5,0,0
262827,-173.668,4,2,0,5,0,0
262831,-168.262,4,2,0,5,0,0
262834,-163.068,4,2,0,5,0,0
262838,-158.079,4,2,0,5,0,0
262841,-153.285,4,2,0,5,0,0
262845,-148.676,4,2,0,5,0,0
262848,-144.246,4,2,0,5,0,0
262852,-139.985,4,2,0,5,0,0
262855,-135.887,4,2,0,5,0,0
262859,-131.945,4,2,0,5,0,0
262862,-128.152,4,2,0,5,0,0
262866,-124.502,4,2,0,5,0,0
262870,-120.989,4,2,0,5,0,0
262873,-117.607,4,2,0,5,0,0
262877,-114.35,4,2,0,5,0,0
262880,-111.215,4,2,0,5,0,0
262884,-108.194,4,2,0,5,0,0
262887,-105.285,4,2,0,5,0,0
262891,-102.482,4,2,0,5,0,0
262894,-99.7811,4,2,0,5,0,0
262898,-97.178,4,2,0,5,0,0
262901,-94.6689,4,2,0,5,0,0
262905,-92.2501,4,2,0,5,0,0
262908,-89.9178,4,2,0,5,0,0
262912,-87.6687,4,2,0,5,0,0
262915,-85.4994,4,2,0,5,0,0
262919,-83.4068,4,2,0,5,0,0
262922,-81.3878,4,2,0,5,0,0
262926,-79.4397,4,2,0,5,0,0
262929,-77.5595,4,2,0,5,0,0
262933,-75.7447,4,2,0,5,0,0
262936,-73.9926,4,2,0,5,0,0
262940,-72.3009,4,2,0,5,0,0
262943,-70.6673,4,2,0,5,0,0
262947,-69.0894,4,2,0,5,0,0
262950,-67.5652,4,2,0,5,0,0
262954,-66.0926,4,2,0,5,0,0
262958,-64.6696,4,2,0,5,0,0
262961,-63.2944,4,2,0,5,0,0
262965,-61.9651,4,2,0,5,0,0
262968,-60.68,4,2,0,5,0,0
262972,-59.4375,4,2,0,5,0,0
262975,-58.236,4,2,0,5,0,0
262979,-57.0739,4,2,0,5,0,0
262982,-55.9498,4,2,0,5,0,0
262986,-54.8623,4,2,0,5,0,0
262989,-53.8101,4,2,0,5,0,0
262993,-52.7918,4,2,0,5,0,0
262996,-51.8063,4,2,0,5,0,0
263000,-50.8522,4,2,0,5,0,0
263003,-49.9286,4,2,0,5,0,0
263007,-49.0344,4,2,0,5,0,0
263010,-48.1684,4,2,0,5,0,0
263014,-47.3296,4,2,0,5,0,0
263017,-46.5172,4,2,0,5,0,0
263021,-45.7302,4,2,0,5,0,0
263024,-44.9676,4,2,0,5,0,0
263028,-44.2287,4,2,0,5,0,0
263031,-43.5127,4,2,0,5,0,0
263035,-42.8186,4,2,0,5,0,0
263038,-42.1459,4,2,0,5,0,0
263042,-96.1538,4,2,0,5,0,0
263057,-96.0691,4,2,0,5,0,0
263072,-95.9842,4,2,0,5,0,0
263087,-95.8991,4,2,0,5,0,0
263102,-95.8133,4,2,0,5,0,0
263117,-95.7267,4,2,0,5,0,0
263132,-95.6391,4,2,0,5,0,0
263147,-95.5502,4,2,0,5,0,0
263162,-95.4598,4,2,0,5,0,0
263177,-95.3676,4,2,0,5,0,0
263192,-95.2735,4,2,0,5,0,0
263207,-95.1772,4,2,0,5,0,0
263222,-95.0785,4,2,0,5,0,0
263237,-94.9773,4,2,0,5,0,0
263252,-94.8732,4,2,0,5,0,0
263267,-94.7661,4,2,0,5,0,0
263282,-94.6559,4,2,0,5,0,0
263297,-94.5423,4,2,0,5,0,0
263312,-94.4251,4,2,0,5,0,0
263327,-94.3042,4,2,0,5,0,0
263342,-94.1794,4,2,0,5,0,0
263357,-94.0506,4,2,0,5,0,0
263372,-93.9175,4,2,0,5,0,0
263387,-93.7801,4,2,0,5,0,0
263402,-93.6382,4,2,0,5,0,0
263417,-93.4918,4,2,0,5,0,0
263432,-93.3405,4,2,0,5,0,0
263447,-93.1844,4,2,0,5,0,0
263462,-93.0234,4,2,0,5,0,0
263477,-92.8573,4,2,0,5,0,0
263492,-92.6861,4,2,0,5,0,0
263507,-92.5097,4,2,0,5,0,0
263522,-92.3281,4,2,0,5,0,0
263537,-92.141,4,2,0,5,0,0
263552,-91.9487,4,2,0,5,0,0
263567,-91.7509,4,2,0,5,0,0
263582,-91.5476,4,2,0,5,0,0
263597,-91.3389,4,2,0,5,0,0
263612,-91.1247,4,2,0,5,0,0
263627,-90.9051,4,2,0,5,0,0
263642,-90.6799,4,2,0,5,0,0
263657,-90.4494,4,2,0,5,0,0
263672,-90.2134,4,2,0,5,0,0
263687,-89.972,4,2,0,5,0,0
263702,-89.7253,4,2,0,5,0,0
263717,-89.4733,4,2,0,5,0,0
263732,-89.2161,4,2,0,5,0,0
263747,-88.9538,4,2,0,5,0,0
263762,-88.6864,4,2,0,5,0,0
263777,-88.414,4,2,0,5,0,0
263792,-88.1368,4,2,0,5,0,0
263807,-87.8548,4,2,0,5,0,0
263822,-87.5681,4,2,0,5,0,0
263837,-87.2769,4,2,0,5,0,0
263852,-86.9812,4,2,0,5,0,0
263867,-86.6813,4,2,0,5,0,0
263882,-86.3772,4,2,0,5,0,0
263897,-86.0691,4,2,0,5,0,0
263912,-85.7572,4,2,0,5,0,0
263927,-85.4415,4,2,0,5,0,0
263942,-85.1223,4,2,0,5,0,0
263957,-84.7997,4,2,0,5,0,0
263972,-84.4739,4,2,0,5,0,0
263987,-84.1451,4,2,0,5,0,0
264002,-83.8133,4,2,0,5,0,0
264017,-83.4789,4,2,0,5,0,0
264032,-83.1419,4,2,0,5,0,0
264047,-82.8025,4,2,0,5,0,0
264062,-82.461,4,2,0,5,0,0
264077,-82.1175,4,2,0,5,0,0
264092,-81.7722,4,2,0,5,0,0
264107,-81.4252,4,2,0,5,0,0
264122,-81.0768,4,2,0,5,0,0
264137,-80.7272,4,2,0,5,0,0
264152,-80.3764,4,2,0,5,0,0
264167,-80.0248,4,2,0,5,0,0
264182,-79.6724,4,2,0,5,0,0
264197,-79.3195,4,2,0,5,0,0
264212,-78.9662,4,2,0,5,0,0
264227,-78.6128,4,2,0,5,0,0
264242,-78.2593,4,2,0,5,0,0
264257,-77.906,4,2,0,5,0,0
264272,-77.553,4,2,0,5,0,0
264287,-77.2005,4,2,0,5,0,0
264302,-76.8487,4,2,0,5,0,0
264317,-76.4977,4,2,0,5,0,0
264332,-76.1476,4,2,0,5,0,0
264347,-75.7987,4,2,0,5,0,0
264362,-75.4511,4,2,0,5,0,0
264377,-75.1049,4,2,0,5,0,0
264392,-74.7602,4,2,0,5,0,0
264407,-74.4173,4,2,0,5,0,0
264422,-74.0762,4,2,0,5,0,0
264437,-73.737,4,2,0,5,0,0
264452,-73.4,4,2,0,5,0,0
264467,-73.0652,4,2,0,5,0,0
264482,-72.7327,4,2,0,5,0,0
264497,-72.4027,4,2,0,5,0,0
264512,-72.0753,4,2,0,5,0,0
264527,-71.7506,4,2,0,5,0,0
264542,-100,4,2,0,5,0,0
265667,-10,4,2,0,5,0,0
265686,-257.143,4,2,0,5,0,0
265854,-10,4,2,0,5,0,0
265873,-500,4,2,0,5,0,0
266018,-25,4,2,0,5,0,0
266042,-10,4,2,0,5,0,0
266042,-10,4,2,0,5,0,0
266050,-910,4,2,0,5,0,0
266050,-910,4,2,0,5,0,0
266135,-100,4,2,0,5,0,0
266135,-100,4,2,0,5,0,0
266417,-10,4,2,0,5,0,0
266425,-910,4,2,0,5,0,0
266510,-100,4,2,0,5,0,0
266792,-10,4,2,0,5,0,0
266800,-910,4,2,0,5,0,0
266885,-100,4,2,0,5,0,0
267167,-10,4,2,0,5,0,0
267175,-910,4,2,0,5,0,0
267260,-100,4,2,0,5,0,0
267542,-10,4,2,0,5,0,0
267550,-910,4,2,0,5,0,0
267635,-100,4,2,0,5,0,0
267729,-10,4,2,0,5,0,0
267737,-910,4,2,0,5,0,0
267823,-10,4,2,0,5,0,0
267831,-910,4,2,0,5,0,0
267917,-10,4,2,0,5,0,0
267925,-910,4,2,0,5,0,0
268010,-100,4,2,0,5,0,0
268292,-41.6667,4,2,0,5,0,0
268328,-953.125,4,2,0,5,0,0
268385,-100,4,2,0,5,0,0
268573,-41.6667,4,2,0,5,0,0
268610,-953.125,4,2,0,5,0,0
268667,-100,4,2,0,5,0,0
268854,-41.6667,4,2,0,5,0,0
268891,-953.125,4,2,0,5,0,0
268948,-100,4,2,0,5,0,0
269229,-1000,4,2,0,5,0,0
269231,-961.441,4,2,0,5,0,0
269233,-925.54,4,2,0,5,0,0
269235,-891.844,4,2,0,5,0,0
269237,-859.987,4,2,0,5,0,0
269238,-829.67,4,2,0,5,0,0
269240,-800.656,4,2,0,5,0,0
269242,-772.75,4,2,0,5,0,0
269244,-745.802,4,2,0,5,0,0
269246,-719.689,4,2,0,5,0,0
269248,-694.319,4,2,0,5,0,0
269250,-669.622,4,2,0,5,0,0
269252,-645.547,4,2,0,5,0,0
269253,-622.059,4,2,0,5,0,0
269255,-599.135,4,2,0,5,0,0
269257,-576.761,4,2,0,5,0,0
269259,-554.934,4,2,0,5,0,0
269261,-533.654,4,2,0,5,0,0
269263,-512.926,4,2,0,5,0,0
269265,-492.757,4,2,0,5,0,0
269267,-473.156,4,2,0,5,0,0
269268,-454.132,4,2,0,5,0,0
269270,-435.692,4,2,0,5,0,0
269272,-417.844,4,2,0,5,0,0
269274,-400.592,4,2,0,5,0,0
269276,-383.94,4,2,0,5,0,0
269278,-367.889,4,2,0,5,0,0
269280,-352.436,4,2,0,5,0,0
269282,-337.578,4,2,0,5,0,0
269284,-323.309,4,2,0,5,0,0
269285,-309.621,4,2,0,5,0,0
269287,-296.503,4,2,0,5,0,0
269289,-283.943,4,2,0,5,0,0
269291,-271.929,4,2,0,5,0,0
269293,-260.446,4,2,0,5,0,0
269295,-249.479,4,2,0,5,0,0
269297,-239.01,4,2,0,5,0,0
269299,-229.023,4,2,0,5,0,0
269300,-219.501,4,2,0,5,0,0
269302,-210.425,4,2,0,5,0,0
269304,-201.779,4,2,0,5,0,0
269306,-193.544,4,2,0,5,0,0
269308,-185.703,4,2,0,5,0,0
269310,-178.238,4,2,0,5,0,0
269312,-171.133,4,2,0,5,0,0
269314,-164.371,4,2,0,5,0,0
269315,-157.935,4,2,0,5,0,0
269317,-151.81,4,2,0,5,0,0
269319,-145.981,4,2,0,5,0,0
269321,-140.434,4,2,0,5,0,0
269323,-135.153,4,2,0,5,0,0
269325,-130.127,4,2,0,5,0,0
269327,-125.342,4,2,0,5,0,0
269329,-120.785,4,2,0,5,0,0
269331,-116.445,4,2,0,5,0,0
269332,-112.311,4,2,0,5,0,0
269334,-108.373,4,2,0,5,0,0
269336,-104.619,4,2,0,5,0,0
269338,-101.041,4,2,0,5,0,0
269340,-97.6298,4,2,0,5,0,0
269342,-94.376,4,2,0,5,0,0
269344,-91.2719,4,2,0,5,0,0
269346,-88.3096,4,2,0,5,0,0
269347,-85.482,4,2,0,5,0,0
269349,-82.782,4,2,0,5,0,0
269351,-80.203,4,2,0,5,0,0
269353,-77.739,4,2,0,5,0,0
269355,-75.3839,4,2,0,5,0,0
269357,-73.1324,4,2,0,5,0,0
269359,-70.9791,4,2,0,5,0,0
269361,-68.9191,4,2,0,5,0,0
269362,-66.9478,4,2,0,5,0,0
269364,-65.0606,4,2,0,5,0,0
269366,-63.2535,4,2,0,5,0,0
269368,-61.5225,4,2,0,5,0,0
269370,-59.8639,4,2,0,5,0,0
269372,-58.274,4,2,0,5,0,0
269374,-56.7497,4,2,0,5,0,0
269376,-55.2877,4,2,0,5,0,0
269378,-53.8851,4,2,0,5,0,0
269379,-52.539,4,2,0,5,0,0
269381,-51.2468,4,2,0,5,0,0
269383,-50.006,4,2,0,5,0,0
269385,-48.8141,4,2,0,5,0,0
269387,-47.669,4,2,0,5,0,0
269389,-46.5683,4,2,0,5,0,0
269391,-45.5102,4,2,0,5,0,0
269393,-44.4928,4,2,0,5,0,0
269394,-43.5141,4,2,0,5,0,0
269396,-42.5724,4,2,0,5,0,0
269398,-41.6662,4,2,0,5,0,0
269400,-40.7939,4,2,0,5,0,0
269402,-39.9539,4,2,0,5,0,0
269404,-39.145,4,2,0,5,0,0
269406,-38.3657,4,2,0,5,0,0
269408,-37.6148,4,2,0,5,0,0
269409,-36.8911,4,2,0,5,0,0
269411,-36.1935,4,2,0,5,0,0
269413,-35.5209,4,2,0,5,0,0
269415,-34.8722,4,2,0,5,0,0
269417,-100,4,2,0,5,0,0
269698,-1000,4,2,0,5,0,0
269776,-18.5387,4,2,0,5,0,0
269792,-100,4,2,0,5,0,0
269979,-36.1011,4,2,0,5,0,0
269981,-36.7527,4,2,0,5,0,0
269983,-37.4279,4,2,0,5,0,0
269985,-38.1277,4,2,0,5,0,0
269987,-38.853,4,2,0,5,0,0
269988,-39.6048,4,2,0,5,0,0
269990,-40.3843,4,2,0,5,0,0
269992,-41.1926,4,2,0,5,0,0
269994,-42.0308,4,2,0,5,0,0
269996,-42.9002,4,2,0,5,0,0
269998,-43.8021,4,2,0,5,0,0
270000,-44.7378,4,2,0,5,0,0
270002,-45.7087,4,2,0,5,0,0
270003,-46.7163,4,2,0,5,0,0
270005,-47.7622,4,2,0,5,0,0
270007,-48.8478,4,2,0,5,0,0
270009,-49.9749,4,2,0,5,0,0
270011,-51.1453,4,2,0,5,0,0
270013,-52.3607,4,2,0,5,0,0
270015,-53.6229,4,2,0,5,0,0
270017,-54.9341,4,2,0,5,0,0
270018,-56.2962,4,2,0,5,0,0
270020,-57.7113,4,2,0,5,0,0
270022,-59.1816,4,2,0,5,0,0
270024,-60.7094,4,2,0,5,0,0
270026,-62.297,4,2,0,5,0,0
270028,-63.9469,4,2,0,5,0,0
270030,-65.6616,4,2,0,5,0,0
270032,-67.4436,4,2,0,5,0,0
270034,-69.2956,4,2,0,5,0,0
270035,-71.2203,4,2,0,5,0,0
270037,-73.2205,4,2,0,5,0,0
270039,-75.2989,4,2,0,5,0,0
270041,-77.4585,4,2,0,5,0,0
270043,-79.7021,4,2,0,5,0,0
270045,-82.0326,4,2,0,5,0,0
270047,-84.453,4,2,0,5,0,0
270049,-86.9661,4,2,0,5,0,0
270050,-89.5747,4,2,0,5,0,0
270052,-92.2817,4,2,0,5,0,0
270054,-95.0897,4,2,0,5,0,0
270056,-98.0012,4,2,0,5,0,0
270058,-101.019,4,2,0,5,0,0
270060,-104.144,4,2,0,5,0,0
270062,-107.38,4,2,0,5,0,0
270064,-110.727,4,2,0,5,0,0
270065,-114.187,4,2,0,5,0,0
270067,-117.761,4,2,0,5,0,0
270069,-121.449,4,2,0,5,0,0
270071,-125.251,4,2,0,5,0,0
270073,-129.166,4,2,0,5,0,0
270075,-133.192,4,2,0,5,0,0
270077,-137.327,4,2,0,5,0,0
270079,-141.568,4,2,0,5,0,0
270081,-145.91,4,2,0,5,0,0
270082,-150.349,4,2,0,5,0,0
270084,-154.877,4,2,0,5,0,0
270086,-159.488,4,2,0,5,0,0
270088,-164.172,4,2,0,5,0,0
270090,-168.92,4,2,0,5,0,0
270092,-173.72,4,2,0,5,0,0
270094,-178.559,4,2,0,5,0,0
270096,-183.424,4,2,0,5,0,0
270097,-188.298,4,2,0,5,0,0
270099,-193.166,4,2,0,5,0,0
270101,-198.009,4,2,0,5,0,0
270103,-202.81,4,2,0,5,0,0
270105,-207.549,4,2,0,5,0,0
270107,-212.206,4,2,0,5,0,0
270109,-216.761,4,2,0,5,0,0
270111,-221.193,4,2,0,5,0,0
270112,-225.483,4,2,0,5,0,0
270114,-229.61,4,2,0,5,0,0
270116,-233.557,4,2,0,5,0,0
270118,-237.306,4,2,0,5,0,0
270120,-240.84,4,2,0,5,0,0
270122,-244.145,4,2,0,5,0,0
270124,-247.21,4,2,0,5,0,0
270126,-250.023,4,2,0,5,0,0
270128,-252.577,4,2,0,5,0,0
270129,-254.866,4,2,0,5,0,0
270131,-256.889,4,2,0,5,0,0
270133,-258.645,4,2,0,5,0,0
270135,-260.136,4,2,0,5,0,0
270137,-261.368,4,2,0,5,0,0
270139,-262.347,4,2,0,5,0,0
270141,-263.084,4,2,0,5,0,0
270143,-263.589,4,2,0,5,0,0
270144,-263.876,4,2,0,5,0,0
270146,-263.96,4,2,0,5,0,0
270148,-263.856,4,2,0,5,0,0
270150,-263.582,4,2,0,5,0,0
270152,-263.154,4,2,0,5,0,0
270154,-262.591,4,2,0,5,0,0
270156,-261.912,4,2,0,5,0,0
270158,-261.134,4,2,0,5,0,0
270159,-260.277,4,2,0,5,0,0
270161,-259.358,4,2,0,5,0,0
270163,-258.396,4,2,0,5,0,0
270165,-257.407,4,2,0,5,0,0
270167,-100,4,2,0,5,0,0
270354,-10,4,2,0,5,0,0
270358,-910,4,2,0,5,0,0
270401,-10,4,2,0,5,0,0
270405,-910,4,2,0,5,0,0
270448,-10,4,2,0,5,0,0
270452,-910,4,2,0,5,0,0
270495,-10,4,2,0,5,0,0
270499,-910,4,2,0,5,0,0
270542,-111.111111111111,4,2,0,5,0,0
271667,-105.263157894737,4,2,0,5,0,0
271854,-100,4,2,0,5,0,0
272042,-1000,4,2,0,5,0,0
272153,-12.0746,4,2,0,5,0,0
272167,-1000,4,2,0,5,0,0
272278,-12.0746,4,2,0,5,0,0
272292,-1000,4,2,0,5,0,0
272403,-12.0746,4,2,0,5,0,0
272417,-10,4,2,0,5,0,0
272428,-910,4,2,0,5,0,0
272542,-100,4,2,0,5,0,0
272792,-10,4,2,0,5,0,0
272803,-910,4,2,0,5,0,0
272917,-100,4,2,0,5,0,0
273167,-10,4,2,0,5,0,0
273178,-910,4,2,0,5,0,0
273292,-100,4,2,0,5,0,0
273542,-10,4,2,0,5,0,0
273553,-910,4,2,0,5,0,0
273667,-100,4,2,0,5,0,0
273917,-10,4,2,0,5,0,0
273928,-910,4,2,0,5,0,0
274042,-100,4,2,0,5,0,0
274292,-116.279,4,2,0,5,0,0
274457,-49.3421,4,2,0,5,0,0
274479,-100,4,2,0,5,0,0
274667,-47.619,4,2,0,5,0,0
274705,-424.46,4,2,0,5,0,0
274760,-47.619,4,2,0,5,0,0
274799,-424.46,4,2,0,5,0,0
274854,-175.439,4,2,0,5,0,0
274941,-14.8968,4,2,0,5,0,0
274948,-175.439,4,2,0,5,0,0
275035,-14.8968,4,2,0,5,0,0
275042,-10,4,2,0,5,0,0
275050,-910,4,2,0,5,0,0
275135,-100,4,2,0,5,0,0
275229,-10,4,2,0,5,0,0
275237,-910,4,2,0,5,0,0
275322,-100,4,2,0,5,0,0
275510,-10,4,2,0,5,0,0
275518,-910,4,2,0,5,0,0
275603,-100,4,2,0,5,0,0
275792,-10,4,2,0,5,0,0
275800,-910,4,2,0,5,0,0
275885,-100,4,2,0,5,0,0
276073,-10,4,2,0,5,0,0
276081,-910,4,2,0,5,0,0
276166,-100,4,2,0,5,0,0
276354,-10,4,2,0,5,0,0
276362,-910,4,2,0,5,0,0
276447,-100,4,2,0,5,0,0
276542,-112.36,4,2,0,5,0,0
276557,-112.113,4,2,0,5,0,0
276572,-111.867,4,2,0,5,0,0
276587,-111.621,4,2,0,5,0,0
276602,-111.376,4,2,0,5,0,0
276617,-111.13,4,2,0,5,0,0
276632,-110.884,4,2,0,5,0,0
276647,-110.638,4,2,0,5,0,0
276662,-110.39,4,2,0,5,0,0
276677,-110.142,4,2,0,5,0,0
276692,-109.891,4,2,0,5,0,0
276707,-109.639,4,2,0,5,0,0
276722,-109.386,4,2,0,5,0,0
276737,-109.13,4,2,0,5,0,0
276752,-108.871,4,2,0,5,0,0
276767,-108.61,4,2,0,5,0,0
276782,-108.346,4,2,0,5,0,0
276797,-108.079,4,2,0,5,0,0
276812,-107.809,4,2,0,5,0,0
276827,-107.535,4,2,0,5,0,0
276842,-107.258,4,2,0,5,0,0
276857,-106.977,4,2,0,5,0,0
276872,-106.693,4,2,0,5,0,0
276887,-106.404,4,2,0,5,0,0
276902,-106.111,4,2,0,5,0,0
276917,-105.814,4,2,0,5,0,0
276932,-105.512,4,2,0,5,0,0
276947,-105.206,4,2,0,5,0,0
276962,-104.895,4,2,0,5,0,0
276977,-104.58,4,2,0,5,0,0
276992,-104.26,4,2,0,5,0,0
277007,-103.935,4,2,0,5,0,0
277022,-103.606,4,2,0,5,0,0
277037,-103.272,4,2,0,5,0,0
277052,-102.932,4,2,0,5,0,0
277067,-102.588,4,2,0,5,0,0
277082,-102.24,4,2,0,5,0,0
277097,-101.886,4,2,0,5,0,0
277112,-101.527,4,2,0,5,0,0
277127,-101.164,4,2,0,5,0,0
277142,-100.796,4,2,0,5,0,0
277157,-100.423,4,2,0,5,0,0
277172,-100.046,4,2,0,5,0,0
277187,-99.664,4,2,0,5,0,0
277202,-99.2776,4,2,0,5,0,0
277217,-98.8869,4,2,0,5,0,0
277232,-98.4918,4,2,0,5,0,0
277247,-98.0926,4,2,0,5,0,0
277262,-97.6893,4,2,0,5,0,0
277277,-97.2821,4,2,0,5,0,0
277292,-96.8711,4,2,0,5,0,0
277307,-96.4564,4,2,0,5,0,0
277322,-96.0381,4,2,0,5,0,0
277337,-95.6165,4,2,0,5,0,0
277352,-95.1916,4,2,0,5,0,0
277367,-94.7637,4,2,0,5,0,0
277382,-94.3328,4,2,0,5,0,0
277397,-93.8992,4,2,0,5,0,0
277412,-93.4631,4,2,0,5,0,0
277427,-93.0245,4,2,0,5,0,0
277442,-92.5838,4,2,0,5,0,0
277457,-92.141,4,2,0,5,0,0
277472,-91.6963,4,2,0,5,0,0
277487,-91.25,4,2,0,5,0,0
277502,-90.8022,4,2,0,5,0,0
277517,-90.3531,4,2,0,5,0,0
277532,-89.9029,4,2,0,5,0,0
277547,-89.4518,4,2,0,5,0,0
277562,-89,4,2,0,5,0,0
277577,-88.5476,4,2,0,5,0,0
277592,-88.0949,4,2,0,5,0,0
277607,-87.642,4,2,0,5,0,0
277622,-87.1892,4,2,0,5,0,0
277637,-86.7366,4,2,0,5,0,0
277652,-86.2843,4,2,0,5,0,0
277667,-85.8327,4,2,0,5,0,0
277682,-85.3817,4,2,0,5,0,0
277697,-84.9317,4,2,0,5,0,0
277712,-84.4829,4,2,0,5,0,0
277727,-84.0352,4,2,0,5,0,0
277742,-83.589,4,2,0,5,0,0
277757,-83.1444,4,2,0,5,0,0
277772,-82.7016,4,2,0,5,0,0
277787,-82.2607,4,2,0,5,0,0
277802,-81.8218,4,2,0,5,0,0
277817,-81.3852,4,2,0,5,0,0
277832,-80.9509,4,2,0,5,0,0
277847,-80.5191,4,2,0,5,0,0
277862,-80.0899,4,2,0,5,0,0
277877,-79.6635,4,2,0,5,0,0
277892,-79.24,4,2,0,5,0,0
277907,-78.8194,4,2,0,5,0,0
277922,-78.4021,4,2,0,5,0,0
277937,-77.9879,4,2,0,5,0,0
277952,-77.5771,4,2,0,5,0,0
277967,-77.1697,4,2,0,5,0,0
277982,-76.7659,4,2,0,5,0,0
277997,-76.3657,4,2,0,5,0,0
278012,-75.9693,4,2,0,5,0,0
278027,-75.5767,4,2,0,5,0,0
278042,-270.27,4,2,0,5,0,0
278216,-10.6724,4,2,0,5,0,0
278229,-100,4,2,0,5,0,0
278417,-10,4,2,0,5,0,0
278430,-460,4,2,0,5,0,0
278581,-10,4,2,0,5,0,0
278591,-460,4,2,0,5,0,0
278709,-10,4,2,0,5,0,0
278718,-460,4,2,0,5,0,0
278827,-10,4,2,0,5,0,0
278834,-460,4,2,0,5,0,0
278920,-10,4,2,0,5,0,0
278927,-460,4,2,0,5,0,0
279002,-10,4,2,0,5,0,0
279009,-460,4,2,0,5,0,0
279084,-10,4,2,0,5,0,0
279090,-460,4,2,0,5,0,0
279155,-10,4,2,0,5,0,0
279161,-460,4,2,0,5,0,0
279225,-10,4,2,0,5,0,0
279230,-460,4,2,0,5,0,0
279284,-10,4,2,0,5,0,0
279289,-460,4,2,0,5,0,0
279342,-96.1538,4,2,0,5,0,0
279344,-95.725,4,2,0,5,0,0
279346,-95.2987,4,2,0,5,0,0
279348,-94.8739,4,2,0,5,0,0
279350,-94.4492,4,2,0,5,0,0
279352,-94.0237,4,2,0,5,0,0
279354,-93.5962,4,2,0,5,0,0
279356,-93.1657,4,2,0,5,0,0
279358,-92.7312,4,2,0,5,0,0
279360,-92.2918,4,2,0,5,0,0
279362,-91.8466,4,2,0,5,0,0
279364,-91.3948,4,2,0,5,0,0
279366,-90.9356,4,2,0,5,0,0
279368,-90.4682,4,2,0,5,0,0
279370,-89.9921,4,2,0,5,0,0
279372,-89.5065,4,2,0,5,0,0
279374,-89.0109,4,2,0,5,0,0
279376,-88.5049,4,2,0,5,0,0
279378,-87.9879,4,2,0,5,0,0
279380,-87.4596,4,2,0,5,0,0
279382,-86.9197,4,2,0,5,0,0
279384,-86.3679,4,2,0,5,0,0
279386,-85.804,4,2,0,5,0,0
279388,-85.2279,4,2,0,5,0,0
279390,-84.6394,4,2,0,5,0,0
279392,-84.0386,4,2,0,5,0,0
279394,-83.4255,4,2,0,5,0,0
279396,-82.8001,4,2,0,5,0,0
279398,-82.1627,4,2,0,5,0,0
279400,-81.5134,4,2,0,5,0,0
279402,-80.8524,4,2,0,5,0,0
279404,-80.1801,4,2,0,5,0,0
279406,-79.4968,4,2,0,5,0,0
279408,-78.8029,4,2,0,5,0,0
279410,-78.0989,4,2,0,5,0,0
279412,-77.3851,4,2,0,5,0,0
279414,-76.6622,4,2,0,5,0,0
279416,-75.9306,4,2,0,5,0,0
279418,-75.1909,4,2,0,5,0,0
279420,-74.4437,4,2,0,5,0,0
279422,-73.6896,4,2,0,5,0,0
279424,-72.9293,4,2,0,5,0,0
279426,-72.1634,4,2,0,5,0,0
279428,-71.3926,4,2,0,5,0,0
279430,-70.6175,4,2,0,5,0,0
279432,-69.8388,4,2,0,5,0,0
279434,-69.0572,4,2,0,5,0,0
279436,-68.2734,4,2,0,5,0,0
279438,-67.488,4,2,0,5,0,0
279440,-66.7017,4,2,0,5,0,0
279442,-65.9152,4,2,0,5,0,0
279444,-65.1291,4,2,0,5,0,0
279446,-64.3441,4,2,0,5,0,0
279448,-63.5607,4,2,0,5,0,0
279450,-62.7796,4,2,0,5,0,0
279452,-62.0013,4,2,0,5,0,0
279454,-61.2265,4,2,0,5,0,0
279456,-60.4556,4,2,0,5,0,0
279458,-59.6893,4,2,0,5,0,0
279460,-58.9279,4,2,0,5,0,0
279462,-58.1719,4,2,0,5,0,0
279464,-57.4219,4,2,0,5,0,0
279466,-56.6781,4,2,0,5,0,0
279468,-55.9412,4,2,0,5,0,0
279470,-55.2113,4,2,0,5,0,0
279472,-54.4888,4,2,0,5,0,0
279474,-53.7742,4,2,0,5,0,0
279476,-53.0676,4,2,0,5,0,0
279478,-52.3694,4,2,0,5,0,0
279480,-51.6798,4,2,0,5,0,0
279482,-50.999,4,2,0,5,0,0
279484,-50.3273,4,2,0,5,0,0
279486,-49.6648,4,2,0,5,0,0
279488,-49.0117,4,2,0,5,0,0
279490,-48.3682,4,2,0,5,0,0
279492,-47.7343,4,2,0,5,0,0
279494,-47.1102,4,2,0,5,0,0
279496,-46.496,4,2,0,5,0,0
279498,-45.8916,4,2,0,5,0,0
279500,-45.2973,4,2,0,5,0,0
279502,-44.713,4,2,0,5,0,0
279504,-44.1387,4,2,0,5,0,0
279506,-43.5745,4,2,0,5,0,0
279508,-43.0204,4,2,0,5,0,0
279510,-42.4762,4,2,0,5,0,0
279512,-41.9421,4,2,0,5,0,0
279514,-41.418,4,2,0,5,0,0
279516,-40.9038,4,2,0,5,0,0
279518,-40.3995,4,2,0,5,0,0
279520,-39.905,4,2,0,5,0,0
279522,-39.4202,4,2,0,5,0,0
279524,-38.9451,4,2,0,5,0,0
279526,-38.4795,4,2,0,5,0,0
279528,-38.0234,4,2,0,5,0,0
279530,-37.5768,4,2,0,5,0,0
279532,-37.1394,4,2,0,5,0,0
279534,-36.7111,4,2,0,5,0,0
279536,-36.292,4,2,0,5,0,0
279538,-35.8818,4,2,0,5,0,0
279540,-35.4804,4,2,0,5,0,0
279542,-100,4,2,0,5,0,0
280854,-588.235,4,2,0,5,0,0
280856,-577.939,4,2,0,5,0,0
280858,-567.915,4,2,0,5,0,0
280860,-558.074,4,2,0,5,0,0
280862,-548.338,4,2,0,5,0,0
280863,-538.64,4,2,0,5,0,0
280865,-528.923,4,2,0,5,0,0
280867,-519.14,4,2,0,5,0,0
280869,-509.252,4,2,0,5,0,0
280871,-499.229,4,2,0,5,0,0
280873,-489.05,4,2,0,5,0,0
280875,-478.701,4,2,0,5,0,0
280877,-468.177,4,2,0,5,0,0
280878,-457.479,4,2,0,5,0,0
280880,-446.614,4,2,0,5,0,0
280882,-435.596,4,2,0,5,0,0
280884,-424.442,4,2,0,5,0,0
280886,-413.175,4,2,0,5,0,0
280888,-401.822,4,2,0,5,0,0
280890,-390.411,4,2,0,5,0,0
280892,-378.974,4,2,0,5,0,0
280893,-367.54,4,2,0,5,0,0
280895,-356.143,4,2,0,5,0,0
280897,-344.815,4,2,0,5,0,0
280899,-333.586,4,2,0,5,0,0
280901,-322.485,4,2,0,5,0,0
280903,-311.541,4,2,0,5,0,0
280905,-300.778,4,2,0,5,0,0
280907,-290.22,4,2,0,5,0,0
280909,-279.886,4,2,0,5,0,0
280910,-269.794,4,2,0,5,0,0
280912,-259.96,4,2,0,5,0,0
280914,-250.395,4,2,0,5,0,0
280916,-241.109,4,2,0,5,0,0
280918,-232.11,4,2,0,5,0,0
280920,-223.403,4,2,0,5,0,0
280922,-214.989,4,2,0,5,0,0
280924,-206.872,4,2,0,5,0,0
280925,-199.049,4,2,0,5,0,0
280927,-191.518,4,2,0,5,0,0
280929,-184.277,4,2,0,5,0,0
280931,-177.319,4,2,0,5,0,0
280933,-170.641,4,2,0,5,0,0
280935,-164.234,4,2,0,5,0,0
280937,-158.093,4,2,0,5,0,0
280939,-152.209,4,2,0,5,0,0
280940,-146.575,4,2,0,5,0,0
280942,-141.182,4,2,0,5,0,0
280944,-136.022,4,2,0,5,0,0
280946,-131.086,4,2,0,5,0,0
280948,-126.366,4,2,0,5,0,0
280950,-121.854,4,2,0,5,0,0
280952,-117.54,4,2,0,5,0,0
280954,-113.417,4,2,0,5,0,0
280956,-109.476,4,2,0,5,0,0
280957,-105.709,4,2,0,5,0,0
280959,-102.11,4,2,0,5,0,0
280961,-98.6693,4,2,0,5,0,0
280963,-95.381,4,2,0,5,0,0
280965,-92.2378,4,2,0,5,0,0
280967,-89.2329,4,2,0,5,0,0
280969,-86.36,4,2,0,5,0,0
280971,-83.6128,4,2,0,5,0,0
280972,-80.9853,4,2,0,5,0,0
280974,-78.472,4,2,0,5,0,0
280976,-76.0675,4,2,0,5,0,0
280978,-73.7664,4,2,0,5,0,0
280980,-71.564,4,2,0,5,0,0
280982,-69.4556,4,2,0,5,0,0
280984,-67.4366,4,2,0,5,0,0
280986,-65.5028,4,2,0,5,0,0
280987,-63.6501,4,2,0,5,0,0
280989,-61.8748,4,2,0,5,0,0
280991,-60.1731,4,2,0,5,0,0
280993,-58.5417,4,2,0,5,0,0
280995,-56.9771,4,2,0,5,0,0
280997,-55.4763,4,2,0,5,0,0
280999,-54.0362,4,2,0,5,0,0
281001,-52.6541,4,2,0,5,0,0
281003,-51.3273,4,2,0,5,0,0
281004,-50.0533,4,2,0,5,0,0
281006,-48.8296,4,2,0,5,0,0
281008,-47.6539,4,2,0,5,0,0
281010,-46.524,4,2,0,5,0,0
281012,-45.4379,4,2,0,5,0,0
281014,-44.3937,4,2,0,5,0,0
281016,-43.3895,4,2,0,5,0,0
281018,-42.4234,4,2,0,5,0,0
281019,-41.4939,4,2,0,5,0,0
281021,-40.5993,4,2,0,5,0,0
281023,-39.7381,4,2,0,5,0,0
281025,-38.9089,4,2,0,5,0,0
281027,-38.1102,4,2,0,5,0,0
281029,-37.3409,4,2,0,5,0,0
281031,-36.5997,4,2,0,5,0,0
281033,-35.8853,4,2,0,5,0,0
281034,-35.1968,4,2,0,5,0,0
281036,-34.5329,4,2,0,5,0,0
281038,-33.8928,4,2,0,5,0,0
281040,-33.2753,4,2,0,5,0,0
281042,-10,4,2,0,5,0,0
281050,-910,4,2,0,5,0,0
281135,-100,4,2,0,5,0,0
281417,-10,4,2,0,5,0,0
281425,-910,4,2,0,5,0,0
281510,-100,4,2,0,5,0,0
281792,-10,4,2,0,5,0,0
281800,-910,4,2,0,5,0,0
281885,-100,4,2,0,5,0,0
282167,-10,4,2,0,5,0,0
282175,-910,4,2,0,5,0,0
282260,-100,4,2,0,5,0,0
282542,-10,4,2,0,5,0,0
282550,-910,4,2,0,5,0,0
282635,-100,4,2,0,5,0,0
283667,-123.457,4,2,0,5,0,0
284035,-10,4,2,0,5,0,0
284042,-100,4,2,0,5,0,0
284542,-10,4,2,0,5,0,0
284573,-100,4,2,0,5,0,0
285042,-10,4,2,0,5,0,0
285073,-100,4,2,0,5,0,0
285542,-10,4,2,0,5,0,0
285573,-100,4,2,0,5,0,0
286042,-10,4,2,0,5,0,0
286073,-100,4,2,0,5,0,0
286854,-45.4545454545455,4,2,0,5,0,0
286877,-333.333333333333,4,2,0,5,0,0
287018,-25,4,2,0,5,0,0
287042,-100,4,2,0,5,0,0
287229,-10,4,2,0,5,0,0
287233,-910,4,2,0,5,0,0
287276,-10,4,2,0,5,0,0
287280,-910,4,2,0,5,0,0
287323,-10,4,2,0,5,0,0
287327,-910,4,2,0,5,0,0
287370,-10,4,2,0,5,0,0
287374,-910,4,2,0,5,0,0
287417,-100,4,2,0,5,0,0
287604,-10,4,2,0,5,0,0
287608,-910,4,2,0,5,0,0
287651,-10,4,2,0,5,0,0
287655,-910,4,2,0,5,0,0
287698,-10,4,2,0,5,0,0
287702,-910,4,2,0,5,0,0
287745,-10,4,2,0,5,0,0
287749,-910,4,2,0,5,0,0
287792,-100,4,2,0,5,0,0
287979,-34.3643,4,2,0,5,0,0
288009,-988.372,4,2,0,5,0,0
288073,-100,4,2,0,5,0,0
288260,-34.3643,4,2,0,5,0,0
288290,-988.372,4,2,0,5,0,0
288354,-34.3643,4,2,0,5,0,0
288384,-988.372,4,2,0,5,0,0
288448,-34.3643,4,2,0,5,0,0
288478,-988.372,4,2,0,5,0,0
288542,-96.1538,4,2,0,5,0,0
288555,-95.8887,4,2,0,5,0,0
288568,-95.6248,4,2,0,5,0,0
288581,-95.3617,4,2,0,5,0,0
288594,-95.0994,4,2,0,5,0,0
288608,-94.8374,4,2,0,5,0,0
288621,-94.5756,4,2,0,5,0,0
288634,-94.3137,4,2,0,5,0,0
288647,-94.0515,4,2,0,5,0,0
288660,-93.7888,4,2,0,5,0,0
288673,-93.5252,4,2,0,5,0,0
288686,-93.2607,4,2,0,5,0,0
288699,-92.9949,4,2,0,5,0,0
288713,-92.7278,4,2,0,5,0,0
288726,-92.459,4,2,0,5,0,0
288739,-92.1885,4,2,0,5,0,0
288752,-91.9161,4,2,0,5,0,0
288765,-91.6415,4,2,0,5,0,0
288778,-91.3647,4,2,0,5,0,0
288791,-91.0855,4,2,0,5,0,0
288804,-90.8037,4,2,0,5,0,0
288818,-90.5192,4,2,0,5,0,0
288831,-90.2319,4,2,0,5,0,0
288844,-89.9417,4,2,0,5,0,0
288857,-89.6484,4,2,0,5,0,0
288870,-89.3521,4,2,0,5,0,0
288883,-89.0525,4,2,0,5,0,0
288896,-88.7497,4,2,0,5,0,0
288909,-88.4435,4,2,0,5,0,0
288922,-88.1339,4,2,0,5,0,0
288936,-87.8209,4,2,0,5,0,0
288949,-87.5045,4,2,0,5,0,0
288962,-87.1845,4,2,0,5,0,0
288975,-86.861,4,2,0,5,0,0
288988,-86.5339,4,2,0,5,0,0
289001,-86.2034,4,2,0,5,0,0
289014,-85.8693,4,2,0,5,0,0
289027,-85.5317,4,2,0,5,0,0
289041,-85.1906,4,2,0,5,0,0
289054,-84.8461,4,2,0,5,0,0
289067,-84.4982,4,2,0,5,0,0
289080,-84.147,4,2,0,5,0,0
289093,-83.7925,4,2,0,5,0,0
289106,-83.4347,4,2,0,5,0,0
289119,-83.0738,4,2,0,5,0,0
289132,-82.7098,4,2,0,5,0,0
289146,-82.3429,4,2,0,5,0,0
289159,-81.973,4,2,0,5,0,0
289172,-81.6004,4,2,0,5,0,0
289185,-81.2251,4,2,0,5,0,0
289198,-80.8473,4,2,0,5,0,0
289211,-80.467,4,2,0,5,0,0
289224,-80.0843,4,2,0,5,0,0
289237,-79.6995,4,2,0,5,0,0
289250,-79.3126,4,2,0,5,0,0
289264,-78.9237,4,2,0,5,0,0
289277,-78.5331,4,2,0,5,0,0
289290,-78.1407,4,2,0,5,0,0
289303,-77.7469,4,2,0,5,0,0
289316,-77.3517,4,2,0,5,0,0
289329,-76.9552,4,2,0,5,0,0
289342,-76.5577,4,2,0,5,0,0
289355,-76.1593,4,2,0,5,0,0
289369,-75.76,4,2,0,5,0,0
289382,-75.3602,4,2,0,5,0,0
289395,-74.9599,4,2,0,5,0,0
289408,-74.5592,4,2,0,5,0,0
289421,-74.1584,4,2,0,5,0,0
289434,-73.7576,4,2,0,5,0,0
289447,-73.3569,4,2,0,5,0,0
289460,-72.9565,4,2,0,5,0,0
289474,-72.5565,4,2,0,5,0,0
289487,-72.1571,4,2,0,5,0,0
289500,-71.7584,4,2,0,5,0,0
289513,-71.3606,4,2,0,5,0,0
289526,-70.9638,4,2,0,5,0,0
289539,-70.5682,4,2,0,5,0,0
289552,-70.1739,4,2,0,5,0,0
289565,-69.781,4,2,0,5,0,0
289578,-69.3896,4,2,0,5,0,0
289592,-68.9999,4,2,0,5,0,0
289605,-68.612,4,2,0,5,0,0
289618,-68.2261,4,2,0,5,0,0
289631,-67.8422,4,2,0,5,0,0
289644,-67.4605,4,2,0,5,0,0
289657,-67.0811,4,2,0,5,0,0
289670,-10,4,2,0,5,0,0
289854,-1000,4,2,0,5,0,0
289856,-926.856,4,2,0,5,0,0
289858,-863.391,4,2,0,5,0,0
289860,-807.547,4,2,0,5,0,0
289862,-757.812,4,2,0,5,0,0
289863,-713.049,4,2,0,5,0,0
289865,-672.394,4,2,0,5,0,0
289867,-635.178,4,2,0,5,0,0
289869,-600.879,4,2,0,5,0,0
289871,-569.085,4,2,0,5,0,0
289873,-539.469,4,2,0,5,0,0
289875,-511.769,4,2,0,5,0,0
289877,-485.773,4,2,0,5,0,0
289878,-461.309,4,2,0,5,0,0
289880,-438.234,4,2,0,5,0,0
289882,-416.432,4,2,0,5,0,0
289884,-395.805,4,2,0,5,0,0
289886,-376.27,4,2,0,5,0,0
289888,-357.756,4,2,0,5,0,0
289890,-340.201,4,2,0,5,0,0
289892,-323.551,4,2,0,5,0,0
289893,-307.756,4,2,0,5,0,0
289895,-292.774,4,2,0,5,0,0
289897,-278.562,4,2,0,5,0,0
289899,-265.084,4,2,0,5,0,0
289901,-252.303,4,2,0,5,0,0
289903,-240.187,4,2,0,5,0,0
289905,-228.704,4,2,0,5,0,0
289907,-217.822,4,2,0,5,0,0
289909,-207.513,4,2,0,5,0,0
289910,-197.749,4,2,0,5,0,0
289912,-188.502,4,2,0,5,0,0
289914,-179.746,4,2,0,5,0,0
289916,-171.456,4,2,0,5,0,0
289918,-163.609,4,2,0,5,0,0
289920,-156.181,4,2,0,5,0,0
289922,-149.15,4,2,0,5,0,0
289924,-142.494,4,2,0,5,0,0
289925,-136.194,4,2,0,5,0,0
289927,-130.23,4,2,0,5,0,0
289929,-124.583,4,2,0,5,0,0
289931,-119.236,4,2,0,5,0,0
289933,-114.173,4,2,0,5,0,0
289935,-109.377,4,2,0,5,0,0
289937,-104.833,4,2,0,5,0,0
289939,-100.527,4,2,0,5,0,0
289940,-96.4466,4,2,0,5,0,0
289942,-92.5776,4,2,0,5,0,0
289944,-88.9086,4,2,0,5,0,0
289946,-85.4281,4,2,0,5,0,0
289948,-82.1254,4,2,0,5,0,0
289950,-78.9905,4,2,0,5,0,0
289952,-76.0138,4,2,0,5,0,0
289954,-73.1864,4,2,0,5,0,0
289956,-70.4998,4,2,0,5,0,0
289957,-67.9462,4,2,0,5,0,0
289959,-65.518,4,2,0,5,0,0
289961,-63.2083,4,2,0,5,0,0
289963,-61.0104,4,2,0,5,0,0
289965,-58.9181,4,2,0,5,0,0
289967,-56.9256,4,2,0,5,0,0
289969,-55.0275,4,2,0,5,0,0
289971,-53.2184,4,2,0,5,0,0
289972,-51.4937,4,2,0,5,0,0
289974,-49.8488,4,2,0,5,0,0
289976,-48.2793,4,2,0,5,0,0
289978,-46.7812,4,2,0,5,0,0
289980,-45.3507,4,2,0,5,0,0
289982,-43.9843,4,2,0,5,0,0
289984,-42.6785,4,2,0,5,0,0
289986,-41.4303,4,2,0,5,0,0
289987,-40.2366,4,2,0,5,0,0
289989,-39.0947,4,2,0,5,0,0
289991,-38.0019,4,2,0,5,0,0
289993,-36.9557,4,2,0,5,0,0
289995,-35.9538,4,2,0,5,0,0
289997,-34.9939,4,2,0,5,0,0
289999,-34.074,4,2,0,5,0,0
290001,-33.1921,4,2,0,5,0,0
290003,-32.3464,4,2,0,5,0,0
290004,-31.5351,4,2,0,5,0,0
290006,-30.7565,4,2,0,5,0,0
290008,-30.0091,4,2,0,5,0,0
290010,-29.2914,4,2,0,5,0,0
290012,-28.6021,4,2,0,5,0,0
290014,-27.9397,4,2,0,5,0,0
290016,-27.3031,4,2,0,5,0,0
290018,-26.691,4,2,0,5,0,0
290019,-26.1025,4,2,0,5,0,0
290021,-25.5363,4,2,0,5,0,0
290023,-24.9915,4,2,0,5,0,0
290025,-24.4671,4,2,0,5,0,0
290027,-23.9623,4,2,0,5,0,0
290029,-23.4762,4,2,0,5,0,0
290031,-23.008,4,2,0,5,0,0
290033,-22.5569,4,2,0,5,0,0
290034,-22.1221,4,2,0,5,0,0
290036,-21.7031,4,2,0,5,0,0
290038,-21.2992,4,2,0,5,0,0
290040,-20.9096,4,2,0,5,0,0
290042,-20.5339,4,2,0,5,0,0

[HitObjects]
192,192,1104,128,0,2042:0:0:0:0:
475,192,2042,5,0,0:0:0:0:
329,192,2042,1,0,0:0:0:0:
36,192,2042,1,0,0:0:0:0:
475,192,2417,128,0,2792:0:0:0:0:
182,192,2792,128,0,2979:0:0:0:0:
329,192,2979,128,0,3167:0:0:0:0:
36,192,3167,128,0,3354:0:0:0:0:
182,192,3354,128,0,3542:0:0:0:0:
329,192,3917,128,0,4198:0:0:0:0:
475,192,4292,128,0,4479:0:0:0:0:
182,192,4479,128,0,4667:0:0:0:0:
329,192,4667,128,0,5042:0:0:0:0:
475,192,4713,128,0,5042:0:0:0:0:
475,192,5417,128,0,5792:0:0:0:0:
182,192,5792,128,0,5979:0:0:0:0:
329,192,5979,128,0,6167:0:0:0:0:
36,192,6167,128,0,6354:0:0:0:0:
182,192,6354,128,0,6542:0:0:0:0:
329,192,6917,128,0,7198:0:0:0:0:
475,192,7292,128,0,7479:0:0:0:0:
182,192,7479,128,0,7667:0:0:0:0:
36,192,7667,128,0,7854:0:0:0:0:
182,192,7854,128,0,8042:0:0:0:0:
475,192,8417,128,0,8792:0:0:0:0:
182,192,8792,128,0,8979:0:0:0:0:
329,192,8979,128,0,9167:0:0:0:0:
36,192,9167,128,0,9354:0:0:0:0:
182,192,9354,128,0,9542:0:0:0:0:
329,192,9917,128,0,10198:0:0:0:0:
475,192,10292,128,0,10479:0:0:0:0:
182,192,10479,128,0,10667:0:0:0:0:
329,192,10667,128,0,11042:0:0:0:0:
475,192,10713,128,0,11042:0:0:0:0:
36,192,11417,128,0,11792:0:0:0:0:
182,192,11463,128,0,11792:0:0:0:0:
475,192,11792,128,0,11979:0:0:0:0:
329,192,11979,128,0,12167:0:0:0:0:
36,192,12167,128,0,12354:0:0:0:0:
182,192,12354,128,0,12542:0:0:0:0:
329,192,12729,128,0,12823:0:0:0:0:
329,192,12917,128,0,13104:0:0:0:0:
182,192,13104,128,0,13292:0:0:0:0:
475,192,13292,128,0,13479:0:0:0:0:
182,192,13479,128,0,13667:0:0:0:0:
329,192,13667,128,0,13948:0:0:0:0:
475,192,13667,128,0,13948:0:0:0:0:
36,192,13854,128,0,13948:0:0:0:0:
182,192,13854,128,0,13948:0:0:0:0:
475,192,14042,1,0,0:0:0:0:
329,192,14042,1,0,0:0:0:0:
182,192,14042,1,0,0:0:0:0:
36,192,14042,1,0,0:0:0:0:
475,192,14417,128,0,14792:0:0:0:0:
36,192,14604,1,0,0:0:0:0:
182,192,14698,1,0,0:0:0:0:
182,192,14792,1,0,0:0:0:0:
329,192,14979,128,0,15167:0:0:0:0:
182,192,15167,128,0,15354:0:0:0:0:
475,192,15167,128,0,15542:0:0:0:0:
329,192,15354,128,0,15542:0:0:0:0:
36,192,15542,1,0,0:0:0:0:
329,192,15917,128,0,16198:0:0:0:0:
182,192,16104,1,0,0:0:0:0:
182,192,16198,1,0,0:0:0:0:
475,192,16292,128,0,16479:0:0:0:0:
36,192,16292,1,0,0:0:0:0:
182,192,16479,128,0,16667:0:0:0:0:
475,192,16667,128,0,17042:0:0:0:0:
329,192,16713,128,0,17042:0:0:0:0:
36,192,17042,1,0,0:0:0:0:
36,192,17417,128,0,17792:0:0:0:0:
475,192,17604,1,0,0:0:0:0:
329,192,17698,1,0,0:0:0:0:
182,192,17792,128,0,17979:0:0:0:0:
329,192,17792,1,0,0:0:0:0:
329,192,17979,128,0,18167:0:0:0:0:
36,192,18167,128,0,18542:0:0:0:0:
475,192,18167,128,0,18354:0:0:0:0:
182,192,18354,128,0,18542:0:0:0:0:
475,192,18542,1,0,0:0:0:0:
329,192,18917,128,0,19198:0:0:0:0:
182,192,19104,1,0,0:0:0:0:
182,192,19198,1,0,0:0:0:0:
475,192,19292,128,0,19479:0:0:0:0:
36,192,19292,1,0,0:0:0:0:
329,192,19479,128,0,19667:0:0:0:0:
36,192,19667,128,0,19854:0:0:0:0:
182,192,19854,128,0,20042:0:0:0:0:
329,192,20042,1,0,0:0:0:0:
475,192,20042,1,0,0:0:0:0:
182,192,20417,1,0,0:0:0:0:
475,192,20417,128,0,20792:0:0:0:0:
36,192,20604,1,0,0:0:0:0:
182,192,20698,1,0,0:0:0:0:
36,192,20792,128,0,20979:0:0:0:0:
182,192,20792,1,0,0:0:0:0:
329,192,20979,128,0,21167:0:0:0:0:
182,192,21167,128,0,21354:0:0:0:0:
475,192,21167,1,0,0:0:0:0:
36,192,21167,1,0,0:0:0:0:
329,192,21354,128,0,21542:0:0:0:0:
36,192,21542,1,0,0:0:0:0:
182,192,21542,1,0,0:0:0:0:
329,192,21917,128,0,22198:0:0:0:0:
475,192,21917,1,0,0:0:0:0:
36,192,21917,1,0,0:0:0:0:
182,192,22104,1,0,0:0:0:0:
182,192,22198,1,0,0:0:0:0:
475,192,22292,128,0,22479:0:0:0:0:
36,192,22292,1,0,0:0:0:0:
182,192,22479,128,0,22667:0:0:0:0:
329,192,22667,128,0,23042:0:0:0:0:
475,192,22713,128,0,23042:0:0:0:0:
182,192,23042,1,0,0:0:0:0:
36,192,23042,1,0,0:0:0:0:
182,192,23229,1,0,0:0:0:0:
329,192,23229,1,0,0:0:0:0:
329,192,23417,128,0,23792:0:0:0:0:
36,192,23417,1,0,0:0:0:0:
182,192,23417,1,0,0:0:0:0:
475,192,23463,128,0,23792:0:0:0:0:
182,192,23604,1,0,0:0:0:0:
36,192,23604,1,0,0:0:0:0:
182,192,23792,128,0,23979:0:0:0:0:
36,192,23792,1,0,0:0:0:0:
329,192,23979,128,0,24167:0:0:0:0:
475,192,23979,1,0,0:0:0:0:
36,192,24167,128,0,24354:0:0:0:0:
475,192,24167,1,0,0:0:0:0:
192,192,24167,128,0,24354:0:0:0:0:
320,192,24354,128,0,24635:0:0:0:0:
448,192,24354,128,0,24635:0:0:0:0:
329,192,24729,128,0,24823:0:0:0:0:
36,192,24729,1,0,0:0:0:0:
475,192,24729,128,0,24823:0:0:0:0:
329,192,24917,128,0,25010:0:0:0:0:
475,192,24917,128,0,25010:0:0:0:0:
182,192,24917,1,0,0:0:0:0:
329,192,25104,128,0,25198:0:0:0:0:
475,192,25104,128,0,25198:0:0:0:0:
192,192,25104,1,0,0:0:0:0:
475,192,25292,128,0,25385:0:0:0:0:
329,192,25292,1,0,0:0:0:0:
475,192,25479,128,0,25573:0:0:0:0:
329,192,25479,1,0,0:0:0:0:
475,192,25667,1,0,0:0:0:0:
36,192,25667,1,0,0:0:0:0:
329,192,25760,1,0,0:0:0:0:
182,192,25760,1,0,0:0:0:0:
475,192,25854,1,0,0:0:0:0:
182,192,25948,1,0,0:0:0:0:
36,192,25948,1,0,0:0:0:0:
475,192,26042,128,0,26229:0:0:0:0:
329,192,26042,1,0,0:0:0:0:
329,192,26229,128,0,26323:0:0:0:0:
182,192,26229,128,0,26323:0:0:0:0:
475,192,26417,128,0,26510:0:0:0:0:
329,192,26417,128,0,26510:0:0:0:0:
182,192,26604,128,0,26698:0:0:0:0:
329,192,26698,128,0,26792:0:0:0:0:
182,192,26792,128,0,26885:0:0:0:0:
36,192,26792,128,0,26885:0:0:0:0:
475,192,26979,128,0,27073:0:0:0:0:
329,192,27073,128,0,27260:0:0:0:0:
182,192,27073,128,0,27260:0:0:0:0:
36,192,27260,128,0,27354:0:0:0:0:
182,192,27354,128,0,27542:0:0:0:0:
475,192,27542,128,0,27729:0:0:0:0:
329,192,27729,128,0,27823:0:0:0:0:
182,192,27729,128,0,27823:0:0:0:0:
329,192,27917,128,0,28010:0:0:0:0:
475,192,27917,128,0,28010:0:0:0:0:
182,192,28104,128,0,28198:0:0:0:0:
329,192,28198,128,0,28292:0:0:0:0:
182,192,28292,128,0,28385:0:0:0:0:
36,192,28292,128,0,28385:0:0:0:0:
329,192,28479,128,0,28573:0:0:0:0:
475,192,28573,128,0,28760:0:0:0:0:
182,192,28573,128,0,28760:0:0:0:0:
36,192,28760,128,0,28854:0:0:0:0:
329,192,28854,128,0,29042:0:0:0:0:
475,192,29042,128,0,29229:0:0:0:0:
182,192,29229,128,0,29323:0:0:0:0:
329,192,29229,128,0,29323:0:0:0:0:
182,192,29417,128,0,29510:0:0:0:0:
36,192,29417,128,0,29510:0:0:0:0:
329,192,29604,128,0,29698:0:0:0:0:
182,192,29698,128,0,29792:0:0:0:0:
475,192,29792,128,0,29979:0:0:0:0:
36,192,29792,128,0,29979:0:0:0:0:
182,192,29979,128,0,30073:0:0:0:0:
329,192,30073,128,0,30260:0:0:0:0:
182,192,30260,128,0,30354:0:0:0:0:
36,192,30354,128,0,30542:0:0:0:0:
475,192,30354,128,0,30542:0:0:0:0:
182,192,30542,128,0,30729:0:0:0:0:
329,192,30542,128,0,30729:0:0:0:0:
36,192,30729,128,0,30823:0:0:0:0:
475,192,30917,128,0,31104:0:0:0:0:
329,192,30917,128,0,31104:0:0:0:0:
182,192,31104,128,0,31198:0:0:0:0:
36,192,31198,128,0,31292:0:0:0:0:
475,192,31292,128,0,31479:0:0:0:0:
329,192,31292,128,0,31479:0:0:0:0:
182,192,31479,128,0,31573:0:0:0:0:
475,192,31573,128,0,31760:0:0:0:0:
36,192,31573,128,0,31760:0:0:0:0:
329,192,31760,128,0,31854:0:0:0:0:
182,192,31854,128,0,32042:0:0:0:0:
475,192,32042,128,0,32229:0:0:0:0:
182,192,32229,128,0,32323:0:0:0:0:
329,192,32229,128,0,32323:0:0:0:0:
329,192,32417,128,0,32510:0:0:0:0:
475,192,32417,128,0,32510:0:0:0:0:
182,192,32604,128,0,32698:0:0:0:0:
329,192,32698,128,0,32792:0:0:0:0:
36,192,32792,128,0,32885:0:0:0:0:
475,192,32792,128,0,32885:0:0:0:0:
182,192,32979,128,0,33073:0:0:0:0:
329,192,33073,128,0,33260:0:0:0:0:
475,192,33073,128,0,33260:0:0:0:0:
36,192,33260,128,0,33354:0:0:0:0:
182,192,33354,128,0,33542:0:0:0:0:
475,192,33542,128,0,33729:0:0:0:0:
182,192,33729,128,0,33823:0:0:0:0:
329,192,33729,128,0,33823:0:0:0:0:
182,192,33917,128,0,34010:0:0:0:0:
36,192,33917,128,0,34010:0:0:0:0:
329,192,34104,128,0,34198:0:0:0:0:
182,192,34198,128,0,34292:0:0:0:0:
475,192,34292,128,0,34385:0:0:0:0:
36,192,34292,128,0,34385:0:0:0:0:
182,192,34479,128,0,34573:0:0:0:0:
329,192,34573,128,0,34760:0:0:0:0:
475,192,34573,128,0,34760:0:0:0:0:
36,192,34760,128,0,34854:0:0:0:0:
182,192,34854,128,0,35042:0:0:0:0:
475,192,35042,128,0,35229:0:0:0:0:
329,192,35042,128,0,35229:0:0:0:0:
36,192,35229,128,0,35323:0:0:0:0:
329,192,35417,128,0,35510:0:0:0:0:
182,192,35417,128,0,35510:0:0:0:0:
329,192,35604,128,0,35698:0:0:0:0:
475,192,35698,128,0,35792:0:0:0:0:
182,192,35792,128,0,35979:0:0:0:0:
36,192,35792,128,0,35979:0:0:0:0:
329,192,35979,128,0,36073:0:0:0:0:
475,192,36073,128,0,36260:0:0:0:0:
329,192,36167,128,0,36260:0:0:0:0:
182,192,36260,128,0,36354:0:0:0:0:
36,192,36354,128,0,36542:0:0:0:0:
329,192,36448,128,0,36542:0:0:0:0:
182,192,36542,128,0,36729:0:0:0:0:
475,192,36542,128,0,36729:0:0:0:0:
36,192,36729,128,0,36823:0:0:0:0:
475,192,36917,128,0,37104:0:0:0:0:
329,192,36917,128,0,37104:0:0:0:0:
36,192,37104,128,0,37198:0:0:0:0:
182,192,37198,128,0,37292:0:0:0:0:
329,192,37292,128,0,37479:0:0:0:0:
182,192,37479,128,0,37573:0:0:0:0:
475,192,37573,128,0,37760:0:0:0:0:
329,192,37573,128,0,37760:0:0:0:0:
36,192,37760,128,0,37854:0:0:0:0:
182,192,37854,128,0,37948:0:0:0:0:
329,192,37854,128,0,37948:0:0:0:0:
475,192,38042,128,0,38229:0:0:0:0:
36,192,38042,1,0,0:0:0:0:
329,192,38042,1,0,0:0:0:0:
182,192,38042,1,0,0:0:0:0:
182,192,38229,128,0,38323:0:0:0:0:
329,192,38229,128,0,38323:0:0:0:0:
36,192,38417,1,0,0:0:0:0:
329,192,38417,128,0,38510:0:0:0:0:
475,192,38417,1,0,0:0:0:0:
182,192,38604,128,0,38698:0:0:0:0:
329,192,38698,128,0,38792:0:0:0:0:
182,192,38792,128,0,38885:0:0:0:0:
36,192,38792,1,0,0:0:0:0:
475,192,38792,1,0,0:0:0:0:
36,192,38979,128,0,39073:0:0:0:0:
182,192,39073,128,0,39260:0:0:0:0:
329,192,39073,128,0,39260:0:0:0:0:
475,192,39167,1,0,0:0:0:0:
36,192,39167,1,0,0:0:0:0:
475,192,39260,128,0,39354:0:0:0:0:
36,192,39354,128,0,39542:0:0:0:0:
475,192,39542,128,0,39729:0:0:0:0:
329,192,39542,1,0,0:0:0:0:
182,192,39542,1,0,0:0:0:0:
182,192,39729,128,0,39823:0:0:0:0:
329,192,39729,128,0,39823:0:0:0:0:
36,192,39917,1,0,0:0:0:0:
182,192,39917,128,0,40010:0:0:0:0:
475,192,39917,1,0,0:0:0:0:
329,192,40104,128,0,40198:0:0:0:0:
182,192,40198,128,0,40292:0:0:0:0:
475,192,40292,1,0,0:0:0:0:
36,192,40292,1,0,0:0:0:0:
329,192,40292,128,0,40385:0:0:0:0:
475,192,40479,128,0,40573:0:0:0:0:
329,192,40573,128,0,40760:0:0:0:0:
182,192,40573,128,0,40760:0:0:0:0:
475,192,40667,1,0,0:0:0:0:
36,192,40667,1,0,0:0:0:0:
36,192,40760,128,0,40854:0:0:0:0:
475,192,40854,128,0,41042:0:0:0:0:
329,192,41042,1,0,0:0:0:0:
182,192,41042,128,0,41229:0:0:0:0:
36,192,41042,1,0,0:0:0:0:
329,192,41229,128,0,41323:0:0:0:0:
475,192,41229,128,0,41323:0:0:0:0:
36,192,41417,1,0,0:0:0:0:
475,192,41417,1,0,0:0:0:0:
182,192,41417,128,0,41510:0:0:0:0:
329,192,41604,128,0,41698:0:0:0:0:
182,192,41698,128,0,41792:0:0:0:0:
475,192,41792,128,0,41979:0:0:0:0:
36,192,41792,128,0,41979:0:0:0:0:
329,192,41792,1,0,0:0:0:0:
182,192,41979,128,0,42073:0:0:0:0:
329,192,42073,128,0,42260:0:0:0:0:
475,192,42167,1,0,0:0:0:0:
36,192,42167,1,0,0:0:0:0:
182,192,42260,128,0,42354:0:0:0:0:
36,192,42354,128,0,42542:0:0:0:0:
475,192,42354,128,0,42448:0:0:0:0:
182,192,42542,128,0,42729:0:0:0:0:
329,192,42542,1,0,0:0:0:0:
475,192,42542,1,0,0:0:0:0:
329,192,42729,128,0,42823:0:0:0:0:
36,192,42917,1,0,0:0:0:0:
475,192,42917,1,0,0:0:0:0:
182,192,42917,128,0,43104:0:0:0:0:
329,192,43104,128,0,43198:0:0:0:0:
182,192,43198,128,0,43292:0:0:0:0:
329,192,43292,128,0,43479:0:0:0:0:
36,192,43292,128,0,43479:0:0:0:0:
475,192,43292,1,0,0:0:0:0:
182,192,43479,128,0,43573:0:0:0:0:
475,192,43573,128,0,43760:0:0:0:0:
36,192,43667,1,0,0:0:0:0:
329,192,43667,1,0,0:0:0:0:
182,192,43760,128,0,43854:0:0:0:0:
329,192,43854,128,0,44042:0:0:0:0:
36,192,44042,1,0,0:0:0:0:
475,192,44042,128,0,44229:0:0:0:0:
329,192,44229,128,0,44323:0:0:0:0:
475,192,44323,128,0,44510:0:0:0:0:
36,192,44323,128,0,44510:0:0:0:0:
182,192,44417,1,0,0:0:0:0:
329,192,44510,128,0,44604:0:0:0:0:
182,192,44604,128,0,44792:0:0:0:0:
36,192,44792,1,0,0:0:0:0:
329,192,44792,128,0,44979:0:0:0:0:
182,192,44979,128,0,45073:0:0:0:0:
475,192,45073,128,0,45260:0:0:0:0:
36,192,45167,1,0,0:0:0:0:
182,192,45167,1,0,0:0:0:0:
329,192,45167,128,0,45260:0:0:0:0:
182,192,45260,128,0,45354:0:0:0:0:
36,192,45354,128,0,45448:0:0:0:0:
329,192,45354,128,0,45542:0:0:0:0:
182,192,45542,128,0,45729:0:0:0:0:
475,192,45542,1,0,0:0:0:0:
36,192,45542,1,0,0:0:0:0:
36,192,45729,128,0,45823:0:0:0:0:
329,192,45823,128,0,45917:0:0:0:0:
475,192,45917,1,0,0:0:0:0:
182,192,45917,128,0,46104:0:0:0:0:
475,192,46104,128,0,46198:0:0:0:0:
329,192,46104,128,0,46198:0:0:0:0:
475,192,46292,128,0,46479:0:0:0:0:
36,192,46292,1,0,0:0:0:0:
182,192,46292,1,0,0:0:0:0:
329,192,46479,128,0,46573:0:0:0:0:
182,192,46573,128,0,46667:0:0:0:0:
475,192,46667,1,0,0:0:0:0:
36,192,46667,1,0,0:0:0:0:
329,192,46667,128,0,46854:0:0:0:0:
182,192,46854,128,0,47042:0:0:0:0:
36,192,47042,1,0,0:0:0:0:
329,192,47042,1,0,0:0:0:0:
475,192,47042,128,0,47229:0:0:0:0:
182,192,47229,128,0,47323:0:0:0:0:
475,192,47323,128,0,47510:0:0:0:0:
329,192,47323,128,0,47510:0:0:0:0:
36,192,47417,1,0,0:0:0:0:
182,192,47417,1,0,0:0:0:0:
36,192,47510,128,0,47604:0:0:0:0:
182,192,47604,128,0,47698:0:0:0:0:
36,192,47792,1,0,0:0:0:0:
475,192,47792,1,0,0:0:0:0:
329,192,47792,128,0,47979:0:0:0:0:
182,192,47979,128,0,48073:0:0:0:0:
475,192,48073,128,0,48260:0:0:0:0:
329,192,48073,128,0,48260:0:0:0:0:
36,192,48073,1,0,0:0:0:0:
36,192,48167,1,0,0:0:0:0:
182,192,48167,1,0,0:0:0:0:
475,192,48354,128,0,50042:0:0:0:0:
182,192,48354,1,0,0:0:0:0:
329,192,48354,1,0,0:0:0:0:
182,192,49292,1,0,0:0:0:0:
182,192,49385,1,0,0:0:0:0:
36,192,49479,1,0,0:0:0:0:
182,192,49667,1,0,0:0:0:0:
329,192,49760,1,0,0:0:0:0:
182,192,49854,1,0,0:0:0:0:
36,192,49948,1,0,0:0:0:0:
329,192,50042,128,0,50135:0:0:0:0:
182,192,50042,1,0,0:0:0:0:
329,192,50229,128,0,50323:0:0:0:0:
36,192,50417,1,0,0:0:0:0:
475,192,50417,128,0,50792:0:0:0:0:
182,192,50417,1,0,0:0:0:0:
329,192,50604,128,0,50792:0:0:0:0:
36,192,50792,1,0,0:0:0:0:
182,192,50792,1,0,0:0:0:0:
329,192,50979,128,0,51542:0:0:0:0:
36,192,51167,1,0,0:0:0:0:
182,192,51167,1,0,0:0:0:0:
475,192,51354,128,0,51448:0:0:0:0:
36,192,51542,1,0,0:0:0:0:
475,192,51542,128,0,51635:0:0:0:0:
182,192,51542,1,0,0:0:0:0:
329,192,51729,128,0,51823:0:0:0:0:
329,192,51917,128,0,52292:0:0:0:0:
36,192,51917,1,0,0:0:0:0:
182,192,51917,1,0,0:0:0:0:
475,192,52104,128,0,52292:0:0:0:0:
36,192,52292,1,0,0:0:0:0:
182,192,52292,1,0,0:0:0:0:
475,192,52479,128,0,53042:0:0:0:0:
36,192,52667,1,0,0:0:0:0:
182,192,52667,1,0,0:0:0:0:
36,192,53042,1,0,0:0:0:0:
329,192,53042,128,0,53135:0:0:0:0:
182,192,53042,1,0,0:0:0:0:
182,192,53229,128,0,53323:0:0:0:0:
329,192,53417,1,0,0:0:0:0:
36,192,53417,128,0,53792:0:0:0:0:
475,192,53417,1,0,0:0:0:0:
182,192,53604,128,0,53792:0:0:0:0:
329,192,53792,1,0,0:0:0:0:
475,192,53792,1,0,0:0:0:0:
182,192,53979,128,0,54542:0:0:0:0:
329,192,54167,1,0,0:0:0:0:
475,192,54167,1,0,0:0:0:0:
36,192,54354,128,0,54448:0:0:0:0:
329,192,54542,1,0,0:0:0:0:
36,192,54542,128,0,54635:0:0:0:0:
475,192,54542,1,0,0:0:0:0:
182,192,54729,128,0,54823:0:0:0:0:
329,192,54917,1,0,0:0:0:0:
475,192,54917,1,0,0:0:0:0:
182,192,54917,128,0,55292:0:0:0:0:
36,192,55104,128,0,55292:0:0:0:0:
329,192,55292,1,0,0:0:0:0:
475,192,55292,1,0,0:0:0:0:
36,192,55479,128,0,55854:0:0:0:0:
329,192,55667,1,0,0:0:0:0:
475,192,55667,1,0,0:0:0:0:
64,192,56042,1,0,0:0:0:0:
320,192,56042,1,0,0:0:0:0:
448,192,56088,1,0,0:0:0:0:
64,192,56135,1,0,0:0:0:0:
448,192,56182,1,0,0:0:0:0:
192,192,56229,1,0,0:0:0:0:
320,192,56417,1,0,0:0:0:0:
64,192,56417,1,0,0:0:0:0:
192,192,56510,1,0,0:0:0:0:
448,192,56510,1,0,0:0:0:0:
320,192,56698,1,0,0:0:0:0:
64,192,56698,1,0,0:0:0:0:
192,192,56792,1,0,0:0:0:0:
448,192,56792,1,0,0:0:0:0:
320,192,56979,1,0,0:0:0:0:
64,192,56979,1,0,0:0:0:0:
192,192,57073,1,0,0:0:0:0:
448,192,57073,1,0,0:0:0:0:
320,192,57260,1,0,0:0:0:0:
64,192,57260,1,0,0:0:0:0:
192,192,57354,1,0,0:0:0:0:
448,192,57354,1,0,0:0:0:0:
192,192,57542,1,0,0:0:0:0:
448,192,57542,1,0,0:0:0:0:
64,192,57588,1,0,0:0:0:0:
448,192,57635,1,0,0:0:0:0:
64,192,57682,1,0,0:0:0:0:
320,192,57729,1,0,0:0:0:0:
192,192,57917,1,0,0:0:0:0:
448,192,57917,1,0,0:0:0:0:
320,192,58010,1,0,0:0:0:0:
64,192,58010,1,0,0:0:0:0:
448,192,58198,1,0,0:0:0:0:
192,192,58198,1,0,0:0:0:0:
320,192,58292,1,0,0:0:0:0:
64,192,58292,1,0,0:0:0:0:
448,192,58479,1,0,0:0:0:0:
192,192,58479,1,0,0:0:0:0:
320,192,58573,1,0,0:0:0:0:
64,192,58573,1,0,0:0:0:0:
448,192,58760,1,0,0:0:0:0:
192,192,58760,1,0,0:0:0:0:
320,192,58854,1,0,0:0:0:0:
64,192,58854,1,0,0:0:0:0:
192,192,58948,1,0,0:0:0:0:
329,192,59042,1,0,0:0:0:0:
36,192,59042,1,0,0:0:0:0:
475,192,59088,1,0,0:0:0:0:
36,192,59135,1,0,0:0:0:0:
448,192,59182,1,0,0:0:0:0:
182,192,59229,1,0,0:0:0:0:
182,192,59323,1,0,0:0:0:0:
329,192,59323,1,0,0:0:0:0:
36,192,59417,1,0,0:0:0:0:
475,192,59417,1,0,0:0:0:0:
329,192,59417,1,0,0:0:0:0:
475,192,59510,1,0,0:0:0:0:
182,192,59604,1,0,0:0:0:0:
329,192,59604,1,0,0:0:0:0:
182,192,59698,1,0,0:0:0:0:
475,192,59792,1,0,0:0:0:0:
329,192,59792,1,0,0:0:0:0:
36,192,59838,1,0,0:0:0:0:
182,192,59838,1,0,0:0:0:0:
475,192,59885,1,0,0:0:0:0:
36,192,59932,1,0,0:0:0:0:
329,192,59979,1,0,0:0:0:0:
182,192,60073,1,0,0:0:0:0:
329,192,60073,1,0,0:0:0:0:
36,192,60167,1,0,0:0:0:0:
475,192,60167,1,0,0:0:0:0:
182,192,60167,1,0,0:0:0:0:
36,192,60260,1,0,0:0:0:0:
182,192,60260,1,0,0:0:0:0:
329,192,60354,1,0,0:0:0:0:
475,192,60354,1,0,0:0:0:0:
329,192,60448,1,0,0:0:0:0:
475,192,60448,1,0,0:0:0:0:
36,192,60542,1,0,0:0:0:0:
475,192,60542,128,0,60729:0:0:0:0:
182,192,60588,1,0,0:0:0:0:
329,192,60635,1,0,0:0:0:0:
182,192,60682,1,0,0:0:0:0:
36,192,60729,128,0,60917:0:0:0:0:
329,192,60729,1,0,0:0:0:0:
182,192,60823,1,0,0:0:0:0:
329,192,60917,128,0,61104:0:0:0:0:
475,192,60917,1,0,0:0:0:0:
36,192,61010,1,0,0:0:0:0:
182,192,61104,128,0,61292:0:0:0:0:
36,192,61198,1,0,0:0:0:0:
475,192,61198,1,0,0:0:0:0:
475,192,61292,1,0,0:0:0:0:
182,192,61385,1,0,0:0:0:0:
329,192,61385,1,0,0:0:0:0:
36,192,61479,1,0,0:0:0:0:
329,192,61573,1,0,0:0:0:0:
182,192,61573,1,0,0:0:0:0:
475,192,61667,1,0,0:0:0:0:
182,192,61760,1,0,0:0:0:0:
475,192,61854,1,0,0:0:0:0:
36,192,61854,1,0,0:0:0:0:
182,192,61948,1,0,0:0:0:0:
329,192,61948,1,0,0:0:0:0:
475,192,62042,1,0,0:0:0:0:
36,192,62042,1,0,0:0:0:0:
182,192,62042,1,0,0:0:0:0:
36,192,62135,1,0,0:0:0:0:
475,192,62135,1,0,0:0:0:0:
329,192,62135,1,0,0:0:0:0:
182,192,62229,1,0,0:0:0:0:
329,192,62323,1,0,0:0:0:0:
36,192,62323,1,0,0:0:0:0:
475,192,62417,1,0,0:0:0:0:
329,192,62417,1,0,0:0:0:0:
182,192,62417,1,0,0:0:0:0:
475,192,62510,1,0,0:0:0:0:
182,192,62510,1,0,0:0:0:0:
36,192,62510,1,0,0:0:0:0:
329,192,62604,1,0,0:0:0:0:
182,192,62698,1,0,0:0:0:0:
475,192,62698,1,0,0:0:0:0:
36,192,62792,1,0,0:0:0:0:
329,192,62792,1,0,0:0:0:0:
182,192,62792,1,0,0:0:0:0:
36,192,62885,1,0,0:0:0:0:
329,192,62885,1,0,0:0:0:0:
475,192,62885,1,0,0:0:0:0:
182,192,62979,1,0,0:0:0:0:
475,192,63073,1,0,0:0:0:0:
329,192,63073,1,0,0:0:0:0:
475,192,63167,1,0,0:0:0:0:
36,192,63167,1,0,0:0:0:0:
329,192,63167,1,0,0:0:0:0:
475,192,63260,1,0,0:0:0:0:
36,192,63260,1,0,0:0:0:0:
182,192,63260,1,0,0:0:0:0:
329,192,63354,1,0,0:0:0:0:
182,192,63448,1,0,0:0:0:0:
36,192,63448,1,0,0:0:0:0:
36,192,63542,1,0,0:0:0:0:
475,192,63542,1,0,0:0:0:0:
182,192,63542,1,0,0:0:0:0:
36,192,63635,1,0,0:0:0:0:
329,192,63635,1,0,0:0:0:0:
475,192,63635,1,0,0:0:0:0:
182,192,63729,1,0,0:0:0:0:
36,192,63823,1,0,0:0:0:0:
475,192,63823,1,0,0:0:0:0:
182,192,63917,1,0,0:0:0:0:
329,192,63917,1,0,0:0:0:0:
475,192,63917,1,0,0:0:0:0:
182,192,64010,1,0,0:0:0:0:
36,192,64010,1,0,0:0:0:0:
329,192,64010,1,0,0:0:0:0:
475,192,64104,1,0,0:0:0:0:
36,192,64198,1,0,0:0:0:0:
329,192,64198,1,0,0:0:0:0:
36,192,64292,1,0,0:0:0:0:
182,192,64292,1,0,0:0:0:0:
329,192,64292,1,0,0:0:0:0:
182,192,64385,1,0,0:0:0:0:
475,192,64385,1,0,0:0:0:0:
329,192,64385,1,0,0:0:0:0:
36,192,64479,1,0,0:0:0:0:
475,192,64573,1,0,0:0:0:0:
182,192,64573,1,0,0:0:0:0:
329,192,64667,1,0,0:0:0:0:
36,192,64667,1,0,0:0:0:0:
475,192,64667,1,0,0:0:0:0:
329,192,64760,1,0,0:0:0:0:
36,192,64760,1,0,0:0:0:0:
182,192,64760,1,0,0:0:0:0:
475,192,64854,1,0,0:0:0:0:
182,192,64948,1,0,0:0:0:0:
329,192,64948,1,0,0:0:0:0:
36,192,65042,1,0,0:0:0:0:
182,192,65042,1,0,0:0:0:0:
475,192,65042,1,0,0:0:0:0:
475,192,65135,1,0,0:0:0:0:
36,192,65135,1,0,0:0:0:0:
329,192,65229,1,0,0:0:0:0:
182,192,65323,1,0,0:0:0:0:
475,192,65417,1,0,0:0:0:0:
36,192,65417,1,0,0:0:0:0:
329,192,65417,1,0,0:0:0:0:
475,192,65510,1,0,0:0:0:0:
36,192,65510,1,0,0:0:0:0:
182,192,65604,1,0,0:0:0:0:
329,192,65698,1,0,0:0:0:0:
36,192,65792,1,0,0:0:0:0:
182,192,65792,1,0,0:0:0:0:
329,192,65792,1,0,0:0:0:0:
36,192,65885,1,0,0:0:0:0:
182,192,65885,1,0,0:0:0:0:
329,192,65979,1,0,0:0:0:0:
182,192,66073,1,0,0:0:0:0:
475,192,66167,1,0,0:0:0:0:
329,192,66167,1,0,0:0:0:0:
182,192,66167,1,0,0:0:0:0:
475,192,66260,1,0,0:0:0:0:
329,192,66260,1,0,0:0:0:0:
182,192,66354,1,0,0:0:0:0:
329,192,66448,1,0,0:0:0:0:
36,192,66542,1,0,0:0:0:0:
475,192,66542,128,0,66635:0:0:0:0:
182,192,66542,128,0,66635:0:0:0:0:
36,192,66635,1,0,0:0:0:0:
182,192,66729,1,0,0:0:0:0:
329,192,66729,128,0,66823:0:0:0:0:
36,192,66823,1,0,0:0:0:0:
475,192,66917,128,0,67010:0:0:0:0:
182,192,66917,1,0,0:0:0:0:
329,192,66917,128,0,67010:0:0:0:0:
182,192,67010,1,0,0:0:0:0:
475,192,67104,128,0,67198:0:0:0:0:
36,192,67104,1,0,0:0:0:0:
36,192,67198,1,0,0:0:0:0:
475,192,67292,128,0,67385:0:0:0:0:
329,192,67292,128,0,67385:0:0:0:0:
182,192,67292,1,0,0:0:0:0:
182,192,67385,1,0,0:0:0:0:
329,192,67479,128,0,67573:0:0:0:0:
36,192,67479,1,0,0:0:0:0:
182,192,67573,1,0,0:0:0:0:
36,192,67667,1,0,0:0:0:0:
448,192,67667,1,0,0:0:0:0:
320,192,67667,128,0,68042:0:0:0:0:
36,192,68042,1,0,0:0:0:0:
475,192,68042,1,0,0:0:0:0:
182,192,68042,1,0,0:0:0:0:
36,192,68135,1,0,0:0:0:0:
475,192,68135,1,0,0:0:0:0:
182,192,68135,1,0,0:0:0:0:
329,192,68229,1,0,0:0:0:0:
475,192,68323,1,0,0:0:0:0:
182,192,68323,1,0,0:0:0:0:
36,192,68417,1,0,0:0:0:0:
329,192,68417,1,0,0:0:0:0:
182,192,68417,1,0,0:0:0:0:
36,192,68510,1,0,0:0:0:0:
182,192,68510,1,0,0:0:0:0:
329,192,68510,1,0,0:0:0:0:
475,192,68604,1,0,0:0:0:0:
36,192,68698,1,0,0:0:0:0:
329,192,68698,1,0,0:0:0:0:
475,192,68792,1,0,0:0:0:0:
329,192,68792,1,0,0:0:0:0:
182,192,68792,1,0,0:0:0:0:
475,192,68885,1,0,0:0:0:0:
182,192,68885,1,0,0:0:0:0:
329,192,68885,1,0,0:0:0:0:
36,192,68979,1,0,0:0:0:0:
182,192,69073,1,0,0:0:0:0:
329,192,69073,1,0,0:0:0:0:
36,192,69167,1,0,0:0:0:0:
475,192,69167,1,0,0:0:0:0:
329,192,69167,1,0,0:0:0:0:
36,192,69260,1,0,0:0:0:0:
475,192,69260,1,0,0:0:0:0:
329,192,69260,1,0,0:0:0:0:
182,192,69354,1,0,0:0:0:0:
329,192,69448,1,0,0:0:0:0:
36,192,69448,1,0,0:0:0:0:
36,192,69542,1,0,0:0:0:0:
475,192,69542,1,0,0:0:0:0:
182,192,69542,1,0,0:0:0:0:
475,192,69635,1,0,0:0:0:0:
36,192,69635,1,0,0:0:0:0:
329,192,69635,1,0,0:0:0:0:
182,192,69729,1,0,0:0:0:0:
320,192,69823,1,0,0:0:0:0:
36,192,69823,1,0,0:0:0:0:
36,192,69917,1,0,0:0:0:0:
475,192,69917,1,0,0:0:0:0:
182,192,69917,1,0,0:0:0:0:
329,192,69917,1,0,0:0:0:0:
192,192,70010,1,0,0:0:0:0:
475,192,70010,1,0,0:0:0:0:
329,192,70104,1,0,0:0:0:0:
64,192,70104,1,0,0:0:0:0:
192,192,70198,1,0,0:0:0:0:
475,192,70198,1,0,0:0:0:0:
182,192,70292,1,0,0:0:0:0:
36,192,70292,1,0,0:0:0:0:
475,192,70292,1,0,0:0:0:0:
36,192,70385,1,0,0:0:0:0:
475,192,70385,1,0,0:0:0:0:
329,192,70385,1,0,0:0:0:0:
182,192,70479,1,0,0:0:0:0:
182,192,70573,1,0,0:0:0:0:
36,192,70667,1,0,0:0:0:0:
475,192,70667,1,0,0:0:0:0:
329,192,70667,1,0,0:0:0:0:
329,192,70760,1,0,0:0:0:0:
475,192,70760,1,0,0:0:0:0:
182,192,70854,1,0,0:0:0:0:
36,192,70854,1,0,0:0:0:0:
182,192,70948,1,0,0:0:0:0:
475,192,71042,1,0,0:0:0:0:
36,192,71042,1,0,0:0:0:0:
329,192,71042,1,0,0:0:0:0:
182,192,71042,1,0,0:0:0:0:
36,192,71229,1,0,0:0:0:0:
475,192,71276,1,0,0:0:0:0:
182,192,71276,1,0,0:0:0:0:
329,192,71323,1,0,0:0:0:0:
36,192,71370,1,0,0:0:0:0:
475,192,71417,1,0,0:0:0:0:
182,192,71417,1,0,0:0:0:0:
329,192,71417,1,0,0:0:0:0:
475,192,71698,1,0,0:0:0:0:
36,192,71698,1,0,0:0:0:0:
182,192,71698,1,0,0:0:0:0:
475,192,71792,1,0,0:0:0:0:
36,192,71792,1,0,0:0:0:0:
182,192,71792,1,0,0:0:0:0:
329,192,71792,1,0,0:0:0:0:
475,192,71979,1,0,0:0:0:0:
36,192,71979,1,0,0:0:0:0:
329,192,71979,1,0,0:0:0:0:
36,192,72073,1,0,0:0:0:0:
475,192,72073,1,0,0:0:0:0:
182,192,72073,1,0,0:0:0:0:
329,192,72073,1,0,0:0:0:0:
329,192,72260,1,0,0:0:0:0:
475,192,72354,1,0,0:0:0:0:
36,192,72354,1,0,0:0:0:0:
182,192,72354,1,0,0:0:0:0:
320,192,72542,1,0,0:0:0:0:
192,192,72635,1,0,0:0:0:0:
320,192,72729,1,0,0:0:0:0:
192,192,72823,1,0,0:0:0:0:
320,192,72917,1,0,0:0:0:0:
192,192,73010,1,0,0:0:0:0:
320,192,73104,1,0,0:0:0:0:
192,192,73198,1,0,0:0:0:0:
320,192,73292,1,0,0:0:0:0:
192,192,73385,1,0,0:0:0:0:
320,192,73479,1,0,0:0:0:0:
448,192,73479,1,0,0:0:0:0:
192,192,73573,1,0,0:0:0:0:
320,192,73667,1,0,0:0:0:0:
448,192,73667,1,0,0:0:0:0:
192,192,73854,128,0,74042:0:0:0:0:
475,192,74042,1,0,0:0:0:0:
36,192,74042,1,0,0:0:0:0:
182,192,74229,1,0,0:0:0:0:
475,192,74417,1,0,0:0:0:0:
36,192,74417,1,0,0:0:0:0:
182,192,74417,1,0,0:0:0:0:
329,192,74417,1,0,0:0:0:0:
36,192,74510,1,0,0:0:0:0:
182,192,74510,1,0,0:0:0:0:
475,192,74604,1,0,0:0:0:0:
329,192,74604,1,0,0:0:0:0:
475,192,74698,1,0,0:0:0:0:
329,192,74698,1,0,0:0:0:0:
329,192,74792,1,0,0:0:0:0:
182,192,74792,1,0,0:0:0:0:
36,192,74792,1,0,0:0:0:0:
475,192,74885,1,0,0:0:0:0:
36,192,74885,1,0,0:0:0:0:
329,192,74979,1,0,0:0:0:0:
182,192,74979,1,0,0:0:0:0:
329,192,75073,1,0,0:0:0:0:
182,192,75073,1,0,0:0:0:0:
475,192,75167,1,0,0:0:0:0:
36,192,75167,1,0,0:0:0:0:
182,192,75167,1,0,0:0:0:0:
329,192,75260,1,0,0:0:0:0:
475,192,75260,1,0,0:0:0:0:
182,192,75354,1,0,0:0:0:0:
36,192,75354,1,0,0:0:0:0:
36,192,75448,1,0,0:0:0:0:
182,192,75448,1,0,0:0:0:0:
192,192,75542,1,0,0:0:0:0:
475,192,75542,1,0,0:0:0:0:
329,192,75542,1,0,0:0:0:0:
36,192,75635,1,0,0:0:0:0:
475,192,75635,1,0,0:0:0:0:
329,192,75729,1,0,0:0:0:0:
182,192,75729,1,0,0:0:0:0:
329,192,75823,1,0,0:0:0:0:
64,192,75823,1,0,0:0:0:0:
36,192,75917,1,0,0:0:0:0:
475,192,75917,1,0,0:0:0:0:
182,192,75917,1,0,0:0:0:0:
36,192,76010,1,0,0:0:0:0:
329,192,76010,1,0,0:0:0:0:
475,192,76104,1,0,0:0:0:0:
182,192,76104,1,0,0:0:0:0:
475,192,76198,1,0,0:0:0:0:
329,192,76198,1,0,0:0:0:0:
36,192,76292,1,0,0:0:0:0:
182,192,76292,1,0,0:0:0:0:
329,192,76292,1,0,0:0:0:0:
475,192,76385,1,0,0:0:0:0:
182,192,76385,1,0,0:0:0:0:
36,192,76479,1,0,0:0:0:0:
329,192,76479,1,0,0:0:0:0:
475,192,76573,1,0,0:0:0:0:
182,192,76573,1,0,0:0:0:0:
182,192,76667,1,0,0:0:0:0:
36,192,76667,1,0,0:0:0:0:
329,192,76667,1,0,0:0:0:0:
475,192,76667,1,0,0:0:0:0:
182,192,77042,1,0,0:0:0:0:
36,192,77042,1,0,0:0:0:0:
329,192,77042,1,0,0:0:0:0:
475,192,77042,1,0,0:0:0:0:
182,192,77135,1,0,0:0:0:0:
36,192,77135,1,0,0:0:0:0:
475,192,77135,1,0,0:0:0:0:
329,192,77135,1,0,0:0:0:0:
182,192,77323,1,0,0:0:0:0:
36,192,77323,1,0,0:0:0:0:
475,192,77323,1,0,0:0:0:0:
329,192,77323,1,0,0:0:0:0:
182,192,77417,1,0,0:0:0:0:
36,192,77417,1,0,0:0:0:0:
475,192,77417,1,0,0:0:0:0:
329,192,77417,1,0,0:0:0:0:
36,192,77510,1,0,0:0:0:0:
475,192,77604,1,0,0:0:0:0:
182,192,77604,1,0,0:0:0:0:
475,192,77698,1,0,0:0:0:0:
329,192,77792,1,0,0:0:0:0:
36,192,77792,1,0,0:0:0:0:
182,192,77792,1,0,0:0:0:0:
36,192,77885,1,0,0:0:0:0:
475,192,77885,1,0,0:0:0:0:
182,192,77979,1,0,0:0:0:0:
329,192,77979,1,0,0:0:0:0:
329,192,78073,1,0,0:0:0:0:
475,192,78167,1,0,0:0:0:0:
182,192,78167,1,0,0:0:0:0:
36,192,78167,1,0,0:0:0:0:
36,192,78260,1,0,0:0:0:0:
475,192,78260,1,0,0:0:0:0:
329,192,78354,1,0,0:0:0:0:
182,192,78354,1,0,0:0:0:0:
329,192,78448,1,0,0:0:0:0:
182,192,78448,1,0,0:0:0:0:
36,192,78542,1,0,0:0:0:0:
475,192,78542,1,0,0:0:0:0:
182,192,78542,1,0,0:0:0:0:
36,192,78635,1,0,0:0:0:0:
329,192,78729,1,0,0:0:0:0:
475,192,78729,1,0,0:0:0:0:
329,192,78823,1,0,0:0:0:0:
475,192,78917,1,0,0:0:0:0:
182,192,78917,1,0,0:0:0:0:
36,192,78917,128,0,79667:0:0:0:0:
475,192,79010,1,0,0:0:0:0:
182,192,79104,1,0,0:0:0:0:
329,192,79104,1,0,0:0:0:0:
182,192,79198,1,0,0:0:0:0:
329,192,79198,1,0,0:0:0:0:
475,192,79292,1,0,0:0:0:0:
475,192,79385,1,0,0:0:0:0:
329,192,79479,1,0,0:0:0:0:
329,192,79573,1,0,0:0:0:0:
182,192,79667,1,0,0:0:0:0:
329,192,79713,1,0,0:0:0:0:
182,192,79760,1,0,0:0:0:0:
329,192,79807,1,0,0:0:0:0:
36,192,79854,1,0,0:0:0:0:
182,192,79901,1,0,0:0:0:0:
329,192,79948,1,0,0:0:0:0:
475,192,79995,1,0,0:0:0:0:
182,192,80042,1,0,0:0:0:0:
36,192,80042,1,0,0:0:0:0:
329,192,80088,1,0,0:0:0:0:
475,192,80135,1,0,0:0:0:0:
329,192,80182,1,0,0:0:0:0:
182,192,80229,1,0,0:0:0:0:
36,192,80276,1,0,0:0:0:0:
329,192,80323,1,0,0:0:0:0:
182,192,80370,1,0,0:0:0:0:
475,192,80417,1,0,0:0:0:0:
36,192,80417,1,0,0:0:0:0:
329,192,80510,1,0,0:0:0:0:
182,192,80604,1,0,0:0:0:0:
329,192,80651,1,0,0:0:0:0:
182,192,80698,1,0,0:0:0:0:
329,192,80745,1,0,0:0:0:0:
475,192,80792,1,0,0:0:0:0:
36,192,80792,1,0,0:0:0:0:
182,192,80792,1,0,0:0:0:0:
329,192,80885,1,0,0:0:0:0:
182,192,80979,1,0,0:0:0:0:
329,192,81026,1,0,0:0:0:0:
182,192,81073,1,0,0:0:0:0:
329,192,81120,1,0,0:0:0:0:
36,192,81167,128,0,81260:0:0:0:0:
475,192,81167,128,0,81260:0:0:0:0:
182,192,81167,128,0,81260:0:0:0:0:
36,192,81354,128,0,81448:0:0:0:0:
475,192,81354,128,0,81448:0:0:0:0:
329,192,81354,128,0,81448:0:0:0:0:
36,192,81542,1,0,0:0:0:0:
329,192,81542,1,0,0:0:0:0:
475,192,81542,1,0,0:0:0:0:
182,192,81588,1,0,0:0:0:0:
329,192,81635,1,0,0:0:0:0:
475,192,81682,1,0,0:0:0:0:
36,192,81729,1,0,0:0:0:0:
182,192,81776,1,0,0:0:0:0:
329,192,81823,1,0,0:0:0:0:
182,192,81870,1,0,0:0:0:0:
36,192,81917,1,0,0:0:0:0:
329,192,81917,1,0,0:0:0:0:
475,192,81917,1,0,0:0:0:0:
329,192,82010,1,0,0:0:0:0:
182,192,82104,1,0,0:0:0:0:
329,192,82151,1,0,0:0:0:0:
182,192,82198,1,0,0:0:0:0:
329,192,82245,1,0,0:0:0:0:
475,192,82292,1,0,0:0:0:0:
36,192,82292,1,0,0:0:0:0:
182,192,82292,1,0,0:0:0:0:
329,192,82385,1,0,0:0:0:0:
36,192,82479,1,0,0:0:0:0:
475,192,82479,1,0,0:0:0:0:
329,192,82573,1,0,0:0:0:0:
182,192,82573,1,0,0:0:0:0:
36,192,82667,128,0,82948:0:0:0:0:
475,192,82667,128,0,82948:0:0:0:0:
329,192,83042,1,0,0:0:0:0:
182,192,83042,1,0,0:0:0:0:
36,192,83042,1,0,0:0:0:0:
475,192,83042,1,0,0:0:0:0:
475,192,83229,1,0,0:0:0:0:
36,192,83229,1,0,0:0:0:0:
329,192,83229,1,0,0:0:0:0:
182,192,83276,1,0,0:0:0:0:
329,192,83323,1,0,0:0:0:0:
36,192,83370,1,0,0:0:0:0:
182,192,83417,1,0,0:0:0:0:
475,192,83510,1,0,0:0:0:0:
36,192,83510,1,0,0:0:0:0:
329,192,83510,1,0,0:0:0:0:
36,192,83604,1,0,0:0:0:0:
475,192,83604,1,0,0:0:0:0:
182,192,83604,1,0,0:0:0:0:
329,192,83651,1,0,0:0:0:0:
182,192,83698,1,0,0:0:0:0:
475,192,83745,1,0,0:0:0:0:
36,192,83792,1,0,0:0:0:0:
329,192,83792,1,0,0:0:0:0:
329,192,83979,1,0,0:0:0:0:
182,192,84026,1,0,0:0:0:0:
36,192,84073,1,0,0:0:0:0:
475,192,84073,1,0,0:0:0:0:
329,192,84120,1,0,0:0:0:0:
36,192,84167,1,0,0:0:0:0:
475,192,84167,1,0,0:0:0:0:
182,192,84167,1,0,0:0:0:0:
475,192,84354,1,0,0:0:0:0:
36,192,84354,1,0,0:0:0:0:
329,192,84354,1,0,0:0:0:0:
182,192,84401,1,0,0:0:0:0:
329,192,84448,1,0,0:0:0:0:
475,192,84495,1,0,0:0:0:0:
182,192,84542,1,0,0:0:0:0:
36,192,84542,1,0,0:0:0:0:
329,192,84635,1,0,0:0:0:0:
475,192,84635,1,0,0:0:0:0:
475,192,84729,1,0,0:0:0:0:
182,192,84729,1,0,0:0:0:0:
475,192,84823,1,0,0:0:0:0:
329,192,84823,1,0,0:0:0:0:
36,192,84917,1,0,0:0:0:0:
182,192,84917,1,0,0:0:0:0:
182,192,85010,1,0,0:0:0:0:
329,192,85104,1,0,0:0:0:0:
36,192,85104,1,0,0:0:0:0:
329,192,85198,1,0,0:0:0:0:
182,192,85198,1,0,0:0:0:0:
329,192,85292,1,0,0:0:0:0:
36,192,85292,1,0,0:0:0:0:
182,192,85338,1,0,0:0:0:0:
475,192,85385,1,0,0:0:0:0:
329,192,85432,1,0,0:0:0:0:
36,192,85479,1,0,0:0:0:0:
182,192,85479,1,0,0:0:0:0:
329,192,85573,1,0,0:0:0:0:
475,192,85667,1,0,0:0:0:0:
182,192,85667,1,0,0:0:0:0:
36,192,85667,1,0,0:0:0:0:
329,192,85854,128,0,86042:0:0:0:0:
475,192,86042,1,0,0:0:0:0:
182,192,86042,1,0,0:0:0:0:
36,192,86042,1,0,0:0:0:0:
182,192,86229,1,0,0:0:0:0:
36,192,86229,1,0,0:0:0:0:
329,192,86323,1,0,0:0:0:0:
475,192,86323,1,0,0:0:0:0:
475,192,86417,1,0,0:0:0:0:
329,192,86417,1,0,0:0:0:0:
182,192,86417,1,0,0:0:0:0:
36,192,86417,1,0,0:0:0:0:
182,192,86510,1,0,0:0:0:0:
329,192,86604,1,0,0:0:0:0:
36,192,86604,1,0,0:0:0:0:
475,192,86698,1,0,0:0:0:0:
182,192,86698,1,0,0:0:0:0:
182,192,86792,1,0,0:0:0:0:
36,192,86792,1,0,0:0:0:0:
329,192,86792,1,0,0:0:0:0:
475,192,86792,1,0,0:0:0:0:
329,192,86885,1,0,0:0:0:0:
475,192,86885,1,0,0:0:0:0:
36,192,86979,1,0,0:0:0:0:
182,192,86979,1,0,0:0:0:0:
475,192,87167,1,0,0:0:0:0:
329,192,87167,1,0,0:0:0:0:
36,192,87167,1,0,0:0:0:0:
182,192,87167,1,0,0:0:0:0:
182,192,87260,1,0,0:0:0:0:
475,192,87260,1,0,0:0:0:0:
329,192,87307,1,0,0:0:0:0:
36,192,87354,1,0,0:0:0:0:
182,192,87354,1,0,0:0:0:0:
329,192,87448,1,0,0:0:0:0:
475,192,87542,1,0,0:0:0:0:
329,192,87542,1,0,0:0:0:0:
182,192,87542,1,0,0:0:0:0:
36,192,87542,1,0,0:0:0:0:
182,192,87635,1,0,0:0:0:0:
36,192,87729,1,0,0:0:0:0:
475,192,87729,1,0,0:0:0:0:
182,192,87823,1,0,0:0:0:0:
329,192,87823,1,0,0:0:0:0:
475,192,87917,1,0,0:0:0:0:
36,192,87917,1,0,0:0:0:0:
182,192,87917,1,0,0:0:0:0:
329,192,87917,1,0,0:0:0:0:
36,192,88010,1,0,0:0:0:0:
182,192,88104,1,0,0:0:0:0:
475,192,88104,1,0,0:0:0:0:
475,192,88198,1,0,0:0:0:0:
329,192,88198,1,0,0:0:0:0:
329,192,88292,1,0,0:0:0:0:
182,192,88292,1,0,0:0:0:0:
36,192,88292,1,0,0:0:0:0:
475,192,88292,1,0,0:0:0:0:
36,192,88385,1,0,0:0:0:0:
182,192,88385,1,0,0:0:0:0:
475,192,88479,1,0,0:0:0:0:
329,192,88479,1,0,0:0:0:0:
36,192,88667,1,0,0:0:0:0:
475,192,88667,1,0,0:0:0:0:
329,192,88667,1,0,0:0:0:0:
182,192,88667,1,0,0:0:0:0:
182,192,88760,1,0,0:0:0:0:
329,192,88760,1,0,0:0:0:0:
36,192,88854,1,0,0:0:0:0:
475,192,88854,1,0,0:0:0:0:
182,192,88948,1,0,0:0:0:0:
329,192,88948,1,0,0:0:0:0:
329,192,89042,1,0,0:0:0:0:
475,192,89042,1,0,0:0:0:0:
182,192,89042,1,0,0:0:0:0:
36,192,89042,1,0,0:0:0:0:
182,192,89229,1,0,0:0:0:0:
475,192,89229,1,0,0:0:0:0:
329,192,89323,1,0,0:0:0:0:
36,192,89323,1,0,0:0:0:0:
475,192,89417,1,0,0:0:0:0:
329,192,89417,1,0,0:0:0:0:
182,192,89417,1,0,0:0:0:0:
36,192,89417,1,0,0:0:0:0:
36,192,89510,1,0,0:0:0:0:
182,192,89510,1,0,0:0:0:0:
475,192,89604,1,0,0:0:0:0:
329,192,89604,1,0,0:0:0:0:
182,192,89698,1,0,0:0:0:0:
329,192,89792,1,0,0:0:0:0:
36,192,89792,1,0,0:0:0:0:
475,192,89792,1,0,0:0:0:0:
182,192,89792,1,0,0:0:0:0:
182,192,89885,1,0,0:0:0:0:
36,192,89885,1,0,0:0:0:0:
475,192,89979,1,0,0:0:0:0:
329,192,89979,1,0,0:0:0:0:
475,192,90167,1,0,0:0:0:0:
182,192,90167,1,0,0:0:0:0:
36,192,90167,1,0,0:0:0:0:
329,192,90167,1,0,0:0:0:0:
182,192,90260,1,0,0:0:0:0:
36,192,90260,1,0,0:0:0:0:
329,192,90307,1,0,0:0:0:0:
475,192,90354,1,0,0:0:0:0:
36,192,90354,1,0,0:0:0:0:
329,192,90448,1,0,0:0:0:0:
182,192,90448,1,0,0:0:0:0:
475,192,90542,1,0,0:0:0:0:
36,192,90542,1,0,0:0:0:0:
182,192,90542,1,0,0:0:0:0:
329,192,90542,1,0,0:0:0:0:
475,192,90635,1,0,0:0:0:0:
36,192,90729,1,0,0:0:0:0:
329,192,90729,1,0,0:0:0:0:
182,192,90823,1,0,0:0:0:0:
475,192,90823,1,0,0:0:0:0:
182,192,90917,1,0,0:0:0:0:
36,192,90917,1,0,0:0:0:0:
475,192,90917,1,0,0:0:0:0:
329,192,90917,1,0,0:0:0:0:
329,192,91010,1,0,0:0:0:0:
475,192,91104,1,0,0:0:0:0:
36,192,91104,1,0,0:0:0:0:
475,192,91198,1,0,0:0:0:0:
36,192,91198,1,0,0:0:0:0:
329,192,91292,1,0,0:0:0:0:
182,192,91292,1,0,0:0:0:0:
36,192,91292,1,0,0:0:0:0:
475,192,91292,1,0,0:0:0:0:
182,192,91385,1,0,0:0:0:0:
329,192,91479,1,0,0:0:0:0:
475,192,91479,1,0,0:0:0:0:
182,192,91573,1,0,0:0:0:0:
36,192,91573,1,0,0:0:0:0:
475,192,91667,1,0,0:0:0:0:
329,192,91667,1,0,0:0:0:0:
182,192,91667,1,0,0:0:0:0:
36,192,91667,1,0,0:0:0:0:
329,192,91854,1,0,0:0:0:0:
182,192,91854,1,0,0:0:0:0:
475,192,92042,1,0,0:0:0:0:
329,192,92042,1,0,0:0:0:0:
182,192,92042,1,0,0:0:0:0:
36,192,92042,1,0,0:0:0:0:
329,192,92229,1,0,0:0:0:0:
36,192,92229,1,0,0:0:0:0:
182,192,92323,1,0,0:0:0:0:
475,192,92323,1,0,0:0:0:0:
475,192,92417,1,0,0:0:0:0:
329,192,92417,1,0,0:0:0:0:
182,192,92417,1,0,0:0:0:0:
36,192,92417,1,0,0:0:0:0:
36,192,92510,1,0,0:0:0:0:
475,192,92604,1,0,0:0:0:0:
329,192,92604,1,0,0:0:0:0:
475,192,92698,1,0,0:0:0:0:
182,192,92698,1,0,0:0:0:0:
36,192,92792,1,0,0:0:0:0:
182,192,92792,1,0,0:0:0:0:
475,192,92792,1,0,0:0:0:0:
329,192,92792,1,0,0:0:0:0:
329,192,92885,1,0,0:0:0:0:
36,192,92885,1,0,0:0:0:0:
182,192,92979,1,0,0:0:0:0:
36,192,92979,1,0,0:0:0:0:
36,192,93167,1,0,0:0:0:0:
475,192,93167,1,0,0:0:0:0:
182,192,93167,1,0,0:0:0:0:
329,192,93167,1,0,0:0:0:0:
182,192,93260,1,0,0:0:0:0:
329,192,93260,1,0,0:0:0:0:
475,192,93307,1,0,0:0:0:0:
36,192,93354,1,0,0:0:0:0:
182,192,93354,1,0,0:0:0:0:
329,192,93448,1,0,0:0:0:0:
475,192,93448,1,0,0:0:0:0:
182,192,93542,1,0,0:0:0:0:
475,192,93542,1,0,0:0:0:0:
36,192,93542,1,0,0:0:0:0:
329,192,93729,1,0,0:0:0:0:
36,192,93729,1,0,0:0:0:0:
182,192,93823,1,0,0:0:0:0:
475,192,93823,1,0,0:0:0:0:
475,192,93917,1,0,0:0:0:0:
329,192,93917,1,0,0:0:0:0:
182,192,93917,1,0,0:0:0:0:
36,192,93917,1,0,0:0:0:0:
182,192,94010,1,0,0:0:0:0:
329,192,94104,1,0,0:0:0:0:
475,192,94104,1,0,0:0:0:0:
36,192,94198,1,0,0:0:0:0:
182,192,94198,1,0,0:0:0:0:
475,192,94292,1,0,0:0:0:0:
329,192,94292,1,0,0:0:0:0:
36,192,94292,1,0,0:0:0:0:
182,192,94292,1,0,0:0:0:0:
475,192,94385,1,0,0:0:0:0:
329,192,94479,1,0,0:0:0:0:
182,192,94479,1,0,0:0:0:0:
475,192,94573,1,0,0:0:0:0:
36,192,94573,1,0,0:0:0:0:
182,192,94573,1,0,0:0:0:0:
475,192,94667,1,0,0:0:0:0:
36,192,94667,1,0,0:0:0:0:
182,192,94667,1,0,0:0:0:0:
475,192,94854,1,0,0:0:0:0:
182,192,94854,1,0,0:0:0:0:
329,192,94854,1,0,0:0:0:0:
475,192,95042,1,0,0:0:0:0:
182,192,95042,1,0,0:0:0:0:
36,192,95042,1,0,0:0:0:0:
329,192,95042,1,0,0:0:0:0:
329,192,95135,1,0,0:0:0:0:
182,192,95229,1,0,0:0:0:0:
329,192,95323,1,0,0:0:0:0:
36,192,95417,1,0,0:0:0:0:
475,192,95417,1,0,0:0:0:0:
182,192,95510,1,0,0:0:0:0:
329,192,95604,1,0,0:0:0:0:
475,192,95604,1,0,0:0:0:0:
182,192,95698,1,0,0:0:0:0:
475,192,95792,1,0,0:0:0:0:
36,192,95792,1,0,0:0:0:0:
329,192,95885,1,0,0:0:0:0:
36,192,95979,1,0,0:0:0:0:
182,192,95979,1,0,0:0:0:0:
329,192,96073,1,0,0:0:0:0:
36,192,96167,1,0,0:0:0:0:
475,192,96167,1,0,0:0:0:0:
329,192,96260,1,0,0:0:0:0:
36,192,96354,1,0,0:0:0:0:
475,192,96354,1,0,0:0:0:0:
182,192,96448,1,0,0:0:0:0:
475,192,96542,1,0,0:0:0:0:
36,192,96542,1,0,0:0:0:0:
329,192,96542,1,0,0:0:0:0:
182,192,96542,1,0,0:0:0:0:
475,192,96635,1,0,0:0:0:0:
475,192,96729,1,0,0:0:0:0:
475,192,96823,1,0,0:0:0:0:
36,192,96823,1,0,0:0:0:0:
329,192,96823,1,0,0:0:0:0:
182,192,96823,1,0,0:0:0:0:
36,192,96917,1,0,0:0:0:0:
36,192,97010,1,0,0:0:0:0:
36,192,97104,1,0,0:0:0:0:
475,192,97104,1,0,0:0:0:0:
182,192,97104,1,0,0:0:0:0:
329,192,97104,1,0,0:0:0:0:
475,192,97198,1,0,0:0:0:0:
475,192,97292,1,0,0:0:0:0:
475,192,97385,1,0,0:0:0:0:
36,192,97385,1,0,0:0:0:0:
329,192,97385,1,0,0:0:0:0:
182,192,97385,1,0,0:0:0:0:
36,192,97479,1,0,0:0:0:0:
36,192,97573,1,0,0:0:0:0:
36,192,97667,1,0,0:0:0:0:
475,192,97667,128,0,97948:0:0:0:0:
329,192,97667,128,0,97948:0:0:0:0:
182,192,97667,1,0,0:0:0:0:
475,192,98042,1,0,0:0:0:0:
36,192,98042,1,0,0:0:0:0:
182,192,98042,1,0,0:0:0:0:
329,192,98042,1,0,0:0:0:0:
182,192,98135,1,0,0:0:0:0:
475,192,98229,1,0,0:0:0:0:
329,192,98229,1,0,0:0:0:0:
182,192,98323,1,0,0:0:0:0:
36,192,98323,1,0,0:0:0:0:
475,192,98417,1,0,0:0:0:0:
36,192,98417,1,0,0:0:0:0:
329,192,98417,1,0,0:0:0:0:
182,192,98417,1,0,0:0:0:0:
182,192,98510,1,0,0:0:0:0:
36,192,98604,1,0,0:0:0:0:
329,192,98604,1,0,0:0:0:0:
182,192,98698,1,0,0:0:0:0:
475,192,98698,1,0,0:0:0:0:
36,192,98792,1,0,0:0:0:0:
475,192,98792,1,0,0:0:0:0:
182,192,98792,1,0,0:0:0:0:
329,192,98792,1,0,0:0:0:0:
182,192,98885,1,0,0:0:0:0:
36,192,98885,1,0,0:0:0:0:
329,192,98885,1,0,0:0:0:0:
475,192,98979,1,0,0:0:0:0:
36,192,99073,1,0,0:0:0:0:
182,192,99073,1,0,0:0:0:0:
475,192,99167,1,0,0:0:0:0:
329,192,99167,1,0,0:0:0:0:
36,192,99167,1,0,0:0:0:0:
475,192,99260,1,0,0:0:0:0:
36,192,99260,1,0,0:0:0:0:
329,192,99307,1,0,0:0:0:0:
182,192,99354,1,0,0:0:0:0:
36,192,99401,1,0,0:0:0:0:
475,192,99448,1,0,0:0:0:0:
329,192,99448,1,0,0:0:0:0:
182,192,99495,1,0,0:0:0:0:
475,192,99542,1,0,0:0:0:0:
329,192,99542,1,0,0:0:0:0:
36,192,99542,1,0,0:0:0:0:
182,192,99635,1,0,0:0:0:0:
36,192,99635,1,0,0:0:0:0:
475,192,99729,1,0,0:0:0:0:
329,192,99729,1,0,0:0:0:0:
329,192,99823,1,0,0:0:0:0:
182,192,99823,1,0,0:0:0:0:
475,192,99917,1,0,0:0:0:0:
36,192,99917,1,0,0:0:0:0:
182,192,99917,1,0,0:0:0:0:
475,192,100010,1,0,0:0:0:0:
329,192,100010,1,0,0:0:0:0:
182,192,100010,1,0,0:0:0:0:
36,192,100104,1,0,0:0:0:0:
182,192,100198,1,0,0:0:0:0:
329,192,100198,1,0,0:0:0:0:
475,192,100292,1,0,0:0:0:0:
36,192,100292,1,0,0:0:0:0:
182,192,100292,1,0,0:0:0:0:
329,192,100385,1,0,0:0:0:0:
475,192,100385,1,0,0:0:0:0:
182,192,100479,1,0,0:0:0:0:
36,192,100479,1,0,0:0:0:0:
329,192,100573,1,0,0:0:0:0:
475,192,100667,1,0,0:0:0:0:
36,192,100667,1,0,0:0:0:0:
329,192,100667,1,0,0:0:0:0:
182,192,100760,1,0,0:0:0:0:
329,192,100854,1,0,0:0:0:0:
182,192,100948,1,0,0:0:0:0:
475,192,101042,1,0,0:0:0:0:
182,192,101042,1,0,0:0:0:0:
36,192,101042,1,0,0:0:0:0:
329,192,101042,1,0,0:0:0:0:
475,192,101135,1,0,0:0:0:0:
182,192,101135,1,0,0:0:0:0:
36,192,101135,1,0,0:0:0:0:
329,192,101135,1,0,0:0:0:0:
475,192,101323,1,0,0:0:0:0:
182,192,101323,1,0,0:0:0:0:
36,192,101323,1,0,0:0:0:0:
329,192,101323,1,0,0:0:0:0:
475,192,101417,1,0,0:0:0:0:
182,192,101417,1,0,0:0:0:0:
36,192,101417,1,0,0:0:0:0:
329,192,101417,1,0,0:0:0:0:
36,192,101510,1,0,0:0:0:0:
329,192,101510,1,0,0:0:0:0:
475,192,101604,1,0,0:0:0:0:
182,192,101604,1,0,0:0:0:0:
329,192,101698,1,0,0:0:0:0:
475,192,101792,1,0,0:0:0:0:
329,192,101792,1,0,0:0:0:0:
182,192,101792,1,0,0:0:0:0:
36,192,101792,1,0,0:0:0:0:
475,192,101885,1,0,0:0:0:0:
329,192,101885,1,0,0:0:0:0:
36,192,101979,1,0,0:0:0:0:
182,192,101979,1,0,0:0:0:0:
182,192,102073,1,0,0:0:0:0:
475,192,102167,1,0,0:0:0:0:
36,192,102167,1,0,0:0:0:0:
329,192,102167,1,0,0:0:0:0:
182,192,102260,1,0,0:0:0:0:
36,192,102260,1,0,0:0:0:0:
329,192,102307,1,0,0:0:0:0:
475,192,102354,1,0,0:0:0:0:
182,192,102354,1,0,0:0:0:0:
329,192,102448,1,0,0:0:0:0:
64,192,102448,1,0,0:0:0:0:
475,192,102542,1,0,0:0:0:0:
36,192,102542,1,0,0:0:0:0:
329,192,102542,1,0,0:0:0:0:
182,192,102588,1,0,0:0:0:0:
329,192,102635,1,0,0:0:0:0:
475,192,102682,1,0,0:0:0:0:
36,192,102729,1,0,0:0:0:0:
182,192,102729,1,0,0:0:0:0:
329,192,102776,1,0,0:0:0:0:
64,192,102823,1,0,0:0:0:0:
475,192,102823,1,0,0:0:0:0:
475,192,102917,1,0,0:0:0:0:
36,192,102917,1,0,0:0:0:0:
182,192,102917,1,0,0:0:0:0:
329,192,102963,1,0,0:0:0:0:
182,192,103010,1,0,0:0:0:0:
36,192,103057,1,0,0:0:0:0:
475,192,103104,1,0,0:0:0:0:
329,192,103104,1,0,0:0:0:0:
36,192,103198,1,0,0:0:0:0:
192,192,103198,1,0,0:0:0:0:
36,192,103292,1,0,0:0:0:0:
182,192,103292,1,0,0:0:0:0:
329,192,103292,1,0,0:0:0:0:
475,192,103338,1,0,0:0:0:0:
329,192,103479,1,0,0:0:0:0:
475,192,103479,1,0,0:0:0:0:
182,192,103667,1,0,0:0:0:0:
36,192,103667,1,0,0:0:0:0:
475,192,103854,1,0,0:0:0:0:
64,192,103854,1,0,0:0:0:0:
448,192,104042,1,0,0:0:0:0:
320,192,104042,1,0,0:0:0:0:
64,192,104088,1,0,0:0:0:0:
320,192,104135,1,0,0:0:0:0:
192,192,104135,1,0,0:0:0:0:
64,192,104182,1,0,0:0:0:0:
448,192,104229,1,0,0:0:0:0:
320,192,104229,1,0,0:0:0:0:
36,192,104417,1,0,0:0:0:0:
329,192,104417,1,0,0:0:0:0:
182,192,104417,1,0,0:0:0:0:
475,192,104510,1,0,0:0:0:0:
182,192,104510,1,0,0:0:0:0:
329,192,104510,1,0,0:0:0:0:
36,192,104698,1,0,0:0:0:0:
329,192,104698,1,0,0:0:0:0:
182,192,104698,1,0,0:0:0:0:
182,192,104792,1,0,0:0:0:0:
475,192,104792,1,0,0:0:0:0:
329,192,104792,1,0,0:0:0:0:
329,192,104979,1,0,0:0:0:0:
36,192,104979,1,0,0:0:0:0:
182,192,104979,1,0,0:0:0:0:
475,192,105073,1,0,0:0:0:0:
329,192,105073,1,0,0:0:0:0:
475,192,105167,1,0,0:0:0:0:
36,192,105167,1,0,0:0:0:0:
329,192,105260,1,0,0:0:0:0:
182,192,105260,1,0,0:0:0:0:
182,192,105354,1,0,0:0:0:0:
36,192,105354,1,0,0:0:0:0:
475,192,105448,1,0,0:0:0:0:
329,192,105448,1,0,0:0:0:0:
36,192,105542,1,0,0:0:0:0:
182,192,105542,1,0,0:0:0:0:
448,192,105588,1,0,0:0:0:0:
320,192,105635,1,0,0:0:0:0:
192,192,105635,1,0,0:0:0:0:
448,192,105682,1,0,0:0:0:0:
36,192,105729,1,0,0:0:0:0:
182,192,105729,1,0,0:0:0:0:
36,192,105917,1,0,0:0:0:0:
329,192,105917,1,0,0:0:0:0:
475,192,105917,1,0,0:0:0:0:
475,192,106010,1,0,0:0:0:0:
36,192,106010,1,0,0:0:0:0:
182,192,106010,1,0,0:0:0:0:
36,192,106198,1,0,0:0:0:0:
182,192,106198,1,0,0:0:0:0:
475,192,106198,1,0,0:0:0:0:
475,192,106292,1,0,0:0:0:0:
329,192,106292,1,0,0:0:0:0:
36,192,106292,1,0,0:0:0:0:
36,192,106479,1,0,0:0:0:0:
329,192,106479,1,0,0:0:0:0:
182,192,106479,1,0,0:0:0:0:
475,192,106573,1,0,0:0:0:0:
182,192,106573,1,0,0:0:0:0:
329,192,106573,128,0,106948:0:0:0:0:
36,192,106760,1,0,0:0:0:0:
182,192,106760,1,0,0:0:0:0:
36,192,106854,1,0,0:0:0:0:
182,192,106854,1,0,0:0:0:0:
36,192,106948,1,0,0:0:0:0:
182,192,106948,1,0,0:0:0:0:
475,192,107042,1,0,0:0:0:0:
329,192,107042,1,0,0:0:0:0:
36,192,107088,1,0,0:0:0:0:
475,192,107135,1,0,0:0:0:0:
192,192,107135,1,0,0:0:0:0:
36,192,107182,1,0,0:0:0:0:
475,192,107229,1,0,0:0:0:0:
329,192,107229,1,0,0:0:0:0:
182,192,107323,1,0,0:0:0:0:
36,192,107323,1,0,0:0:0:0:
475,192,107417,1,0,0:0:0:0:
329,192,107417,1,0,0:0:0:0:
182,192,107510,1,0,0:0:0:0:
36,192,107510,1,0,0:0:0:0:
475,192,107604,1,0,0:0:0:0:
329,192,107604,1,0,0:0:0:0:
182,192,107698,1,0,0:0:0:0:
36,192,107698,1,0,0:0:0:0:
475,192,107792,1,0,0:0:0:0:
329,192,107792,1,0,0:0:0:0:
36,192,107838,1,0,0:0:0:0:
475,192,107885,1,0,0:0:0:0:
192,192,107885,1,0,0:0:0:0:
36,192,107932,1,0,0:0:0:0:
475,192,107979,1,0,0:0:0:0:
329,192,107979,1,0,0:0:0:0:
36,192,108073,1,0,0:0:0:0:
182,192,108073,1,0,0:0:0:0:
475,192,108167,1,0,0:0:0:0:
329,192,108167,1,0,0:0:0:0:
36,192,108260,1,0,0:0:0:0:
182,192,108260,1,0,0:0:0:0:
329,192,108354,1,0,0:0:0:0:
475,192,108354,1,0,0:0:0:0:
36,192,108448,1,0,0:0:0:0:
182,192,108448,1,0,0:0:0:0:
475,192,108542,1,0,0:0:0:0:
182,192,108542,1,0,0:0:0:0:
329,192,108542,1,0,0:0:0:0:
329,192,108729,1,0,0:0:0:0:
182,192,108729,1,0,0:0:0:0:
475,192,108823,1,0,0:0:0:0:
36,192,108823,1,0,0:0:0:0:
182,192,108823,1,0,0:0:0:0:
320,192,108823,1,0,0:0:0:0:
329,192,109010,1,0,0:0:0:0:
182,192,109010,1,0,0:0:0:0:
36,192,109104,1,0,0:0:0:0:
475,192,109104,1,0,0:0:0:0:
329,192,109104,1,0,0:0:0:0:
192,192,109104,1,0,0:0:0:0:
475,192,109292,1,0,0:0:0:0:
329,192,109292,1,0,0:0:0:0:
182,192,109292,1,0,0:0:0:0:
36,192,109292,1,0,0:0:0:0:
36,192,109385,1,0,0:0:0:0:
475,192,109385,1,0,0:0:0:0:
329,192,109479,1,0,0:0:0:0:
182,192,109573,1,0,0:0:0:0:
64,192,109667,1,0,0:0:0:0:
320,192,109667,1,0,0:0:0:0:
192,192,109713,1,0,0:0:0:0:
448,192,109760,1,0,0:0:0:0:
320,192,109807,1,0,0:0:0:0:
64,192,109854,1,0,0:0:0:0:
448,192,109854,1,0,0:0:0:0:
192,192,109901,1,0,0:0:0:0:
320,192,109948,1,0,0:0:0:0:
192,192,109995,1,0,0:0:0:0:
475,192,110042,1,0,0:0:0:0:
329,192,110042,1,0,0:0:0:0:
36,192,110042,1,0,0:0:0:0:
182,192,110135,1,0,0:0:0:0:
475,192,110229,1,0,0:0:0:0:
329,192,110323,1,0,0:0:0:0:
36,192,110417,1,0,0:0:0:0:
182,192,110510,1,0,0:0:0:0:
329,192,110604,1,0,0:0:0:0:
182,192,110698,1,0,0:0:0:0:
36,192,110792,1,0,0:0:0:0:
329,192,110885,1,0,0:0:0:0:
475,192,110979,1,0,0:0:0:0:
36,192,110979,1,0,0:0:0:0:
329,192,111073,1,0,0:0:0:0:
182,192,111167,1,0,0:0:0:0:
329,192,111260,1,0,0:0:0:0:
475,192,111354,1,0,0:0:0:0:
36,192,111354,1,0,0:0:0:0:
329,192,111448,1,0,0:0:0:0:
182,192,111448,1,0,0:0:0:0:
36,192,111542,1,0,0:0:0:0:
475,192,111542,1,0,0:0:0:0:
182,192,111635,1,0,0:0:0:0:
329,192,111729,1,0,0:0:0:0:
182,192,111823,1,0,0:0:0:0:
475,192,111917,1,0,0:0:0:0:
329,192,112010,1,0,0:0:0:0:
36,192,112104,1,0,0:0:0:0:
475,192,112104,1,0,0:0:0:0:
182,192,112198,1,0,0:0:0:0:
329,192,112292,1,0,0:0:0:0:
36,192,112385,1,0,0:0:0:0:
182,192,112479,1,0,0:0:0:0:
329,192,112573,1,0,0:0:0:0:
36,192,112667,1,0,0:0:0:0:
475,192,112667,1,0,0:0:0:0:
182,192,112760,1,0,0:0:0:0:
329,192,112854,1,0,0:0:0:0:
182,192,112948,1,0,0:0:0:0:
475,192,113042,1,0,0:0:0:0:
36,192,113042,1,0,0:0:0:0:
329,192,113135,1,0,0:0:0:0:
182,192,113229,1,0,0:0:0:0:
329,192,113323,1,0,0:0:0:0:
475,192,113417,1,0,0:0:0:0:
36,192,113417,1,0,0:0:0:0:
182,192,113510,1,0,0:0:0:0:
329,192,113604,1,0,0:0:0:0:
182,192,113698,1,0,0:0:0:0:
475,192,113792,1,0,0:0:0:0:
329,192,113885,1,0,0:0:0:0:
182,192,113979,1,0,0:0:0:0:
36,192,113979,1,0,0:0:0:0:
329,192,114073,1,0,0:0:0:0:
182,192,114167,1,0,0:0:0:0:
329,192,114260,1,0,0:0:0:0:
475,192,114354,1,0,0:0:0:0:
36,192,114354,1,0,0:0:0:0:
329,192,114448,1,0,0:0:0:0:
182,192,114448,1,0,0:0:0:0:
475,192,114542,1,0,0:0:0:0:
36,192,114542,128,0,114917:0:0:0:0:
475,192,114729,128,0,114917:0:0:0:0:
320,192,114917,128,0,115479:0:0:0:0:
36,192,115104,128,0,115667:0:0:0:0:
475,192,115292,128,0,115479:0:0:0:0:
192,192,115479,128,0,115667:0:0:0:0:
320,192,115667,128,0,115854:0:0:0:0:
448,192,115760,1,0,0:0:0:0:
182,192,115854,1,0,0:0:0:0:
36,192,115854,1,0,0:0:0:0:
448,192,115948,1,0,0:0:0:0:
182,192,116042,1,0,0:0:0:0:
36,192,116042,1,0,0:0:0:0:
329,192,116088,1,0,0:0:0:0:
448,192,116088,1,0,0:0:0:0:
182,192,116135,1,0,0:0:0:0:
329,192,116182,1,0,0:0:0:0:
64,192,116182,1,0,0:0:0:0:
182,192,116229,1,0,0:0:0:0:
448,192,116229,1,0,0:0:0:0:
36,192,116417,1,0,0:0:0:0:
329,192,116417,1,0,0:0:0:0:
182,192,116510,1,0,0:0:0:0:
448,192,116510,1,0,0:0:0:0:
64,192,116698,1,0,0:0:0:0:
320,192,116698,1,0,0:0:0:0:
192,192,116792,1,0,0:0:0:0:
448,192,116792,1,0,0:0:0:0:
64,192,116979,1,0,0:0:0:0:
320,192,116979,1,0,0:0:0:0:
192,192,117073,1,0,0:0:0:0:
448,192,117073,1,0,0:0:0:0:
320,192,117260,1,0,0:0:0:0:
64,192,117260,1,0,0:0:0:0:
192,192,117354,1,0,0:0:0:0:
448,192,117354,1,0,0:0:0:0:
448,192,117542,1,0,0:0:0:0:
320,192,117542,1,0,0:0:0:0:
192,192,117588,1,0,0:0:0:0:
64,192,117588,1,0,0:0:0:0:
320,192,117635,1,0,0:0:0:0:
192,192,117682,1,0,0:0:0:0:
448,192,117682,1,0,0:0:0:0:
320,192,117729,1,0,0:0:0:0:
64,192,117729,1,0,0:0:0:0:
448,192,117917,1,0,0:0:0:0:
192,192,117917,1,0,0:0:0:0:
320,192,118010,1,0,0:0:0:0:
64,192,118010,1,0,0:0:0:0:
448,192,118198,1,0,0:0:0:0:
192,192,118198,1,0,0:0:0:0:
320,192,118292,1,0,0:0:0:0:
64,192,118292,1,0,0:0:0:0:
448,192,118479,1,0,0:0:0:0:
192,192,118479,1,0,0:0:0:0:
320,192,118573,1,0,0:0:0:0:
64,192,118573,1,0,0:0:0:0:
448,192,118760,1,0,0:0:0:0:
192,192,118760,1,0,0:0:0:0:
320,192,118854,1,0,0:0:0:0:
64,192,118854,1,0,0:0:0:0:
475,192,119042,1,0,0:0:0:0:
329,192,119042,1,0,0:0:0:0:
182,192,119088,1,0,0:0:0:0:
64,192,119088,1,0,0:0:0:0:
320,192,119135,1,0,0:0:0:0:
448,192,119182,1,0,0:0:0:0:
36,192,119229,1,0,0:0:0:0:
192,192,119229,1,0,0:0:0:0:
320,192,119229,1,0,0:0:0:0:
182,192,119323,1,0,0:0:0:0:
329,192,119417,1,0,0:0:0:0:
475,192,119417,1,0,0:0:0:0:
36,192,119417,1,0,0:0:0:0:
475,192,119510,1,0,0:0:0:0:
182,192,119604,1,0,0:0:0:0:
329,192,119604,1,0,0:0:0:0:
329,192,119698,1,0,0:0:0:0:
36,192,119792,1,0,0:0:0:0:
182,192,119792,1,0,0:0:0:0:
329,192,119838,1,0,0:0:0:0:
448,192,119838,1,0,0:0:0:0:
36,192,119885,1,0,0:0:0:0:
192,192,119932,1,0,0:0:0:0:
475,192,119979,1,0,0:0:0:0:
320,192,119979,1,0,0:0:0:0:
64,192,119979,1,0,0:0:0:0:
329,192,120073,1,0,0:0:0:0:
475,192,120167,1,0,0:0:0:0:
182,192,120167,1,0,0:0:0:0:
36,192,120167,1,0,0:0:0:0:
36,192,120260,1,0,0:0:0:0:
329,192,120354,1,0,0:0:0:0:
182,192,120354,1,0,0:0:0:0:
182,192,120448,1,0,0:0:0:0:
475,192,120542,128,0,120917:0:0:0:0:
36,192,120542,128,0,120917:0:0:0:0:
329,192,120729,128,0,121104:0:0:0:0:
182,192,120729,1,0,0:0:0:0:
182,192,120917,128,0,121104:0:0:0:0:
475,192,121104,128,0,121292:0:0:0:0:
36,192,121104,128,0,121292:0:0:0:0:
329,192,121292,1,0,0:0:0:0:
182,192,121292,1,0,0:0:0:0:
475,192,121385,1,0,0:0:0:0:
36,192,121385,1,0,0:0:0:0:
329,192,121479,1,0,0:0:0:0:
182,192,121573,1,0,0:0:0:0:
36,192,121573,1,0,0:0:0:0:
329,192,121667,1,0,0:0:0:0:
475,192,121667,1,0,0:0:0:0:
182,192,121760,1,0,0:0:0:0:
36,192,121854,1,0,0:0:0:0:
475,192,121854,1,0,0:0:0:0:
329,192,121948,1,0,0:0:0:0:
182,192,121948,1,0,0:0:0:0:
475,192,122042,1,0,0:0:0:0:
36,192,122042,1,0,0:0:0:0:
329,192,122042,128,0,122323:0:0:0:0:
36,192,122417,1,0,0:0:0:0:
182,192,122463,1,0,0:0:0:0:
36,192,122604,1,0,0:0:0:0:
182,192,122651,1,0,0:0:0:0:
64,192,122792,128,0,123167:0:0:0:0:
448,192,122792,1,0,0:0:0:0:
192,192,122838,128,0,123167:0:0:0:0:
448,192,123167,1,0,0:0:0:0:
320,192,123167,1,0,0:0:0:0:
448,192,123354,1,0,0:0:0:0:
448,192,123448,1,0,0:0:0:0:
320,192,123542,1,0,0:0:0:0:
320,192,123729,1,0,0:0:0:0:
320,192,123823,1,0,0:0:0:0:
192,192,123917,1,0,0:0:0:0:
192,192,124104,1,0,0:0:0:0:
192,192,124198,1,0,0:0:0:0:
64,192,124292,1,0,0:0:0:0:
64,192,124479,1,0,0:0:0:0:
64,192,124573,1,0,0:0:0:0:
475,192,124667,1,0,0:0:0:0:
329,192,124713,1,0,0:0:0:0:
182,192,124760,1,0,0:0:0:0:
36,192,124807,1,0,0:0:0:0:
329,192,124854,1,0,0:0:0:0:
475,192,124901,1,0,0:0:0:0:
182,192,124948,1,0,0:0:0:0:
329,192,124995,1,0,0:0:0:0:
182,192,125042,128,0,125229:0:0:0:0:
36,192,125042,128,0,125229:0:0:0:0:
475,192,125042,1,0,0:0:0:0:
475,192,125229,1,0,0:0:0:0:
329,192,125229,1,0,0:0:0:0:
475,192,125323,1,0,0:0:0:0:
36,192,125417,1,0,0:0:0:0:
182,192,125417,1,0,0:0:0:0:
36,192,125510,1,0,0:0:0:0:
475,192,125604,1,0,0:0:0:0:
329,192,125604,1,0,0:0:0:0:
475,192,125698,1,0,0:0:0:0:
182,192,125792,128,0,126167:0:0:0:0:
329,192,125792,1,0,0:0:0:0:
329,192,125979,1,0,0:0:0:0:
475,192,125979,1,0,0:0:0:0:
36,192,126167,1,0,0:0:0:0:
329,192,126167,1,0,0:0:0:0:
448,192,126167,1,0,0:0:0:0:
320,192,126354,1,0,0:0:0:0:
320,192,126448,1,0,0:0:0:0:
192,192,126542,1,0,0:0:0:0:
64,192,126542,1,0,0:0:0:0:
192,192,126729,1,0,0:0:0:0:
192,192,126823,1,0,0:0:0:0:
64,192,126917,1,0,0:0:0:0:
320,192,126940,1,0,0:0:0:0:
64,192,127104,1,0,0:0:0:0:
64,192,127198,1,0,0:0:0:0:
64,192,127292,128,0,127667:0:0:0:0:
448,192,127292,1,0,0:0:0:0:
320,192,127479,128,0,127667:0:0:0:0:
475,192,127667,1,0,0:0:0:0:
182,192,127713,1,0,0:0:0:0:
329,192,127760,1,0,0:0:0:0:
36,192,127807,1,0,0:0:0:0:
182,192,127854,1,0,0:0:0:0:
475,192,127854,1,0,0:0:0:0:
320,192,127901,1,0,0:0:0:0:
36,192,127948,1,0,0:0:0:0:
192,192,127995,1,0,0:0:0:0:
320,192,128042,128,0,128229:0:0:0:0:
448,192,128042,128,0,128229:0:0:0:0:
64,192,128042,128,0,128229:0:0:0:0:
64,192,128417,1,0,0:0:0:0:
192,192,128463,1,0,0:0:0:0:
36,192,128604,1,0,0:0:0:0:
182,192,128651,1,0,0:0:0:0:
64,192,128792,128,0,129167:0:0:0:0:
448,192,128792,1,0,0:0:0:0:
192,192,128838,128,0,129167:0:0:0:0:
448,192,129167,1,0,0:0:0:0:
320,192,129167,1,0,0:0:0:0:
448,192,129354,1,0,0:0:0:0:
448,192,129448,1,0,0:0:0:0:
320,192,129542,1,0,0:0:0:0:
320,192,129729,1,0,0:0:0:0:
320,192,129823,1,0,0:0:0:0:
192,192,129917,1,0,0:0:0:0:
192,192,130104,1,0,0:0:0:0:
192,192,130198,1,0,0:0:0:0:
64,192,130292,1,0,0:0:0:0:
64,192,130479,1,0,0:0:0:0:
64,192,130573,1,0,0:0:0:0:
475,192,130667,1,0,0:0:0:0:
329,192,130713,1,0,0:0:0:0:
182,192,130760,1,0,0:0:0:0:
36,192,130807,1,0,0:0:0:0:
182,192,130854,1,0,0:0:0:0:
475,192,130854,1,0,0:0:0:0:
329,192,130901,1,0,0:0:0:0:
36,192,130948,1,0,0:0:0:0:
182,192,130995,1,0,0:0:0:0:
475,192,131042,1,0,0:0:0:0:
329,192,131042,1,0,0:0:0:0:
182,192,131229,1,0,0:0:0:0:
475,192,131323,1,0,0:0:0:0:
36,192,131417,1,0,0:0:0:0:
475,192,131510,1,0,0:0:0:0:
182,192,131604,1,0,0:0:0:0:
448,192,131698,1,0,0:0:0:0:
36,192,131792,1,0,0:0:0:0:
329,192,131838,1,0,0:0:0:0:
182,192,131979,1,0,0:0:0:0:
36,192,131979,1,0,0:0:0:0:
475,192,132073,1,0,0:0:0:0:
182,192,132167,1,0,0:0:0:0:
36,192,132167,1,0,0:0:0:0:
475,192,132260,1,0,0:0:0:0:
192,192,132448,1,0,0:0:0:0:
475,192,132542,1,0,0:0:0:0:
329,192,132542,1,0,0:0:0:0:
36,192,132542,1,0,0:0:0:0:
192,192,132635,1,0,0:0:0:0:
320,192,132729,1,0,0:0:0:0:
192,192,132823,1,0,0:0:0:0:
64,192,132823,1,0,0:0:0:0:
320,192,132917,1,0,0:0:0:0:
192,192,133010,1,0,0:0:0:0:
320,192,133104,1,0,0:0:0:0:
448,192,133104,1,0,0:0:0:0:
192,192,133198,1,0,0:0:0:0:
320,192,133292,1,0,0:0:0:0:
192,192,133385,1,0,0:0:0:0:
64,192,133385,1,0,0:0:0:0:
320,192,133479,1,0,0:0:0:0:
192,192,133573,1,0,0:0:0:0:
320,192,133667,1,0,0:0:0:0:
448,192,133667,1,0,0:0:0:0:
182,192,133760,1,0,0:0:0:0:
329,192,133854,1,0,0:0:0:0:
329,192,133948,1,0,0:0:0:0:
36,192,134042,1,0,0:0:0:0:
475,192,134042,1,0,0:0:0:0:
182,192,134042,128,0,134229:0:0:0:0:
320,192,134417,1,0,0:0:0:0:
64,192,134417,1,0,0:0:0:0:
192,192,134463,1,0,0:0:0:0:
448,192,134463,1,0,0:0:0:0:
320,192,134604,1,0,0:0:0:0:
64,192,134604,1,0,0:0:0:0:
192,192,134651,1,0,0:0:0:0:
448,192,134651,1,0,0:0:0:0:
64,192,134792,128,0,135073:0:0:0:0:
320,192,134792,128,0,135167:0:0:0:0:
192,192,134838,128,0,135073:0:0:0:0:
448,192,134838,128,0,135167:0:0:0:0:
64,192,135167,1,0,0:0:0:0:
192,192,135167,1,0,0:0:0:0:
64,192,135354,1,0,0:0:0:0:
64,192,135448,1,0,0:0:0:0:
192,192,135542,1,0,0:0:0:0:
192,192,135729,1,0,0:0:0:0:
192,192,135823,1,0,0:0:0:0:
320,192,135917,1,0,0:0:0:0:
320,192,136104,1,0,0:0:0:0:
320,192,136198,1,0,0:0:0:0:
448,192,136292,1,0,0:0:0:0:
448,192,136479,1,0,0:0:0:0:
448,192,136573,1,0,0:0:0:0:
64,192,136667,1,0,0:0:0:0:
192,192,136713,1,0,0:0:0:0:
320,192,136760,1,0,0:0:0:0:
192,192,136807,1,0,0:0:0:0:
64,192,136854,1,0,0:0:0:0:
320,192,136901,1,0,0:0:0:0:
192,192,136948,1,0,0:0:0:0:
448,192,136995,1,0,0:0:0:0:
329,192,137042,1,0,0:0:0:0:
36,192,137042,128,0,137229:0:0:0:0:
475,192,137229,1,0,0:0:0:0:
182,192,137229,1,0,0:0:0:0:
329,192,137229,1,0,0:0:0:0:
475,192,137323,1,0,0:0:0:0:
36,192,137417,1,0,0:0:0:0:
182,192,137417,1,0,0:0:0:0:
329,192,137417,1,0,0:0:0:0:
329,192,137510,1,0,0:0:0:0:
475,192,137604,1,0,0:0:0:0:
36,192,137604,1,0,0:0:0:0:
182,192,137604,1,0,0:0:0:0:
320,192,137698,1,0,0:0:0:0:
36,192,137792,1,0,0:0:0:0:
192,192,137792,128,0,138167:0:0:0:0:
475,192,137792,1,0,0:0:0:0:
448,192,137979,1,0,0:0:0:0:
320,192,137979,1,0,0:0:0:0:
320,192,138167,1,0,0:0:0:0:
448,192,138167,1,0,0:0:0:0:
64,192,138167,1,0,0:0:0:0:
64,192,138354,1,0,0:0:0:0:
64,192,138448,1,0,0:0:0:0:
192,192,138542,1,0,0:0:0:0:
192,192,138729,1,0,0:0:0:0:
192,192,138823,1,0,0:0:0:0:
320,192,138917,1,0,0:0:0:0:
448,192,138940,1,0,0:0:0:0:
320,192,139104,1,0,0:0:0:0:
320,192,139198,1,0,0:0:0:0:
192,192,139292,1,0,0:0:0:0:
448,192,139292,128,0,139667:0:0:0:0:
64,192,139292,1,0,0:0:0:0:
320,192,139479,128,0,139667:0:0:0:0:
192,192,139479,1,0,0:0:0:0:
64,192,139667,1,0,0:0:0:0:
329,192,139713,1,0,0:0:0:0:
182,192,139760,1,0,0:0:0:0:
36,192,139807,1,0,0:0:0:0:
329,192,139854,1,0,0:0:0:0:
182,192,139901,1,0,0:0:0:0:
329,192,139948,1,0,0:0:0:0:
182,192,139995,1,0,0:0:0:0:
36,192,140042,1,0,0:0:0:0:
475,192,140042,1,0,0:0:0:0:
329,192,140042,1,0,0:0:0:0:
36,192,140135,128,0,140417:0:0:0:0:
182,192,140135,1,0,0:0:0:0:
329,192,140198,1,0,0:0:0:0:
182,192,140260,1,0,0:0:0:0:
329,192,140323,1,0,0:0:0:0:
475,192,140385,1,0,0:0:0:0:
182,192,140448,1,0,0:0:0:0:
329,192,140510,1,0,0:0:0:0:
182,192,140557,1,0,0:0:0:0:
475,192,140604,1,0,0:0:0:0:
64,192,140651,1,0,0:0:0:0:
320,192,140698,1,0,0:0:0:0:
475,192,140745,1,0,0:0:0:0:
64,192,140792,1,0,0:0:0:0:
192,192,140823,1,0,0:0:0:0:
320,192,140885,1,0,0:0:0:0:
192,192,140956,1,0,0:0:0:0:
448,192,141026,1,0,0:0:0:0:
36,192,141073,1,0,0:0:0:0:
182,192,141120,1,0,0:0:0:0:
36,192,141167,1,0,0:0:0:0:
329,192,141167,1,0,0:0:0:0:
448,192,141167,1,0,0:0:0:0:
64,192,141354,1,0,0:0:0:0:
64,192,141448,1,0,0:0:0:0:
192,192,141542,1,0,0:0:0:0:
192,192,141729,1,0,0:0:0:0:
192,192,141823,1,0,0:0:0:0:
320,192,141917,1,0,0:0:0:0:
320,192,142104,1,0,0:0:0:0:
320,192,142198,1,0,0:0:0:0:
448,192,142292,1,0,0:0:0:0:
448,192,142479,1,0,0:0:0:0:
448,192,142573,1,0,0:0:0:0:
64,192,142667,1,0,0:0:0:0:
320,192,142667,1,0,0:0:0:0:
192,192,142713,1,0,0:0:0:0:
64,192,142760,1,0,0:0:0:0:
192,192,142807,1,0,0:0:0:0:
448,192,142854,1,0,0:0:0:0:
320,192,142901,1,0,0:0:0:0:
192,192,142948,1,0,0:0:0:0:
320,192,142995,1,0,0:0:0:0:
448,192,143042,1,0,0:0:0:0:
64,192,143042,1,0,0:0:0:0:
182,192,143229,1,0,0:0:0:0:
329,192,143323,1,0,0:0:0:0:
475,192,143417,1,0,0:0:0:0:
36,192,143417,1,0,0:0:0:0:
182,192,143510,1,0,0:0:0:0:
329,192,143604,1,0,0:0:0:0:
182,192,143698,1,0,0:0:0:0:
329,192,143792,1,0,0:0:0:0:
36,192,143792,1,0,0:0:0:0:
475,192,143823,1,0,0:0:0:0:
182,192,143979,1,0,0:0:0:0:
329,192,144167,1,0,0:0:0:0:
475,192,144354,1,0,0:0:0:0:
36,192,144354,1,0,0:0:0:0:
182,192,144354,1,0,0:0:0:0:
329,192,144729,1,0,0:0:0:0:
36,192,144917,1,0,0:0:0:0:
475,192,144917,1,0,0:0:0:0:
329,192,144917,1,0,0:0:0:0:
182,192,144963,1,0,0:0:0:0:
329,192,145010,1,0,0:0:0:0:
475,192,145292,1,0,0:0:0:0:
36,192,145292,1,0,0:0:0:0:
182,192,145292,1,0,0:0:0:0:
192,192,145526,1,0,0:0:0:0:
182,192,145760,128,0,146042:0:0:0:0:
475,192,146042,1,0,0:0:0:0:
36,192,146042,1,0,0:0:0:0:
320,192,146042,1,0,0:0:0:0:
448,192,146135,1,0,0:0:0:0:
320,192,146182,1,0,0:0:0:0:
192,192,146229,1,0,0:0:0:0:
64,192,146276,1,0,0:0:0:0:
448,192,146323,1,0,0:0:0:0:
320,192,146370,1,0,0:0:0:0:
192,192,146417,1,0,0:0:0:0:
64,192,146463,1,0,0:0:0:0:
448,192,146510,1,0,0:0:0:0:
320,192,146557,1,0,0:0:0:0:
192,192,146604,1,0,0:0:0:0:
64,192,146651,1,0,0:0:0:0:
448,192,146698,1,0,0:0:0:0:
320,192,146745,1,0,0:0:0:0:
192,192,146792,1,0,0:0:0:0:
64,192,146838,1,0,0:0:0:0:
448,192,146885,1,0,0:0:0:0:
320,192,146932,1,0,0:0:0:0:
192,192,146979,1,0,0:0:0:0:
64,192,147026,1,0,0:0:0:0:
448,192,147073,1,0,0:0:0:0:
320,192,147120,1,0,0:0:0:0:
192,192,147167,1,0,0:0:0:0:
64,192,147213,1,0,0:0:0:0:
448,192,147260,1,0,0:0:0:0:
320,192,147307,1,0,0:0:0:0:
192,192,147354,1,0,0:0:0:0:
64,192,147401,1,0,0:0:0:0:
448,192,147448,1,0,0:0:0:0:
320,192,147495,1,0,0:0:0:0:
192,192,147542,1,0,0:0:0:0:
64,192,147604,1,0,0:0:0:0:
192,192,147667,1,0,0:0:0:0:
320,192,147729,1,0,0:0:0:0:
448,192,147792,1,0,0:0:0:0:
320,192,147854,1,0,0:0:0:0:
192,192,147917,1,0,0:0:0:0:
64,192,147979,1,0,0:0:0:0:
192,192,148042,1,0,0:0:0:0:
320,192,148104,1,0,0:0:0:0:
448,192,148167,1,0,0:0:0:0:
320,192,148229,1,0,0:0:0:0:
192,192,148292,1,0,0:0:0:0:
64,192,148354,1,0,0:0:0:0:
192,192,148417,1,0,0:0:0:0:
320,192,148479,1,0,0:0:0:0:
448,192,148542,1,0,0:0:0:0:
320,192,148604,1,0,0:0:0:0:
192,192,148667,1,0,0:0:0:0:
64,192,148729,1,0,0:0:0:0:
192,192,148792,1,0,0:0:0:0:
320,192,148854,1,0,0:0:0:0:
448,192,148917,1,0,0:0:0:0:
320,192,148979,1,0,0:0:0:0:
192,192,149042,1,0,0:0:0:0:
64,192,149104,1,0,0:0:0:0:
320,192,149167,1,0,0:0:0:0:
192,192,149229,1,0,0:0:0:0:
448,192,149292,1,0,0:0:0:0:
320,192,149354,1,0,0:0:0:0:
192,192,149417,1,0,0:0:0:0:
320,192,149479,1,0,0:0:0:0:
448,192,149542,1,0,0:0:0:0:
192,192,149604,1,0,0:0:0:0:
320,192,149667,1,0,0:0:0:0:
64,192,149729,1,0,0:0:0:0:
192,192,149792,1,0,0:0:0:0:
320,192,149854,1,0,0:0:0:0:
192,192,149917,1,0,0:0:0:0:
64,192,149979,1,0,0:0:0:0:
320,192,150042,1,0,0:0:0:0:
192,192,150104,1,0,0:0:0:0:
448,192,150167,1,0,0:0:0:0:
320,192,150229,1,0,0:0:0:0:
192,192,150292,1,0,0:0:0:0:
320,192,150354,1,0,0:0:0:0:
448,192,150417,1,0,0:0:0:0:
192,192,150479,1,0,0:0:0:0:
320,192,150542,1,0,0:0:0:0:
64,192,150604,1,0,0:0:0:0:
192,192,150667,1,0,0:0:0:0:
320,192,150729,1,0,0:0:0:0:
448,192,150792,1,0,0:0:0:0:
192,192,150854,1,0,0:0:0:0:
64,192,150917,1,0,0:0:0:0:
320,192,150979,1,0,0:0:0:0:
192,192,151042,1,0,0:0:0:0:
64,192,151104,1,0,0:0:0:0:
320,192,151167,1,0,0:0:0:0:
448,192,151229,1,0,0:0:0:0:
192,192,151292,1,0,0:0:0:0:
320,192,151354,1,0,0:0:0:0:
448,192,151417,1,0,0:0:0:0:
192,192,151479,1,0,0:0:0:0:
64,192,151542,1,0,0:0:0:0:
320,192,151604,1,0,0:0:0:0:
192,192,151667,1,0,0:0:0:0:
64,192,151729,1,0,0:0:0:0:
320,192,151792,1,0,0:0:0:0:
448,192,151854,1,0,0:0:0:0:
192,192,151917,128,0,151979:0:0:0:0:
64,192,151917,128,0,151979:0:0:0:0:
320,192,151979,1,0,0:0:0:0:
448,192,152042,1,0,0:0:0:0:
320,192,152104,1,0,0:0:0:0:
192,192,152167,1,0,0:0:0:0:
64,192,152229,1,0,0:0:0:0:
448,192,152292,1,0,0:0:0:0:
320,192,152354,1,0,0:0:0:0:
64,192,152417,1,0,0:0:0:0:
192,192,152479,1,0,0:0:0:0:
320,192,152542,1,0,0:0:0:0:
448,192,152604,1,0,0:0:0:0:
64,192,152667,1,0,0:0:0:0:
192,192,152729,1,0,0:0:0:0:
448,192,152792,1,0,0:0:0:0:
320,192,152854,1,0,0:0:0:0:
192,192,152917,1,0,0:0:0:0:
64,192,152979,1,0,0:0:0:0:
448,192,153042,1,0,0:0:0:0:
320,192,153104,1,0,0:0:0:0:
64,192,153167,1,0,0:0:0:0:
192,192,153229,1,0,0:0:0:0:
320,192,153292,1,0,0:0:0:0:
448,192,153354,1,0,0:0:0:0:
64,192,153417,1,0,0:0:0:0:
192,192,153479,1,0,0:0:0:0:
448,192,153542,1,0,0:0:0:0:
320,192,153612,1,0,0:0:0:0:
192,192,153682,1,0,0:0:0:0:
64,192,153764,1,0,0:0:0:0:
320,192,153834,1,0,0:0:0:0:
448,192,153917,1,0,0:0:0:0:
64,192,153987,1,0,0:0:0:0:
192,192,154069,1,0,0:0:0:0:
320,192,154151,1,0,0:0:0:0:
448,192,154233,1,0,0:0:0:0:
192,192,154315,1,0,0:0:0:0:
64,192,154397,1,0,0:0:0:0:
448,192,154479,1,0,0:0:0:0:
320,192,154549,1,0,0:0:0:0:
192,192,154635,1,0,0:0:0:0:
64,192,154713,1,0,0:0:0:0:
320,192,154792,1,0,0:0:0:0:
448,192,154877,1,0,0:0:0:0:
320,192,154971,1,0,0:0:0:0:
182,192,155042,128,0,155104:0:0:0:0:
36,192,155104,128,0,155167:0:0:0:0:
475,192,155167,128,0,155229:0:0:0:0:
329,192,155229,128,0,155417:0:0:0:0:
36,192,155417,128,0,155534:0:0:0:0:
475,192,155417,128,0,155792:0:0:0:0:
182,192,155792,128,0,155979:0:0:0:0:
475,192,155979,128,0,156167:0:0:0:0:
36,192,156167,128,0,156354:0:0:0:0:
329,192,156354,128,0,156542:0:0:0:0:
475,192,156917,128,0,157292:0:0:0:0:
182,192,157292,128,0,157479:0:0:0:0:
475,192,157479,128,0,157667:0:0:0:0:
36,192,157667,128,0,157854:0:0:0:0:
329,192,157854,128,0,158042:0:0:0:0:
475,192,158042,1,0,0:0:0:0:
36,192,158042,1,0,0:0:0:0:
182,192,158042,1,0,0:0:0:0:
475,192,158417,128,0,158792:0:0:0:0:
182,192,158792,128,0,158979:0:0:0:0:
329,192,158979,128,0,159167:0:0:0:0:
36,192,159167,128,0,159354:0:0:0:0:
182,192,159354,128,0,159542:0:0:0:0:
329,192,159917,128,0,160198:0:0:0:0:
475,192,160292,128,0,160479:0:0:0:0:
182,192,160479,128,0,160667:0:0:0:0:
329,192,160667,128,0,161042:0:0:0:0:
475,192,160713,128,0,161042:0:0:0:0:
475,192,161417,128,0,161792:0:0:0:0:
182,192,161792,128,0,161979:0:0:0:0:
329,192,161979,128,0,162167:0:0:0:0:
36,192,162167,128,0,162354:0:0:0:0:
182,192,162354,128,0,162542:0:0:0:0:
329,192,162917,128,0,163198:0:0:0:0:
475,192,163292,128,0,163479:0:0:0:0:
182,192,163479,128,0,163667:0:0:0:0:
36,192,163667,128,0,163854:0:0:0:0:
182,192,163854,128,0,164042:0:0:0:0:
475,192,164417,128,0,164792:0:0:0:0:
182,192,164792,128,0,164979:0:0:0:0:
329,192,164979,128,0,165167:0:0:0:0:
36,192,165167,128,0,165354:0:0:0:0:
182,192,165354,128,0,165542:0:0:0:0:
329,192,165917,128,0,166198:0:0:0:0:
475,192,166292,128,0,166479:0:0:0:0:
182,192,166479,128,0,166667:0:0:0:0:
329,192,166667,128,0,167042:0:0:0:0:
475,192,166713,128,0,167042:0:0:0:0:
36,192,167417,128,0,167792:0:0:0:0:
182,192,167463,128,0,167792:0:0:0:0:
475,192,167792,128,0,167979:0:0:0:0:
329,192,167979,128,0,168167:0:0:0:0:
36,192,168167,128,0,168354:0:0:0:0:
182,192,168354,128,0,168542:0:0:0:0:
329,192,168729,128,0,168823:0:0:0:0:
329,192,168917,128,0,169104:0:0:0:0:
182,192,169104,128,0,169292:0:0:0:0:
475,192,169292,128,0,169479:0:0:0:0:
182,192,169479,128,0,169667:0:0:0:0:
329,192,169667,128,0,169948:0:0:0:0:
475,192,169667,128,0,169948:0:0:0:0:
36,192,169854,128,0,169948:0:0:0:0:
182,192,169854,128,0,169948:0:0:0:0:
475,192,170042,1,0,0:0:0:0:
329,192,170042,1,0,0:0:0:0:
182,192,170042,1,0,0:0:0:0:
36,192,170042,1,0,0:0:0:0:
475,192,170417,128,0,170792:0:0:0:0:
329,192,170417,128,0,170792:0:0:0:0:
182,192,170417,1,0,0:0:0:0:
36,192,170604,1,0,0:0:0:0:
182,192,170698,1,0,0:0:0:0:
182,192,170792,128,0,170979:0:0:0:0:
36,192,170792,1,0,0:0:0:0:
475,192,170979,128,0,171167:0:0:0:0:
329,192,170979,128,0,171167:0:0:0:0:
36,192,171167,128,0,171354:0:0:0:0:
182,192,171167,128,0,171354:0:0:0:0:
329,192,171354,128,0,171542:0:0:0:0:
182,192,171542,1,0,0:0:0:0:
475,192,171542,1,0,0:0:0:0:
475,192,171917,128,0,172198:0:0:0:0:
329,192,171917,128,0,172198:0:0:0:0:
36,192,171917,1,0,0:0:0:0:
182,192,172010,1,0,0:0:0:0:
36,192,172104,1,0,0:0:0:0:
182,192,172198,1,0,0:0:0:0:
475,192,172292,128,0,172479:0:0:0:0:
36,192,172292,128,0,172479:0:0:0:0:
329,192,172292,1,0,0:0:0:0:
182,192,172292,1,0,0:0:0:0:
182,192,172479,128,0,172667:0:0:0:0:
36,192,172667,1,0,0:0:0:0:
329,192,172667,128,0,173042:0:0:0:0:
475,192,172713,128,0,173042:0:0:0:0:
36,192,173042,1,0,0:0:0:0:
182,192,173042,1,0,0:0:0:0:
475,192,173417,128,0,173792:0:0:0:0:
329,192,173417,128,0,173792:0:0:0:0:
182,192,173417,1,0,0:0:0:0:
36,192,173604,1,0,0:0:0:0:
182,192,173698,1,0,0:0:0:0:
182,192,173792,128,0,173979:0:0:0:0:
36,192,173792,1,0,0:0:0:0:
475,192,173979,128,0,174167:0:0:0:0:
329,192,173979,128,0,174167:0:0:0:0:
36,192,174167,128,0,174354:0:0:0:0:
182,192,174167,128,0,174354:0:0:0:0:
329,192,174354,128,0,174542:0:0:0:0:
475,192,174542,1,0,0:0:0:0:
36,192,174542,1,0,0:0:0:0:
475,192,174917,128,0,175198:0:0:0:0:
329,192,174917,128,0,175198:0:0:0:0:
182,192,174917,1,0,0:0:0:0:
36,192,175010,1,0,0:0:0:0:
182,192,175104,1,0,0:0:0:0:
36,192,175198,1,0,0:0:0:0:
475,192,175292,128,0,175479:0:0:0:0:
182,192,175292,1,0,0:0:0:0:
182,192,175479,128,0,175667:0:0:0:0:
329,192,175479,128,0,175854:0:0:0:0:
36,192,175667,128,0,175854:0:0:0:0:
475,192,175667,128,0,176042:0:0:0:0:
182,192,175854,128,0,176042:0:0:0:0:
329,192,176042,1,0,0:0:0:0:
36,192,176042,1,0,0:0:0:0:
329,192,176229,1,0,0:0:0:0:
182,192,176229,1,0,0:0:0:0:
182,192,176417,1,0,0:0:0:0:
475,192,176417,128,0,176792:0:0:0:0:
329,192,176417,128,0,176792:0:0:0:0:
36,192,176417,1,0,0:0:0:0:
182,192,176604,1,0,0:0:0:0:
36,192,176792,1,0,0:0:0:0:
182,192,176792,128,0,176979:0:0:0:0:
329,192,176979,128,0,177167:0:0:0:0:
475,192,176979,128,0,177167:0:0:0:0:
36,192,176979,1,0,0:0:0:0:
36,192,177167,128,0,177354:0:0:0:0:
182,192,177167,1,0,0:0:0:0:
475,192,177354,1,0,0:0:0:0:
329,192,177354,128,0,177542:0:0:0:0:
182,192,177354,128,0,177542:0:0:0:0:
36,192,177542,1,0,0:0:0:0:
475,192,177542,1,0,0:0:0:0:
329,192,177729,1,0,0:0:0:0:
182,192,177729,1,0,0:0:0:0:
182,192,177917,1,0,0:0:0:0:
475,192,177917,128,0,178198:0:0:0:0:
329,192,177917,128,0,178198:0:0:0:0:
36,192,177917,1,0,0:0:0:0:
182,192,178104,1,0,0:0:0:0:
182,192,178198,1,0,0:0:0:0:
475,192,178292,128,0,178479:0:0:0:0:
329,192,178292,1,0,0:0:0:0:
36,192,178292,128,0,178479:0:0:0:0:
329,192,178479,1,0,0:0:0:0:
182,192,178479,128,0,178667:0:0:0:0:
329,192,178667,128,0,179042:0:0:0:0:
36,192,178667,1,0,0:0:0:0:
475,192,178713,128,0,179042:0:0:0:0:
182,192,178854,1,0,0:0:0:0:
182,192,179042,1,0,0:0:0:0:
36,192,179042,1,0,0:0:0:0:
329,192,179229,1,0,0:0:0:0:
475,192,179229,1,0,0:0:0:0:
36,192,179417,1,0,0:0:0:0:
182,192,179417,1,0,0:0:0:0:
329,192,179417,128,0,179792:0:0:0:0:
475,192,179463,128,0,179792:0:0:0:0:
182,192,179604,1,0,0:0:0:0:
36,192,179604,1,0,0:0:0:0:
36,192,179792,1,0,0:0:0:0:
182,192,179792,128,0,179979:0:0:0:0:
329,192,179979,128,0,180167:0:0:0:0:
475,192,179979,1,0,0:0:0:0:
182,192,180167,1,0,0:0:0:0:
36,192,180167,128,0,180354:0:0:0:0:
475,192,180354,128,0,180635:0:0:0:0:
192,192,180354,1,0,0:0:0:0:
320,192,180354,128,0,180635:0:0:0:0:
329,192,180729,128,0,180823:0:0:0:0:
36,192,180729,1,0,0:0:0:0:
448,192,180729,128,0,180823:0:0:0:0:
182,192,180917,1,0,0:0:0:0:
475,192,180917,128,0,181010:0:0:0:0:
320,192,180917,128,0,181010:0:0:0:0:
329,192,181104,128,0,181198:0:0:0:0:
448,192,181104,128,0,181198:0:0:0:0:
64,192,181104,1,0,0:0:0:0:
448,192,181292,128,0,181385:0:0:0:0:
192,192,181292,128,0,181385:0:0:0:0:
320,192,181292,128,0,181385:0:0:0:0:
475,192,181479,128,0,181573:0:0:0:0:
182,192,181479,128,0,181573:0:0:0:0:
320,192,181479,128,0,181573:0:0:0:0:
475,192,181667,1,0,0:0:0:0:
329,192,181667,1,0,0:0:0:0:
36,192,181667,1,0,0:0:0:0:
182,192,181760,1,0,0:0:0:0:
329,192,181854,1,0,0:0:0:0:
475,192,181854,1,0,0:0:0:0:
36,192,181948,1,0,0:0:0:0:
182,192,181948,1,0,0:0:0:0:
475,192,182042,1,0,0:0:0:0:
36,192,182042,1,0,0:0:0:0:
182,192,182042,1,0,0:0:0:0:
329,192,182042,1,0,0:0:0:0:
475,192,182229,128,0,182417:0:0:0:0:
329,192,182229,128,0,182323:0:0:0:0:
182,192,182229,128,0,182323:0:0:0:0:
36,192,182323,128,0,182417:0:0:0:0:
182,192,182417,128,0,182510:0:0:0:0:
329,192,182417,128,0,182510:0:0:0:0:
475,192,182510,128,0,182604:0:0:0:0:
182,192,182604,128,0,182698:0:0:0:0:
36,192,182604,128,0,182698:0:0:0:0:
329,192,182698,128,0,182792:0:0:0:0:
475,192,182792,128,0,182885:0:0:0:0:
36,192,182792,128,0,182885:0:0:0:0:
182,192,182885,128,0,182979:0:0:0:0:
329,192,182979,128,0,183073:0:0:0:0:
475,192,182979,128,0,183073:0:0:0:0:
36,192,183073,128,0,183167:0:0:0:0:
182,192,183167,128,0,183260:0:0:0:0:
36,192,183260,128,0,183354:0:0:0:0:
329,192,183260,128,0,183354:0:0:0:0:
182,192,183354,128,0,183448:0:0:0:0:
475,192,183354,128,0,183448:0:0:0:0:
329,192,183448,128,0,183542:0:0:0:0:
36,192,183542,128,0,183635:0:0:0:0:
182,192,183542,128,0,183635:0:0:0:0:
475,192,183542,128,0,183635:0:0:0:0:
475,192,183729,128,0,183917:0:0:0:0:
329,192,183729,128,0,183823:0:0:0:0:
182,192,183729,128,0,183823:0:0:0:0:
36,192,183823,128,0,183917:0:0:0:0:
329,192,183917,128,0,184010:0:0:0:0:
182,192,183917,128,0,184010:0:0:0:0:
475,192,184010,128,0,184104:0:0:0:0:
36,192,184104,128,0,184198:0:0:0:0:
329,192,184104,128,0,184198:0:0:0:0:
182,192,184198,128,0,184292:0:0:0:0:
475,192,184292,128,0,184385:0:0:0:0:
329,192,184292,128,0,184385:0:0:0:0:
36,192,184385,128,0,184479:0:0:0:0:
182,192,184479,128,0,184573:0:0:0:0:
475,192,184479,128,0,184573:0:0:0:0:
329,192,184573,128,0,184667:0:0:0:0:
36,192,184667,128,0,184760:0:0:0:0:
182,192,184760,128,0,184854:0:0:0:0:
329,192,184760,128,0,184854:0:0:0:0:
36,192,184854,128,0,184948:0:0:0:0:
475,192,184854,128,0,184948:0:0:0:0:
329,192,184948,128,0,185042:0:0:0:0:
182,192,185042,128,0,185135:0:0:0:0:
36,192,185042,128,0,185135:0:0:0:0:
329,192,185135,128,0,185229:0:0:0:0:
475,192,185229,128,0,185323:0:0:0:0:
182,192,185323,128,0,185417:0:0:0:0:
36,192,185323,128,0,185417:0:0:0:0:
329,192,185417,128,0,185510:0:0:0:0:
475,192,185417,128,0,185510:0:0:0:0:
182,192,185510,128,0,185604:0:0:0:0:
475,192,185604,128,0,185698:0:0:0:0:
36,192,185604,128,0,185698:0:0:0:0:
329,192,185698,128,0,185792:0:0:0:0:
475,192,185792,128,0,185885:0:0:0:0:
182,192,185792,128,0,185885:0:0:0:0:
329,192,185885,128,0,185979:0:0:0:0:
182,192,185979,128,0,186073:0:0:0:0:
36,192,185979,128,0,186073:0:0:0:0:
475,192,186073,128,0,186167:0:0:0:0:
329,192,186073,128,0,186167:0:0:0:0:
182,192,186167,128,0,186260:0:0:0:0:
36,192,186260,128,0,186354:0:0:0:0:
329,192,186260,128,0,186354:0:0:0:0:
182,192,186354,128,0,186448:0:0:0:0:
475,192,186354,128,0,186448:0:0:0:0:
329,192,186448,128,0,186542:0:0:0:0:
475,192,186542,128,0,186635:0:0:0:0:
36,192,186542,128,0,186635:0:0:0:0:
182,192,186542,128,0,186635:0:0:0:0:
329,192,186635,128,0,186729:0:0:0:0:
475,192,186729,128,0,186823:0:0:0:0:
329,192,186823,128,0,186917:0:0:0:0:
182,192,186823,128,0,186917:0:0:0:0:
36,192,186917,128,0,187010:0:0:0:0:
475,192,187010,128,0,187104:0:0:0:0:
329,192,187010,128,0,187104:0:0:0:0:
182,192,187104,128,0,187198:0:0:0:0:
36,192,187198,128,0,187292:0:0:0:0:
329,192,187198,128,0,187292:0:0:0:0:
475,192,187292,128,0,187385:0:0:0:0:
182,192,187292,128,0,187385:0:0:0:0:
329,192,187385,128,0,187479:0:0:0:0:
182,192,187479,128,0,187573:0:0:0:0:
36,192,187479,128,0,187573:0:0:0:0:
329,192,187573,128,0,187667:0:0:0:0:
475,192,187573,128,0,187667:0:0:0:0:
36,192,187667,128,0,187760:0:0:0:0:
329,192,187760,128,0,187854:0:0:0:0:
182,192,187760,128,0,187854:0:0:0:0:
475,192,187854,128,0,187948:0:0:0:0:
182,192,187948,128,0,188042:0:0:0:0:
329,192,188042,128,0,188135:0:0:0:0:
36,192,188042,128,0,188135:0:0:0:0:
475,192,188042,128,0,188135:0:0:0:0:
182,192,188229,128,0,188323:0:0:0:0:
329,192,188229,128,0,188323:0:0:0:0:
475,192,188229,128,0,188417:0:0:0:0:
36,192,188323,128,0,188417:0:0:0:0:
329,192,188417,128,0,188510:0:0:0:0:
182,192,188417,128,0,188510:0:0:0:0:
475,192,188510,128,0,188604:0:0:0:0:
36,192,188604,128,0,188698:0:0:0:0:
182,192,188604,128,0,188698:0:0:0:0:
329,192,188698,128,0,188792:0:0:0:0:
475,192,188792,128,0,188885:0:0:0:0:
36,192,188885,128,0,188979:0:0:0:0:
182,192,188885,128,0,188979:0:0:0:0:
329,192,188979,128,0,189073:0:0:0:0:
475,192,189073,128,0,189167:0:0:0:0:
182,192,189073,128,0,189167:0:0:0:0:
36,192,189167,128,0,189260:0:0:0:0:
329,192,189260,128,0,189354:0:0:0:0:
182,192,189260,128,0,189354:0:0:0:0:
36,192,189354,128,0,189448:0:0:0:0:
475,192,189448,128,0,189542:0:0:0:0:
329,192,189448,128,0,189542:0:0:0:0:
36,192,189542,128,0,189635:0:0:0:0:
182,192,189542,128,0,189635:0:0:0:0:
182,192,189729,128,0,189823:0:0:0:0:
329,192,189729,128,0,189823:0:0:0:0:
475,192,189729,128,0,189917:0:0:0:0:
36,192,189823,128,0,189917:0:0:0:0:
329,192,189917,128,0,190010:0:0:0:0:
182,192,189917,128,0,190010:0:0:0:0:
475,192,190010,128,0,190104:0:0:0:0:
36,192,190104,128,0,190198:0:0:0:0:
182,192,190104,128,0,190198:0:0:0:0:
329,192,190198,128,0,190292:0:0:0:0:
475,192,190292,128,0,190385:0:0:0:0:
182,192,190292,128,0,190385:0:0:0:0:
36,192,190385,128,0,190479:0:0:0:0:
329,192,190479,128,0,190573:0:0:0:0:
182,192,190479,128,0,190573:0:0:0:0:
475,192,190573,128,0,190667:0:0:0:0:
36,192,190667,128,0,190760:0:0:0:0:
329,192,190760,128,0,190854:0:0:0:0:
182,192,190760,128,0,190854:0:0:0:0:
36,192,190854,128,0,190948:0:0:0:0:
475,192,190948,128,0,191042:0:0:0:0:
329,192,190948,128,0,191042:0:0:0:0:
182,192,191042,128,0,191135:0:0:0:0:
36,192,191042,128,0,191135:0:0:0:0:
475,192,191135,128,0,191229:0:0:0:0:
329,192,191135,128,0,191229:0:0:0:0:
182,192,191229,128,0,191323:0:0:0:0:
329,192,191323,128,0,191417:0:0:0:0:
475,192,191323,128,0,191417:0:0:0:0:
36,192,191417,128,0,191510:0:0:0:0:
182,192,191417,128,0,191510:0:0:0:0:
329,192,191510,128,0,191604:0:0:0:0:
475,192,191510,128,0,191604:0:0:0:0:
36,192,191604,128,0,191698:0:0:0:0:
329,192,191698,128,0,191792:0:0:0:0:
182,192,191792,128,0,191885:0:0:0:0:
475,192,191792,128,0,191885:0:0:0:0:
329,192,191885,128,0,191979:0:0:0:0:
36,192,191885,128,0,191979:0:0:0:0:
182,192,191979,128,0,192073:0:0:0:0:
475,192,192073,128,0,192167:0:0:0:0:
329,192,192167,128,0,192260:0:0:0:0:
182,192,192167,128,0,192260:0:0:0:0:
36,192,192260,128,0,192354:0:0:0:0:
475,192,192354,128,0,192448:0:0:0:0:
329,192,192354,128,0,192448:0:0:0:0:
182,192,192448,128,0,192542:0:0:0:0:
475,192,192542,128,0,192635:0:0:0:0:
329,192,192542,128,0,192635:0:0:0:0:
36,192,192542,128,0,192635:0:0:0:0:
182,192,192635,128,0,192729:0:0:0:0:
36,192,192729,128,0,192823:0:0:0:0:
475,192,192823,128,0,192917:0:0:0:0:
329,192,192823,128,0,192917:0:0:0:0:
182,192,192917,128,0,193010:0:0:0:0:
329,192,193010,128,0,193104:0:0:0:0:
475,192,193010,128,0,193104:0:0:0:0:
36,192,193104,128,0,193198:0:0:0:0:
182,192,193104,128,0,193198:0:0:0:0:
475,192,193198,128,0,193292:0:0:0:0:
329,192,193198,128,0,193292:0:0:0:0:
182,192,193292,128,0,193385:0:0:0:0:
36,192,193385,128,0,193479:0:0:0:0:
329,192,193385,128,0,193479:0:0:0:0:
182,192,193479,128,0,193573:0:0:0:0:
475,192,193573,128,0,193667:0:0:0:0:
329,192,193573,128,0,193667:0:0:0:0:
36,192,193667,128,0,193760:0:0:0:0:
182,192,193760,128,0,193854:0:0:0:0:
329,192,193854,128,0,193948:0:0:0:0:
475,192,193854,128,0,193948:0:0:0:0:
182,192,193948,128,0,194042:0:0:0:0:
36,192,194042,128,0,194135:0:0:0:0:
475,192,194042,128,0,194135:0:0:0:0:
329,192,194042,128,0,194135:0:0:0:0:
182,192,194229,128,0,194323:0:0:0:0:
475,192,194229,128,0,194417:0:0:0:0:
329,192,194229,128,0,194323:0:0:0:0:
36,192,194323,128,0,194417:0:0:0:0:
329,192,194417,128,0,194510:0:0:0:0:
182,192,194417,128,0,194510:0:0:0:0:
475,192,194510,128,0,194604:0:0:0:0:
36,192,194604,128,0,194698:0:0:0:0:
182,192,194604,128,0,194698:0:0:0:0:
329,192,194698,128,0,194792:0:0:0:0:
475,192,194792,128,0,194885:0:0:0:0:
182,192,194792,128,0,194885:0:0:0:0:
36,192,194792,128,0,194885:0:0:0:0:
329,192,194885,128,0,194979:0:0:0:0:
182,192,194979,128,0,195073:0:0:0:0:
36,192,195073,128,0,195167:0:0:0:0:
475,192,195167,128,0,195260:0:0:0:0:
329,192,195167,128,0,195260:0:0:0:0:
182,192,195167,128,0,195260:0:0:0:0:
36,192,195260,128,0,195354:0:0:0:0:
329,192,195354,128,0,195448:0:0:0:0:
475,192,195354,128,0,195448:0:0:0:0:
182,192,195448,128,0,195542:0:0:0:0:
36,192,195542,128,0,195635:0:0:0:0:
475,192,195542,128,0,195635:0:0:0:0:
329,192,195542,128,0,195635:0:0:0:0:
329,192,195729,128,0,195823:0:0:0:0:
475,192,195729,128,0,195917:0:0:0:0:
36,192,195729,128,0,195823:0:0:0:0:
182,192,195823,128,0,195917:0:0:0:0:
329,192,195917,128,0,196010:0:0:0:0:
36,192,195917,128,0,196010:0:0:0:0:
475,192,196010,128,0,196104:0:0:0:0:
36,192,196104,128,0,196198:0:0:0:0:
182,192,196104,128,0,196198:0:0:0:0:
329,192,196198,128,0,196292:0:0:0:0:
475,192,196292,128,0,196385:0:0:0:0:
182,192,196292,128,0,196385:0:0:0:0:
36,192,196292,128,0,196385:0:0:0:0:
329,192,196385,128,0,196479:0:0:0:0:
182,192,196479,128,0,196573:0:0:0:0:
475,192,196479,128,0,196573:0:0:0:0:
36,192,196573,128,0,196667:0:0:0:0:
475,192,196667,128,0,196760:0:0:0:0:
329,192,196667,128,0,196760:0:0:0:0:
182,192,196667,128,0,196760:0:0:0:0:
36,192,196760,128,0,196854:0:0:0:0:
329,192,196854,128,0,196948:0:0:0:0:
475,192,196854,128,0,196948:0:0:0:0:
182,192,196948,128,0,197042:0:0:0:0:
36,192,197042,128,0,197135:0:0:0:0:
475,192,197042,128,0,197135:0:0:0:0:
329,192,197042,128,0,197135:0:0:0:0:
182,192,197135,128,0,197229:0:0:0:0:
36,192,197229,128,0,197323:0:0:0:0:
182,192,197323,128,0,197417:0:0:0:0:
329,192,197323,128,0,197417:0:0:0:0:
475,192,197417,128,0,197510:0:0:0:0:
36,192,197417,128,0,197510:0:0:0:0:
329,192,197510,128,0,197604:0:0:0:0:
182,192,197604,128,0,197698:0:0:0:0:
475,192,197604,128,0,197698:0:0:0:0:
329,192,197698,128,0,197792:0:0:0:0:
475,192,197792,128,0,197885:0:0:0:0:
182,192,197792,128,0,197885:0:0:0:0:
36,192,197792,128,0,197885:0:0:0:0:
329,192,197885,128,0,197979:0:0:0:0:
36,192,197979,128,0,198073:0:0:0:0:
182,192,197979,128,0,198073:0:0:0:0:
475,192,198073,128,0,198167:0:0:0:0:
329,192,198167,128,0,198260:0:0:0:0:
182,192,198167,128,0,198260:0:0:0:0:
36,192,198167,128,0,198260:0:0:0:0:
475,192,198260,128,0,198354:0:0:0:0:
329,192,198354,128,0,198448:0:0:0:0:
182,192,198354,128,0,198448:0:0:0:0:
36,192,198448,128,0,198542:0:0:0:0:
182,192,198542,128,0,198635:0:0:0:0:
475,192,198542,128,0,198635:0:0:0:0:
329,192,198542,128,0,198635:0:0:0:0:
36,192,198635,128,0,198729:0:0:0:0:
329,192,198729,128,0,198823:0:0:0:0:
475,192,198729,128,0,198823:0:0:0:0:
182,192,198823,128,0,198917:0:0:0:0:
36,192,198917,128,0,199010:0:0:0:0:
475,192,198917,128,0,199010:0:0:0:0:
329,192,198917,128,0,199010:0:0:0:0:
182,192,199010,128,0,199104:0:0:0:0:
329,192,199104,128,0,199198:0:0:0:0:
475,192,199104,128,0,199198:0:0:0:0:
36,192,199198,128,0,199292:0:0:0:0:
182,192,199198,128,0,199292:0:0:0:0:
475,192,199292,128,0,199385:0:0:0:0:
329,192,199292,128,0,199385:0:0:0:0:
36,192,199385,128,0,199479:0:0:0:0:
182,192,199479,128,0,199573:0:0:0:0:
475,192,199573,128,0,199667:0:0:0:0:
329,192,199573,128,0,199667:0:0:0:0:
36,192,199667,128,0,199760:0:0:0:0:
182,192,199667,128,0,199760:0:0:0:0:
329,192,199760,128,0,199854:0:0:0:0:
475,192,199854,128,0,199948:0:0:0:0:
36,192,199854,128,0,199948:0:0:0:0:
182,192,199948,128,0,200042:0:0:0:0:
36,192,200042,128,0,200135:0:0:0:0:
329,192,200042,128,0,200135:0:0:0:0:
182,192,200135,128,0,200229:0:0:0:0:
475,192,200229,128,0,200323:0:0:0:0:
329,192,200323,128,0,200417:0:0:0:0:
182,192,200323,128,0,200417:0:0:0:0:
36,192,200417,128,0,200510:0:0:0:0:
475,192,200417,128,0,200510:0:0:0:0:
329,192,200510,128,0,200604:0:0:0:0:
182,192,200604,128,0,200698:0:0:0:0:
329,192,200698,128,0,200792:0:0:0:0:
475,192,200792,128,0,200885:0:0:0:0:
36,192,200792,128,0,200885:0:0:0:0:
182,192,200792,128,0,200885:0:0:0:0:
329,192,200885,128,0,200979:0:0:0:0:
182,192,200979,128,0,201073:0:0:0:0:
475,192,201073,128,0,201167:0:0:0:0:
36,192,201167,128,0,201260:0:0:0:0:
182,192,201167,128,0,201260:0:0:0:0:
329,192,201167,128,0,201260:0:0:0:0:
475,192,201260,128,0,201354:0:0:0:0:
36,192,201354,128,0,201448:0:0:0:0:
182,192,201354,128,0,201448:0:0:0:0:
475,192,201448,128,0,201542:0:0:0:0:
36,192,201542,128,0,201635:0:0:0:0:
329,192,201542,128,0,201635:0:0:0:0:
182,192,201542,128,0,201635:0:0:0:0:
182,192,201729,128,0,201823:0:0:0:0:
329,192,201823,128,0,201917:0:0:0:0:
36,192,201917,128,0,202010:0:0:0:0:
182,192,201917,128,0,202010:0:0:0:0:
475,192,202010,128,0,202104:0:0:0:0:
329,192,202010,128,0,202104:0:0:0:0:
182,192,202104,128,0,202198:0:0:0:0:
329,192,202198,128,0,202292:0:0:0:0:
475,192,202292,128,0,202385:0:0:0:0:
36,192,202292,128,0,202385:0:0:0:0:
182,192,202292,128,0,202385:0:0:0:0:
329,192,202385,128,0,202479:0:0:0:0:
182,192,202479,128,0,202573:0:0:0:0:
36,192,202573,128,0,202667:0:0:0:0:
329,192,202573,128,0,202667:0:0:0:0:
475,192,202667,128,0,202760:0:0:0:0:
182,192,202667,128,0,202760:0:0:0:0:
329,192,202760,128,0,202854:0:0:0:0:
475,192,202854,128,0,202948:0:0:0:0:
36,192,202854,128,0,202948:0:0:0:0:
182,192,202948,128,0,203042:0:0:0:0:
329,192,203042,128,0,203135:0:0:0:0:
475,192,203042,128,0,203135:0:0:0:0:
36,192,203042,128,0,203135:0:0:0:0:
182,192,203229,128,0,203323:0:0:0:0:
329,192,203323,128,0,203417:0:0:0:0:
475,192,203323,128,0,203417:0:0:0:0:
182,192,203417,128,0,203510:0:0:0:0:
36,192,203417,128,0,203510:0:0:0:0:
475,192,203510,128,0,203604:0:0:0:0:
329,192,203604,128,0,203698:0:0:0:0:
182,192,203604,128,0,203698:0:0:0:0:
475,192,203698,128,0,203792:0:0:0:0:
182,192,203792,128,0,203885:0:0:0:0:
36,192,203792,128,0,203885:0:0:0:0:
475,192,203885,128,0,203979:0:0:0:0:
329,192,203885,128,0,203979:0:0:0:0:
182,192,203979,128,0,204073:0:0:0:0:
329,192,204073,1,0,0:0:0:0:
36,192,204167,128,0,204260:0:0:0:0:
475,192,204167,128,0,204260:0:0:0:0:
329,192,204167,1,0,0:0:0:0:
182,192,204167,1,0,0:0:0:0:
36,192,204354,128,0,205948:0:0:0:0:
329,192,204354,128,0,205292:0:0:0:0:
182,192,204354,128,0,205292:0:0:0:0:
475,192,205292,1,0,0:0:0:0:
329,192,205385,1,0,0:0:0:0:
475,192,205479,1,0,0:0:0:0:
182,192,205573,1,0,0:0:0:0:
329,192,205667,1,0,0:0:0:0:
475,192,205760,1,0,0:0:0:0:
329,192,205854,1,0,0:0:0:0:
182,192,205948,1,0,0:0:0:0:
329,192,206042,1,0,0:0:0:0:
475,192,206042,1,0,0:0:0:0:
36,192,206042,1,0,0:0:0:0:
448,192,206229,1,0,0:0:0:0:
36,192,206229,1,0,0:0:0:0:
64,192,206417,1,0,0:0:0:0:
475,192,206417,1,0,0:0:0:0:
320,192,206604,1,0,0:0:0:0:
182,192,206604,1,0,0:0:0:0:
448,192,206604,1,0,0:0:0:0:
64,192,206604,1,0,0:0:0:0:
192,192,206792,1,0,0:0:0:0:
329,192,206792,1,0,0:0:0:0:
448,192,206792,1,0,0:0:0:0:
64,192,206792,1,0,0:0:0:0:
448,192,206979,1,0,0:0:0:0:
36,192,206979,1,0,0:0:0:0:
64,192,207167,1,0,0:0:0:0:
475,192,207167,1,0,0:0:0:0:
36,192,207354,1,0,0:0:0:0:
475,192,207354,1,0,0:0:0:0:
329,192,207354,1,0,0:0:0:0:
475,192,207542,1,0,0:0:0:0:
329,192,207542,1,0,0:0:0:0:
36,192,207542,1,0,0:0:0:0:
182,192,207729,1,0,0:0:0:0:
329,192,207729,1,0,0:0:0:0:
320,192,207917,1,0,0:0:0:0:
192,192,207917,1,0,0:0:0:0:
36,192,208104,128,0,208198:0:0:0:0:
475,192,208104,128,0,208198:0:0:0:0:
182,192,208104,128,0,208198:0:0:0:0:
329,192,208104,128,0,208198:0:0:0:0:
475,192,208292,128,0,208385:0:0:0:0:
36,192,208292,128,0,208385:0:0:0:0:
329,192,208292,128,0,208385:0:0:0:0:
182,192,208292,128,0,208385:0:0:0:0:
329,192,208479,1,0,0:0:0:0:
182,192,208479,1,0,0:0:0:0:
475,192,209042,1,0,0:0:0:0:
36,192,209042,1,0,0:0:0:0:
182,192,209042,1,0,0:0:0:0:
320,192,209042,1,0,0:0:0:0:
36,192,209229,1,0,0:0:0:0:
448,192,209229,1,0,0:0:0:0:
182,192,209417,1,0,0:0:0:0:
329,192,209417,1,0,0:0:0:0:
475,192,209604,1,0,0:0:0:0:
36,192,209604,1,0,0:0:0:0:
182,192,209604,1,0,0:0:0:0:
320,192,209604,1,0,0:0:0:0:
475,192,209792,1,0,0:0:0:0:
36,192,209792,1,0,0:0:0:0:
329,192,209792,1,0,0:0:0:0:
192,192,209792,1,0,0:0:0:0:
448,192,209979,1,0,0:0:0:0:
64,192,209979,1,0,0:0:0:0:
36,192,210167,1,0,0:0:0:0:
475,192,210167,1,0,0:0:0:0:
182,192,210354,1,0,0:0:0:0:
36,192,210354,1,0,0:0:0:0:
475,192,210354,1,0,0:0:0:0:
182,192,210542,1,0,0:0:0:0:
475,192,210542,1,0,0:0:0:0:
36,192,210542,1,0,0:0:0:0:
329,192,210635,1,0,0:0:0:0:
36,192,210729,1,0,0:0:0:0:
182,192,210729,1,0,0:0:0:0:
475,192,210823,1,0,0:0:0:0:
329,192,210917,1,0,0:0:0:0:
182,192,210917,1,0,0:0:0:0:
36,192,211010,1,0,0:0:0:0:
475,192,211104,1,0,0:0:0:0:
329,192,211104,1,0,0:0:0:0:
182,192,211198,1,0,0:0:0:0:
475,192,211292,1,0,0:0:0:0:
329,192,211292,1,0,0:0:0:0:
182,192,211385,1,0,0:0:0:0:
329,192,211479,1,0,0:0:0:0:
36,192,211479,1,0,0:0:0:0:
182,192,211573,1,0,0:0:0:0:
36,192,211667,1,0,0:0:0:0:
475,192,211667,1,0,0:0:0:0:
329,192,211760,1,0,0:0:0:0:
182,192,211760,1,0,0:0:0:0:
36,192,211854,1,0,0:0:0:0:
475,192,211854,1,0,0:0:0:0:
182,192,211948,1,0,0:0:0:0:
448,192,212042,1,0,0:0:0:0:
320,192,212042,1,0,0:0:0:0:
64,192,212088,1,0,0:0:0:0:
192,192,212135,1,0,0:0:0:0:
320,192,212182,1,0,0:0:0:0:
448,192,212229,1,0,0:0:0:0:
64,192,212276,1,0,0:0:0:0:
192,192,212323,1,0,0:0:0:0:
320,192,212370,1,0,0:0:0:0:
448,192,212417,1,0,0:0:0:0:
192,192,212463,1,0,0:0:0:0:
320,192,212510,1,0,0:0:0:0:
448,192,212557,1,0,0:0:0:0:
64,192,212604,1,0,0:0:0:0:
192,192,212651,1,0,0:0:0:0:
320,192,212698,1,0,0:0:0:0:
64,192,212745,1,0,0:0:0:0:
192,192,212792,1,0,0:0:0:0:
448,192,212838,1,0,0:0:0:0:
320,192,212885,1,0,0:0:0:0:
192,192,212932,1,0,0:0:0:0:
448,192,212979,1,0,0:0:0:0:
320,192,213026,1,0,0:0:0:0:
192,192,213073,1,0,0:0:0:0:
320,192,213120,1,0,0:0:0:0:
64,192,213167,1,0,0:0:0:0:
64,192,213354,1,0,0:0:0:0:
192,192,213542,1,0,0:0:0:0:
64,192,213542,1,0,0:0:0:0:
448,192,213588,1,0,0:0:0:0:
320,192,213635,1,0,0:0:0:0:
192,192,213682,1,0,0:0:0:0:
64,192,213729,1,0,0:0:0:0:
448,192,213776,1,0,0:0:0:0:
320,192,213823,1,0,0:0:0:0:
192,192,213870,1,0,0:0:0:0:
64,192,213917,1,0,0:0:0:0:
320,192,213963,1,0,0:0:0:0:
192,192,214010,1,0,0:0:0:0:
64,192,214057,1,0,0:0:0:0:
448,192,214104,1,0,0:0:0:0:
320,192,214151,1,0,0:0:0:0:
192,192,214198,1,0,0:0:0:0:
448,192,214245,1,0,0:0:0:0:
320,192,214292,1,0,0:0:0:0:
64,192,214338,1,0,0:0:0:0:
192,192,214385,1,0,0:0:0:0:
320,192,214432,1,0,0:0:0:0:
64,192,214479,1,0,0:0:0:0:
192,192,214526,1,0,0:0:0:0:
320,192,214573,1,0,0:0:0:0:
192,192,214620,1,0,0:0:0:0:
448,192,214667,1,0,0:0:0:0:
475,192,214854,1,0,0:0:0:0:
475,192,215042,1,0,0:0:0:0:
36,192,215042,1,0,0:0:0:0:
182,192,215088,1,0,0:0:0:0:
329,192,215135,1,0,0:0:0:0:
182,192,215182,1,0,0:0:0:0:
36,192,215229,1,0,0:0:0:0:
475,192,215229,1,0,0:0:0:0:
329,192,215323,1,0,0:0:0:0:
475,192,215417,1,0,0:0:0:0:
182,192,215417,1,0,0:0:0:0:
36,192,215417,1,0,0:0:0:0:
182,192,215510,1,0,0:0:0:0:
329,192,215604,1,0,0:0:0:0:
36,192,215604,1,0,0:0:0:0:
329,192,215698,1,0,0:0:0:0:
475,192,215792,1,0,0:0:0:0:
36,192,215792,1,0,0:0:0:0:
182,192,215792,1,0,0:0:0:0:
329,192,215885,1,0,0:0:0:0:
475,192,215979,1,0,0:0:0:0:
182,192,215979,1,0,0:0:0:0:
329,192,216073,1,0,0:0:0:0:
475,192,216167,1,0,0:0:0:0:
36,192,216167,1,0,0:0:0:0:
329,192,216167,1,0,0:0:0:0:
182,192,216167,1,0,0:0:0:0:
182,192,216260,1,0,0:0:0:0:
329,192,216354,1,0,0:0:0:0:
475,192,216354,1,0,0:0:0:0:
36,192,216448,1,0,0:0:0:0:
182,192,216448,1,0,0:0:0:0:
475,192,216542,1,0,0:0:0:0:
182,192,216542,1,0,0:0:0:0:
329,192,216542,1,0,0:0:0:0:
36,192,216542,1,0,0:0:0:0:
182,192,216917,1,0,0:0:0:0:
329,192,216917,1,0,0:0:0:0:
475,192,217292,1,0,0:0:0:0:
36,192,217292,1,0,0:0:0:0:
329,192,217385,1,0,0:0:0:0:
475,192,217479,1,0,0:0:0:0:
36,192,217479,1,0,0:0:0:0:
329,192,217573,1,0,0:0:0:0:
182,192,217573,1,0,0:0:0:0:
36,192,217667,128,0,217948:0:0:0:0:
475,192,217667,128,0,217760:0:0:0:0:
182,192,217760,128,0,217948:0:0:0:0:
329,192,217760,1,0,0:0:0:0:
329,192,217854,128,0,217948:0:0:0:0:
475,192,217854,128,0,218042:0:0:0:0:
329,192,218042,1,0,0:0:0:0:
182,192,218042,1,0,0:0:0:0:
36,192,218042,1,0,0:0:0:0:
182,192,218135,1,0,0:0:0:0:
475,192,218229,128,0,218604:0:0:0:0:
36,192,218229,128,0,218323:0:0:0:0:
329,192,218229,1,0,0:0:0:0:
182,192,218323,128,0,218510:0:0:0:0:
36,192,218417,1,0,0:0:0:0:
329,192,218417,128,0,218510:0:0:0:0:
36,192,218510,128,0,218604:0:0:0:0:
329,192,218604,128,0,218698:0:0:0:0:
182,192,218604,1,0,0:0:0:0:
36,192,218698,1,0,0:0:0:0:
329,192,218792,1,0,0:0:0:0:
182,192,218792,1,0,0:0:0:0:
475,192,218792,1,0,0:0:0:0:
36,192,218885,128,0,219073:0:0:0:0:
475,192,218885,1,0,0:0:0:0:
329,192,218885,1,0,0:0:0:0:
182,192,218979,128,0,219073:0:0:0:0:
475,192,218979,128,0,219167:0:0:0:0:
329,192,219073,128,0,219167:0:0:0:0:
36,192,219167,1,0,0:0:0:0:
182,192,219167,1,0,0:0:0:0:
475,192,219260,128,0,219448:0:0:0:0:
36,192,219260,1,0,0:0:0:0:
182,192,219260,1,0,0:0:0:0:
329,192,219354,128,0,219448:0:0:0:0:
182,192,219448,128,0,219542:0:0:0:0:
36,192,219448,128,0,219542:0:0:0:0:
475,192,219542,1,0,0:0:0:0:
329,192,219542,1,0,0:0:0:0:
329,192,219635,1,0,0:0:0:0:
182,192,219635,1,0,0:0:0:0:
475,192,219729,128,0,220104:0:0:0:0:
36,192,219729,128,0,219823:0:0:0:0:
182,192,219823,128,0,220010:0:0:0:0:
329,192,219823,1,0,0:0:0:0:
36,192,219917,1,0,0:0:0:0:
329,192,219917,128,0,220010:0:0:0:0:
36,192,220010,128,0,220198:0:0:0:0:
329,192,220104,128,0,220198:0:0:0:0:
182,192,220104,1,0,0:0:0:0:
182,192,220198,128,0,220292:0:0:0:0:
475,192,220292,1,0,0:0:0:0:
329,192,220292,1,0,0:0:0:0:
36,192,220292,1,0,0:0:0:0:
36,192,220385,128,0,220573:0:0:0:0:
475,192,220385,1,0,0:0:0:0:
329,192,220385,1,0,0:0:0:0:
182,192,220479,128,0,220573:0:0:0:0:
475,192,220573,128,0,220667:0:0:0:0:
329,192,220573,128,0,220667:0:0:0:0:
36,192,220667,1,0,0:0:0:0:
182,192,220667,1,0,0:0:0:0:
475,192,220760,128,0,220854:0:0:0:0:
182,192,220760,1,0,0:0:0:0:
36,192,220760,1,0,0:0:0:0:
329,192,220854,128,0,220948:0:0:0:0:
36,192,220948,128,0,221042:0:0:0:0:
475,192,220948,128,0,221042:0:0:0:0:
182,192,221042,1,0,0:0:0:0:
329,192,221042,128,0,221229:0:0:0:0:
64,192,221135,1,0,0:0:0:0:
182,192,221229,1,0,0:0:0:0:
36,192,221229,128,0,221323:0:0:0:0:
475,192,221323,128,0,221417:0:0:0:0:
329,192,221323,1,0,0:0:0:0:
182,192,221417,1,0,0:0:0:0:
36,192,221417,1,0,0:0:0:0:
182,192,221510,1,0,0:0:0:0:
36,192,221510,1,0,0:0:0:0:
475,192,221510,128,0,221604:0:0:0:0:
329,192,221510,128,0,221698:0:0:0:0:
182,192,221604,128,0,221792:0:0:0:0:
36,192,221698,128,0,221792:0:0:0:0:
475,192,221792,1,0,0:0:0:0:
329,192,221792,1,0,0:0:0:0:
475,192,221885,1,0,0:0:0:0:
329,192,221885,1,0,0:0:0:0:
182,192,221979,128,0,222073:0:0:0:0:
36,192,221979,1,0,0:0:0:0:
329,192,222073,128,0,222260:0:0:0:0:
36,192,222167,1,0,0:0:0:0:
182,192,222167,1,0,0:0:0:0:
475,192,222167,128,0,222260:0:0:0:0:
182,192,222260,128,0,222448:0:0:0:0:
329,192,222354,128,0,222448:0:0:0:0:
475,192,222354,128,0,222448:0:0:0:0:
36,192,222448,128,0,222542:0:0:0:0:
329,192,222542,1,0,0:0:0:0:
475,192,222542,1,0,0:0:0:0:
182,192,222542,1,0,0:0:0:0:
182,192,222635,1,0,0:0:0:0:
36,192,222635,1,0,0:0:0:0:
475,192,222729,128,0,222823:0:0:0:0:
329,192,222729,128,0,222823:0:0:0:0:
182,192,222823,128,0,223010:0:0:0:0:
36,192,222823,128,0,223010:0:0:0:0:
475,192,222917,1,0,0:0:0:0:
329,192,222917,1,0,0:0:0:0:
475,192,223010,128,0,223104:0:0:0:0:
329,192,223010,128,0,223104:0:0:0:0:
182,192,223104,1,0,0:0:0:0:
36,192,223104,1,0,0:0:0:0:
36,192,223198,1,0,0:0:0:0:
329,192,223292,1,0,0:0:0:0:
475,192,223292,128,0,223385:0:0:0:0:
182,192,223292,1,0,0:0:0:0:
182,192,223385,1,0,0:0:0:0:
36,192,223479,1,0,0:0:0:0:
329,192,223479,128,0,223573:0:0:0:0:
182,192,223573,128,0,223667:0:0:0:0:
475,192,223573,1,0,0:0:0:0:
36,192,223667,1,0,0:0:0:0:
475,192,223667,1,0,0:0:0:0:
329,192,223667,1,0,0:0:0:0:
182,192,223760,1,0,0:0:0:0:
36,192,223760,1,0,0:0:0:0:
329,192,223760,1,0,0:0:0:0:
475,192,223854,128,0,223948:0:0:0:0:
182,192,223854,128,0,224042:0:0:0:0:
36,192,223854,1,0,0:0:0:0:
329,192,223948,128,0,224042:0:0:0:0:
475,192,224042,1,0,0:0:0:0:
36,192,224042,1,0,0:0:0:0:
182,192,224135,1,0,0:0:0:0:
329,192,224135,1,0,0:0:0:0:
475,192,224229,128,0,224417:0:0:0:0:
36,192,224229,128,0,224323:0:0:0:0:
329,192,224323,128,0,224510:0:0:0:0:
182,192,224323,1,0,0:0:0:0:
182,192,224417,128,0,224604:0:0:0:0:
36,192,224417,1,0,0:0:0:0:
36,192,224510,1,0,0:0:0:0:
475,192,224510,128,0,224604:0:0:0:0:
329,192,224604,128,0,224698:0:0:0:0:
36,192,224698,128,0,224792:0:0:0:0:
182,192,224698,128,0,224792:0:0:0:0:
475,192,224792,1,0,0:0:0:0:
329,192,224792,1,0,0:0:0:0:
329,192,224885,1,0,0:0:0:0:
36,192,224885,128,0,225073:0:0:0:0:
475,192,224885,1,0,0:0:0:0:
182,192,224979,128,0,225073:0:0:0:0:
475,192,224979,128,0,225167:0:0:0:0:
329,192,225073,1,0,0:0:0:0:
182,192,225167,1,0,0:0:0:0:
36,192,225167,1,0,0:0:0:0:
329,192,225167,1,0,0:0:0:0:
36,192,225260,1,0,0:0:0:0:
182,192,225260,1,0,0:0:0:0:
475,192,225260,128,0,225448:0:0:0:0:
329,192,225354,128,0,225448:0:0:0:0:
182,192,225354,128,0,225542:0:0:0:0:
36,192,225448,128,0,225542:0:0:0:0:
329,192,225542,1,0,0:0:0:0:
475,192,225542,1,0,0:0:0:0:
329,192,225635,1,0,0:0:0:0:
182,192,225635,1,0,0:0:0:0:
36,192,225729,128,0,225823:0:0:0:0:
475,192,225729,128,0,225823:0:0:0:0:
329,192,225823,128,0,226010:0:0:0:0:
182,192,225823,1,0,0:0:0:0:
36,192,225917,1,0,0:0:0:0:
182,192,225917,128,0,226104:0:0:0:0:
475,192,225917,128,0,226010:0:0:0:0:
36,192,226010,1,0,0:0:0:0:
329,192,226104,128,0,226198:0:0:0:0:
475,192,226104,1,0,0:0:0:0:
36,192,226198,128,0,226292:0:0:0:0:
182,192,226198,1,0,0:0:0:0:
329,192,226292,1,0,0:0:0:0:
182,192,226292,1,0,0:0:0:0:
475,192,226292,1,0,0:0:0:0:
36,192,226385,128,0,226573:0:0:0:0:
475,192,226385,1,0,0:0:0:0:
329,192,226385,1,0,0:0:0:0:
182,192,226479,128,0,226573:0:0:0:0:
475,192,226479,128,0,226667:0:0:0:0:
329,192,226573,128,0,226667:0:0:0:0:
36,192,226667,1,0,0:0:0:0:
182,192,226667,1,0,0:0:0:0:
475,192,226760,128,0,226854:0:0:0:0:
182,192,226760,1,0,0:0:0:0:
36,192,226760,1,0,0:0:0:0:
329,192,226854,128,0,226948:0:0:0:0:
182,192,226854,128,0,226948:0:0:0:0:
475,192,226948,128,0,227042:0:0:0:0:
36,192,226948,128,0,227042:0:0:0:0:
329,192,227042,1,0,0:0:0:0:
182,192,227042,1,0,0:0:0:0:
475,192,227135,128,0,227323:0:0:0:0:
182,192,227135,1,0,0:0:0:0:
36,192,227229,128,0,227698:0:0:0:0:
329,192,227229,128,0,227323:0:0:0:0:
182,192,227323,128,0,227510:0:0:0:0:
475,192,227417,1,0,0:0:0:0:
329,192,227417,1,0,0:0:0:0:
329,192,227510,128,0,227604:0:0:0:0:
475,192,227510,1,0,0:0:0:0:
182,192,227604,128,0,227698:0:0:0:0:
475,192,227698,128,0,227792:0:0:0:0:
329,192,227698,128,0,227792:0:0:0:0:
36,192,227792,1,0,0:0:0:0:
182,192,227792,128,0,227885:0:0:0:0:
36,192,227885,128,0,227979:0:0:0:0:
329,192,227885,128,0,227979:0:0:0:0:
475,192,227979,1,0,0:0:0:0:
182,192,227979,128,0,228167:0:0:0:0:
329,192,228073,128,0,228167:0:0:0:0:
475,192,228073,128,0,228167:0:0:0:0:
36,192,228073,128,0,228260:0:0:0:0:
182,192,228260,128,0,228354:0:0:0:0:
475,192,228354,128,0,228448:0:0:0:0:
329,192,228354,128,0,228448:0:0:0:0:
36,192,228354,128,0,228448:0:0:0:0:
182,192,228448,128,0,228542:0:0:0:0:
475,192,228542,1,0,0:0:0:0:
329,192,228542,1,0,0:0:0:0:
36,192,228542,1,0,0:0:0:0:
182,192,228635,1,0,0:0:0:0:
329,192,228682,1,0,0:0:0:0:
475,192,228729,1,0,0:0:0:0:
36,192,228729,1,0,0:0:0:0:
182,192,228729,1,0,0:0:0:0:
475,192,228823,1,0,0:0:0:0:
36,192,228823,1,0,0:0:0:0:
329,192,228823,1,0,0:0:0:0:
182,192,228917,1,0,0:0:0:0:
36,192,228963,1,0,0:0:0:0:
329,192,229010,1,0,0:0:0:0:
475,192,229010,1,0,0:0:0:0:
182,192,229057,1,0,0:0:0:0:
475,192,229104,1,0,0:0:0:0:
36,192,229104,1,0,0:0:0:0:
329,192,229104,1,0,0:0:0:0:
475,192,229198,1,0,0:0:0:0:
329,192,229198,1,0,0:0:0:0:
182,192,229198,1,0,0:0:0:0:
36,192,229292,1,0,0:0:0:0:
475,192,229385,1,0,0:0:0:0:
329,192,229385,1,0,0:0:0:0:
182,192,229479,1,0,0:0:0:0:
36,192,229479,1,0,0:0:0:0:
329,192,229479,1,0,0:0:0:0:
475,192,229573,1,0,0:0:0:0:
36,192,229667,1,0,0:0:0:0:
182,192,229667,1,0,0:0:0:0:
36,192,229760,1,0,0:0:0:0:
182,192,229760,1,0,0:0:0:0:
36,192,229854,1,0,0:0:0:0:
182,192,229854,1,0,0:0:0:0:
36,192,229948,1,0,0:0:0:0:
182,192,229948,1,0,0:0:0:0:
36,192,230042,1,0,0:0:0:0:
182,192,230042,1,0,0:0:0:0:
329,192,230073,1,0,0:0:0:0:
475,192,230104,1,0,0:0:0:0:
36,192,230135,1,0,0:0:0:0:
182,192,230167,1,0,0:0:0:0:
329,192,230198,1,0,0:0:0:0:
475,192,230229,1,0,0:0:0:0:
182,192,230260,1,0,0:0:0:0:
36,192,230292,1,0,0:0:0:0:
329,192,230323,1,0,0:0:0:0:
182,192,230354,1,0,0:0:0:0:
329,192,230417,1,0,0:0:0:0:
36,192,230417,1,0,0:0:0:0:
475,192,230417,128,0,230510:0:0:0:0:
36,192,230510,128,0,230698:0:0:0:0:
182,192,230510,128,0,230604:0:0:0:0:
329,192,230604,128,0,230698:0:0:0:0:
475,192,230698,128,0,230792:0:0:0:0:
182,192,230698,128,0,230792:0:0:0:0:
36,192,230792,1,0,0:0:0:0:
329,192,230792,128,0,230885:0:0:0:0:
36,192,230885,1,0,0:0:0:0:
475,192,230885,128,0,231073:0:0:0:0:
182,192,230885,1,0,0:0:0:0:
182,192,230979,128,0,231073:0:0:0:0:
329,192,230979,128,0,231167:0:0:0:0:
475,192,231167,1,0,0:0:0:0:
182,192,231167,128,0,231260:0:0:0:0:
36,192,231167,128,0,231354:0:0:0:0:
329,192,231260,1,0,0:0:0:0:
475,192,231260,128,0,231448:0:0:0:0:
182,192,231354,128,0,231448:0:0:0:0:
329,192,231354,128,0,231542:0:0:0:0:
182,192,231542,1,0,0:0:0:0:
36,192,231542,1,0,0:0:0:0:
475,192,231542,1,0,0:0:0:0:
182,192,231635,1,0,0:0:0:0:
329,192,231635,1,0,0:0:0:0:
475,192,231729,128,0,231823:0:0:0:0:
36,192,231729,128,0,231917:0:0:0:0:
329,192,231729,128,0,231823:0:0:0:0:
182,192,231823,128,0,232010:0:0:0:0:
475,192,231917,1,0,0:0:0:0:
329,192,231917,1,0,0:0:0:0:
36,192,232010,128,0,232198:0:0:0:0:
329,192,232010,1,0,0:0:0:0:
475,192,232010,1,0,0:0:0:0:
329,192,232104,128,0,232198:0:0:0:0:
182,192,232104,128,0,232198:0:0:0:0:
475,192,232198,128,0,232292:0:0:0:0:
36,192,232292,1,0,0:0:0:0:
182,192,232292,1,0,0:0:0:0:
329,192,232292,128,0,232385:0:0:0:0:
475,192,232385,128,0,232573:0:0:0:0:
36,192,232385,1,0,0:0:0:0:
182,192,232479,128,0,232573:0:0:0:0:
329,192,232479,128,0,232667:0:0:0:0:
36,192,232573,128,0,232667:0:0:0:0:
475,192,232667,1,0,0:0:0:0:
182,192,232667,128,0,232760:0:0:0:0:
36,192,232760,128,0,232948:0:0:0:0:
475,192,232760,1,0,0:0:0:0:
329,192,232760,1,0,0:0:0:0:
182,192,232854,128,0,232948:0:0:0:0:
475,192,232854,128,0,233042:0:0:0:0:
329,192,232948,128,0,233042:0:0:0:0:
36,192,233042,1,0,0:0:0:0:
182,192,233042,1,0,0:0:0:0:
329,192,233135,1,0,0:0:0:0:
475,192,233135,1,0,0:0:0:0:
182,192,233229,1,0,0:0:0:0:
36,192,233323,128,0,233417:0:0:0:0:
329,192,233323,1,0,0:0:0:0:
182,192,233417,128,0,233510:0:0:0:0:
329,192,233417,1,0,0:0:0:0:
475,192,233417,1,0,0:0:0:0:
475,192,233510,128,0,233698:0:0:0:0:
329,192,233510,128,0,233604:0:0:0:0:
182,192,233604,128,0,233698:0:0:0:0:
329,192,233698,128,0,233792:0:0:0:0:
36,192,233792,1,0,0:0:0:0:
182,192,233792,1,0,0:0:0:0:
475,192,233792,128,0,233885:0:0:0:0:
36,192,233885,1,0,0:0:0:0:
329,192,233885,128,0,234073:0:0:0:0:
182,192,233885,1,0,0:0:0:0:
182,192,233979,128,0,234073:0:0:0:0:
36,192,234073,128,0,234167:0:0:0:0:
475,192,234167,1,0,0:0:0:0:
329,192,234167,1,0,0:0:0:0:
329,192,234260,1,0,0:0:0:0:
475,192,234260,1,0,0:0:0:0:
182,192,234260,128,0,234448:0:0:0:0:
36,192,234354,128,0,234448:0:0:0:0:
329,192,234354,128,0,234542:0:0:0:0:
475,192,234448,128,0,234542:0:0:0:0:
182,192,234542,1,0,0:0:0:0:
36,192,234542,1,0,0:0:0:0:
448,192,234729,1,0,0:0:0:0:
192,192,234729,1,0,0:0:0:0:
64,192,234729,1,0,0:0:0:0:
320,192,234776,1,0,0:0:0:0:
192,192,234823,1,0,0:0:0:0:
64,192,234823,1,0,0:0:0:0:
320,192,234870,1,0,0:0:0:0:
192,192,234917,1,0,0:0:0:0:
64,192,234917,1,0,0:0:0:0:
448,192,234917,1,0,0:0:0:0:
448,192,235104,1,0,0:0:0:0:
320,192,235104,1,0,0:0:0:0:
64,192,235104,1,0,0:0:0:0:
192,192,235151,1,0,0:0:0:0:
448,192,235198,1,0,0:0:0:0:
320,192,235198,1,0,0:0:0:0:
192,192,235245,1,0,0:0:0:0:
64,192,235292,1,0,0:0:0:0:
448,192,235292,1,0,0:0:0:0:
320,192,235292,1,0,0:0:0:0:
475,192,235479,1,0,0:0:0:0:
36,192,235479,1,0,0:0:0:0:
182,192,235479,1,0,0:0:0:0:
329,192,235573,1,0,0:0:0:0:
182,192,235573,1,0,0:0:0:0:
36,192,235667,1,0,0:0:0:0:
329,192,235667,1,0,0:0:0:0:
182,192,235667,1,0,0:0:0:0:
36,192,235760,1,0,0:0:0:0:
475,192,235760,1,0,0:0:0:0:
475,192,235854,1,0,0:0:0:0:
329,192,235854,1,0,0:0:0:0:
182,192,235854,1,0,0:0:0:0:
182,192,235948,1,0,0:0:0:0:
329,192,235948,1,0,0:0:0:0:
182,192,236042,1,0,0:0:0:0:
36,192,236042,1,0,0:0:0:0:
475,192,236042,1,0,0:0:0:0:
329,192,236088,1,0,0:0:0:0:
182,192,236135,1,0,0:0:0:0:
475,192,236182,1,0,0:0:0:0:
329,192,236229,1,0,0:0:0:0:
36,192,236229,1,0,0:0:0:0:
182,192,236323,1,0,0:0:0:0:
475,192,236417,1,0,0:0:0:0:
329,192,236417,1,0,0:0:0:0:
36,192,236417,1,0,0:0:0:0:
36,192,236510,1,0,0:0:0:0:
36,192,236604,1,0,0:0:0:0:
475,192,236604,1,0,0:0:0:0:
329,192,236604,1,0,0:0:0:0:
182,192,236604,1,0,0:0:0:0:
182,192,236698,1,0,0:0:0:0:
475,192,236792,1,0,0:0:0:0:
329,192,236792,1,0,0:0:0:0:
36,192,236885,1,0,0:0:0:0:
182,192,236885,1,0,0:0:0:0:
475,192,236979,1,0,0:0:0:0:
182,192,237073,1,0,0:0:0:0:
329,192,237073,1,0,0:0:0:0:
182,192,237260,1,0,0:0:0:0:
36,192,237260,1,0,0:0:0:0:
475,192,237354,1,0,0:0:0:0:
36,192,237354,1,0,0:0:0:0:
329,192,237354,1,0,0:0:0:0:
182,192,237401,1,0,0:0:0:0:
36,192,237448,1,0,0:0:0:0:
329,192,237495,1,0,0:0:0:0:
182,192,237542,1,0,0:0:0:0:
475,192,237542,1,0,0:0:0:0:
329,192,237588,1,0,0:0:0:0:
182,192,237635,1,0,0:0:0:0:
329,192,237682,1,0,0:0:0:0:
36,192,237729,1,0,0:0:0:0:
182,192,237729,1,0,0:0:0:0:
329,192,237823,1,0,0:0:0:0:
475,192,237823,1,0,0:0:0:0:
182,192,237917,1,0,0:0:0:0:
36,192,237917,1,0,0:0:0:0:
475,192,238010,1,0,0:0:0:0:
329,192,238010,1,0,0:0:0:0:
182,192,238198,1,0,0:0:0:0:
36,192,238198,1,0,0:0:0:0:
182,192,238292,1,0,0:0:0:0:
36,192,238292,1,0,0:0:0:0:
475,192,238292,1,0,0:0:0:0:
329,192,238292,1,0,0:0:0:0:
329,192,238385,1,0,0:0:0:0:
182,192,238479,1,0,0:0:0:0:
36,192,238573,1,0,0:0:0:0:
182,192,238667,1,0,0:0:0:0:
36,192,238667,1,0,0:0:0:0:
329,192,238760,1,0,0:0:0:0:
475,192,238854,1,0,0:0:0:0:
329,192,238854,1,0,0:0:0:0:
182,192,238948,1,0,0:0:0:0:
36,192,239042,1,0,0:0:0:0:
475,192,239042,1,0,0:0:0:0:
329,192,239042,1,0,0:0:0:0:
182,192,239088,1,0,0:0:0:0:
329,192,239135,1,0,0:0:0:0:
182,192,239182,1,0,0:0:0:0:
475,192,239229,1,0,0:0:0:0:
182,192,239323,1,0,0:0:0:0:
36,192,239417,1,0,0:0:0:0:
329,192,239417,1,0,0:0:0:0:
475,192,239510,1,0,0:0:0:0:
36,192,239604,1,0,0:0:0:0:
329,192,239604,1,0,0:0:0:0:
182,192,239651,1,0,0:0:0:0:
329,192,239698,1,0,0:0:0:0:
182,192,239745,1,0,0:0:0:0:
475,192,239792,1,0,0:0:0:0:
329,192,239792,1,0,0:0:0:0:
36,192,239885,1,0,0:0:0:0:
182,192,239885,1,0,0:0:0:0:
329,192,239979,1,0,0:0:0:0:
475,192,240073,1,0,0:0:0:0:
182,192,240073,1,0,0:0:0:0:
329,192,240167,1,0,0:0:0:0:
36,192,240167,1,0,0:0:0:0:
192,192,240260,1,0,0:0:0:0:
475,192,240354,128,0,240635:0:0:0:0:
329,192,240354,128,0,240635:0:0:0:0:
192,192,240354,128,0,240635:0:0:0:0:
64,192,240354,128,0,240635:0:0:0:0:
475,192,240729,1,0,0:0:0:0:
329,192,240729,1,0,0:0:0:0:
192,192,240729,1,0,0:0:0:0:
64,192,240729,1,0,0:0:0:0:
475,192,240823,128,0,240917:0:0:0:0:
329,192,240823,128,0,240917:0:0:0:0:
192,192,240823,128,0,240917:0:0:0:0:
64,192,240823,128,0,240917:0:0:0:0:
475,192,241010,1,0,0:0:0:0:
329,192,241010,1,0,0:0:0:0:
192,192,241010,1,0,0:0:0:0:
64,192,241010,1,0,0:0:0:0:
329,192,241104,128,0,241198:0:0:0:0:
475,192,241104,128,0,241198:0:0:0:0:
192,192,241104,128,0,241198:0:0:0:0:
64,192,241104,128,0,241198:0:0:0:0:
329,192,241292,1,0,0:0:0:0:
475,192,241292,1,0,0:0:0:0:
192,192,241292,1,0,0:0:0:0:
64,192,241292,1,0,0:0:0:0:
475,192,241385,128,0,241479:0:0:0:0:
329,192,241385,128,0,241479:0:0:0:0:
192,192,241385,128,0,241479:0:0:0:0:
64,192,241385,128,0,241479:0:0:0:0:
475,192,241573,1,0,0:0:0:0:
329,192,241573,1,0,0:0:0:0:
192,192,241573,1,0,0:0:0:0:
64,192,241573,1,0,0:0:0:0:
182,192,241667,1,0,0:0:0:0:
64,192,241667,1,0,0:0:0:0:
320,192,241667,1,0,0:0:0:0:
448,192,241667,1,0,0:0:0:0:
475,192,242042,1,0,0:0:0:0:
36,192,242042,128,0,242323:0:0:0:0:
182,192,242042,1,0,0:0:0:0:
320,192,242042,1,0,0:0:0:0:
182,192,242135,128,0,242229:0:0:0:0:
475,192,242135,128,0,242229:0:0:0:0:
329,192,242229,128,0,242323:0:0:0:0:
475,192,242323,128,0,242417:0:0:0:0:
182,192,242323,128,0,242417:0:0:0:0:
36,192,242417,1,0,0:0:0:0:
329,192,242417,128,0,242510:0:0:0:0:
475,192,242510,128,0,242604:0:0:0:0:
36,192,242510,128,0,242604:0:0:0:0:
182,192,242604,128,0,242698:0:0:0:0:
329,192,242604,1,0,0:0:0:0:
329,192,242698,128,0,242792:0:0:0:0:
475,192,242792,1,0,0:0:0:0:
182,192,242792,128,0,242885:0:0:0:0:
36,192,242792,128,0,243120:0:0:0:0:
475,192,242885,128,0,242979:0:0:0:0:
329,192,242979,128,0,243073:0:0:0:0:
182,192,242979,128,0,243120:0:0:0:0:
36,192,243167,1,0,0:0:0:0:
329,192,243167,128,0,243260:0:0:0:0:
182,192,243167,1,0,0:0:0:0:
475,192,243167,128,0,243495:0:0:0:0:
36,192,243260,128,0,243354:0:0:0:0:
182,192,243354,128,0,243448:0:0:0:0:
329,192,243354,128,0,243495:0:0:0:0:
475,192,243542,1,0,0:0:0:0:
329,192,243542,1,0,0:0:0:0:
36,192,243542,128,0,243729:0:0:0:0:
182,192,243542,128,0,243635:0:0:0:0:
475,192,243635,1,0,0:0:0:0:
182,192,243729,128,0,243823:0:0:0:0:
329,192,243729,128,0,243917:0:0:0:0:
475,192,243823,128,0,243917:0:0:0:0:
36,192,243917,1,0,0:0:0:0:
182,192,243917,1,0,0:0:0:0:
36,192,244010,1,0,0:0:0:0:
182,192,244010,1,0,0:0:0:0:
475,192,244010,128,0,244198:0:0:0:0:
329,192,244104,128,0,244198:0:0:0:0:
182,192,244104,128,0,244292:0:0:0:0:
36,192,244198,128,0,244292:0:0:0:0:
475,192,244292,1,0,0:0:0:0:
329,192,244292,1,0,0:0:0:0:
475,192,244385,1,0,0:0:0:0:
36,192,244385,1,0,0:0:0:0:
329,192,244385,1,0,0:0:0:0:
329,192,244479,1,0,0:0:0:0:
182,192,244479,1,0,0:0:0:0:
36,192,244573,1,0,0:0:0:0:
475,192,244573,1,0,0:0:0:0:
475,192,244667,1,0,0:0:0:0:
36,192,244667,1,0,0:0:0:0:
182,192,244667,128,0,245042:0:0:0:0:
329,192,244667,128,0,245042:0:0:0:0:
475,192,244854,1,0,0:0:0:0:
36,192,244854,1,0,0:0:0:0:
475,192,245042,1,0,0:0:0:0:
36,192,245042,1,0,0:0:0:0:
36,192,245135,1,0,0:0:0:0:
475,192,245135,1,0,0:0:0:0:
329,192,245229,1,0,0:0:0:0:
182,192,245229,1,0,0:0:0:0:
329,192,245323,1,0,0:0:0:0:
182,192,245323,1,0,0:0:0:0:
36,192,245417,1,0,0:0:0:0:
475,192,245417,128,0,245510:0:0:0:0:
182,192,245417,1,0,0:0:0:0:
36,192,245510,128,0,245698:0:0:0:0:
329,192,245510,128,0,245604:0:0:0:0:
182,192,245604,128,0,245698:0:0:0:0:
475,192,245604,128,0,245698:0:0:0:0:
329,192,245698,128,0,245792:0:0:0:0:
475,192,245792,1,0,0:0:0:0:
36,192,245792,128,0,245885:0:0:0:0:
182,192,245792,1,0,0:0:0:0:
475,192,245885,128,0,246073:0:0:0:0:
329,192,245885,1,0,0:0:0:0:
182,192,245885,128,0,246073:0:0:0:0:
36,192,245979,128,0,246073:0:0:0:0:
329,192,245979,128,0,246167:0:0:0:0:
182,192,246167,1,0,0:0:0:0:
36,192,246167,1,0,0:0:0:0:
475,192,246167,128,0,246260:0:0:0:0:
36,192,246260,128,0,246448:0:0:0:0:
329,192,246260,128,0,246354:0:0:0:0:
475,192,246354,128,0,246448:0:0:0:0:
182,192,246354,128,0,246542:0:0:0:0:
329,192,246448,1,0,0:0:0:0:
329,192,246542,1,0,0:0:0:0:
475,192,246542,1,0,0:0:0:0:
36,192,246542,1,0,0:0:0:0:
182,192,246635,128,0,246729:0:0:0:0:
36,192,246635,128,0,246729:0:0:0:0:
475,192,246729,1,0,0:0:0:0:
329,192,246729,1,0,0:0:0:0:
329,192,246823,128,0,246917:0:0:0:0:
475,192,246823,128,0,246917:0:0:0:0:
182,192,246823,1,0,0:0:0:0:
182,192,246917,128,0,247010:0:0:0:0:
36,192,246917,128,0,247010:0:0:0:0:
329,192,247010,1,0,0:0:0:0:
475,192,247010,1,0,0:0:0:0:
329,192,247104,128,0,247198:0:0:0:0:
475,192,247104,128,0,247198:0:0:0:0:
36,192,247104,1,0,0:0:0:0:
182,192,247104,1,0,0:0:0:0:
36,192,247198,128,0,247292:0:0:0:0:
182,192,247198,128,0,247292:0:0:0:0:
475,192,247292,1,0,0:0:0:0:
182,192,247385,1,0,0:0:0:0:
329,192,247385,128,0,247479:0:0:0:0:
475,192,247385,128,0,247479:0:0:0:0:
182,192,247479,128,0,247573:0:0:0:0:
36,192,247479,128,0,247573:0:0:0:0:
475,192,247573,1,0,0:0:0:0:
329,192,247573,1,0,0:0:0:0:
36,192,247667,1,0,0:0:0:0:
182,192,247667,1,0,0:0:0:0:
329,192,247667,128,0,247760:0:0:0:0:
475,192,247667,128,0,247854:0:0:0:0:
36,192,247760,128,0,247948:0:0:0:0:
182,192,247760,1,0,0:0:0:0:
329,192,247854,1,0,0:0:0:0:
182,192,247854,128,0,247948:0:0:0:0:
475,192,247948,1,0,0:0:0:0:
329,192,247948,1,0,0:0:0:0:
36,192,248042,1,0,0:0:0:0:
182,192,248042,1,0,0:0:0:0:
475,192,248042,128,0,248135:0:0:0:0:
329,192,248042,128,0,248229:0:0:0:0:
36,192,248135,1,0,0:0:0:0:
182,192,248135,128,0,248323:0:0:0:0:
475,192,248229,128,0,248323:0:0:0:0:
36,192,248229,128,0,248323:0:0:0:0:
329,192,248323,128,0,248417:0:0:0:0:
475,192,248417,1,0,0:0:0:0:
182,192,248417,128,0,248510:0:0:0:0:
36,192,248417,1,0,0:0:0:0:
475,192,248510,128,0,248698:0:0:0:0:
329,192,248604,128,0,248698:0:0:0:0:
36,192,248604,128,0,248698:0:0:0:0:
182,192,248698,128,0,248792:0:0:0:0:
36,192,248792,1,0,0:0:0:0:
329,192,248792,128,0,248885:0:0:0:0:
475,192,248792,128,0,248979:0:0:0:0:
36,192,248885,128,0,248979:0:0:0:0:
182,192,248979,128,0,249073:0:0:0:0:
475,192,249073,1,0,0:0:0:0:
329,192,249073,1,0,0:0:0:0:
36,192,249073,1,0,0:0:0:0:
475,192,249167,128,0,249213:0:0:0:0:
36,192,249167,128,0,249213:0:0:0:0:
182,192,249167,128,0,249307:0:0:0:0:
329,192,249167,128,0,249307:0:0:0:0:
36,192,249354,128,0,249588:0:0:0:0:
475,192,249354,128,0,249588:0:0:0:0:
182,192,249354,128,0,249401:0:0:0:0:
329,192,249354,128,0,249401:0:0:0:0:
182,192,249542,128,0,249682:0:0:0:0:
329,192,249542,128,0,249682:0:0:0:0:
36,192,249729,128,0,249776:0:0:0:0:
475,192,249729,128,0,249776:0:0:0:0:
182,192,249729,1,0,0:0:0:0:
329,192,249729,1,0,0:0:0:0:
36,192,249917,1,0,0:0:0:0:
182,192,249917,1,0,0:0:0:0:
475,192,249917,1,0,0:0:0:0:
329,192,249917,128,0,250245:0:0:0:0:
36,192,250010,128,0,250104:0:0:0:0:
182,192,250104,128,0,250198:0:0:0:0:
475,192,250104,128,0,250245:0:0:0:0:
36,192,250198,128,0,250292:0:0:0:0:
475,192,250292,1,0,0:0:0:0:
329,192,250292,1,0,0:0:0:0:
182,192,250292,128,0,250573:0:0:0:0:
475,192,250385,128,0,250479:0:0:0:0:
36,192,250479,128,0,250573:0:0:0:0:
329,192,250479,128,0,250573:0:0:0:0:
475,192,250573,128,0,250667:0:0:0:0:
182,192,250667,128,0,250995:0:0:0:0:
36,192,250667,1,0,0:0:0:0:
329,192,250667,128,0,250760:0:0:0:0:
475,192,250760,128,0,250854:0:0:0:0:
36,192,250854,128,0,250995:0:0:0:0:
329,192,250854,128,0,250948:0:0:0:0:
475,192,250948,128,0,251042:0:0:0:0:
36,192,251042,1,0,0:0:0:0:
182,192,251042,1,0,0:0:0:0:
320,192,251042,1,0,0:0:0:0:
475,192,251417,1,0,0:0:0:0:
36,192,251417,1,0,0:0:0:0:
329,192,251417,1,0,0:0:0:0:
182,192,251510,1,0,0:0:0:0:
329,192,251604,1,0,0:0:0:0:
64,192,251604,1,0,0:0:0:0:
182,192,251698,1,0,0:0:0:0:
448,192,251792,1,0,0:0:0:0:
64,192,251792,1,0,0:0:0:0:
192,192,252167,1,0,0:0:0:0:
64,192,252167,1,0,0:0:0:0:
448,192,252167,1,0,0:0:0:0:
320,192,252260,1,0,0:0:0:0:
192,192,252354,1,0,0:0:0:0:
64,192,252354,1,0,0:0:0:0:
320,192,252448,1,0,0:0:0:0:
64,192,252542,1,0,0:0:0:0:
448,192,252542,1,0,0:0:0:0:
475,192,252917,1,0,0:0:0:0:
36,192,252917,1,0,0:0:0:0:
192,192,252917,1,0,0:0:0:0:
320,192,253010,1,0,0:0:0:0:
182,192,253104,128,0,253198:0:0:0:0:
36,192,253104,128,0,253198:0:0:0:0:
329,192,253198,128,0,253292:0:0:0:0:
475,192,253198,128,0,253292:0:0:0:0:
182,192,253292,1,0,0:0:0:0:
36,192,253292,1,0,0:0:0:0:
475,192,253479,1,0,0:0:0:0:
182,192,253479,1,0,0:0:0:0:
182,192,253573,1,0,0:0:0:0:
36,192,253573,1,0,0:0:0:0:
329,192,253573,1,0,0:0:0:0:
36,192,253760,1,0,0:0:0:0:
329,192,253760,1,0,0:0:0:0:
182,192,253854,1,0,0:0:0:0:
329,192,253854,1,0,0:0:0:0:
475,192,253854,1,0,0:0:0:0:
475,192,254042,1,0,0:0:0:0:
36,192,254042,1,0,0:0:0:0:
182,192,254042,1,0,0:0:0:0:
329,192,254135,1,0,0:0:0:0:
64,192,254182,1,0,0:0:0:0:
192,192,254229,1,0,0:0:0:0:
448,192,254276,1,0,0:0:0:0:
320,192,254323,1,0,0:0:0:0:
64,192,254370,1,0,0:0:0:0:
192,192,254417,1,0,0:0:0:0:
448,192,254463,1,0,0:0:0:0:
320,192,254510,1,0,0:0:0:0:
64,192,254557,1,0,0:0:0:0:
192,192,254604,1,0,0:0:0:0:
448,192,254651,1,0,0:0:0:0:
320,192,254698,1,0,0:0:0:0:
64,192,254745,1,0,0:0:0:0:
192,192,254792,1,0,0:0:0:0:
448,192,254838,1,0,0:0:0:0:
320,192,254885,1,0,0:0:0:0:
64,192,254932,1,0,0:0:0:0:
192,192,254979,1,0,0:0:0:0:
448,192,255026,1,0,0:0:0:0:
320,192,255073,1,0,0:0:0:0:
64,192,255120,1,0,0:0:0:0:
192,192,255167,1,0,0:0:0:0:
448,192,255225,1,0,0:0:0:0:
320,192,255272,1,0,0:0:0:0:
64,192,255319,1,0,0:0:0:0:
192,192,255366,1,0,0:0:0:0:
448,192,255413,1,0,0:0:0:0:
320,192,255459,1,0,0:0:0:0:
64,192,255495,1,0,0:0:0:0:
192,192,255542,1,0,0:0:0:0:
320,192,255604,1,0,0:0:0:0:
448,192,255667,1,0,0:0:0:0:
192,192,255729,1,0,0:0:0:0:
320,192,255792,1,0,0:0:0:0:
64,192,255854,1,0,0:0:0:0:
192,192,255917,1,0,0:0:0:0:
448,192,255979,1,0,0:0:0:0:
320,192,256042,1,0,0:0:0:0:
192,192,256104,1,0,0:0:0:0:
64,192,256167,1,0,0:0:0:0:
320,192,256229,1,0,0:0:0:0:
192,192,256292,1,0,0:0:0:0:
448,192,256354,1,0,0:0:0:0:
320,192,256417,1,0,0:0:0:0:
192,192,256479,1,0,0:0:0:0:
64,192,256542,1,0,0:0:0:0:
448,192,256604,1,0,0:0:0:0:
320,192,256667,1,0,0:0:0:0:
448,192,256729,1,0,0:0:0:0:
320,192,256792,1,0,0:0:0:0:
448,192,256854,1,0,0:0:0:0:
64,192,256854,1,0,0:0:0:0:
192,192,256917,1,0,0:0:0:0:
64,192,256979,1,0,0:0:0:0:
475,192,257042,1,0,0:0:0:0:
320,192,257042,1,0,0:0:0:0:
192,192,257042,1,0,0:0:0:0:
320,192,257229,1,0,0:0:0:0:
475,192,257229,1,0,0:0:0:0:
192,192,257229,1,0,0:0:0:0:
475,192,257417,1,0,0:0:0:0:
329,192,257510,1,0,0:0:0:0:
475,192,257604,1,0,0:0:0:0:
182,192,257698,1,0,0:0:0:0:
329,192,257792,1,0,0:0:0:0:
182,192,257885,1,0,0:0:0:0:
329,192,257979,1,0,0:0:0:0:
36,192,258073,1,0,0:0:0:0:
182,192,258167,1,0,0:0:0:0:
36,192,258260,1,0,0:0:0:0:
475,192,258354,1,0,0:0:0:0:
329,192,258448,1,0,0:0:0:0:
192,192,258542,1,0,0:0:0:0:
64,192,258542,1,0,0:0:0:0:
320,192,258635,1,0,0:0:0:0:
192,192,258729,1,0,0:0:0:0:
64,192,258729,1,0,0:0:0:0:
320,192,258823,1,0,0:0:0:0:
448,192,258823,1,0,0:0:0:0:
192,192,258917,1,0,0:0:0:0:
320,192,259010,1,0,0:0:0:0:
448,192,259010,1,0,0:0:0:0:
192,192,259104,1,0,0:0:0:0:
64,192,259104,1,0,0:0:0:0:
320,192,259198,1,0,0:0:0:0:
192,192,259292,1,0,0:0:0:0:
64,192,259292,1,0,0:0:0:0:
320,192,259385,1,0,0:0:0:0:
448,192,259385,1,0,0:0:0:0:
192,192,259479,1,0,0:0:0:0:
320,192,259573,1,0,0:0:0:0:
448,192,259573,1,0,0:0:0:0:
192,192,259667,1,0,0:0:0:0:
64,192,259667,1,0,0:0:0:0:
182,192,259854,1,0,0:0:0:0:
475,192,260042,1,0,0:0:0:0:
329,192,260042,1,0,0:0:0:0:
36,192,260042,1,0,0:0:0:0:
182,192,260042,1,0,0:0:0:0:
329,192,260135,1,0,0:0:0:0:
182,192,260135,1,0,0:0:0:0:
475,192,260229,1,0,0:0:0:0:
36,192,260229,1,0,0:0:0:0:
329,192,260323,1,0,0:0:0:0:
182,192,260323,1,0,0:0:0:0:
475,192,260417,1,0,0:0:0:0:
329,192,260417,1,0,0:0:0:0:
36,192,260417,1,0,0:0:0:0:
475,192,260510,1,0,0:0:0:0:
329,192,260510,1,0,0:0:0:0:
182,192,260604,1,0,0:0:0:0:
36,192,260604,1,0,0:0:0:0:
475,192,260604,1,0,0:0:0:0:
36,192,260698,1,0,0:0:0:0:
182,192,260698,1,0,0:0:0:0:
329,192,260792,1,0,0:0:0:0:
475,192,260792,1,0,0:0:0:0:
36,192,260792,1,0,0:0:0:0:
329,192,260885,1,0,0:0:0:0:
182,192,260885,1,0,0:0:0:0:
475,192,260979,1,0,0:0:0:0:
36,192,260979,1,0,0:0:0:0:
182,192,261073,1,0,0:0:0:0:
329,192,261073,1,0,0:0:0:0:
475,192,261542,1,0,0:0:0:0:
36,192,261542,1,0,0:0:0:0:
182,192,261542,1,0,0:0:0:0:
329,192,261542,1,0,0:0:0:0:
329,192,261635,1,0,0:0:0:0:
182,192,261635,1,0,0:0:0:0:
36,192,261729,1,0,0:0:0:0:
475,192,261729,1,0,0:0:0:0:
329,192,261823,1,0,0:0:0:0:
182,192,261823,1,0,0:0:0:0:
36,192,261917,1,0,0:0:0:0:
475,192,261917,1,0,0:0:0:0:
182,192,261917,1,0,0:0:0:0:
36,192,262010,1,0,0:0:0:0:
182,192,262010,1,0,0:0:0:0:
475,192,262104,1,0,0:0:0:0:
329,192,262104,1,0,0:0:0:0:
36,192,262104,1,0,0:0:0:0:
329,192,262198,1,0,0:0:0:0:
475,192,262198,1,0,0:0:0:0:
475,192,262292,1,0,0:0:0:0:
36,192,262292,1,0,0:0:0:0:
182,192,262292,1,0,0:0:0:0:
182,192,262385,1,0,0:0:0:0:
329,192,262385,1,0,0:0:0:0:
36,192,262479,1,0,0:0:0:0:
475,192,262479,1,0,0:0:0:0:
329,192,262573,1,0,0:0:0:0:
182,192,262573,1,0,0:0:0:0:
64,192,262667,1,0,0:0:0:0:
448,192,262667,128,0,263042:0:0:0:0:
36,192,263042,1,0,0:0:0:0:
182,192,263088,1,0,0:0:0:0:
329,192,263135,1,0,0:0:0:0:
182,192,263182,1,0,0:0:0:0:
36,192,263229,1,0,0:0:0:0:
475,192,263229,1,0,0:0:0:0:
329,192,263276,1,0,0:0:0:0:
182,192,263323,1,0,0:0:0:0:
475,192,263370,1,0,0:0:0:0:
36,192,263417,1,0,0:0:0:0:
329,192,263417,1,0,0:0:0:0:
182,192,263463,1,0,0:0:0:0:
36,192,263510,1,0,0:0:0:0:
329,192,263557,1,0,0:0:0:0:
182,192,263604,1,0,0:0:0:0:
475,192,263604,1,0,0:0:0:0:
329,192,263651,1,0,0:0:0:0:
182,192,263698,1,0,0:0:0:0:
36,192,263745,1,0,0:0:0:0:
475,192,263792,1,0,0:0:0:0:
36,192,263838,1,0,0:0:0:0:
329,192,263885,1,0,0:0:0:0:
182,192,263932,1,0,0:0:0:0:
475,192,263979,1,0,0:0:0:0:
36,192,264026,1,0,0:0:0:0:
320,192,264073,1,0,0:0:0:0:
192,192,264120,1,0,0:0:0:0:
448,192,264167,1,0,0:0:0:0:
64,192,264213,1,0,0:0:0:0:
448,192,264260,1,0,0:0:0:0:
64,192,264307,1,0,0:0:0:0:
448,192,264354,1,0,0:0:0:0:
320,192,264354,1,0,0:0:0:0:
192,192,264401,1,0,0:0:0:0:
64,192,264401,1,0,0:0:0:0:
320,192,264448,1,0,0:0:0:0:
448,192,264448,1,0,0:0:0:0:
192,192,264495,1,0,0:0:0:0:
64,192,264495,1,0,0:0:0:0:
448,192,264542,1,0,0:0:0:0:
36,192,264588,1,0,0:0:0:0:
182,192,264635,1,0,0:0:0:0:
329,192,264682,1,0,0:0:0:0:
475,192,264729,1,0,0:0:0:0:
36,192,264776,1,0,0:0:0:0:
192,192,264823,1,0,0:0:0:0:
448,192,264870,1,0,0:0:0:0:
329,192,264917,1,0,0:0:0:0:
182,192,264963,1,0,0:0:0:0:
329,192,265010,1,0,0:0:0:0:
182,192,265057,1,0,0:0:0:0:
475,192,265104,1,0,0:0:0:0:
36,192,265151,1,0,0:0:0:0:
475,192,265198,1,0,0:0:0:0:
36,192,265245,1,0,0:0:0:0:
329,192,265292,1,0,0:0:0:0:
475,192,265292,1,0,0:0:0:0:
182,192,265385,1,0,0:0:0:0:
36,192,265385,1,0,0:0:0:0:
329,192,265479,1,0,0:0:0:0:
475,192,265479,1,0,0:0:0:0:
182,192,265573,1,0,0:0:0:0:
36,192,265573,1,0,0:0:0:0:
320,192,265573,1,0,0:0:0:0:
329,192,265667,1,0,0:0:0:0:
475,192,265667,1,0,0:0:0:0:
64,192,265667,1,0,0:0:0:0:
329,192,265854,1,0,0:0:0:0:
182,192,265854,1,0,0:0:0:0:
475,192,266042,1,0,0:0:0:0:
36,192,266042,1,0,0:0:0:0:
182,192,266042,1,0,0:0:0:0:
329,192,266042,1,0,0:0:0:0:
329,192,266135,1,0,0:0:0:0:
475,192,266135,1,0,0:0:0:0:
182,192,266229,1,0,0:0:0:0:
36,192,266229,1,0,0:0:0:0:
329,192,266323,1,0,0:0:0:0:
475,192,266323,1,0,0:0:0:0:
182,192,266417,1,0,0:0:0:0:
36,192,266417,1,0,0:0:0:0:
475,192,266417,1,0,0:0:0:0:
329,192,266417,1,0,0:0:0:0:
36,192,266510,1,0,0:0:0:0:
182,192,266510,1,0,0:0:0:0:
475,192,266604,1,0,0:0:0:0:
329,192,266604,1,0,0:0:0:0:
182,192,266698,1,0,0:0:0:0:
36,192,266698,1,0,0:0:0:0:
475,192,266792,1,0,0:0:0:0:
329,192,266792,1,0,0:0:0:0:
36,192,266792,1,0,0:0:0:0:
182,192,266792,1,0,0:0:0:0:
475,192,266885,1,0,0:0:0:0:
329,192,266885,1,0,0:0:0:0:
36,192,266979,1,0,0:0:0:0:
182,192,266979,1,0,0:0:0:0:
475,192,267073,1,0,0:0:0:0:
329,192,267073,1,0,0:0:0:0:
475,192,267167,1,0,0:0:0:0:
329,192,267167,1,0,0:0:0:0:
182,192,267167,1,0,0:0:0:0:
36,192,267167,1,0,0:0:0:0:
36,192,267260,1,0,0:0:0:0:
182,192,267260,1,0,0:0:0:0:
475,192,267354,1,0,0:0:0:0:
329,192,267354,1,0,0:0:0:0:
36,192,267448,1,0,0:0:0:0:
182,192,267448,1,0,0:0:0:0:
182,192,267542,1,0,0:0:0:0:
36,192,267542,1,0,0:0:0:0:
475,192,267542,1,0,0:0:0:0:
329,192,267542,1,0,0:0:0:0:
329,192,267635,1,0,0:0:0:0:
475,192,267729,1,0,0:0:0:0:
36,192,267729,1,0,0:0:0:0:
182,192,267729,1,0,0:0:0:0:
475,192,267823,1,0,0:0:0:0:
36,192,267823,1,0,0:0:0:0:
329,192,267823,1,0,0:0:0:0:
475,192,267917,1,0,0:0:0:0:
36,192,267917,1,0,0:0:0:0:
329,192,267917,1,0,0:0:0:0:
182,192,267917,1,0,0:0:0:0:
329,192,268010,1,0,0:0:0:0:
182,192,268010,1,0,0:0:0:0:
36,192,268104,1,0,0:0:0:0:
475,192,268104,1,0,0:0:0:0:
475,192,268198,1,0,0:0:0:0:
329,192,268198,1,0,0:0:0:0:
329,192,268292,1,0,0:0:0:0:
182,192,268292,1,0,0:0:0:0:
36,192,268292,1,0,0:0:0:0:
475,192,268292,1,0,0:0:0:0:
182,192,268385,1,0,0:0:0:0:
329,192,268479,1,0,0:0:0:0:
329,192,268573,1,0,0:0:0:0:
182,192,268573,1,0,0:0:0:0:
36,192,268573,1,0,0:0:0:0:
475,192,268573,1,0,0:0:0:0:
182,192,268667,1,0,0:0:0:0:
329,192,268760,1,0,0:0:0:0:
329,192,268854,1,0,0:0:0:0:
182,192,268854,1,0,0:0:0:0:
36,192,268854,1,0,0:0:0:0:
475,192,268854,1,0,0:0:0:0:
182,192,268948,1,0,0:0:0:0:
475,192,269042,1,0,0:0:0:0:
329,192,269042,1,0,0:0:0:0:
182,192,269042,1,0,0:0:0:0:
36,192,269042,1,0,0:0:0:0:
329,192,269229,128,0,269417:0:0:0:0:
182,192,269417,1,0,0:0:0:0:
36,192,269417,1,0,0:0:0:0:
475,192,269417,1,0,0:0:0:0:
182,192,269604,128,0,269651:0:0:0:0:
182,192,269698,1,0,0:0:0:0:
475,192,269792,1,0,0:0:0:0:
329,192,269792,1,0,0:0:0:0:
36,192,269792,1,0,0:0:0:0:
182,192,269979,128,0,270167:0:0:0:0:
36,192,270167,1,0,0:0:0:0:
475,192,270167,1,0,0:0:0:0:
329,192,270167,1,0,0:0:0:0:
475,192,270354,1,0,0:0:0:0:
329,192,270401,1,0,0:0:0:0:
36,192,270448,1,0,0:0:0:0:
182,192,270495,1,0,0:0:0:0:
475,192,270542,1,0,0:0:0:0:
329,192,270542,1,0,0:0:0:0:
36,192,270542,1,0,0:0:0:0:
182,192,270635,1,0,0:0:0:0:
329,192,270729,1,0,0:0:0:0:
182,192,270823,1,0,0:0:0:0:
475,192,270917,1,0,0:0:0:0:
36,192,270917,1,0,0:0:0:0:
329,192,270917,1,0,0:0:0:0:
64,192,271010,1,0,0:0:0:0:
329,192,271104,1,0,0:0:0:0:
475,192,271198,1,0,0:0:0:0:
192,192,271292,1,0,0:0:0:0:
182,192,271385,1,0,0:0:0:0:
329,192,271479,1,0,0:0:0:0:
182,192,271573,1,0,0:0:0:0:
475,192,271667,1,0,0:0:0:0:
36,192,271667,1,0,0:0:0:0:
329,192,271760,1,0,0:0:0:0:
182,192,271854,1,0,0:0:0:0:
475,192,271854,1,0,0:0:0:0:
329,192,271948,1,0,0:0:0:0:
36,192,271948,1,0,0:0:0:0:
36,192,272042,1,0,0:0:0:0:
475,192,272042,1,0,0:0:0:0:
182,192,272042,1,0,0:0:0:0:
36,192,272167,1,0,0:0:0:0:
36,192,272292,1,0,0:0:0:0:
475,192,272417,1,0,0:0:0:0:
36,192,272417,1,0,0:0:0:0:
329,192,272417,1,0,0:0:0:0:
182,192,272417,1,0,0:0:0:0:
475,192,272542,1,0,0:0:0:0:
182,192,272542,1,0,0:0:0:0:
329,192,272667,1,0,0:0:0:0:
182,192,272667,1,0,0:0:0:0:
36,192,272792,1,0,0:0:0:0:
475,192,272792,1,0,0:0:0:0:
329,192,272792,1,0,0:0:0:0:
182,192,272792,1,0,0:0:0:0:
182,192,272917,1,0,0:0:0:0:
329,192,272917,1,0,0:0:0:0:
475,192,272917,1,0,0:0:0:0:
329,192,273042,1,0,0:0:0:0:
475,192,273042,1,0,0:0:0:0:
36,192,273042,1,0,0:0:0:0:
182,192,273167,1,0,0:0:0:0:
329,192,273167,1,0,0:0:0:0:
475,192,273167,1,0,0:0:0:0:
36,192,273167,1,0,0:0:0:0:
182,192,273292,1,0,0:0:0:0:
475,192,273292,1,0,0:0:0:0:
329,192,273292,1,0,0:0:0:0:
329,192,273417,1,0,0:0:0:0:
36,192,273417,1,0,0:0:0:0:
182,192,273417,1,0,0:0:0:0:
475,192,273542,1,0,0:0:0:0:
182,192,273542,1,0,0:0:0:0:
36,192,273542,1,0,0:0:0:0:
329,192,273542,1,0,0:0:0:0:
329,192,273667,1,0,0:0:0:0:
182,192,273667,1,0,0:0:0:0:
36,192,273667,1,0,0:0:0:0:
182,192,273792,1,0,0:0:0:0:
329,192,273792,1,0,0:0:0:0:
475,192,273792,1,0,0:0:0:0:
475,192,273917,1,0,0:0:0:0:
329,192,273917,1,0,0:0:0:0:
36,192,273917,1,0,0:0:0:0:
182,192,273917,1,0,0:0:0:0:
329,192,274042,1,0,0:0:0:0:
475,192,274042,1,0,0:0:0:0:
329,192,274167,1,0,0:0:0:0:
182,192,274167,1,0,0:0:0:0:
182,192,274292,1,0,0:0:0:0:
36,192,274292,1,0,0:0:0:0:
475,192,274292,1,0,0:0:0:0:
329,192,274292,1,0,0:0:0:0:
475,192,274479,1,0,0:0:0:0:
36,192,274479,1,0,0:0:0:0:
329,192,274479,1,0,0:0:0:0:
182,192,274573,1,0,0:0:0:0:
329,192,274667,1,0,0:0:0:0:
329,192,274760,1,0,0:0:0:0:
36,192,274854,1,0,0:0:0:0:
36,192,274948,1,0,0:0:0:0:
475,192,275042,1,0,0:0:0:0:
329,192,275042,1,0,0:0:0:0:
182,192,275042,1,0,0:0:0:0:
329,192,275135,1,0,0:0:0:0:
475,192,275229,1,0,0:0:0:0:
329,192,275229,1,0,0:0:0:0:
182,192,275229,1,0,0:0:0:0:
36,192,275229,1,0,0:0:0:0:
182,192,275323,1,0,0:0:0:0:
36,192,275323,1,0,0:0:0:0:
329,192,275417,1,0,0:0:0:0:
329,192,275510,1,0,0:0:0:0:
36,192,275510,1,0,0:0:0:0:
475,192,275510,1,0,0:0:0:0:
182,192,275510,1,0,0:0:0:0:
329,192,275604,1,0,0:0:0:0:
475,192,275604,1,0,0:0:0:0:
182,192,275698,1,0,0:0:0:0:
182,192,275792,1,0,0:0:0:0:
36,192,275792,1,0,0:0:0:0:
475,192,275792,1,0,0:0:0:0:
329,192,275792,1,0,0:0:0:0:
182,192,275885,1,0,0:0:0:0:
36,192,275885,1,0,0:0:0:0:
475,192,275979,1,0,0:0:0:0:
329,192,276073,1,0,0:0:0:0:
475,192,276073,1,0,0:0:0:0:
182,192,276073,1,0,0:0:0:0:
36,192,276073,1,0,0:0:0:0:
329,192,276167,1,0,0:0:0:0:
475,192,276167,1,0,0:0:0:0:
36,192,276260,1,0,0:0:0:0:
182,192,276354,1,0,0:0:0:0:
36,192,276354,1,0,0:0:0:0:
329,192,276354,1,0,0:0:0:0:
475,192,276354,1,0,0:0:0:0:
182,192,276448,1,0,0:0:0:0:
36,192,276448,1,0,0:0:0:0:
475,192,276542,1,0,0:0:0:0:
329,192,276542,1,0,0:0:0:0:
182,192,276635,1,0,0:0:0:0:
36,192,276635,1,0,0:0:0:0:
475,192,276729,1,0,0:0:0:0:
329,192,276729,1,0,0:0:0:0:
182,192,276823,1,0,0:0:0:0:
36,192,276823,1,0,0:0:0:0:
329,192,276917,1,0,0:0:0:0:
475,192,276917,1,0,0:0:0:0:
182,192,277010,1,0,0:0:0:0:
36,192,277010,1,0,0:0:0:0:
329,192,277104,1,0,0:0:0:0:
475,192,277104,1,0,0:0:0:0:
182,192,277198,1,0,0:0:0:0:
36,192,277198,1,0,0:0:0:0:
329,192,277292,1,0,0:0:0:0:
448,192,277292,1,0,0:0:0:0:
320,192,277385,1,0,0:0:0:0:
192,192,277385,1,0,0:0:0:0:
475,192,277479,1,0,0:0:0:0:
182,192,277573,1,0,0:0:0:0:
36,192,277573,1,0,0:0:0:0:
329,192,277667,1,0,0:0:0:0:
475,192,277713,1,0,0:0:0:0:
182,192,277760,1,0,0:0:0:0:
36,192,277807,1,0,0:0:0:0:
329,192,277854,1,0,0:0:0:0:
182,192,277901,1,0,0:0:0:0:
475,192,277948,1,0,0:0:0:0:
36,192,277995,1,0,0:0:0:0:
329,192,278042,1,0,0:0:0:0:
182,192,278042,1,0,0:0:0:0:
329,192,278229,1,0,0:0:0:0:
182,192,278229,1,0,0:0:0:0:
475,192,278417,1,0,0:0:0:0:
36,192,278417,1,0,0:0:0:0:
475,192,278581,1,0,0:0:0:0:
36,192,278581,1,0,0:0:0:0:
36,192,278709,1,0,0:0:0:0:
475,192,278709,1,0,0:0:0:0:
329,192,278827,1,0,0:0:0:0:
182,192,278827,1,0,0:0:0:0:
475,192,278920,1,0,0:0:0:0:
36,192,278920,1,0,0:0:0:0:
329,192,279002,1,0,0:0:0:0:
182,192,279002,1,0,0:0:0:0:
475,192,279084,1,0,0:0:0:0:
36,192,279084,1,0,0:0:0:0:
329,192,279155,1,0,0:0:0:0:
182,192,279155,1,0,0:0:0:0:
475,192,279225,1,0,0:0:0:0:
36,192,279225,1,0,0:0:0:0:
329,192,279284,1,0,0:0:0:0:
182,192,279284,1,0,0:0:0:0:
475,192,279342,1,0,0:0:0:0:
36,192,279342,1,0,0:0:0:0:
182,192,279366,1,0,0:0:0:0:
329,192,279413,1,0,0:0:0:0:
36,192,279448,1,0,0:0:0:0:
475,192,279459,1,0,0:0:0:0:
182,192,279479,1,0,0:0:0:0:
329,192,279510,1,0,0:0:0:0:
475,192,279542,1,0,0:0:0:0:
36,192,279542,1,0,0:0:0:0:
36,192,279729,1,0,0:0:0:0:
182,192,279729,1,0,0:0:0:0:
36,192,280104,1,0,0:0:0:0:
182,192,280151,1,0,0:0:0:0:
36,192,280198,1,0,0:0:0:0:
182,192,280245,1,0,0:0:0:0:
329,192,280292,1,0,0:0:0:0:
475,192,280292,1,0,0:0:0:0:
329,192,280385,1,0,0:0:0:0:
475,192,280385,1,0,0:0:0:0:
475,192,280573,1,0,0:0:0:0:
329,192,280573,1,0,0:0:0:0:
192,192,280573,1,0,0:0:0:0:
182,192,280854,128,0,281042:0:0:0:0:
475,192,281042,1,0,0:0:0:0:
329,192,281042,1,0,0:0:0:0:
36,192,281042,1,0,0:0:0:0:
475,192,281135,1,0,0:0:0:0:
329,192,281135,1,0,0:0:0:0:
182,192,281229,1,0,0:0:0:0:
36,192,281229,1,0,0:0:0:0:
182,192,281323,1,0,0:0:0:0:
329,192,281323,1,0,0:0:0:0:
475,192,281323,1,0,0:0:0:0:
475,192,281417,1,0,0:0:0:0:
36,192,281417,1,0,0:0:0:0:
329,192,281417,1,0,0:0:0:0:
182,192,281417,1,0,0:0:0:0:
182,192,281510,1,0,0:0:0:0:
36,192,281510,1,0,0:0:0:0:
475,192,281604,1,0,0:0:0:0:
329,192,281604,1,0,0:0:0:0:
329,192,281698,1,0,0:0:0:0:
182,192,281698,1,0,0:0:0:0:
36,192,281698,1,0,0:0:0:0:
475,192,281792,1,0,0:0:0:0:
182,192,281792,1,0,0:0:0:0:
36,192,281792,1,0,0:0:0:0:
329,192,281792,1,0,0:0:0:0:
475,192,281885,1,0,0:0:0:0:
329,192,281885,1,0,0:0:0:0:
182,192,281979,1,0,0:0:0:0:
36,192,281979,1,0,0:0:0:0:
475,192,282073,1,0,0:0:0:0:
329,192,282073,1,0,0:0:0:0:
36,192,282073,1,0,0:0:0:0:
475,192,282167,1,0,0:0:0:0:
329,192,282167,1,0,0:0:0:0:
182,192,282167,1,0,0:0:0:0:
36,192,282167,1,0,0:0:0:0:
182,192,282260,1,0,0:0:0:0:
36,192,282260,1,0,0:0:0:0:
329,192,282354,1,0,0:0:0:0:
475,192,282354,1,0,0:0:0:0:
36,192,282448,1,0,0:0:0:0:
182,192,282448,1,0,0:0:0:0:
475,192,282448,1,0,0:0:0:0:
182,192,282542,1,0,0:0:0:0:
36,192,282542,1,0,0:0:0:0:
329,192,282542,1,0,0:0:0:0:
475,192,282542,1,0,0:0:0:0:
329,192,282635,1,0,0:0:0:0:
475,192,282635,1,0,0:0:0:0:
36,192,282729,1,0,0:0:0:0:
182,192,282729,1,0,0:0:0:0:
475,192,282776,1,0,0:0:0:0:
329,192,282823,1,0,0:0:0:0:
36,192,282870,1,0,0:0:0:0:
475,192,282917,1,0,0:0:0:0:
182,192,282917,1,0,0:0:0:0:
329,192,282963,1,0,0:0:0:0:
182,192,283010,1,0,0:0:0:0:
36,192,283057,1,0,0:0:0:0:
475,192,283104,1,0,0:0:0:0:
329,192,283104,1,0,0:0:0:0:
182,192,283151,1,0,0:0:0:0:
36,192,283198,1,0,0:0:0:0:
329,192,283198,1,0,0:0:0:0:
182,192,283245,1,0,0:0:0:0:
475,192,283292,1,0,0:0:0:0:
36,192,283292,1,0,0:0:0:0:
329,192,283385,1,0,0:0:0:0:
182,192,283385,1,0,0:0:0:0:
36,192,283479,1,0,0:0:0:0:
475,192,283479,1,0,0:0:0:0:
182,192,283573,1,0,0:0:0:0:
36,192,283667,1,0,0:0:0:0:
475,192,283667,1,0,0:0:0:0:
329,192,283667,128,0,284042:0:0:0:0:
36,192,284042,1,0,0:0:0:0:
475,192,284042,1,0,0:0:0:0:
182,192,284042,1,0,0:0:0:0:
329,192,284292,1,0,0:0:0:0:
182,192,284292,1,0,0:0:0:0:
36,192,284292,1,0,0:0:0:0:
475,192,284417,1,0,0:0:0:0:
182,192,284542,1,0,0:0:0:0:
36,192,284542,1,0,0:0:0:0:
329,192,284542,1,0,0:0:0:0:
475,192,284542,1,0,0:0:0:0:
475,192,284792,1,0,0:0:0:0:
329,192,284792,1,0,0:0:0:0:
475,192,284917,128,0,285042:0:0:0:0:
329,192,285042,1,0,0:0:0:0:
182,192,285042,1,0,0:0:0:0:
36,192,285042,1,0,0:0:0:0:
182,192,285292,1,0,0:0:0:0:
329,192,285542,1,0,0:0:0:0:
182,192,285542,1,0,0:0:0:0:
36,192,285542,1,0,0:0:0:0:
475,192,285792,1,0,0:0:0:0:
192,192,285792,1,0,0:0:0:0:
320,192,285917,1,0,0:0:0:0:
329,192,286042,1,0,0:0:0:0:
182,192,286042,1,0,0:0:0:0:
36,192,286042,1,0,0:0:0:0:
475,192,286042,1,0,0:0:0:0:
182,192,286292,1,0,0:0:0:0:
329,192,286292,1,0,0:0:0:0:
36,192,286542,1,0,0:0:0:0:
329,192,286542,128,0,286667:0:0:0:0:
475,192,286667,128,0,286854:0:0:0:0:
64,192,286854,1,0,0:0:0:0:
192,192,286854,1,0,0:0:0:0:
329,192,287042,1,0,0:0:0:0:
36,192,287042,1,0,0:0:0:0:
475,192,287042,1,0,0:0:0:0:
36,192,287229,1,0,0:0:0:0:
182,192,287229,1,0,0:0:0:0:
329,192,287276,1,0,0:0:0:0:
475,192,287276,1,0,0:0:0:0:
36,192,287323,1,0,0:0:0:0:
182,192,287323,1,0,0:0:0:0:
329,192,287370,1,0,0:0:0:0:
36,192,287417,1,0,0:0:0:0:
182,192,287417,1,0,0:0:0:0:
475,192,287417,1,0,0:0:0:0:
475,192,287604,1,0,0:0:0:0:
329,192,287604,1,0,0:0:0:0:
182,192,287651,1,0,0:0:0:0:
36,192,287651,1,0,0:0:0:0:
329,192,287698,1,0,0:0:0:0:
475,192,287698,1,0,0:0:0:0:
182,192,287745,1,0,0:0:0:0:
36,192,287792,1,0,0:0:0:0:
475,192,287792,1,0,0:0:0:0:
329,192,287792,1,0,0:0:0:0:
475,192,287979,1,0,0:0:0:0:
36,192,287979,1,0,0:0:0:0:
329,192,287979,1,0,0:0:0:0:
182,192,287979,1,0,0:0:0:0:
182,192,288073,1,0,0:0:0:0:
36,192,288073,1,0,0:0:0:0:
475,192,288073,1,0,0:0:0:0:
329,192,288260,1,0,0:0:0:0:
475,192,288260,1,0,0:0:0:0:
182,192,288260,1,0,0:0:0:0:
36,192,288260,1,0,0:0:0:0:
475,192,288354,1,0,0:0:0:0:
36,192,288354,1,0,0:0:0:0:
182,192,288448,1,0,0:0:0:0:
329,192,288448,1,0,0:0:0:0:
475,192,288542,1,0,0:0:0:0:
329,192,288542,1,0,0:0:0:0:
182,192,288542,1,0,0:0:0:0:
36,192,288542,1,0,0:0:0:0:
36,192,288635,1,0,0:0:0:0:
320,192,288635,1,0,0:0:0:0:
475,192,288729,1,0,0:0:0:0:
64,192,288729,1,0,0:0:0:0:
320,192,288823,1,0,0:0:0:0:
475,192,288917,1,0,0:0:0:0:
192,192,288917,1,0,0:0:0:0:
64,192,289010,1,0,0:0:0:0:
448,192,289010,1,0,0:0:0:0:
192,192,289104,1,0,0:0:0:0:
320,192,289198,1,0,0:0:0:0:
64,192,289198,1,0,0:0:0:0:
36,192,289292,1,0,0:0:0:0:
320,192,289385,1,0,0:0:0:0:
182,192,289479,1,0,0:0:0:0:
448,192,289573,1,0,0:0:0:0:
182,192,289667,1,0,0:0:0:0:
36,192,289667,1,0,0:0:0:0:
320,192,289667,1,0,0:0:0:0:
64,192,290042,128,0,290088:0:0:0:0:
192,192,290042,128,0,290088:0:0:0:0:
320,192,290042,128,0,290088:0:0:0:0:
448,192,290042,128,0,290088:0:0:0:0:
