osu file format v14

[General]
AudioFilename: audio.mp3
AudioLeadIn: 0
PreviewTime: 90430
Countdown: 1
SampleSet: Normal
StackLeniency: 0.3
Mode: 0
LetterboxInBreaks: 1
WidescreenStoryboard: 1

[Editor]
DistanceSpacing: 0.7
BeatDivisor: 4
GridSize: 32
TimelineZoom: 3.099999

[Metadata]
Title:We love hardcore
TitleUnicode:We love hardcore
Artist:Camellia Ft. Nanahira
ArtistUnicode:Camellia Ft. Nanahira
Creator:Agony-Nyan
Version:Death Core
Source:
Tags:Camellia Ft. Nanahira We Love Hardcore
BeatmapID:1818817
BeatmapSetID:856617

[Difficulty]
HPDrainRate:4
CircleSize:4.2
OverallDifficulty:8
ApproachRate:9.8
SliderMultiplier:3.59999990463257
SliderTickRate:1

[Events]
//Background and Video events
0,0,"bgbggg.jpg",0,0
//Break Periods
//Storyboard Layer 0 (Background)
//Storyboard Layer 1 (Fail)
//Storyboard Layer 2 (Pass)
//Storyboard Layer 3 (Foreground)
//Storyboard Sound Samples

[TimingPoints]
1097,333.333333333333,4,1,0,100,1,0
5680,-100,4,1,0,30,0,0
6680,-250,4,1,0,30,0,0
22596,-133.333333333333,4,1,0,70,0,0
23763,-1000,4,1,0,70,0,0
24346,-133.333333333333,4,1,0,70,0,0
25930,-1000,4,1,0,70,0,0
26263,-133.333333333333,4,1,0,70,0,0
27763,-111.111111111111,4,1,0,70,0,0
33180,-105.263157894737,4,1,0,70,0,0
34513,-153.846153846153,4,1,0,70,0,0
35763,-83.3333333333333,4,1,0,70,0,0
37180,-222.222222222222,4,1,0,70,0,0
38430,-100,4,1,0,70,0,0
39096,-250,4,1,0,70,0,0
40346,-100,4,1,0,70,0,0
41680,-133.333333333333,4,1,0,70,0,0
42346,-100,4,1,0,70,0,0
43763,-133.333333333333,4,1,0,70,0,0
45180,-100,4,1,0,70,0,0
46430,-83.3333333333333,4,1,0,70,0,0
47846,-200,4,1,0,70,0,0
49096,-83.3333333333333,4,1,0,100,0,0
52930,-200,4,1,0,100,0,0
53763,-76.9230769230769,4,1,0,100,0,0
55846,-133.333333333333,4,1,0,100,0,0
56346,-76.9230769230769,4,1,0,100,0,0
57096,-133.333333333333,4,1,0,100,0,0
59930,-50,4,1,0,100,0,1
60430,-133.333333333333,4,1,0,100,0,0
60930,-66.6666666666667,4,1,0,100,0,1
61180,-40,4,1,0,100,0,1
61596,-66.6666666666667,4,1,0,100,0,1
62430,-66.6666666666667,4,1,0,100,0,0
63180,-40,4,1,0,100,0,1
63346,-66.6666666666667,4,1,0,100,0,1
63680,-133.333333333333,4,1,0,100,0,0
63846,-66.6666666666667,4,1,0,100,0,1
64263,-40,4,1,0,100,0,1
64513,-1000,4,1,0,100,0,1
64846,-166.666666666667,4,1,0,100,0,0
65263,-40,4,1,0,100,0,1
65763,-66.6666666666667,4,1,0,100,0,1
66013,-133.333333333333,4,1,0,100,0,0
66513,-66.6666666666667,4,1,0,100,0,1
67763,-66.6666666666667,4,1,0,100,0,0
70096,-66.6666666666667,4,1,0,100,0,1
70763,-1000,4,1,0,100,0,1
71180,-100,4,1,0,100,0,0
71680,-66.6666666666667,4,1,0,100,0,1
72180,-333.333333333333,4,1,0,100,0,0
72430,-66.6666666666667,4,1,0,100,0,1
72680,-1000,4,1,0,100,0,1
73263,-66.6666666666667,4,1,0,100,0,1
74346,-133.333333333333,4,1,0,100,0,1
74513,-50,4,1,0,100,0,1
75846,-40,4,1,0,100,0,1
76096,-66.6666666666667,4,1,0,100,0,1
77096,-40,4,1,0,100,0,1
78513,-133.333333333333,4,1,0,100,0,0
80680,-40,4,1,0,100,0,0
81180,-133.333333333333,4,1,0,100,0,0
91763,-66.6666666666667,4,1,0,100,0,0
92596,-66.6666666666667,4,1,0,100,0,0
92930,-45.4545454545455,4,1,0,100,0,0
93096,-40,4,1,0,100,0,0
93263,-83.3333333333333,4,1,0,100,0,0
94180,-1000,4,1,0,100,0,0
94513,-45.4545454545455,4,1,0,100,0,0
94846,-45.4545454545455,4,1,0,100,0,0
95430,-66.6666666666667,4,1,0,100,0,0
96596,-45.4545454545455,4,1,0,100,0,0
96763,-66.6666666666667,4,1,0,100,0,0
97680,-66.6666666666667,4,1,0,100,0,0
98180,-133.333333333333,4,1,0,100,0,0
98596,-66.6666666666667,4,1,0,100,0,0
98930,-100,4,1,0,100,0,0
99180,-50,4,1,0,100,0,0
99346,-40,4,1,0,100,0,0
99513,-50,4,1,0,100,0,0
101846,-66.6666666666667,4,1,0,100,0,0
102430,-50,4,1,0,100,0,0
104263,-1000,4,1,0,100,0,0
104930,-50,4,1,0,100,0,0
105513,-66.6666666666667,4,1,0,100,0,0
106096,-100,4,1,0,100,0,0
106596,-50,4,1,0,100,0,0
107096,-40,4,1,0,100,0,0
107596,-66.6666666666667,4,1,0,100,0,0
107930,-1000,4,1,0,100,0,0
108680,-66.6666666666667,4,1,0,100,0,0
113180,-50,4,1,0,100,0,0
119096,-100,4,1,0,100,0,0
119763,-50,4,1,0,100,0,0
120096,-133.333333333333,4,1,0,40,0,0
120596,-66.6666666666667,4,1,0,100,0,0
121096,-50,4,1,0,100,0,0
124513,-100,4,1,0,100,0,0
125763,-50,4,1,0,100,0,0
127513,-133.333333333333,4,1,0,100,0,0
127930,-50,4,1,0,100,0,0
128096,-1000,4,1,0,100,0,0
128596,-50,4,1,0,100,0,0
129180,-100,4,1,0,45,0,0
129513,-50,4,1,0,100,0,0
129846,-40,4,1,0,50,0,0
130263,-50,4,1,0,100,0,0
130596,-133.333333333333,4,1,0,100,0,0
131096,-66.6666666666667,4,1,0,100,0,0
131596,-133.333333333333,4,1,0,100,0,0
134430,-500,4,1,0,100,0,0
157680,-166.666666666667,4,1,0,100,0,0
169096,-1000,4,1,0,100,0,0
179763,-250,4,1,0,100,0,0
185180,-133.333333333333,4,1,0,100,0,0
187846,-100,4,1,0,100,0,0
188763,-133.333333333333,4,1,0,100,0,0
190013,-40,4,1,0,100,0,0
191096,-100,4,1,0,100,0,0
191263,-66.6666666666667,4,1,0,100,0,0
191430,-50,4,1,0,100,0,0
191596,-1000,4,1,0,100,0,0
191930,-40,4,1,0,100,0,0
192096,-1000,4,1,0,100,0,0
192430,-66.6666666666667,4,1,0,100,0,0
193180,-50,4,1,0,100,0,0
193888,-1000,4,1,0,100,0,0
194138,-50,4,1,0,100,0,0
194346,-1000,4,1,0,100,0,0
194555,-100,4,1,0,100,0,0
194721,-66.6666666666667,4,1,0,100,0,0
195013,-1000,4,1,0,100,0,0
195180,-50,4,1,0,100,0,0
195430,-133.333333333333,4,1,0,100,0,0
195930,-100,4,1,0,100,0,0
196513,-50,4,1,0,100,0,0
197763,-1000,4,1,0,100,0,0
198180,-133.333333333333,4,1,0,100,0,0
201263,-40,4,1,0,100,0,0
201930,-1000,4,1,0,100,0,0
202596,-50,4,1,0,100,0,0
204471,-133.333333333333,4,1,0,100,0,0
204763,-100,4,1,0,100,0,0
205096,-1000,4,1,0,100,0,0
205430,-100,4,1,0,100,0,0
205930,-133.333333333333,4,1,0,100,0,0
206430,-66.6666666666667,4,1,0,100,0,0
206680,-1000,4,1,0,100,0,0
207096,-133.333333333333,4,1,0,100,0,0
207346,-100,4,1,0,100,0,0
207513,-66.6666666666667,4,1,0,100,0,0
207680,-1000,4,1,0,100,0,0
207930,-50,4,1,0,100,0,0
208180,-1000,4,1,0,100,0,0
208346,-50,4,1,0,100,0,0
208763,-133.333333333333,4,1,0,100,0,0
209180,-250,4,1,0,100,0,0
209430,-142.857142857143,4,1,0,100,0,0
209680,-100,4,1,0,100,0,0
209930,-1000,4,1,0,100,0,0
210180,-133.333333333333,4,1,0,100,0,0
210513,-66.6666666666667,4,1,0,100,0,0
222513,-66.6666666666667,4,1,0,100,0,0
223263,-50,4,1,0,100,0,0
225346,-133.333333333333,4,1,0,100,0,0
227096,-66.6666666666667,4,1,0,100,0,0
229180,-133.333333333333,4,1,0,100,0,0
230430,-66.6666666666667,4,1,0,100,0,0
231346,-25,4,1,0,100,0,0
233180,-40,4,1,0,100,0,0
233513,-50,4,1,0,100,0,0
234596,-100,4,1,0,100,0,0
235513,-50,4,1,0,100,0,0
235680,-1000,4,1,0,100,0,0
235930,-50,4,1,0,100,0,0
236263,-100,4,1,0,100,0,0
236846,-66.6666666666667,4,1,0,100,0,0
237013,-50,4,1,0,100,0,0
238346,-100,4,1,0,100,0,0
238846,-50,4,1,0,100,0,0
239263,-133.333333333333,4,1,0,100,0,0
239596,-1000,4,1,0,100,0,0
239846,-66.6666666666667,4,1,0,100,0,0
240180,-50,4,1,0,100,0,0
240513,-133.333333333333,4,1,0,100,0,0
241180,-50,4,1,0,100,0,0
241846,-133.333333333333,4,1,0,100,0,0
241930,-50,4,1,0,100,0,0
242096,-47.6190476190476,4,1,0,100,0,0
242263,-50,4,1,0,100,0,0
242930,-100,4,1,0,100,0,0
243096,-66.6666666666667,4,1,0,100,0,0
244763,-50,4,1,0,100,0,0
245180,-133.333333333333,4,1,0,100,0,0
245513,-66.6666666666667,4,1,0,100,0,0
245846,-133.333333333333,4,1,0,100,0,0
246180,-50,4,1,0,100,0,0
246763,-40,4,1,0,100,0,0
246930,-50,4,1,0,100,0,0
247346,-66.6666666666667,4,1,0,100,0,0
247513,-1000,4,1,0,100,0,0
247680,-50,4,1,0,100,0,0
247846,-25,4,1,0,20,0,0
248430,-1000,4,1,0,100,0,0
251763,-50,4,1,0,100,0,0
252763,-25,4,1,0,20,0,0
254430,-66.6666666666667,4,1,0,100,0,0
254763,-50,4,1,0,100,0,0
256513,-50,4,1,1,100,0,0
257096,-1000,4,1,1,100,0,0
257596,-66.6666666666667,4,1,1,100,0,0
261930,-66.6666666666667,4,1,1,81,0,0
262346,-50,4,1,1,100,0,0
263096,-133.333333333333,4,1,1,100,0,0
264013,-66.6666666666667,4,1,1,100,0,0
270430,-133.333333333333,4,1,1,100,0,0
271763,-50,4,1,1,81,0,0
272680,-25,4,1,0,20,0,0
273180,-66.6666666666667,4,1,1,81,0,0
274096,-25,4,1,0,20,0,0
275763,-200,4,1,0,100,0,0
294430,-200,4,1,0,5,0,0
297096,-1000,4,1,0,5,0,0

[HitObjects]
256,192,1097,12,0,5680,0:0:0:0:
320,186,5763,6,0,B|273:193|208:176|208:176|248:155|316:159|316:159|366:122|314:31|314:31|383:74|324:252|324:252|319:299|354:355|354:355|380:292|309:250|309:250|250:254|220:317|220:317|154:330|110:265|110:265|98:240|110:211|110:211|126:232|128:269,1,1169.99996900559
193,167,7096,1,0,0:0:0:0:
281,117,7430,1,0,0:0:0:0:
297,143,7763,2,0,B|172:134|243:198|131:196,2,179.999995231628
370,222,8763,1,0,0:0:0:0:
228,141,9180,6,0,P|182:171|211:257,1,143.999996185303
296,181,9763,2,0,B|328:164|395:186|395:186|394:141|447:114|447:114|449:165|382:197|382:197|427:244|391:289|391:289|319:301|258:259|258:259|182:343|115:249,1,719.999980926514
148,186,11596,1,0,0:0:0:0:
210,123,11763,1,0,0:0:0:0:
332,120,11930,1,0,0:0:0:0:
355,207,12096,1,0,0:0:0:0:
329,241,12180,6,0,P|291:189|301:135,1,107.999997138977
192,63,12513,2,0,P|163:109|184:199,1,143.999996185303
219,277,12930,2,0,P|296:279|339:233,1,143.999996185303
350,159,13346,2,0,L|428:35,2,143.999996185303
227,180,14180,1,0,0:0:0:0:
246,311,14347,1,0,0:0:0:0:
324,249,14514,1,0,0:0:0:0:
430,298,14680,1,0,0:0:0:0:
398,174,14846,6,0,P|351:107|306:134,2,143.999996185303
252,203,15680,1,0,0:0:0:0:
154,124,15846,1,0,0:0:0:0:
123,258,16013,1,0,0:0:0:0:
225,322,16180,1,0,0:0:0:0:
367,255,16346,5,0,0:0:0:0:
222,146,16513,1,0,0:0:0:0:
171,294,16680,1,0,0:0:0:0:
152,142,16846,1,0,0:0:0:0:
253,146,17013,6,0,L|332:160,3,71.9999980926514
344,126,17596,1,0,0:0:0:0:
277,225,17763,1,0,0:0:0:0:
445,182,17930,1,0,0:0:0:0:
349,166,18096,2,0,B|258:155|297:224|180:207,1,179.999995231628
121,153,18596,2,0,P|76:195|103:301,1,179.999995231628
161,368,19096,2,0,L|217:259,1,107.999997138977
225,278,19430,5,0,0:0:0:0:
311,200,19596,1,0,0:0:0:0:
430,257,19763,1,0,0:0:0:0:
433,290,19846,2,0,P|364:248|298:255,1,143.999996185303
225,144,20346,1,0,0:0:0:0:
247,161,20430,2,0,P|203:227|224:318,1,143.999996185303
256,288,20930,5,0,0:0:0:0:
384,256,21097,1,0,0:0:0:0:
352,128,21263,1,0,0:0:0:0:
224,160,21430,1,0,0:0:0:0:
195,300,21596,5,0,0:0:0:0:
143,153,21763,1,0,0:0:0:0:
280,223,21930,1,0,0:0:0:0:
240,88,22096,1,0,0:0:0:0:
262,101,22180,2,0,P|219:161|226:214,1,107.999997138977
345,262,22596,2,0,B|219:249|271:331|151:314,1,202.500002360344
176,282,22930,1,0,0:0:0:0:
209,177,23013,1,0,0:0:0:0:
241,143,23096,2,0,B|309:172|309:172|344:226,1,135.000001573563
269,256,23346,5,0,0:0:0:0:
252,278,23429,2,0,P|346:317|382:310,1,135.000001573563
224,136,23763,6,0,L|241:182,1,44.9999988079071
381,125,24346,1,0,0:0:0:0:
403,313,24513,1,0,0:0:0:0:
264,207,24680,1,0,0:0:0:0:
393,249,24846,1,0,0:0:0:0:
435,280,24930,6,0,B|397:160|487:225|481:85,1,202.500002360344
317,86,25346,2,0,P|283:130|296:208,1,135.000001573563
287,328,25596,2,0,B|339:264|288:197,1,135.000001573563
192,52,25930,6,0,L|190:81,1,26.9999992847443
400,184,26263,1,0,0:0:0:0:
428,156,26346,2,0,P|481:231|439:326,1,202.500002360344
360,296,26763,5,0,0:0:0:0:
262,281,26930,1,0,0:0:0:0:
285,186,27096,1,0,0:0:0:0:
379,200,27263,1,0,0:0:0:0:
299,67,27430,5,0,0:0:0:0:
218,189,27596,1,0,0:0:0:0:
328,111,27763,2,0,B|382:106|441:117|441:117|388:147|270:108|228:128|228:128|287:201|261:242|261:242|245:227|262:174,1,485.999972293855
304,234,28430,1,0,0:0:0:0:
241,136,28596,1,0,0:0:0:0:
193,244,28763,1,0,0:0:0:0:
260,112,28930,5,0,0:0:0:0:
352,151,29096,1,0,0:0:0:0:
390,140,29180,2,0,P|411:217|357:296,2,161.999990764618
311,39,29680,2,0,B|356:51|356:51|252:157,1,161.999990764618
257,87,29930,2,0,B|276:132|276:132|358:50,1,161.999990764618
356,51,30180,2,0,B|320:94|320:94|364:125|380:180,1,161.999990764618
319,289,30430,5,0,0:0:0:0:
363,304,30513,2,0,P|311:360|225:354,1,161.999990764618
145,143,30846,2,0,B|202:119|202:119|171:90|179:39|179:39|151:141,1,242.999986146927
256,256,31263,5,0,0:0:0:0:
352,160,31430,1,0,0:0:0:0:
256,64,31596,1,0,0:0:0:0:
160,160,31763,1,0,0:0:0:0:
286,119,31930,6,0,P|308:164|287:214,1,80.9999953823091
290,207,32096,2,0,B|314:173|355:160|355:160|304:145|282:114,1,161.999990764618
176,92,32430,1,0,0:0:0:0:
129,239,32596,1,0,0:0:0:0:
253,200,32763,1,0,0:0:0:0:
188,54,32930,1,0,0:0:0:0:
304,55,33096,1,0,0:0:0:0:
323,79,33180,6,0,B|361:117|420:73|420:73|378:160|407:211|407:211|418:167|451:131,1,341.999981807709
325,149,33846,2,0,B|351:131|360:95|360:95|379:148|420:195|420:195|354:183|310:203|310:203|354:246,1,341.999981807709
378,300,34513,2,0,B|423:279|463:288|463:288|426:325|402:346|402:346|332:333|289:362|289:362|320:284,1,350.999974634172
288,224,35180,5,0,0:0:0:0:
256,96,35346,1,0,0:0:0:0:
128,128,35513,1,0,0:0:0:0:
160,256,35680,1,0,0:0:0:0:
133,237,35763,6,0,B|185:204|196:130|196:130|214:189|237:227|237:227|195:255|218:324|218:324|154:286|71:321|71:321|110:282|106:229,1,539.999983520508
63,178,36346,6,0,B|112:138|136:86|136:86|156:128|206:188|206:188|134:189|129:258,1,323.999981529237
217,261,36763,6,0,B|169:305|186:353|186:353|257:313|303:334|303:334|266:266|298:206,1,323.999981529237
210,189,37180,6,0,B|257:147|257:147|316:130|392:177|392:177|349:244|368:329|368:329|331:253|268:246,1,485.999972293855
185,142,38430,6,0,B|231:193|233:267|233:267|265:195|299:183|299:183|315:144|291:128|291:128|253:157|326:260,1,450
393,219,39013,1,0,0:0:0:0:
429,194,39096,2,0,P|463:263|365:354,1,215.999994277954
308,257,39763,1,0,0:0:0:0:
268,247,39846,2,0,P|262:173|295:109,1,120
410,296,40346,2,0,B|372:243|372:243|347:297|347:297|243:320,1,225
128,238,40763,5,0,0:0:0:0:
173,118,40930,1,0,0:0:0:0:
296,158,41096,1,0,0:0:0:0:
316,131,41180,2,0,P|355:178|358:283,2,150
111,66,41680,2,0,B|224:52|174:120|285:102,1,168.750006437302
115,69,42013,6,0,B|183:67|183:67|214:98|214:98|286:106,1,168.750006437302
270,104,42346,6,0,B|211:95|211:95|202:161|202:161|190:165|190:165|200:169|200:169|187:260,1,225
269,359,42680,6,0,L|293:273,1,89.9999976158143
440,54,42846,2,0,L|415:140,1,89.9999976158143
226,109,43096,5,0,0:0:0:0:
137,211,43263,1,0,0:0:0:0:
276,262,43430,1,0,0:0:0:0:
162,343,43596,1,0,0:0:0:0:
215,177,43763,6,0,B|245:157|260:103|260:103|277:170|225:307|225:307|259:271|315:252,1,405.000004720688
389,204,44430,6,0,B|412:175|425:148|412:125|392:81|327:75|291:102|291:102|277:99|277:99|283:109|283:109|268:125|253:172|272:203|332:163|348:232,1,405.000004720688
425,303,45180,6,0,B|362:300|340:279|340:279|388:337|394:362|394:362|321:325|223:337|223:337|274:250,1,450
143,301,45763,5,0,0:0:0:0:
218,206,45930,1,0,0:0:0:0:
154,128,46096,1,0,0:0:0:0:
245,48,46263,1,0,0:0:0:0:
133,237,46430,6,0,B|185:204|196:130|196:130|214:189|237:227|237:227|195:255|218:324|218:324|154:286|71:321|71:321|110:282|106:229,1,539.999983520508
63,178,47013,6,0,B|112:138|136:86|136:86|156:128|206:188|206:188|134:189|117:259,1,359.999989013672
217,261,47430,6,0,B|169:305|186:353|186:353|257:313|303:334|303:334|266:266|298:200,1,359.999989013672
210,189,47847,6,0,B|257:147|257:147|316:130|392:177|392:177|349:244|368:329|368:329|331:259|269:251,1,494.999986886978
167,259,49096,6,0,B|142:294|147:352|147:352|110:238|153:84,1,359.999989013672
304,71,49596,1,0,0:0:0:0:
333,39,49763,2,0,B|453:47|498:203|498:203|441:158|378:146,1,359.999989013672
146,129,50263,1,0,0:0:0:0:
114,102,50430,2,0,B|126:151|126:151|77:199|77:199|104:306|104:306|123:238|162:207,1,269.999991760254
271,129,50846,1,0,0:0:0:0:
294,92,51013,2,0,B|411:117|340:166|449:178,1,179.999994506836
472,269,51346,5,0,0:0:0:0:
382,322,51513,1,0,0:0:0:0:
287,247,51680,1,0,0:0:0:0:
254,250,51763,2,0,P|227:193|235:141,1,107.999993843079
266,82,51930,1,0,0:0:0:0:
284,64,52013,2,0,P|331:73|398:117,1,107.999993843079
469,98,52180,1,0,0:0:0:0:
491,107,52263,2,0,P|508:190|435:292,1,215.999987686158
95,252,52596,6,0,B|235:234|171:302|303:306,1,215.999987686158
400,348,52930,2,0,P|447:256|374:250,1,179.999995231629
370,202,53430,1,0,0:0:0:0:
151,76,53597,1,0,0:0:0:0:
346,67,53763,6,0,B|383:129|320:216|320:216|315:172|278:151,1,194.999991073609
243,62,54013,1,0,0:0:0:0:
222,43,54096,2,0,L|176:151,1,116.999991544724
102,218,54263,1,0,0:0:0:0:
114,246,54346,2,0,B|277:224|204:314|323:317,1,233.999983089448
368,275,54763,5,0,0:0:0:0:
315,43,54930,1,0,0:0:0:0:
168,67,55096,1,0,0:0:0:0:
136,89,55180,2,0,B|104:103|92:129|92:129|78:139|78:139|87:151|87:151|85:184|105:232|178:259|268:208|202:101,1,350.999974634172
333,60,55596,1,0,0:0:0:0:
374,156,55763,1,0,0:0:0:0:
394,132,55846,2,0,B|468:212|383:297|383:297|384:233|340:192,1,270.000003147125
264,133,56346,6,0,B|197:117|161:157|161:157|143:157|143:157|149:165|149:165|156:227|185:260|249:249,1,292.499986610413
262,226,56763,1,0,0:0:0:0:
318,82,57013,1,0,0:0:0:0:
334,72,57096,2,0,P|420:155|284:139,1,337.500012874604
202,74,57680,1,0,0:0:0:0:
183,62,57763,2,0,B|130:159|144:246|144:246|162:208|202:172,1,270.000003147125
301,105,58263,5,0,0:0:0:0:
322,84,58346,2,0,B|351:50|405:13|405:13|449:36|500:189|407:359|407:359|412:265|360:222,1,607.500007081032
180,120,59430,5,0,0:0:0:0:
190,125,59596,1,0,0:0:0:0:
183,154,59763,1,0,0:0:0:0:
248,136,59930,6,0,B|300:122|328:56|328:56|355:125|275:236,1,300
331,236,60430,2,0,P|317:186|291:176,1,67.5000007867814
276,286,60597,2,0,P|245:266|236:234,1,67.5000007867814
229,206,60764,2,0,P|271:175|304:176,1,67.5000007867814
313,280,60930,2,0,P|277:176|252:274,1,270.000003147125
414,246,61180,6,0,B|429:160|388:89|388:89|389:132|362:163,1,224.999994039536
213,87,61596,1,0,0:0:0:0:
194,50,61680,2,0,P|157:120|173:171,1,135.000001573563
229,184,61930,1,0,0:0:0:0:
334,221,62096,1,0,0:0:0:0:
437,266,62263,1,0,0:0:0:0:
355,194,62430,2,0,P|316:210|369:233,5,135.000001573563
239,68,63180,6,0,B|211:130|222:223|222:223|232:179|269:141,1,224.999994039536
332,118,63346,2,0,P|422:123|342:223,1,270.000003147125
136,320,63680,2,0,L|153:248,1,67.5000007867814
252,32,63846,2,0,B|341:62|341:62|360:51|360:51|362:66|362:66|419:84|419:84|396:167|396:167|333:144|294:157|294:157|273:194,1,405.000004720688
117,164,64263,6,0,B|69:202|69:202|255:240,1,224.999994039536
452,167,64513,2,0,L|426:174,1,22.5
206,74,64846,2,0,L|186:90,7,22.4999993133545
265,141,65263,6,0,B|306:115|300:31|300:31|443:129|263:266,1,375
102,240,65596,2,0,B|76:146|76:146|145:29,1,224.999994039536
221,40,65763,2,0,P|302:46|209:115,1,270.000003147125
141,281,66013,6,0,B|129:240|129:240|146:199,1,67.5000007867814
231,188,66180,2,0,B|197:177|197:177|162:191,1,67.5000007867814
251,209,66346,2,0,B|262:241|262:241|251:290,1,67.5000007867814
141,281,66513,2,0,P|183:182|192:311,1,270.000003147125
385,65,66930,1,0,0:0:0:0:
408,47,67013,2,0,B|543:169|423:296|423:296|424:195|345:193,1,405.000004720688
252,103,67430,1,0,0:0:0:0:
378,224,67763,5,0,0:0:0:0:
267,38,67930,1,0,0:0:0:0:
163,303,68097,1,0,0:0:0:0:
384,130,68263,1,0,0:0:0:0:
229,351,68430,1,0,0:0:0:0:
284,87,68596,1,0,0:0:0:0:
456,295,68763,1,0,0:0:0:0:
299,118,68930,5,0,0:0:0:0:
113,229,69097,1,0,0:0:0:0:
364,329,69264,1,0,0:0:0:0:
205,112,69430,1,0,0:0:0:0:
426,267,69597,1,0,0:0:0:0:
162,212,69763,1,0,0:0:0:0:
364,232,69930,1,0,0:0:0:0:
314,151,70096,5,0,0:0:0:0:
456,229,70180,1,0,0:0:0:0:
352,121,70263,5,0,0:0:0:0:
449,181,70347,1,0,0:0:0:0:
393,94,70430,5,0,0:0:0:0:
455,134,70514,1,0,0:0:0:0:
443,87,70596,2,0,P|403:50|275:75,1,135.000001573563
215,83,70763,6,0,L|210:124,1,35.9999990463257
208,340,71180,6,0,L|122:260,1,89.9999976158143
301,282,71346,2,0,L|262:159,1,89.9999976158143
417,241,71513,2,0,L|450:149,1,89.9999976158143
373,81,71680,2,0,B|322:26|224:74|224:74|286:98|318:164,1,270.000003147125
456,169,71930,2,0,B|472:242|431:338|431:338|416:268|369:238,1,270.000003147125
285,47,72180,6,0,L|268:105,1,53.9999969215394
178,203,72430,2,0,B|218:251|333:231|333:231|322:283|259:342,1,270.000003147125
424,94,72680,2,0,L|454:146,1,53.9999985694885
276,351,73263,6,0,B|213:248|234:170|299:147|377:214|341:266|270:276,1,270.000003147125
236,208,73930,6,0,P|376:121|480:234,1,270.000003147125
408,217,74180,2,0,P|338:204|296:262,1,135.000001573563
341,296,74346,2,0,P|366:276|399:283,1,67.5000007867814
470,290,74513,6,0,B|472:148|395:70|395:70|366:128|375:193,1,359.999990463257
268,88,74846,1,0,0:0:0:0:
157,187,75013,2,0,B|76:250|108:344|108:344|237:345|239:177,1,359.999990463257
58,34,75346,2,0,P|135:53|232:126,1,179.999995231629
417,191,75513,2,0,B|457:209|457:209|310:221,1,179.999995231629
119,143,75680,2,0,B|92:108|92:108|76:266,1,179.999995231629
172,243,75846,6,0,B|213:213|213:213|204:156|204:156|243:188|243:188|278:167|278:167|262:201|262:201|302:239|302:239|246:242|246:242|225:288|225:288|221:230|221:230|172:243,1,449.999988079071
342,107,76096,6,0,P|417:79|452:167,1,135.000001573563
389,198,76263,2,0,P|442:178|441:93,1,135.000001573563
336,98,76430,2,0,P|442:163|334:153,1,270.000003147125
182,77,76680,2,0,L|148:219,1,135.000001573563
168,234,76846,2,0,B|176:192|176:192|189:181|189:181|181:161|181:161|199:144|199:144|212:90,1,135.000001573563
262,80,77013,1,0,0:0:0:0:
283,54,77096,2,0,P|333:81|355:234,1,224.999994039536
332,302,77263,5,0,0:0:0:0:
242,247,77346,1,0,0:0:0:0:
152,180,77430,1,0,0:0:0:0:
76,133,77680,2,0,B|43:84|43:84|239:132,1,224.999994039536
293,143,77846,5,0,0:0:0:0:
381,160,77930,1,0,0:0:0:0:
469,172,78013,1,0,0:0:0:0:
356,290,78096,1,0,0:0:0:0:
293,143,78180,1,0,0:0:0:0:
237,252,78513,6,0,L|219:175,1,67.5000007867814
307,247,78680,2,0,L|333:97,1,135.000001573563
385,265,78930,2,0,L|468:61,1,202.500002360344
339,38,79263,2,0,L|321:136,1,67.5000007867814
183,174,79430,6,0,L|175:190,12,16.8750001966953
61,359,79763,6,0,L|62:264,1,67.5000007867814
159,330,79930,2,0,L|215:190,1,135.000001573563
276,291,80180,2,0,L|367:152,1,135.000001573563
428,73,80430,2,0,P|484:138|479:232,1,135.000001573563
394,227,80680,2,0,B|442:283|419:334|419:334|372:310|395:224,1,224.999994039536
333,149,80846,1,0,0:0:0:0:
277,71,80930,2,0,B|214:41|214:41|105:75|105:75|98:140,1,224.999994039536
251,192,81097,5,0,0:0:0:0:
264,216,81430,1,0,0:0:0:0:
242,243,81763,1,0,0:0:0:0:
218,236,82097,1,0,0:0:0:0:
196,211,82430,1,0,0:0:0:0:
223,149,82763,1,0,0:0:0:0:
258,80,83097,1,0,0:0:0:0:
342,56,83430,5,0,0:0:0:0:
373,160,83597,1,0,0:0:0:0:
410,275,83763,1,0,0:0:0:0:
212,210,84097,1,0,0:0:0:0:
336,149,84430,1,0,0:0:0:0:
414,259,84763,1,0,0:0:0:0:
310,321,85013,6,0,P|258:284|251:252,1,67.5000007867814
194,211,85180,2,0,P|218:174|263:163,1,67.5000007867814
344,201,85346,2,0,P|365:174|342:91,1,67.5000007867814
265,72,85596,1,0,0:0:0:0:
169,156,85846,1,0,0:0:0:0:
253,232,86096,1,0,0:0:0:0:
395,302,86263,1,0,0:0:0:0:
472,293,86430,6,0,L|471:223,1,67.5000007867814
473,98,86596,2,0,L|474:187,1,67.5000007867814
384,305,86763,6,0,L|371:232,1,67.5000007867814
381,69,86929,2,0,L|372:159,1,67.5000007867814
291,334,87096,6,0,L|263:264,1,67.5000007867814
290,42,87262,2,0,L|266:129,1,67.5000007867814
198,379,87430,6,0,L|138:266,1,67.5000007867814
207,3,87596,2,0,L|168:74,1,67.5000007867814
40,293,87763,6,0,L|41:223,1,67.5000007867814
39,98,87929,2,0,L|38:187,1,67.5000007867814
128,305,88096,6,0,L|141:232,1,67.5000007867814
131,69,88262,2,0,L|140:159,1,67.5000007867814
221,334,88429,6,0,L|249:264,1,67.5000007867814
222,42,88595,2,0,L|246:129,1,67.5000007867814
314,379,88763,6,0,L|374:266,1,67.5000007867814
305,3,88929,2,0,L|344:74,1,67.5000007867814
288,192,89096,5,0,0:0:0:0:
256,160,89179,1,0,0:0:0:0:
224,192,89263,1,0,0:0:0:0:
256,224,89346,1,0,0:0:0:0:
304,192,89429,5,0,0:0:0:0:
256,144,89512,1,0,0:0:0:0:
208,192,89596,1,0,0:0:0:0:
256,240,89679,1,0,0:0:0:0:
328,192,89763,5,0,0:0:0:0:
256,119,89846,1,0,0:0:0:0:
184,192,89930,1,0,0:0:0:0:
256,264,90013,1,0,0:0:0:0:
364,192,90096,5,0,0:0:0:0:
256,83,90179,1,0,0:0:0:0:
147,192,90263,1,0,0:0:0:0:
256,300,90346,1,0,0:0:0:0:
256,192,90430,12,0,91596,0:0:0:0:
201,108,91763,6,0,B|228:60|262:52|306:77|322:119|290:137|269:155|234:180|234:180|292:144|323:139|465:186|471:241|388:339|304:338|227:330|209:232,1,675.000007867814
243,30,92263,5,0,0:0:0:0:
355,84,92346,1,0,0:0:0:0:
471,141,92430,1,0,0:0:0:0:
373,183,92513,1,0,0:0:0:0:
302,109,92596,6,0,P|273:160|295:243,1,135.000001573563
401,280,92763,2,0,P|342:279|281:219,1,135.000001573563
373,183,92930,6,0,P|393:122|328:173,1,198.000000797272
332,352,93096,2,0,B|213:332|213:332|208:348|208:348|201:332|201:332|166:327|166:327|147:282,1,224.999994039536
117,225,93263,5,0,0:0:0:0:
177,103,93346,1,0,0:0:0:0:
259,223,93430,1,0,0:0:0:0:
117,225,93513,5,0,0:0:0:0:
197,115,93596,1,0,0:0:0:0:
257,247,93680,1,0,0:0:0:0:
117,225,93763,5,0,0:0:0:0:
214,130,93846,1,0,0:0:0:0:
251,270,93930,1,0,0:0:0:0:
306,358,94013,2,0,B|356:308|356:308|356:235,1,107.999993843079
394,158,94180,6,0,L|390:187,1,26.9999992847443
270,124,94513,2,0,P|192:211|298:163,2,297.000001195908
329,197,94846,2,0,P|174:250|273:90,1,396.000001594544
433,261,95180,5,0,0:0:0:0:
340,216,95263,1,0,0:0:0:0:
241,161,95346,1,0,0:0:0:0:
199,54,95430,6,0,P|142:74|132:156,1,135.000001573563
231,194,95596,2,0,P|159:189|124:120,1,135.000001573563
193,86,95763,1,0,0:0:0:0:
287,67,95846,1,0,0:0:0:0:
371,50,95930,1,0,0:0:0:0:
399,128,96013,5,0,0:0:0:0:
369,235,96096,1,0,0:0:0:0:
287,148,96180,1,0,0:0:0:0:
399,128,96263,1,0,0:0:0:0:
222,71,96346,6,0,B|178:138|207:254|207:254|231:192|280:176,1,270.000003147125
355,91,96596,1,0,0:0:0:0:
355,91,96680,1,0,0:0:0:0:
355,91,96763,2,0,P|436:214|262:112,1,540.000006294251
328,193,97180,5,0,0:0:0:0:
211,128,97263,1,0,0:0:0:0:
80,61,97346,1,0,0:0:0:0:
96,84,97430,1,0,0:0:0:0:
61,83,97513,1,0,0:0:0:0:
80,45,97596,1,0,0:0:0:0:
129,196,97680,6,0,L|74:341,1,135.000001573563
289,126,97846,2,0,L|342:-9,1,135.000001573563
257,343,98013,1,0,0:0:0:0:
214,195,98096,1,0,0:0:0:0:
165,43,98180,2,0,L|194:132,1,67.5000007867814
76,186,98346,5,0,0:0:0:0:
211,238,98430,1,0,0:0:0:0:
345,288,98513,1,0,0:0:0:0:
423,117,98596,2,0,L|361:251,1,135.000001573563
288,349,98763,2,0,P|219:290|206:220,1,135.000001573563
221,122,98930,6,0,B|333:104|284:188|400:173,1,179.999995231629
425,217,99180,2,0,P|459:137|400:44,1,179.999995231629
448,35,99346,2,0,P|485:167|423:266,1,224.999994039536
113,260,99513,2,0,L|285:346,1,179.999995231629
283,229,99680,2,0,L|469:294,1,179.999995231629
385,124,99846,6,0,P|383:171|435:116,1,179.999995231629
420,24,100013,2,0,B|337:55|337:55|327:50|327:50|323:60|323:60|240:91,1,179.999995231629
177,137,100180,1,0,0:0:0:0:
111,228,100263,1,0,0:0:0:0:
215,288,100346,1,0,0:0:0:0:
288,192,100430,1,0,0:0:0:0:
352,92,100513,5,0,0:0:0:0:
407,212,100596,1,0,0:0:0:0:
465,334,100680,1,0,0:0:0:0:
376,306,100763,2,0,B|312:304|312:304|285:317|285:317|242:310|242:310|212:290|212:290|-7:272,1,359.999990463257
287,209,101013,1,0,0:0:0:0:
236,40,101096,5,0,0:0:0:0:
137,314,101263,1,0,0:0:0:0:
431,71,101429,1,0,0:0:0:0:
116,202,101596,1,0,0:0:0:0:
412,327,101763,1,0,0:0:0:0:
345,317,101846,6,0,P|278:288|256:237,1,89.9999976158143
389,116,101971,2,0,P|316:114|275:151,1,89.9999976158143
297,286,102096,2,0,P|276:216|301:166,1,89.9999976158143
331,133,102221,2,0,P|282:187|284:243,1,89.9999976158143
139,149,102430,2,0,B|129:203|129:203|249:97,1,179.999995231629
326,77,102680,5,0,0:0:0:0:
384,170,102763,1,0,0:0:0:0:
428,270,102846,1,0,0:0:0:0:
196,105,102929,2,0,B|174:62|174:62|156:227,1,179.999995231629
208,309,103096,2,0,B|230:352|230:352|248:187,1,179.999995231629
244,221,103263,1,0,0:0:0:0:
316,133,103346,5,0,0:0:0:0:
343,111,103430,2,0,L|477:264,1,179.999995231629
386,310,103596,2,0,L|578:357,1,179.999995231629
301,229,103763,1,0,0:0:0:0:
184,341,103846,5,0,0:0:0:0:
94,225,103930,5,0,0:0:0:0:
162,95,104013,5,0,0:0:0:0:
282,57,104096,5,0,0:0:0:0:
417,117,104180,5,0,0:0:0:0:
468,243,104263,6,0,L|468:216,1,26.9999992847443
415,239,104596,2,0,L|417:265,1,26.9999992847443
376,177,104930,2,0,B|357:77|243:63|243:63|208:175|314:240,1,359.999990463257
261,325,105180,1,0,0:0:0:0:
461,235,105513,2,0,B|399:167|399:167|400:148|400:148|391:158|391:158|340:106|340:106|246:187,1,270.000003147125
256,256,105763,5,0,0:0:0:0:
192,192,105846,1,0,0:0:0:0:
256,128,105930,1,0,0:0:0:0:
320,192,106013,1,0,0:0:0:0:
261,293,106096,6,0,P|253:247|260:216,1,67.5000007867814
334,200,106221,2,0,P|288:208|257:201,1,67.5000007867814
256,112,106346,2,0,P|264:158|257:189,1,67.5000007867814
171,207,106471,2,0,P|217:199|248:206,1,67.5000007867814
261,232,106596,6,0,B|284:264|288:327|288:327|316:270|368:203|368:203|309:185|264:109|264:109|246:156|174:195,1,359.999990463257
152,94,106930,1,0,0:0:0:0:
199,174,107096,6,0,P|211:212|206:163,6,179.999995231629
75,123,107596,2,0,B|67:167|67:167|68:220|68:220|119:192|138:200|179:251|126:264|91:273|67:251|75:193|75:193|42:239|42:239|9:374,1,405.000004720688
328,40,107930,6,0,L|327:65,1,17.9999995231628
224,160,108263,5,0,0:0:0:0:
226,132,108346,1,0,0:0:0:0:
201,160,108430,1,0,0:0:0:0:
247,161,108513,1,0,0:0:0:0:
226,177,108596,1,0,0:0:0:0:
226,132,108680,5,0,0:0:0:0:
201,160,108764,1,0,0:0:0:0:
247,161,108847,1,0,0:0:0:0:
226,177,108930,1,0,0:0:0:0:
311,244,109013,6,0,P|275:283|187:256,1,135.000001573563
69,227,109180,2,0,B|132:189|177:169|177:169|178:159|178:159|187:166|187:166|230:148|327:142,1,270.000003147125
308,286,109430,5,0,0:0:0:0:
308,262,109513,1,0,0:0:0:0:
288,286,109597,1,0,0:0:0:0:
331,285,109680,1,0,0:0:0:0:
311,309,109763,1,0,0:0:0:0:
308,262,109846,5,0,0:0:0:0:
288,286,109930,1,0,0:0:0:0:
331,285,110013,1,0,0:0:0:0:
311,309,110096,1,0,0:0:0:0:
253,294,110180,6,0,P|238:243|292:182,1,135.000001573563
397,158,110346,2,0,P|354:94|283:95,1,135.000001573563
288,192,110513,5,0,0:0:0:0:
256,160,110596,1,0,0:0:0:0:
224,192,110680,1,0,0:0:0:0:
256,224,110763,1,0,0:0:0:0:
304,192,110846,5,0,0:0:0:0:
256,144,110929,1,0,0:0:0:0:
208,192,111013,1,0,0:0:0:0:
256,240,111096,1,0,0:0:0:0:
328,192,111180,5,0,0:0:0:0:
256,119,111263,1,0,0:0:0:0:
184,192,111347,1,0,0:0:0:0:
256,264,111430,1,0,0:0:0:0:
364,192,111513,5,0,0:0:0:0:
256,83,111596,1,0,0:0:0:0:
147,192,111680,1,0,0:0:0:0:
256,300,111763,1,0,0:0:0:0:
256,192,111846,12,0,113096,0:0:0:0:
354,36,113180,6,0,B|369:54|369:54|370:142|370:142|353:150|353:150|352:285|352:285|348:295|348:295|351:388,1,359.999990463257
254,311,113430,5,0,0:0:0:0:
148,335,113513,1,0,0:0:0:0:
127,239,113597,1,4,0:0:0:0:
244,249,113680,6,0,P|270:209|242:88,1,179.999995231629
106,74,113846,5,0,0:0:0:0:
127,58,113930,1,0,0:0:0:0:
134,77,114013,1,0,0:0:0:0:
117,87,114096,1,0,0:0:0:0:
134,77,114180,1,0,0:0:0:0:
91,219,114263,1,0,0:0:0:0:
174,352,114346,6,0,B|172:279|172:279|197:252|197:252|196:206|196:206|184:165,1,179.999995231629
213,85,114513,5,0,0:0:0:0:
389,134,114596,2,0,B|277:127|342:179|220:174,1,179.999995231629
105,43,114763,2,0,B|77:77|77:77|61:90|61:90|57:154|57:154|79:167|79:167|38:197,1,179.999995231629
49,258,114930,2,0,P|135:224|230:288,1,179.999995231629
449,342,115096,5,0,0:0:0:0:
308,203,115180,1,0,0:0:0:0:
136,123,115263,1,0,0:0:0:0:
160,224,115346,5,0,0:0:0:0:
224,128,115430,1,0,0:0:0:0:
288,224,115513,1,0,0:0:0:0:
167,227,115596,5,0,0:0:0:0:
231,131,115680,1,0,0:0:0:0:
295,227,115763,1,0,0:0:0:0:
360,57,115846,6,0,B|421:181|405:309|405:309|346:263|350:107,1,359.999990463257
165,123,116096,6,0,B|204:110|204:110|143:100|144:100|140:113|140:113|59:121,1,179.999995231629
203,261,116263,2,0,B|190:222|190:222|176:278|176:278|193:286|193:286|201:367,1,179.999995231629
304,162,116430,2,0,B|265:175|265:175|326:185|325:185|329:172|329:172|410:164,1,179.999995231629
448,160,116596,5,0,0:0:0:0:
352,32,116680,1,0,0:0:0:0:
256,160,116763,1,0,0:0:0:0:
453,166,116846,5,0,0:0:0:0:
357,38,116930,1,0,0:0:0:0:
261,166,117013,1,0,0:0:0:0:
382,168,117096,6,0,B|430:222|409:288|409:288|407:257|376:221,1,179.999995231629
210,96,117263,2,0,B|127:106|97:151|97:151|117:145|188:156,1,179.999995231629
329,253,117430,2,0,B|353:208|343:129|343:129|338:167|300:199,1,179.999995231629
246,158,117596,5,0,0:0:0:0:
139,109,117680,1,0,0:0:0:0:
88,218,117763,1,0,0:0:0:0:
177,245,117846,6,0,P|204:209|190:268,4,179.999995231629
143,358,118263,2,0,B|99:320|99:320|93:259|93:259|120:223|120:223|114:155|114:155|104:138|104:138|116:125|116:125|113:74|113:74|153:29,1,359.999990463257
256,32,118513,5,0,0:0:0:0:
352,128,118596,1,0,0:0:0:0:
256,224,118680,1,0,0:0:0:0:
160,128,118763,1,0,0:0:0:0:
251,39,118846,5,0,0:0:0:0:
309,197,118930,1,0,0:0:0:0:
369,357,119013,1,0,0:0:0:0:
253,358,119096,6,0,P|217:334|166:330,1,89.9999976158143
225,252,119263,2,0,P|167:221|142:172,1,89.9999976158143
47,168,119430,2,0,P|106:122|117:95,1,89.9999976158143
206,155,119596,2,0,P|232:107|284:82,1,89.9999976158143
308,181,119763,6,0,B|346:141|377:25|377:25|403:69|393:157|393:157|429:228|429:228|400:279|400:279|399:381,1,539.999985694885
227,329,120096,6,0,L|240:296,1,33.7500003933907
138,297,120180,2,0,L|157:247,1,33.7500003933907
53,261,120263,2,0,L|71:217,1,33.7500003933907
126,180,120346,6,0,L|138:148,1,33.7500003933907
211,216,120429,2,0,L|222:184,1,33.7500003933907
300,248,120513,2,0,L|312:216,1,33.7500003933907
275,266,120596,6,0,B|311:310|310:373|310:373|450:211|422:123|422:123|402:75|315:37|315:37|336:107|280:175,1,675.000007867814
76,148,121096,6,0,B|45:137|45:137|106:137|106:137|116:147|116:147|244:168,1,179.999995231629
212,372,121263,2,0,B|201:403|201:403|201:342|201:342|211:332|211:332|232:204,1,179.999995231629
420,59,121430,6,0,B|431:28|431:28|431:89|431:89|421:99|421:99|400:227,1,179.999995231629
341,239,121596,1,0,0:0:0:0:
170,260,121680,1,0,0:0:0:0:
8,281,121763,1,0,0:0:0:0:
40,202,121846,6,0,B|104:176|132:100|132:100|98:125|9:113,1,179.999995231629
189,69,122013,5,0,0:0:0:0:
326,154,122096,1,0,0:0:0:0:
462,237,122180,1,0,0:0:0:0:
366,313,122263,6,0,B|396:264|396:264|437:311|334:377|334:377|344:317|254:203,1,359.999990463257
256,352,122596,5,0,0:0:0:0:
448,32,122763,1,0,0:0:0:0:
64,32,122930,1,0,0:0:0:0:
256,316,123096,5,0,0:0:0:0:
422,67,123263,1,0,0:0:0:0:
89,67,123430,1,0,0:0:0:0:
37,176,123596,6,0,B|12:138|12:138|12:186|28:221|28:221|57:211|102:218,1,179.999995231629
154,186,123763,6,0,P|156:139|179:197,5,179.999995231629
252,344,124263,5,0,0:0:0:0:
311,217,124346,1,0,0:0:0:0:
369,94,124430,1,0,0:0:0:0:
257,65,124513,6,0,L|232:109,1,33.7500003933907
195,180,124596,2,0,L|170:224,1,33.7500003933907
110,341,124680,2,0,L|127:312,1,33.7500003933907
80,217,124846,6,0,L|124:242,1,33.7500003933907
195,279,124929,2,0,L|239:304,1,33.7500003933907
356,363,125013,2,0,L|326:346,1,33.7500003933907
251,367,125180,6,0,L|276:323,1,33.7500003933907
313,252,125263,2,0,L|338:208,1,33.7500003933907
397,91,125347,2,0,L|380:120,1,33.7500003933907
352,224,125513,5,0,0:0:0:0:
224,160,125596,1,0,0:0:0:0:
96,96,125680,1,0,0:0:0:0:
40,185,125763,6,0,B|26:251|57:311|57:311|57:289|76:250,1,179.999995231629
179,132,125930,2,0,B|209:175|178:250|178:250|239:199|332:175|462:204|462:204|431:229|289:222,1,539.999985694885
288,256,126263,5,0,0:0:0:0:
224,352,126346,1,0,0:0:0:0:
160,256,126430,1,0,0:0:0:0:
98,153,126513,6,0,B|72:118|72:118|48:173|48:173|67:237|67:237|97:222|97:222|86:318|86:318|100:355|100:355|93:389,1,359.999990463257
192,320,126763,5,0,0:0:0:0:
320,288,126846,1,0,0:0:0:0:
224,192,126930,1,0,0:0:0:0:
192,320,127013,5,0,0:0:0:0:
336,288,127096,1,0,0:0:0:0:
224,176,127180,1,0,0:0:0:0:
192,320,127263,5,0,0:0:0:0:
352,288,127346,1,0,0:0:0:0:
224,160,127430,1,0,0:0:0:0:
192,320,127513,6,0,L|207:281,1,33.7500003933907
368,288,127596,2,0,L|321:246,1,33.7500003933907
224,144,127680,2,0,L|244:189,1,33.7500003933907
74,220,127846,1,0,0:0:0:0:
54,210,127930,2,0,B|95:192|93:109|93:109|93:158|142:182,1,179.999995231629
146,251,128096,6,0,L|137:269,1,17.9999995231628
221,250,128346,2,0,L|227:232,1,17.9999995231628
264,163,128596,6,0,P|293:117|269:169,6,179.999995231629
164,210,129180,6,0,L|189:246,12,22.4999994039536
256,78,129513,6,0,L|300:287,1,179.999995231629
386,335,129680,2,0,L|428:130,1,179.999995231629
106,92,129846,6,0,L|212:67,1,89.9999976158143
121,181,129930,2,0,L|179:107,1,89.9999976158143
172,239,130013,2,0,L|197:120,1,89.9999976158143
246,264,130096,2,0,L|194:167,1,89.9999976158143
323,265,130180,2,0,L|223:192,1,89.9999976158143
321,211,130263,6,0,B|332:166|318:91|318:91|361:126|354:186,1,179.999995231629
427,194,130430,2,0,B|449:257|405:324|405:324|408:309|394:252,1,179.999995231629
315,325,130596,6,0,L|240:301,1,67.5000007867814
60,154,130763,2,0,L|156:187,1,67.5000007867814
303,236,130930,2,0,L|408:269,1,67.5000007867814
137,247,131096,2,0,L|147:178,1,67.5000007867814
247,78,131180,2,0,L|215:223,1,135.000001573563
275,322,131305,2,0,L|340:104,1,202.500002360344
379,59,131471,2,0,L|432:113,1,67.5000007867814
472,293,131596,6,0,L|471:223,1,67.5000007867814
473,98,131762,2,0,L|474:187,1,67.5000007867814
384,305,131929,6,0,L|371:232,1,67.5000007867814
381,69,132095,2,0,L|372:159,1,67.5000007867814
291,334,132262,6,0,L|263:264,1,67.5000007867814
290,42,132428,2,0,L|266:129,1,67.5000007867814
198,379,132596,6,0,L|138:266,1,67.5000007867814
207,3,132762,2,0,L|168:74,1,67.5000007867814
256,160,132930,5,0,0:0:0:0:
320,160,133013,5,0,0:0:0:0:
256,96,133096,1,0,0:0:0:0:
192,160,133180,1,0,0:0:0:0:
256,224,133263,1,0,0:0:0:0:
307,166,133346,5,0,0:0:0:0:
256,115,133429,1,0,0:0:0:0:
204,166,133513,1,0,0:0:0:0:
256,217,133596,1,0,0:0:0:0:
296,171,133680,5,0,0:0:0:0:
256,130,133763,1,0,0:0:0:0:
215,171,133847,1,0,0:0:0:0:
256,212,133930,1,0,0:0:0:0:
288,175,134013,5,0,0:0:0:0:
256,142,134096,1,0,0:0:0:0:
223,175,134180,1,0,0:0:0:0:
256,208,134263,1,0,0:0:0:0:
263,183,134430,5,0,0:0:0:0:
146,158,134763,1,0,0:0:0:0:
252,257,135096,2,0,P|277:237|288:195,2,71.9999980926514
178,157,136096,1,0,0:0:0:0:
222,227,136430,1,0,0:0:0:0:
277,190,136763,5,0,0:0:0:0:
277,190,136930,1,0,0:0:0:0:
277,190,137096,1,0,0:0:0:0:
277,190,137263,1,0,0:0:0:0:
192,128,137430,1,0,0:0:0:0:
128,256,137596,1,0,0:0:0:0:
256,320,137763,1,0,0:0:0:0:
320,192,137930,1,0,0:0:0:0:
206,120,138096,5,0,0:0:0:0:
169,214,138263,1,0,0:0:0:0:
312,257,138430,1,0,0:0:0:0:
156,307,138596,5,0,0:0:0:0:
156,307,138763,1,0,0:0:0:0:
156,307,138930,1,0,0:0:0:0:
156,307,139096,1,0,0:0:0:0:
156,307,139263,1,0,0:0:0:0:
93,214,139430,1,0,0:0:0:0:
163,124,139596,1,0,0:0:0:0:
327,147,139763,1,0,0:0:0:0:
293,278,139930,5,0,0:0:0:0:
148,124,140096,1,0,0:0:0:0:
299,201,140263,1,0,0:0:0:0:
171,231,140430,1,0,0:0:0:0:
171,231,140596,1,0,0:0:0:0:
171,231,140763,1,0,0:0:0:0:
171,231,140930,1,0,0:0:0:0:
298,123,141096,1,0,0:0:0:0:
356,199,141263,5,0,0:0:0:0:
164,281,141430,1,0,0:0:0:0:
163,124,141596,1,0,0:0:0:0:
289,183,141763,1,0,0:0:0:0:
289,183,141930,1,0,0:0:0:0:
289,183,142096,1,0,0:0:0:0:
289,183,142263,1,0,0:0:0:0:
169,115,142430,1,0,0:0:0:0:
297,259,142596,5,0,0:0:0:0:
297,259,142763,1,0,0:0:0:0:
297,259,142930,1,0,0:0:0:0:
297,259,143096,1,0,0:0:0:0:
233,187,143263,1,0,0:0:0:0:
294,94,143430,1,0,0:0:0:0:
418,104,143596,1,0,0:0:0:0:
374,200,143763,1,0,0:0:0:0:
259,184,143930,5,0,0:0:0:0:
235,81,144096,1,0,0:0:0:0:
172,214,144263,1,0,0:0:0:0:
289,294,144430,1,0,0:0:0:0:
314,177,144596,1,0,0:0:0:0:
314,177,144763,1,0,0:0:0:0:
314,177,144930,1,0,0:0:0:0:
314,177,145096,1,0,0:0:0:0:
251,204,145263,5,0,0:0:0:0:
251,204,145430,6,0,P|298:199|328:220,2,71.9999980926514
169,150,146263,1,0,0:0:0:0:
115,244,146430,2,0,P|112:288|134:320,2,71.9999980926514
207,148,147263,1,0,0:0:0:0:
207,148,147430,1,0,0:0:0:0:
207,148,147596,1,0,0:0:0:0:
140,229,147763,5,0,0:0:0:0:
239,214,147930,2,0,P|245:234|221:296,1,89.9999976158142
107,237,148513,2,0,P|106:197|113:175,1,53.9999985694885
230,148,148930,5,0,0:0:0:0:
271,218,149097,1,0,0:0:0:0:
178,216,149263,1,0,0:0:0:0:
96,288,149430,1,0,0:0:0:0:
178,216,149597,1,0,0:0:0:0:
178,216,149763,1,0,0:0:0:0:
178,216,149930,1,0,0:0:0:0:
178,216,150097,1,0,0:0:0:0:
333,141,150263,5,0,0:0:0:0:
333,141,150430,1,0,0:0:0:0:
333,141,150596,1,0,0:0:0:0:
182,180,150763,6,0,P|171:202|180:252,3,71.9999980926514
275,314,151846,2,0,P|297:284|297:242,1,71.9999980926514
150,136,152263,2,0,P|160:122|222:100,1,71.9999980926514
298,186,152763,1,0,0:0:0:0:
298,186,152930,1,0,0:0:0:0:
298,186,153096,1,0,0:0:0:0:
344,206,153180,6,0,P|342:229|312:295,1,89.9999976158142
213,301,153680,2,0,P|183:280|165:223,1,89.9999976158142
145,123,154263,1,0,0:0:0:0:
272,194,154430,2,0,L|237:288,1,89.9999976158142
121,229,155013,1,0,0:0:0:0:
259,154,155180,2,0,P|291:179|293:203,1,53.9999985694885
146,194,155596,5,0,0:0:0:0:
146,194,155763,1,0,0:0:0:0:
146,194,155930,1,0,0:0:0:0:
146,194,156096,1,0,0:0:0:0:
346,193,156263,1,0,0:0:0:0:
312,76,156430,1,0,0:0:0:0:
345,194,156596,1,0,0:0:0:0:
345,194,156763,1,0,0:0:0:0:
171,114,156930,5,0,0:0:0:0:
171,114,157096,1,0,0:0:0:0:
171,114,157263,1,0,0:0:0:0:
171,114,157430,1,0,0:0:0:0:
203,228,157596,1,0,0:0:0:0:
180,241,157680,2,0,P|235:288|342:252,1,161.999990764618
279,114,158013,5,0,0:0:0:0:
295,90,158096,2,0,P|358:129|354:224,1,161.999990764618
205,192,158430,5,0,0:0:0:0:
205,192,158597,1,0,0:0:0:0:
205,192,158763,1,0,0:0:0:0:
205,192,158930,1,0,0:0:0:0:
205,192,159096,1,0,0:0:0:0:
264,80,159263,5,0,0:0:0:0:
264,80,159430,1,0,0:0:0:0:
264,80,159596,1,0,0:0:0:0:
332,238,159763,1,0,0:0:0:0:
220,187,159930,1,0,0:0:0:0:
354,198,160096,1,0,0:0:0:0:
354,198,160263,1,0,0:0:0:0:
354,198,160430,1,0,0:0:0:0:
262,109,160596,5,0,0:0:0:0:
296,234,160763,1,0,0:0:0:0:
159,270,160930,1,0,0:0:0:0:
133,132,161096,1,0,0:0:0:0:
133,132,161263,1,0,0:0:0:0:
133,132,161430,1,0,0:0:0:0:
133,132,161596,1,0,0:0:0:0:
133,132,161763,1,0,0:0:0:0:
229,250,161930,5,0,0:0:0:0:
229,250,162096,1,0,0:0:0:0:
229,250,162263,1,0,0:0:0:0:
229,250,162430,1,0,0:0:0:0:
229,250,162596,1,0,0:0:0:0:
229,250,162763,1,0,0:0:0:0:
374,67,162930,1,0,0:0:0:0:
356,210,163096,1,0,0:0:0:0:
182,122,163263,5,0,0:0:0:0:
320,215,163430,1,0,0:0:0:0:
172,276,163596,1,0,0:0:0:0:
172,276,163763,1,0,0:0:0:0:
185,300,163846,6,0,P|264:257|306:212,1,107.999993843079
269,97,164180,1,0,0:0:0:0:
239,73,164263,2,0,P|209:134|217:203,1,107.999993843079
347,257,164596,1,0,0:0:0:0:
381,239,164679,2,0,P|337:186|271:166,1,107.999993843079
169,130,165013,5,0,0:0:0:0:
169,130,165096,1,0,0:0:0:0:
169,130,165180,1,0,0:0:0:0:
169,130,165263,1,0,0:0:0:0:
169,130,165346,5,0,0:0:0:0:
158,154,165429,1,0,0:0:0:0:
155,181,165512,1,0,0:0:0:0:
160,207,165596,1,0,0:0:0:0:
173,231,165679,1,0,0:0:0:0:
192,249,165762,1,0,0:0:0:0:
216,261,165846,1,0,0:0:0:0:
243,266,165929,1,0,0:0:0:0:
269,262,166012,1,0,0:0:0:0:
303,264,166096,5,0,0:0:0:0:
340,260,166179,1,0,0:0:0:0:
370,281,166262,1,0,0:0:0:0:
375,317,166346,1,0,0:0:0:0:
356,350,166429,1,0,0:0:0:0:
324,369,166512,1,0,0:0:0:0:
287,372,166596,1,0,0:0:0:0:
255,354,166679,1,0,0:0:0:0:
240,319,166762,1,0,0:0:0:0:
233,279,166846,5,0,0:0:0:0:
254,227,166929,1,0,0:0:0:0:
296,195,167012,1,0,0:0:0:0:
333,153,167096,1,0,0:0:0:0:
322,107,167179,1,0,0:0:0:0:
277,84,167262,1,0,0:0:0:0:
224,104,167346,1,0,0:0:0:0:
197,154,167429,1,0,0:0:0:0:
216,206,167512,1,0,0:0:0:0:
256,192,167596,12,0,169013,0:0:0:0:
143,132,169096,6,0,P|192:132|211:142,2,71.9999980926514
115,219,170513,5,0,0:0:0:0:
123,227,170930,2,0,P|135:248|161:261,1,53.9999985694885
260,217,171763,5,0,0:0:0:0:
317,86,171930,1,0,0:0:0:0:
176,100,172096,2,0,P|170:111|171:136,2,35.9999990463257
253,152,172930,5,0,0:0:0:0:
253,171,173263,1,0,0:0:0:0:
352,301,173430,1,0,0:0:0:0:
352,222,173596,1,0,0:0:0:0:
352,222,173762,1,0,0:0:0:0:
352,222,173929,1,0,0:0:0:0:
352,222,174096,1,0,0:0:0:0:
352,222,174263,1,0,0:0:0:0:
228,151,174430,1,0,0:0:0:0:
197,145,174513,6,0,P|173:154|136:188,2,71.9999980926514
213,155,175930,1,0,0:0:0:0:
324,256,176263,1,0,0:0:0:0:
154,226,176930,6,0,L|157:218,1,8.99999976158142
275,209,177096,2,0,P|273:174|267:164,1,44.9999988079071
137,163,177596,2,0,P|129:149|134:118,1,44.9999988079071
200,214,178096,2,0,P|202:249|208:259,1,44.9999988079071
338,260,178596,2,0,P|346:274|341:305,2,44.9999988079071
291,123,179763,6,0,B|357:91|448:146|448:146|379:136|362:164,1,251.99999332428
172,181,180430,2,0,B|157:251|195:296|195:296|205:241|220:230,1,179.999995231628
321,110,181096,2,0,L|321:160,1,35.9999990463257
285,51,181596,6,0,L|274:216,1,143.999996185303
280,137,182263,5,0,0:0:0:0:
280,137,182430,1,0,0:0:0:0:
147,160,182596,1,0,0:0:0:0:
332,333,182930,1,0,0:0:0:0:
287,151,183263,1,0,0:0:0:0:
287,151,183596,1,0,0:0:0:0:
137,191,183930,6,0,B|126:244|126:244|138:322,1,107.999997138977
308,199,184430,5,0,0:0:0:0:
308,199,184597,1,0,0:0:0:0:
229,319,184764,1,0,0:0:0:0:
189,90,184930,1,0,0:0:0:0:
109,235,185097,1,0,0:0:0:0:
104,262,185180,6,0,P|186:261|236:212,1,135.000001573563
364,209,185763,6,0,P|383:271|355:345,1,135.000001573563
99,174,186430,2,0,P|151:107|219:99,1,135.000001573563
474,38,187013,2,0,P|507:100|490:171,1,135.000001573563
266,225,187846,6,0,B|321:169|366:150|472:194|472:194|419:272|353:262|353:262|350:216|247:148,1,449.999988079071
179,69,188346,2,0,B|228:61|242:1|242:1|203:-24|153:18|153:18|124:8|98:81|98:81|151:98|137:223,1,359.999990463257
266,266,188763,2,0,B|356:285|395:205|395:205|462:246|506:298|506:298|425:317|425:317|453:244|453:244|477:204|451:109|451:109|369:135|325:47|325:47|325:132|254:197,1,877.500010228158
213,175,190096,5,0,0:0:0:0:
219,194,190263,1,0,0:0:0:0:
194,214,190430,1,0,0:0:0:0:
241,366,190596,6,0,B|241:264|241:264|279:241|279:241|281:214|281:214|264:208|264:208|272:149|272:149|315:31|315:31|333:124,1,449.999988079071
408,186,190930,1,0,0:0:0:0:
398,199,191013,1,0,0:0:0:0:
94,254,191097,6,0,L|114:156,1,89.9999976158143
180,229,191263,2,0,L|256:111,1,135.000001573563
283,251,191430,2,0,L|461:159,1,179.999995231629
247,35,191596,6,0,L|259:64,1,26.9999992847443
112,323,191930,2,0,B|84:259|131:163|131:163|182:191|208:242,1,224.999994039536
467,40,192096,6,0,L|453:69,1,26.9999992847443
282,100,192430,2,0,B|220:77|144:174|144:174|304:179|342:301|342:301|272:226|207:223|168:238,1,540.000006294251
115,239,192930,5,0,0:0:0:0:
184,277,193180,6,0,B|217:303|163:364|163:364|116:318|96:196|166:133|166:133|208:177,1,359.999990463257
239,181,193430,6,0,B|274:159|353:171|353:171|281:179|275:216,1,179.999995231629
175,298,193596,6,0,P|98:266|106:156,1,179.999995231629
139,72,193763,2,0,L|166:170,1,89.9999976158143
241,243,193888,2,0,L|249:225,1,17.9999995231628
281,55,194138,2,0,B|367:70|397:173|397:173|364:140|297:131,1,269.999992847443
98,298,194346,2,0,L|103:282,1,13.4999996423721
199,233,194555,6,0,L|234:119,1,89.9999976158143
333,242,194721,2,0,L|377:82,1,135.000001573563
132,51,195013,6,0,L|137:58,1,8.99999976158142
272,325,195180,2,0,B|338:254|312:78|312:78|241:123|236:195,1,359.999990463257
40,198,195430,6,0,L|63:148,1,33.7500003933907
106,268,195513,2,0,L|128:217,1,33.7500003933907
178,335,195596,2,0,L|194:288,1,33.7500003933907
312,321,195680,6,0,L|280:330,1,33.7500003933907
301,245,195763,2,0,L|268:251,1,33.7500003933907
308,155,195846,2,0,L|275:161,1,33.7500003933907
191,274,195930,5,0,0:0:0:0:
184,35,196013,1,0,0:0:0:0:
104,232,196096,1,0,0:0:0:0:
256,128,196180,2,0,B|366:112|424:171|424:171|376:161|324:181,1,269.999992847443
223,272,196513,2,0,B|210:233|210:233|196:289|196:289|213:297|213:297|221:378,1,179.999995231629
362,131,196680,2,0,B|323:144|323:144|379:158|379:158|387:141|387:141|468:133,1,179.999995231629
142,128,196846,2,0,B|180:143|180:143|146:96|146:96|129:104|129:104|62:58,1,179.999995231629
64,160,197013,5,0,0:0:0:0:
224,256,197096,1,0,0:0:0:0:
384,352,197180,1,0,0:0:0:0:
411,377,197263,6,0,B|449:295|376:144|376:144|310:169|328:264|328:264,1,359.999990463257
324,340,197513,1,0,0:0:0:0:
261,233,197596,1,0,0:0:0:0:
200,137,197680,1,0,0:0:0:0:
121,99,197763,6,0,L|108:136,1,35.9999990463257
216,144,198180,6,0,L|205:175,1,33.7500003933907
288,211,198263,2,0,L|274:241,1,33.7500003933907
354,281,198346,2,0,L|339:311,1,33.7500003933907
156,206,198513,5,0,0:0:0:0:
172,228,198846,1,0,0:0:0:0:
152,229,199180,1,0,0:0:0:0:
166,254,199513,2,0,B|200:274|200:274|194:241,3,67.5000007867814
307,159,199846,5,0,0:0:0:0:
311,272,200096,1,0,0:0:0:0:
150,159,200346,1,0,0:0:0:0:
248,74,200596,1,0,0:0:0:0:
320,224,200846,5,0,0:0:0:0:
192,224,200930,1,0,0:0:0:0:
256,128,201013,1,0,0:0:0:0:
328,229,201096,1,0,0:0:0:0:
200,229,201180,1,0,0:0:0:0:
291,201,201263,6,0,B|316:257|282:349|282:349|320:323|374:331|374:331|357:294|396:203|396:203|402:146|354:56|354:56|334:137|357:210|357:210|338:183|342:193,1,674.999982118607
82,52,201680,2,0,P|151:72|60:93,1,224.999994039536
147,240,201930,6,0,L|148:210,1,26.9999992847443
223,165,202263,2,0,L|224:197,1,26.9999992847443
312,290,202596,6,0,B|299:183|389:133|389:133|475:209|416:327,1,359.999990463257
170,253,202930,1,0,0:0:0:0:
167,144,203096,2,0,B|176:98|161:83|161:83|164:66|164:66|149:70|149:70|143:52|106:28|55:37|44:79|44:79|35:86|35:86|46:95|46:95|57:112|57:112|66:121|66:121|59:130|59:130|47:159|112:200,1,359.999990463257
316,215,203513,5,0,0:0:0:0:
185,156,203596,1,0,0:0:0:0:
308,171,203680,5,0,0:0:0:0:
222,125,203763,1,0,0:0:0:0:
309,139,203846,5,0,0:0:0:0:
249,106,203929,1,0,0:0:0:0:
303,98,204013,5,0,0:0:0:0:
274,89,204096,1,0,0:0:0:0:
296,63,204180,5,0,0:0:0:0:
296,63,204263,1,0,0:0:0:0:
361,133,204471,6,0,L|373:90,1,33.7500003933907
324,249,204555,2,0,L|335:204,1,33.7500003933907
304,336,204638,2,0,L|296:369,1,33.7500003933907
65,183,204763,6,0,P|68:136|86:106,1,44.9999988079071
82,198,204846,2,0,P|85:151|103:121,1,44.9999988079071
114,181,204930,2,0,P|117:134|135:104,1,44.9999988079071
149,105,205013,2,0,L|149:168,1,44.9999988079071
181,91,205096,2,0,L|183:124,1,26.9999992847443
323,233,205430,5,0,0:0:0:0:
128,62,205513,2,0,P|224:112|254:151,1,89.9999976158143
323,233,205680,5,0,0:0:0:0:
74,160,205763,2,0,P|182:164|225:187,1,89.9999976158143
243,286,205930,6,0,B|245:242|245:242|274:209,1,67.5000007867814
324,320,206096,2,0,B|355:289|355:289|359:246,1,67.5000007867814
287,210,206263,2,0,B|318:212|318:212|360:241,1,67.5000007867814
243,286,206430,6,0,P|283:211|312:326,1,270.000003147125
75,239,206680,6,0,L|81:200,1,35.9999990463257
196,320,207096,6,0,L|205:177,1,135.000001573563
278,204,207346,2,0,L|275:308,1,89.9999976158143
350,337,207513,2,0,L|354:180,1,135.000001573563
203,167,207680,6,0,L|204:190,1,17.9999995231628
297,345,207930,2,0,B|500:307|514:92|330:142|269:191|358:294|468:288,1,359.999990463257
324,28,208180,2,0,L|314:36,1,8.99999976158142
120,117,208346,2,0,B|55:167|74:278|74:278|193:293|229:160,1,359.999990463257
183,174,208763,6,0,L|175:190,12,16.8750001966953
212,301,209180,6,0,L|226:222,1,71.9999980926514
301,304,209430,2,0,L|339:170,1,125.999992816925
380,325,209680,2,0,L|475:140,1,179.999995231629
334,27,209930,6,0,L|337:48,1,17.9999995231628
183,174,210180,6,0,L|175:190,12,16.8750001966953
389,334,210513,6,0,P|340:212|414:72,1,270.000003147125
430,215,210763,1,0,0:0:0:0:
372,367,210846,2,0,P|286:232|331:87,1,270.000003147125
430,215,211096,1,0,0:0:0:0:
264,102,211180,2,0,P|221:206|293:371,1,270.000003147125
485,216,211430,6,0,B|429:187|429:187|385:181|385:181|379:198|379:198|362:197|362:197|290:186|290:186|261:160|261:160|236:168,1,270.000003147125
200,76,211763,2,0,P|90:165|207:142,2,270.000003147125
270,170,212263,1,0,0:0:0:0:
368,290,212513,1,0,0:0:0:0:
122,345,212763,1,0,0:0:0:0:
262,140,213013,1,0,0:0:0:0:
262,140,213263,1,0,0:0:0:0:
262,140,213513,1,0,0:0:0:0:
262,140,213763,1,0,0:0:0:0:
262,140,213930,1,0,0:0:0:0:
135,179,214096,5,0,0:0:0:0:
201,284,214263,1,0,0:0:0:0:
325,251,214430,1,0,0:0:0:0:
254,115,214596,1,0,0:0:0:0:
254,115,214763,1,0,0:0:0:0:
254,115,214930,1,0,0:0:0:0:
254,115,215096,1,0,0:0:0:0:
135,188,215263,5,0,0:0:0:0:
221,298,215430,1,0,0:0:0:0:
370,214,215596,1,0,0:0:0:0:
256,148,215763,1,0,0:0:0:0:
126,89,215930,5,0,0:0:0:0:
126,89,216096,1,0,0:0:0:0:
126,89,216263,1,0,0:0:0:0:
126,89,216430,1,0,0:0:0:0:
236,274,216596,5,0,0:0:0:0:
298,103,216763,1,0,0:0:0:0:
147,78,216930,5,0,0:0:0:0:
147,78,217096,1,0,0:0:0:0:
147,78,217263,1,0,0:0:0:0:
344,275,217430,1,0,0:0:0:0:
120,328,217596,1,0,0:0:0:0:
182,64,217763,1,0,0:0:0:0:
263,290,217930,1,0,0:0:0:0:
230,108,218096,5,0,0:0:0:0:
230,108,218263,1,0,0:0:0:0:
230,108,218430,1,0,0:0:0:0:
230,108,218596,1,0,0:0:0:0:
230,108,218763,1,0,0:0:0:0:
452,204,218930,5,0,0:0:0:0:
317,334,219096,1,0,0:0:0:0:
298,62,219263,1,0,0:0:0:0:
381,216,219430,1,0,0:0:0:0:
156,158,219596,1,0,0:0:0:0:
190,296,219763,1,0,0:0:0:0:
353,128,219930,5,0,0:0:0:0:
327,267,220096,1,0,0:0:0:0:
100,159,220263,1,0,0:0:0:0:
104,308,220430,1,0,0:0:0:0:
343,214,220596,1,0,0:0:0:0:
285,329,220763,1,0,0:0:0:0:
234,96,220930,1,0,0:0:0:0:
166,80,221096,6,0,L|169:228,1,135.000001573563
404,184,221263,2,0,L|406:335,1,135.000001573563
194,106,221430,2,0,L|199:271,1,135.000001573563
433,211,221596,2,0,L|435:353,1,135.000001573563
240,148,221763,1,0,0:0:0:0:
325,128,221930,1,0,0:0:0:0:
311,269,222096,1,0,0:0:0:0:
164,166,222263,1,0,0:0:0:0:
334,57,222430,1,0,0:0:0:0:
378,60,222513,6,0,L|338:212,1,135.000001573563
141,105,222680,1,0,0:0:0:0:
402,98,222763,6,0,L|362:250,1,135.000001573563
185,119,222930,1,0,0:0:0:0:
420,133,223013,6,0,L|380:285,1,135.000001573563
233,144,223180,1,0,0:0:0:0:
312,221,223263,2,0,B|347:238|347:238|282:271|282:271|240:249|240:249|211:228|211:228|88:237,1,179.999995231629
241,68,223430,1,0,0:0:0:0:
202,99,223513,1,0,0:0:0:0:
197,155,223596,1,0,0:0:0:0:
25,200,223680,6,0,L|219:246,1,179.999995231629
285,361,223846,2,0,L|89:317,1,179.999995231629
253,50,224013,5,0,0:0:0:0:
221,95,224096,1,0,0:0:0:0:
213,153,224180,1,0,0:0:0:0:
233,201,224263,1,0,0:0:0:0:
278,236,224346,1,0,0:0:0:0:
439,29,224430,2,0,B|455:-10|455:-10|477:41|477:41|454:89|454:89|463:150,1,179.999995231629
392,256,224596,2,0,B|376:295|376:295|354:244|354:244|377:196|377:196|368:135,1,179.999995231629
253,50,224763,5,0,0:0:0:0:
235,97,224846,1,0,0:0:0:0:
194,133,224930,1,0,0:0:0:0:
225,175,225013,1,0,0:0:0:0:
257,230,225096,1,0,0:0:0:0:
65,237,225180,6,0,B|71:280|71:280|43:247|43:247|53:210|53:210|42:191|42:191|58:123,1,179.999995231629
223,72,225346,2,0,B|259:84|259:84|285:128,1,67.5000007867814
159,131,225513,2,0,B|178:167|178:167|211:183,1,67.5000007867814
354,166,225680,1,0,0:0:0:0:
389,210,225763,1,0,0:0:0:0:
425,244,225846,1,0,0:0:0:0:
400,283,225930,1,0,0:0:0:0:
360,331,226013,1,0,0:0:0:0:
354,166,226096,5,0,0:0:0:0:
395,204,226180,1,0,0:0:0:0:
447,237,226262,1,0,0:0:0:0:
410,282,226346,1,0,0:0:0:0:
164,218,226430,6,0,B|145:192|145:192|151:140,1,67.5000007867814
314,330,226597,2,0,B|328:284|328:284|308:234,1,67.5000007867814
140,210,226763,2,0,B|121:184|121:184|127:132,1,67.5000007867814
334,351,226930,2,0,B|348:305|348:305|328:255,1,67.5000007867814
348,166,227096,6,0,B|370:228|370:228|330:324,1,135.000001573563
198,54,227263,2,0,B|170:115|170:115|207:199,1,135.000001573563
372,174,227429,2,0,B|399:237|399:237|358:310,1,135.000001573563
179,44,227596,2,0,B|149:110|149:110|193:200,1,135.000001573563
261,104,227763,1,0,0:0:0:0:
41,275,227929,5,0,0:0:0:0:
433,208,228096,1,0,0:0:0:0:
41,275,228263,5,0,0:0:0:0:
433,208,228430,1,0,0:0:0:0:
41,275,228596,5,0,0:0:0:0:
433,208,228763,1,0,0:0:0:0:
41,275,228930,5,0,0:0:0:0:
433,208,229096,1,0,0:0:0:0:
41,275,229263,6,0,L|110:265,1,67.5000007867814
433,208,229429,2,0,L|336:227,1,67.5000007867814
41,275,229596,6,0,L|110:265,1,67.5000007867814
433,208,229762,2,0,L|336:227,1,67.5000007867814
378,298,229929,6,0,L|369:207,1,67.5000007867814
183,53,230095,2,0,L|202:150,1,67.5000007867814
285,317,230262,6,0,L|275:248,1,67.5000007867814
264,92,230430,6,0,P|297:94|325:139,1,67.5000007867814
312,131,230513,2,0,P|309:172|284:207,1,67.5000007867814
293,171,230596,2,0,P|263:204|231:205,1,67.5000007867814
243,180,230680,2,0,P|206:170|163:184,1,67.5000007867814
191,203,230763,2,0,P|176:238|186:283,1,67.5000007867814
208,263,230846,2,0,P|242:294|291:284,1,67.5000007867814
279,284,230930,2,0,P|322:264|342:235,1,67.5000007867814
321,235,231013,6,0,P|362:200|362:159,1,67.5000007867814
339,186,231096,2,0,P|334:174|299:129,1,67.5000007867814
285,157,231180,2,0,P|252:131|259:91,1,67.5000007867814
276,90,231263,2,0,P|300:60|348:50,1,67.5000007867814
383,60,231346,6,0,P|426:104|371:68,3,179.999995231629
379,220,231513,6,0,P|336:176|391:212,5,179.999995231629
256,192,231763,12,0,233096,0:0:0:0:
245,122,233180,6,0,B|285:123|354:66|354:66|316:120|306:153|313:187|323:203,1,224.999994039536
263,240,233346,5,0,0:0:0:0:
234,266,233430,1,0,0:0:0:0:
106,67,233513,2,0,B|81:20|81:20|58:144,1,179.999995231629
204,298,233680,5,0,0:0:0:0:
217,288,233763,1,0,0:0:0:0:
352,52,233846,1,0,0:0:0:0:
363,78,233930,1,0,0:0:0:0:
174,102,234013,1,0,0:0:0:0:
141,82,234096,2,0,P|123:143|143:272,1,179.999995231629
456,211,234263,2,0,P|382:254|458:292,1,179.999995231629
294,264,234430,1,0,0:0:0:0:
279,248,234513,1,0,0:0:0:0:
316,250,234596,6,0,P|277:313|244:332,1,89.9999976158143
54,320,234763,2,0,P|89:262|87:220,1,89.9999976158143
294,159,234930,2,0,P|257:108|257:60,1,89.9999976158143
142,318,235096,5,0,0:0:0:0:
281,204,235180,1,0,0:0:0:0:
413,73,235263,1,0,0:0:0:0:
413,98,235346,1,0,0:0:0:0:
376,85,235430,1,0,0:0:0:0:
121,50,235513,6,0,P|142:115|111:221,1,179.999995231629
193,307,235680,6,0,L|194:284,1,17.9999995231628
457,177,235930,2,0,B|365:170|365:170|315:182|315:182|184:180,1,179.999995231629
87,45,236096,2,0,P|85:150|38:214,1,179.999995231629
242,198,236263,2,0,P|214:243|220:309,1,89.9999976158143
360,120,236430,5,0,0:0:0:0:
333,130,236513,1,0,0:0:0:0:
351,154,236596,1,0,0:0:0:0:
362,130,236680,1,0,0:0:0:0:
364,153,236763,1,0,0:0:0:0:
118,127,236846,6,0,P|218:82|319:89,1,135.000001573563
462,48,237013,2,0,L|452:246,1,179.999995231629
320,256,237180,5,0,0:0:0:0:
232,139,237263,1,0,0:0:0:0:
180,285,237346,1,0,0:0:0:0:
91,362,237430,6,0,B|77:267|77:267|99:212|99:212|80:175|80:175|72:117|72:117|100:79|100:79|104:-15,1,359.999990463257
487,182,237680,6,0,P|357:176|293:219,1,179.999995231629
148,223,237846,2,0,P|268:227|336:175,1,179.999995231629
55,40,238013,2,0,L|220:140,1,179.999995231629
157,277,238180,2,0,P|294:263|375:288,1,179.999995231629
351,96,238346,6,0,L|405:181,1,89.9999976158143
198,213,238513,2,0,P|180:274|145:313,1,89.9999976158143
198,213,238680,2,0,P|170:259|166:308,1,89.9999976158143
234,71,238846,6,0,B|341:103|341:103|353:95|353:95|353:107|353:107|444:130|444:130|428:190|428:190|440:207|440:207|424:211|424:211|418:245|418:245|349:226,1,359.999990463257
78,178,239096,6,0,P|94:238|43:368,1,179.999995231629
276,271,239263,6,0,P|237:248|223:217,1,67.5000007867814
345,192,239430,2,0,P|320:155|283:148,1,67.5000007867814
134,54,239596,2,0,L|130:74,1,17.9999995231628
257,126,239846,6,0,P|248:177|184:254,1,135.000001573563
343,343,240013,2,0,P|338:273|375:207,1,135.000001573563
99,333,240180,6,0,B|50:239|67:110|67:110|158:136|198:229,1,359.999990463257
166,284,240430,1,0,0:0:0:0:
259,212,240513,6,0,L|252:187,1,16.8750001966953
351,173,240596,2,0,L|344:148,1,16.8750001966953
448,135,240680,2,0,L|441:110,1,16.8750001966953
208,285,240763,6,0,L|183:292,1,16.8750001966953
169,193,240846,2,0,L|144:200,1,16.8750001966953
131,96,240930,2,0,L|106:103,1,16.8750001966953
296,85,241013,6,0,P|337:102|363:146,1,67.5000007867814
169,118,241180,2,0,B|181:171|181:171|161:217|161:217|166:325,1,179.999995231629
256,288,241346,5,0,0:0:0:0:
384,256,241430,1,0,0:0:0:0:
352,128,241513,1,0,0:0:0:0:
224,160,241596,1,0,0:0:0:0:
60,255,241680,5,0,0:0:0:0:
276,219,241763,1,0,0:0:0:0:
497,183,241846,2,0,L|453:192,1,33.7500003933907
357,146,241930,6,0,P|260:113|134:145,1,179.999995231629
4,138,242096,2,0,P|102:152|195:115,1,188.999989225388
79,191,242263,2,0,B|40:279|99:355|99:355|202:332|178:149,1,359.999990463257
245,65,242513,6,0,B|222:40|222:40|280:62|280:62|297:58|297:58|293:67|293:67|378:107,1,179.999995231629
384,160,242680,1,0,0:0:0:0:
288,256,242763,1,0,0:0:0:0:
256,128,242846,1,0,0:0:0:0:
106,61,242930,2,0,P|113:114|86:162,1,89.9999976158143
282,114,243096,2,0,P|239:175|249:276,1,135.000001573563
355,225,243263,5,0,0:0:0:0:
367,218,243346,1,0,0:0:0:0:
367,246,243430,1,0,0:0:0:0:
354,198,243513,1,0,0:0:0:0:
335,233,243596,1,0,0:0:0:0:
117,205,243680,6,0,L|251:106,1,135.000001573563
325,60,243846,6,0,P|373:88|466:89,1,135.000001573563
412,190,244013,2,0,P|322:202|283:241,1,135.000001573563
222,115,244180,2,0,P|225:186|179:271,1,135.000001573563
117,304,244346,5,0,0:0:0:0:
125,315,244430,1,0,0:0:0:0:
104,325,244513,1,0,0:0:0:0:
114,293,244596,1,0,0:0:0:0:
124,331,244680,1,0,0:0:0:0:
128,236,244763,6,0,P|223:239|327:210,1,179.999995231629
389,350,244930,2,0,B|390:283|390:283|423:254|423:254|457:157,1,179.999995231629
281,191,245096,5,0,0:0:0:0:
161,164,245180,2,0,P|154:139|168:102,1,67.5000007867814
267,159,245346,2,0,P|277:118|264:82,1,67.5000007867814
425,49,245513,6,0,P|375:110|378:184,1,135.000001573563
366,289,245680,2,0,P|389:233|365:154,1,135.000001573563
138,118,245846,6,0,P|180:116|226:138,1,67.5000007867814
217,261,246013,2,0,P|252:267|301:259,1,67.5000007867814
380,350,246180,6,0,B|484:225|464:66|250:107|323:263|439:234,1,359.999990463257
189,194,246430,2,0,B|166:168|166:168|320:234,1,179.999995231629
236,313,246596,2,0,B|252:353|252:353|312:187,1,179.999995231629
424,295,246763,6,0,B|442:244|442:244|454:239|454:239|448:229|448:229|469:181|469:181|427:159|427:159|422:149|422:149|413:151|413:151|349:125,1,224.999994039536
245,159,246930,2,0,B|145:160|110:271|110:271|194:324|284:268,1,359.999990463257
445,214,247180,6,0,P|422:167|466:39,1,179.999995231629
270,121,247346,2,0,B|310:161|310:187|310:187|319:190|319:190|312:202|312:202|314:228|277:271,1,135.000001573563
85,170,247513,6,0,L|89:184,1,8.99999976158142
206,321,247680,2,0,L|412:263,1,179.999995231629
342,125,247846,6,0,P|366:78|363:143,3,179.999995231629
218,190,248013,2,0,P|194:237|197:172,3,179.999995231629
337,226,248180,2,0,P|384:250|319:247,4,179.999995231629
162,88,248430,6,0,L|160:111,1,17.9999995231628
227,165,248680,2,0,L|229:150,1,8.99999976158142
309,106,248846,2,0,L|306:146,1,35.9999990463257
178,231,249346,5,0,0:0:0:0:
201,211,249430,1,0,0:0:0:0:
224,231,249513,1,0,0:0:0:0:
260,220,249596,1,0,0:0:0:0:
298,243,249680,1,0,0:0:0:0:
342,244,249763,5,0,0:0:0:0:
361,258,249846,1,0,0:0:0:0:
342,269,249930,1,0,0:0:0:0:
366,249,250013,1,0,0:0:0:0:
372,260,250096,2,0,L|411:265,1,35.9999990463257
379,111,250513,5,0,0:0:0:0:
356,91,250597,1,0,0:0:0:0:
333,111,250680,1,0,0:0:0:0:
297,100,250763,1,0,0:0:0:0:
259,123,250847,1,0,0:0:0:0:
215,124,250930,5,0,0:0:0:0:
193,120,251013,1,0,0:0:0:0:
193,151,251096,1,0,0:0:0:0:
177,134,251180,1,0,0:0:0:0:
168,141,251263,2,0,L|120:140,1,44.9999988079071
264,92,251763,6,0,P|297:94|325:139,1,67.5000007867814
312,131,251846,2,0,P|309:172|284:207,1,67.5000007867814
293,171,251929,2,0,P|263:204|231:205,1,67.5000007867814
243,180,252013,2,0,P|206:170|163:184,1,67.5000007867814
191,203,252096,2,0,P|176:238|186:283,1,67.5000007867814
208,263,252179,2,0,P|242:294|291:284,1,67.5000007867814
279,284,252263,2,0,P|322:264|342:235,1,67.5000007867814
321,235,252346,6,0,P|362:200|362:159,1,67.5000007867814
339,186,252429,2,0,P|334:174|299:129,1,67.5000007867814
285,157,252513,2,0,P|252:131|259:91,1,67.5000007867814
276,90,252596,2,0,P|300:60|348:50,1,67.5000007867814
325,85,252680,2,0,P|353:81|403:125,1,89.9999976158143
383,60,252763,6,0,P|426:104|371:68,4,179.999995231629
379,220,252971,6,0,P|336:176|391:212,5,179.999995231629
256,192,253263,12,0,254263,0:0:0:0:
210,0,254430,6,0,B|212:41|212:41|221:58|221:58|224:109|224:109|210:150|210:150|216:200|216:200|235:210|235:210|237:290|237:290|216:325|216:325|211:391,1,405.000004720688
374,69,254763,1,0,0:0:0:0:
360,60,254846,1,0,0:0:0:0:
357,82,254930,1,0,0:0:0:0:
376,90,255013,1,0,0:0:0:0:
367,63,255096,1,0,0:0:0:0:
245,98,255180,6,0,B|304:212|259:334|259:334|265:298|172:154,1,359.999990463257
77,220,255430,5,0,0:0:0:0:
84,195,255513,1,0,0:0:0:0:
70,164,255597,1,0,0:0:0:0:
79,200,255680,1,0,0:0:0:0:
108,176,255763,1,0,0:0:0:0:
209,99,255846,6,0,B|286:121|286:121|297:112|297:112|298:123|298:123|349:138|349:138|350:147|350:147|360:140|360:140|420:157|420:157|408:206|408:206|414:217|414:217|405:218|405:218|385:292,1,359.999990463257
305,320,256096,1,0,0:0:0:0:
268,285,256180,1,0,0:0:0:0:
215,267,256263,1,0,0:0:0:0:
246,231,256346,1,0,0:0:0:0:
290,191,256430,1,0,0:0:0:0:
431,48,256513,6,8,P|293:94|264:137,1,179.999995231629
127,181,256680,2,8,P|233:169|283:77,1,179.999995231629
289,277,256846,5,0,0:0:0:0:
223,165,256930,1,0,0:0:0:0:
160,59,257013,1,0,0:0:0:0:
151,216,257096,6,0,L|150:194,1,17.9999995231628
221,158,257346,2,0,L|221:182,1,17.9999995231628
379,212,257596,2,0,P|447:258|321:291,1,270.000003147125
241,246,257846,5,0,0:0:0:0:
226,231,257930,1,0,0:0:0:0:
235,243,258013,1,0,0:0:0:0:
149,121,258096,2,0,P|120:187|53:234,1,135.000001573563
169,291,258263,5,0,0:0:0:0:
169,291,258346,1,0,0:0:0:0:
169,291,258430,1,0,0:0:0:0:
169,291,258513,1,0,0:0:0:0:
169,291,258596,6,0,P|192:229|243:172,1,135.000001573563
150,87,258763,2,0,P|152:158|103:215,1,135.000001573563
270,143,258930,5,0,0:0:0:0:
270,143,259013,1,0,0:0:0:0:
252,314,259096,1,0,0:0:0:0:
252,314,259180,1,0,0:0:0:0:
128,109,259263,2,0,P|118:186|72:242,1,135.000001573563
317,226,259430,1,0,0:0:0:0:
317,226,259513,5,0,0:0:0:0:
317,226,259596,1,0,0:0:0:0:
317,226,259680,1,0,0:0:0:0:
317,226,259763,1,0,0:0:0:0:
317,226,259846,6,0,L|170:243,1,135.000001573563
121,106,260013,5,0,0:0:0:0:
287,54,260096,1,0,0:0:0:0:
459,170,260180,1,0,0:0:0:0:
275,196,260263,2,0,P|294:244|387:312,1,135.000001573563
376,179,260430,2,0,P|357:131|264:63,1,135.000001573563
112,225,260596,5,0,0:0:0:0:
98,202,260680,1,0,0:0:0:0:
112,225,260763,1,0,0:0:0:0:
89,227,260846,1,0,0:0:0:0:
193,309,260930,2,0,B|207:231|207:231|247:165,1,135.000001573563
302,122,261096,1,0,0:0:0:0:
446,76,261180,2,0,B|414:147|453:239|453:239|404:168|351:152,1,270.000003147125
144,115,261430,5,0,0:0:0:0:
126,91,261513,1,0,0:0:0:0:
147,99,261596,1,0,0:0:0:0:
124,117,261680,1,0,0:0:0:0:
144,115,261763,1,0,0:0:0:0:
131,110,261846,1,0,0:0:0:0:
125,209,261930,6,0,B|111:268|111:268|128:358,1,135.000001573563
207,262,262096,2,0,B|228:195|228:195|202:110,1,135.000001573563
303,225,262263,1,0,0:0:0:0:
239,233,262346,6,0,P|286:309|403:330,1,179.999995231629
366,224,262513,2,0,B|351:161|426:20|426:20|309:113|281:234,1,359.999990463257
197,163,262763,5,0,0:0:0:0:
197,163,262846,1,0,0:0:0:0:
170,152,262930,1,0,0:0:0:0:
191,184,263013,1,0,0:0:0:0:
149,264,263096,6,0,L|133:261,1,16.8750001966953
315,302,263180,2,0,L|295:295,1,16.8750001966953
428,330,263263,2,0,L|446:335,1,16.8750001966953
305,123,263346,5,0,0:0:0:0:
319,168,263430,1,0,0:0:0:0:
294,208,263513,1,0,0:0:0:0:
252,230,263596,1,0,0:0:0:0:
205,219,263680,1,0,0:0:0:0:
172,185,263763,1,0,0:0:0:0:
172,137,263846,1,0,0:0:0:0:
195,95,263930,1,0,0:0:0:0:
328,74,264013,6,0,P|368:92|384:121,1,67.5000007867814
351,118,264096,2,0,P|347:161|310:197,1,67.5000007867814
325,161,264180,2,0,P|279:169|254:144,1,67.5000007867814
293,151,264263,2,0,P|246:124|201:145,1,67.5000007867814
251,147,264346,2,0,P|231:166|224:224,1,67.5000007867814
257,189,264430,2,0,P|258:249|275:262,1,67.5000007867814
283,221,264513,2,0,P|305:246|351:254,1,67.5000007867814
409,221,264596,2,0,L|419:51,1,135.000001573563
150,189,264763,2,0,L|148:355,1,135.000001573563
447,144,264930,2,0,L|452:-37,1,135.000001573563
82,314,265096,5,0,0:0:0:0:
113,64,265263,1,0,0:0:0:0:
209,320,265430,5,0,0:0:0:0:
239,60,265596,1,0,0:0:0:0:
322,335,265763,5,0,0:0:0:0:
353,47,265929,1,0,0:0:0:0:
464,343,266096,5,0,0:0:0:0:
487,35,266263,1,0,0:0:0:0:
450,338,266430,5,0,0:0:0:0:
13,285,266597,1,0,0:0:0:0:
433,240,266764,5,0,0:0:0:0:
86,205,266930,1,0,0:0:0:0:
456,152,267097,5,0,0:0:0:0:
147,115,267263,1,0,0:0:0:0:
449,73,267430,5,0,0:0:0:0:
210,52,267597,1,0,0:0:0:0:
259,92,267763,5,0,0:0:0:0:
179,303,267930,1,0,0:0:0:0:
272,114,268096,5,0,0:0:0:0:
253,350,268263,1,0,0:0:0:0:
287,115,268430,5,0,0:0:0:0:
344,356,268597,1,0,0:0:0:0:
260,102,268763,5,0,0:0:0:0:
427,262,268930,1,0,0:0:0:0:
237,116,269096,5,0,0:0:0:0:
479,179,269263,1,0,0:0:0:0:
214,122,269430,5,0,0:0:0:0:
486,76,269597,1,0,0:0:0:0:
256,320,269763,5,0,0:0:0:0:
416,64,269930,1,0,0:0:0:0:
96,64,270096,1,0,0:0:0:0:
256,192,270263,5,0,0:0:0:0:
472,293,270430,6,0,L|471:223,1,67.5000007867814
473,98,270596,2,0,L|474:187,1,67.5000007867814
384,305,270763,6,0,L|371:232,1,67.5000007867814
381,69,270929,2,0,L|372:159,1,67.5000007867814
291,334,271096,6,0,L|263:264,1,67.5000007867814
290,42,271262,2,0,L|266:129,1,67.5000007867814
198,379,271430,6,0,L|138:266,1,67.5000007867814
207,3,271596,2,0,L|168:74,1,67.5000007867814
264,92,271763,6,0,P|297:94|325:139,1,67.5000007867814
312,131,271846,2,0,P|309:172|284:207,1,67.5000007867814
293,171,271929,2,0,P|263:204|231:205,1,67.5000007867814
243,180,272013,2,0,P|206:170|163:184,1,67.5000007867814
191,203,272096,2,0,P|176:238|186:283,1,67.5000007867814
208,263,272179,2,0,P|242:294|291:284,1,67.5000007867814
279,284,272263,2,0,P|322:264|342:235,1,67.5000007867814
321,235,272346,6,0,P|362:200|362:159,1,67.5000007867814
339,186,272429,2,0,P|334:174|299:129,1,67.5000007867814
285,157,272513,2,0,P|252:131|259:91,1,67.5000007867814
276,90,272596,2,0,P|300:60|348:50,1,67.5000007867814
383,60,272680,6,0,P|426:104|371:68,4,179.999995231629
379,220,272888,6,0,P|336:176|391:212,5,179.999995231629
69,48,273180,6,0,B|121:143|129:308|129:308|178:237|260:233,1,405.000004720688
273,79,273596,2,0,P|385:165|237:128,1,405.000004720688
250,161,274096,6,0,P|293:205|238:169,38,179.999995231629
256,92,275763,5,0,0:0:0:0:
347,176,275930,1,0,0:0:0:0:
257,272,276096,1,0,0:0:0:0:
152,198,276263,1,0,0:0:0:0:
208,107,276430,1,0,0:0:0:0:
208,107,276596,1,0,0:0:0:0:
208,107,276763,1,0,0:0:0:0:
208,107,276930,1,0,0:0:0:0:
273,224,277096,5,0,0:0:0:0:
136,254,277263,1,0,0:0:0:0:
111,146,277430,1,0,0:0:0:0:
230,128,277596,1,0,0:0:0:0:
428,68,277763,5,0,0:0:0:0:
469,125,277930,1,0,0:0:0:0:
454,192,278096,1,0,0:0:0:0:
408,241,278263,1,0,0:0:0:0:
232,119,278430,5,0,0:0:0:0:
232,119,278596,1,0,0:0:0:0:
232,119,278763,1,0,0:0:0:0:
232,119,278930,1,0,0:0:0:0:
137,255,279096,1,0,0:0:0:0:
331,265,279263,5,0,0:0:0:0:
389,287,279430,1,0,0:0:0:0:
420,347,279596,1,0,0:0:0:0:
378,377,279763,1,0,0:0:0:0:
323,367,279930,1,0,0:0:0:0:
198,141,280096,5,0,0:0:0:0:
198,141,280263,1,0,0:0:0:0:
198,141,280430,1,0,0:0:0:0:
198,141,280596,1,0,0:0:0:0:
427,209,280763,5,0,0:0:0:0:
427,209,280930,1,0,0:0:0:0:
329,312,281096,1,0,0:0:0:0:
251,321,281263,1,0,0:0:0:0:
192,170,281430,1,0,0:0:0:0:
192,170,281596,1,0,0:0:0:0:
192,170,281763,1,0,0:0:0:0:
192,170,281930,1,0,0:0:0:0:
289,63,282096,5,0,0:0:0:0:
447,281,282263,1,0,0:0:0:0:
190,324,282430,1,0,0:0:0:0:
254,95,282596,1,0,0:0:0:0:
349,285,282763,1,0,0:0:0:0:
150,172,282930,1,0,0:0:0:0:
212,324,283096,5,0,0:0:0:0:
228,138,283263,1,0,0:0:0:0:
228,138,283430,1,0,0:0:0:0:
228,138,283596,1,0,0:0:0:0:
228,138,283763,1,0,0:0:0:0:
228,138,283930,1,0,0:0:0:0:
228,138,284096,1,0,0:0:0:0:
228,138,284263,1,0,0:0:0:0:
358,184,284430,5,0,0:0:0:0:
271,243,284596,1,0,0:0:0:0:
158,252,284763,1,0,0:0:0:0:
207,326,284930,1,0,0:0:0:0:
305,279,285096,1,0,0:0:0:0:
294,172,285263,1,0,0:0:0:0:
374,110,285430,1,0,0:0:0:0:
425,209,285596,1,0,0:0:0:0:
189,178,285763,1,0,0:0:0:0:
297,269,285930,5,0,0:0:0:0:
297,269,286096,1,0,0:0:0:0:
297,269,286263,1,0,0:0:0:0:
297,269,286430,1,0,0:0:0:0:
297,269,286596,1,0,0:0:0:0:
176,96,286763,5,0,0:0:0:0:
176,96,286930,1,0,0:0:0:0:
176,96,287096,1,0,0:0:0:0:
176,96,287263,1,0,0:0:0:0:
325,235,287430,1,0,0:0:0:0:
257,339,287596,1,0,0:0:0:0:
242,172,287763,1,0,0:0:0:0:
424,130,287930,1,0,0:0:0:0:
369,323,288096,5,0,0:0:0:0:
369,323,288263,1,0,0:0:0:0:
369,323,288430,1,0,0:0:0:0:
369,323,288596,1,0,0:0:0:0:
369,323,288763,1,0,0:0:0:0:
369,323,288930,1,0,0:0:0:0:
215,200,289096,1,0,0:0:0:0:
205,320,289263,1,0,0:0:0:0:
156,238,289430,1,0,0:0:0:0:
339,252,289596,1,0,0:0:0:0:
342,100,289763,1,0,0:0:0:0:
165,73,289930,5,0,0:0:0:0:
214,212,290096,1,0,0:0:0:0:
87,163,290263,1,0,0:0:0:0:
203,313,290430,5,0,0:0:0:0:
296,152,290596,1,0,0:0:0:0:
355,308,290763,1,0,0:0:0:0:
417,180,290930,1,0,0:0:0:0:
236,119,291096,5,0,0:0:0:0:
236,119,291263,1,0,0:0:0:0:
236,119,291430,1,0,0:0:0:0:
236,119,291596,1,0,0:0:0:0:
328,234,291763,5,0,0:0:0:0:
328,234,291930,1,0,0:0:0:0:
328,234,292096,1,0,0:0:0:0:
328,234,292263,1,0,0:0:0:0:
328,234,292430,1,0,0:0:0:0:
150,301,292596,1,0,0:0:0:0:
171,153,292763,1,0,0:0:0:0:
315,313,292930,1,0,0:0:0:0:
342,136,293096,1,0,0:0:0:0:
197,174,293263,5,0,0:0:0:0:
197,174,293430,1,0,0:0:0:0:
197,174,293596,1,0,0:0:0:0:
197,174,293763,1,0,0:0:0:0:
281,295,293930,1,0,0:0:0:0:
178,304,294096,1,0,0:0:0:0:
274,167,294263,1,0,0:0:0:0:
256,192,294430,12,0,296930,0:0:0:0:
308,175,297096,6,0,L|296:178,2,8.99999976158142
