osu file format v14

[General]
AudioFilename: audio.mp3
AudioLeadIn: 0
PreviewTime: 26408
Countdown: 0
SampleSet: Normal
StackLeniency: 0.7
Mode: 3
LetterboxInBreaks: 0
SpecialStyle: 0
WidescreenStoryboard: 0

[Editor]
DistanceSpacing: 0.8
BeatDivisor: 4
GridSize: 32
TimelineZoom: 1.2

[Metadata]
Title:EDM Jumpers
TitleUnicode:EDM Jumpers
Artist:Camellia Ft. Nanahira
ArtistUnicode:Camellia Ft. Nanahira
Creator:L A U R A
Version:Are You Ready?
Source:
Tags:DubStep loli jump bassdrop electro
BeatmapID:1042510
BeatmapSetID:489075

[Difficulty]
HPDrainRate:8
CircleSize:4
OverallDifficulty:8
ApproachRate:5
SliderMultiplier:1.4
SliderTickRate:1

[Events]
//Background and Video events
0,0,"maxresdefault (2).jpg",0,0
//Break Periods
//Storyboard Layer 0 (Background)
//Storyboard Layer 1 (Fail)
//Storyboard Layer 2 (Pass)
//Storyboard Layer 3 (Foreground)
//Storyboard Sound Samples

[TimingPoints]
730,413.793103448276,4,1,0,5,1,0
730,-142.857142857143,4,1,0,5,0,0
7350,-125,4,1,0,5,0,0
8798,-111.111111111111,4,1,0,5,0,0
11482,-100,4,1,0,50,0,0
13965,-100,4,1,0,80,0,0
38792,-66.6666666666667,4,1,0,80,0,0
39103,-100,4,1,0,80,0,0
39310,-100,4,1,0,80,0,0
39724,-66.6666666666667,4,1,0,80,0,0
39930,-100,4,1,0,80,0,0
53695,-153.846153846153,4,1,0,80,0,0
54419,-100,4,1,0,80,0,0
56592,-66.6666666666667,4,1,0,80,0,0
56902,-100,4,1,0,80,0,0
58350,-153.846153846153,4,1,0,80,0,0
58454,-100,4,1,0,80,0,0
59902,-153.846153846153,4,1,0,80,0,0
60212,-100,4,1,0,80,0,0
63212,-153.846153846153,4,1,0,80,0,0
63312,-100,4,1,0,80,0,0
92488,-66.6666666666667,4,1,0,80,0,0
92902,-100,4,1,0,80,0,0
93005,-66.6666666666667,4,1,0,80,0,0
93316,-100,4,1,0,80,0,0
93419,-100,4,1,0,80,0,1
118247,-153.846153846153,4,1,0,80,0,1
118764,-100,4,1,0,80,0,1
133247,-100,4,1,0,80,0,0
144626,-66.6666666666667,4,1,0,80,0,0
145040,-100,4,1,0,80,0,0
145143,-66.6666666666667,4,1,0,80,0,0
145454,-100,4,1,0,80,0,0
145557,-66.6666666666667,4,1,0,80,0,0
145867,-100,4,1,0,80,0,0
159626,-153.846153846153,4,1,0,80,0,0
160350,-100,4,1,0,80,0,0
165730,-153.846153846153,4,1,0,80,0,0
166143,-100,4,1,0,80,0,0
169557,-153.846153846153,4,1,0,80,0,0
170902,-100,4,1,0,80,0,0
173902,-66.6666666666667,4,1,0,80,0,0
174005,-100,4,1,0,80,0,0
174109,-66.6666666666667,4,1,0,80,0,0
174212,-100,4,1,0,80,0,0
174316,-66.6666666666667,4,1,0,80,0,0
174419,-100,4,1,0,80,0,0
182798,-66.6666666666667,4,1,0,80,0,0
183109,-100,4,1,0,80,0,0
183212,-153.846153846153,4,1,0,80,0,0
183523,-100,4,1,0,80,0,0
183626,-66.6666666666667,4,1,0,80,0,0
183936,-100,4,1,0,80,0,0
184040,-153.846153846153,4,1,0,80,0,0
184350,-100,4,1,0,80,0,0
184454,-66.6666666666667,4,1,0,80,0,0
184764,-100,4,1,0,80,0,0
184867,-153.846153846153,4,1,0,80,0,0
185178,-100,4,1,0,80,0,0
199350,-142.857142857143,4,1,0,80,0,0
201005,-125,4,1,0,60,0,0
202661,-111.111111111111,4,1,0,60,0,0
219109,-100,4,1,0,60,0,0
220867,-100,4,1,0,70,0,0
224178,-100,4,1,0,80,0,0
225005,-66.6666666666667,4,1,0,80,0,0
225316,-100,4,1,0,80,0,0
225419,-66.6666666666667,4,1,0,80,0,0
225730,-100,4,1,0,80,0,1
239178,-181.818181818181,4,1,0,80,0,1
239281,-100,4,1,0,80,0,1
278385,-153.846153846153,4,1,0,80,0,1
278695,-100,4,1,0,80,0,0
292040,-111.111111111111,4,1,0,40,0,0
295143,-125,4,1,0,40,0,0
299488,-142.857142857143,4,1,0,40,0,0
303419,-166.666666666667,4,1,0,40,0,0

[HitObjects]
192,192,730,128,0,2178:0:0:0:0:
448,192,730,128,0,1557:0:0:0:0:
64,192,1557,128,0,3833:0:0:0:0:
448,192,2178,128,0,5488:0:0:0:0:
320,192,3833,128,0,7350:0:0:0:0:
192,192,5488,128,0,7350:0:0:0:0:
448,192,7350,128,0,8178:0:0:0:0:
64,192,7350,128,0,8178:0:0:0:0:
192,192,8178,128,0,8798:0:0:0:0:
320,192,8178,1,0,0:0:0:0:
448,192,8798,128,0,10454:0:0:0:0:
320,192,8798,128,0,10454:0:0:0:0:
192,192,10454,128,0,12109:0:0:0:0:
64,192,10454,128,0,12109:0:0:0:0:
320,192,12109,128,0,13557:0:0:0:0:
448,192,12109,128,0,13557:0:0:0:0:
192,192,13557,1,0,0:0:0:0:
64,192,13557,1,0,0:0:0:0:
64,192,13971,1,0,0:0:0:0:
448,192,13971,128,0,14178:0:0:0:0:
64,192,14178,128,0,14385:0:0:0:0:
192,192,14178,1,0,0:0:0:0:
320,192,14385,1,0,0:0:0:0:
448,192,14385,128,0,14592:0:0:0:0:
192,192,14592,1,0,0:0:0:0:
64,192,14592,128,0,14798:0:0:0:0:
320,192,14798,1,0,0:0:0:0:
448,192,14798,128,0,15005:0:0:0:0:
192,192,15005,1,0,0:0:0:0:
320,192,15005,128,0,15212:0:0:0:0:
192,192,15419,1,0,0:0:0:0:
64,192,15419,128,0,15833:0:0:0:0:
192,192,15833,1,0,0:0:0:0:
320,192,15936,1,0,0:0:0:0:
192,192,16040,1,0,0:0:0:0:
448,192,16040,128,0,16454:0:0:0:0:
192,192,16661,1,0,0:0:0:0:
64,192,16661,128,0,16867:0:0:0:0:
448,192,16867,1,0,0:0:0:0:
320,192,16867,128,0,17074:0:0:0:0:
192,192,17074,128,0,17488:0:0:0:0:
64,192,17074,1,0,0:0:0:0:
448,192,17695,128,0,17902:0:0:0:0:
64,192,17695,1,0,0:0:0:0:
320,192,17902,1,0,0:0:0:0:
192,192,17902,128,0,18316:0:0:0:0:
320,192,18523,1,0,0:0:0:0:
64,192,18523,128,0,18730:0:0:0:0:
192,192,18730,1,0,0:0:0:0:
448,192,18730,128,0,19143:0:0:0:0:
320,192,19143,1,0,0:0:0:0:
192,192,19143,128,0,19557:0:0:0:0:
64,192,19557,1,0,0:0:0:0:
448,192,19557,1,0,0:0:0:0:
320,192,19557,128,0,19971:0:0:0:0:
320,192,20178,1,0,0:0:0:0:
448,192,20178,1,0,0:0:0:0:
64,192,20178,1,0,0:0:0:0:
448,192,20592,1,0,0:0:0:0:
64,192,20592,1,0,0:0:0:0:
192,192,20592,128,0,20798:0:0:0:0:
192,192,20798,1,0,0:0:0:0:
320,192,20798,128,0,21005:0:0:0:0:
64,192,20798,1,0,0:0:0:0:
448,192,21005,1,0,0:0:0:0:
192,192,21005,128,0,21212:0:0:0:0:
64,192,21212,1,0,0:0:0:0:
320,192,21212,128,0,21419:0:0:0:0:
448,192,21419,1,0,0:0:0:0:
192,192,21419,128,0,21626:0:0:0:0:
64,192,21626,1,0,0:0:0:0:
320,192,21626,128,0,21833:0:0:0:0:
64,192,22040,1,0,0:0:0:0:
448,192,22040,128,0,22454:0:0:0:0:
192,192,22454,1,0,0:0:0:0:
320,192,22557,1,0,0:0:0:0:
64,192,22661,128,0,23074:0:0:0:0:
192,192,22661,1,0,0:0:0:0:
192,192,23281,1,0,0:0:0:0:
320,192,23281,128,0,23488:0:0:0:0:
448,192,23488,1,0,0:0:0:0:
64,192,23488,1,0,0:0:0:0:
192,192,23592,1,0,0:0:0:0:
64,192,23695,128,0,24109:0:0:0:0:
320,192,23695,1,0,0:0:0:0:
192,192,24109,1,0,0:0:0:0:
320,192,24109,128,0,24316:0:0:0:0:
448,192,24316,1,0,0:0:0:0:
64,192,24316,128,0,24730:0:0:0:0:
320,192,24936,1,0,0:0:0:0:
448,192,24936,128,0,25143:0:0:0:0:
64,192,25143,1,0,0:0:0:0:
192,192,25143,128,0,25350:0:0:0:0:
320,192,25350,1,0,0:0:0:0:
448,192,25350,128,0,25764:0:0:0:0:
64,192,25764,1,0,0:0:0:0:
192,192,25764,1,0,0:0:0:0:
64,192,25971,1,0,0:0:0:0:
192,192,25971,1,0,0:0:0:0:
320,192,25971,1,0,0:0:0:0:
448,192,26178,1,0,0:0:0:0:
448,192,26281,1,0,0:0:0:0:
64,192,26385,1,0,0:0:0:0:
320,192,26385,1,0,0:0:0:0:
320,192,26592,1,0,0:0:0:0:
192,192,26798,1,0,0:0:0:0:
448,192,26798,1,0,0:0:0:0:
64,192,27212,1,0,0:0:0:0:
320,192,27212,1,0,0:0:0:0:
448,192,27212,1,0,0:0:0:0:
192,192,27419,1,0,0:0:0:0:
192,192,27626,1,0,0:0:0:0:
448,192,27626,1,0,0:0:0:0:
64,192,27833,1,0,0:0:0:0:
64,192,27936,1,0,0:0:0:0:
192,192,28040,1,0,0:0:0:0:
448,192,28040,1,0,0:0:0:0:
320,192,28247,1,0,0:0:0:0:
192,192,28454,1,0,0:0:0:0:
64,192,28454,1,0,0:0:0:0:
448,192,28661,1,0,0:0:0:0:
448,192,28764,1,0,0:0:0:0:
64,192,28867,1,0,0:0:0:0:
320,192,28867,1,0,0:0:0:0:
192,192,29074,1,0,0:0:0:0:
192,192,29281,1,0,0:0:0:0:
448,192,29281,1,0,0:0:0:0:
320,192,29488,1,0,0:0:0:0:
64,192,29695,1,0,0:0:0:0:
320,192,29695,1,0,0:0:0:0:
448,192,29902,1,0,0:0:0:0:
64,192,30109,1,0,0:0:0:0:
448,192,30109,1,0,0:0:0:0:
320,192,30316,1,0,0:0:0:0:
320,192,30419,1,0,0:0:0:0:
64,192,30523,1,0,0:0:0:0:
192,192,30523,1,0,0:0:0:0:
448,192,30730,1,0,0:0:0:0:
192,192,30936,1,0,0:0:0:0:
64,192,30936,1,0,0:0:0:0:
448,192,31143,1,0,0:0:0:0:
192,192,31350,1,0,0:0:0:0:
448,192,31350,1,0,0:0:0:0:
320,192,31557,1,0,0:0:0:0:
64,192,31764,1,0,0:0:0:0:
448,192,31764,1,0,0:0:0:0:
192,192,31971,1,0,0:0:0:0:
192,192,32074,1,0,0:0:0:0:
64,192,32178,1,0,0:0:0:0:
448,192,32178,1,0,0:0:0:0:
192,192,32385,1,0,0:0:0:0:
64,192,32592,1,0,0:0:0:0:
448,192,32592,1,0,0:0:0:0:
320,192,32798,1,0,0:0:0:0:
320,192,32902,1,0,0:0:0:0:
64,192,33005,1,0,0:0:0:0:
448,192,33005,1,0,0:0:0:0:
192,192,33212,1,0,0:0:0:0:
320,192,33316,1,0,0:0:0:0:
192,192,33419,1,0,0:0:0:0:
448,192,33419,1,0,0:0:0:0:
64,192,33626,1,0,0:0:0:0:
192,192,33730,1,0,0:0:0:0:
448,192,33833,1,0,0:0:0:0:
320,192,33833,1,0,0:0:0:0:
64,192,34040,1,0,0:0:0:0:
320,192,34040,1,0,0:0:0:0:
320,192,34247,1,0,0:0:0:0:
192,192,34247,1,0,0:0:0:0:
448,192,34454,1,0,0:0:0:0:
192,192,34454,1,0,0:0:0:0:
320,192,34661,1,0,0:0:0:0:
448,192,34661,1,0,0:0:0:0:
64,192,34867,1,0,0:0:0:0:
320,192,34867,1,0,0:0:0:0:
192,192,35074,1,0,0:0:0:0:
64,192,35074,1,0,0:0:0:0:
448,192,35281,1,0,0:0:0:0:
192,192,35281,1,0,0:0:0:0:
320,192,35488,1,0,0:0:0:0:
448,192,35488,1,0,0:0:0:0:
64,192,35695,1,0,0:0:0:0:
320,192,35695,1,0,0:0:0:0:
192,192,35902,1,0,0:0:0:0:
448,192,35902,1,0,0:0:0:0:
448,192,36109,1,0,0:0:0:0:
320,192,36109,1,0,0:0:0:0:
64,192,36316,1,0,0:0:0:0:
320,192,36316,1,0,0:0:0:0:
320,192,36523,1,0,0:0:0:0:
192,192,36523,1,0,0:0:0:0:
192,192,36730,1,0,0:0:0:0:
448,192,36730,1,0,0:0:0:0:
64,192,36936,1,0,0:0:0:0:
192,192,36936,1,0,0:0:0:0:
320,192,37143,1,0,0:0:0:0:
448,192,37143,1,0,0:0:0:0:
64,192,37247,1,0,0:0:0:0:
192,192,37247,1,0,0:0:0:0:
320,192,37350,1,0,0:0:0:0:
448,192,37350,1,0,0:0:0:0:
64,192,37454,1,0,0:0:0:0:
192,192,37454,1,0,0:0:0:0:
320,192,37557,1,0,0:0:0:0:
448,192,37557,1,0,0:0:0:0:
64,192,37661,1,0,0:0:0:0:
192,192,37661,1,0,0:0:0:0:
320,192,37764,1,0,0:0:0:0:
448,192,37764,1,0,0:0:0:0:
64,192,37867,1,0,0:0:0:0:
192,192,37867,1,0,0:0:0:0:
320,192,37971,1,0,0:0:0:0:
448,192,37971,1,0,0:0:0:0:
64,192,38074,1,0,0:0:0:0:
192,192,38074,1,0,0:0:0:0:
320,192,38178,1,0,0:0:0:0:
448,192,38178,1,0,0:0:0:0:
64,192,38281,1,0,0:0:0:0:
192,192,38281,1,0,0:0:0:0:
320,192,38385,1,0,0:0:0:0:
448,192,38385,1,0,0:0:0:0:
64,192,38488,1,0,0:0:0:0:
192,192,38488,1,0,0:0:0:0:
320,192,38592,1,0,0:0:0:0:
448,192,38592,1,0,0:0:0:0:
64,192,38695,1,0,0:0:0:0:
192,192,38695,1,0,0:0:0:0:
320,192,38798,1,0,0:0:0:0:
448,192,38798,1,0,0:0:0:0:
448,192,39212,1,0,0:0:0:0:
192,192,39212,1,0,0:0:0:0:
64,192,39626,1,0,0:0:0:0:
448,192,39626,1,0,0:0:0:0:
64,192,40040,1,0,0:0:0:0:
192,192,40040,1,0,0:0:0:0:
320,192,40040,1,0,0:0:0:0:
448,192,40040,1,0,0:0:0:0:
192,192,40454,1,0,0:0:0:0:
448,192,40454,1,0,0:0:0:0:
64,192,40454,1,0,0:0:0:0:
320,192,40661,1,0,0:0:0:0:
192,192,40764,1,0,0:0:0:0:
64,192,40867,1,0,0:0:0:0:
448,192,40867,1,0,0:0:0:0:
320,192,41074,1,0,0:0:0:0:
320,192,41178,1,0,0:0:0:0:
64,192,41281,1,0,0:0:0:0:
192,192,41281,1,0,0:0:0:0:
448,192,41488,1,0,0:0:0:0:
192,192,41695,1,0,0:0:0:0:
448,192,41695,1,0,0:0:0:0:
320,192,41902,1,0,0:0:0:0:
192,192,42005,1,0,0:0:0:0:
64,192,42109,1,0,0:0:0:0:
320,192,42109,1,0,0:0:0:0:
192,192,42316,1,0,0:0:0:0:
320,192,42419,1,0,0:0:0:0:
64,192,42523,1,0,0:0:0:0:
448,192,42523,1,0,0:0:0:0:
192,192,42730,1,0,0:0:0:0:
192,192,42833,1,0,0:0:0:0:
448,192,42936,1,0,0:0:0:0:
320,192,42936,1,0,0:0:0:0:
320,192,43143,1,0,0:0:0:0:
64,192,43350,1,0,0:0:0:0:
320,192,43350,1,0,0:0:0:0:
192,192,43557,1,0,0:0:0:0:
64,192,43764,1,0,0:0:0:0:
320,192,43764,1,0,0:0:0:0:
448,192,43764,1,0,0:0:0:0:
192,192,43971,1,0,0:0:0:0:
64,192,44178,1,0,0:0:0:0:
320,192,44178,1,0,0:0:0:0:
192,192,44385,1,0,0:0:0:0:
320,192,44592,1,0,0:0:0:0:
448,192,44592,1,0,0:0:0:0:
192,192,44798,1,0,0:0:0:0:
192,192,44902,1,0,0:0:0:0:
64,192,45005,1,0,0:0:0:0:
320,192,45005,1,0,0:0:0:0:
448,192,45212,128,0,45316:0:0:0:0:
64,192,45419,1,0,0:0:0:0:
192,192,45471,1,0,0:0:0:0:
320,192,45523,1,0,0:0:0:0:
448,192,45574,1,0,0:0:0:0:
64,192,45626,1,0,0:0:0:0:
192,192,45678,1,0,0:0:0:0:
320,192,45730,1,0,0:0:0:0:
448,192,45781,1,0,0:0:0:0:
64,192,45833,1,0,0:0:0:0:
192,192,45885,1,0,0:0:0:0:
320,192,45936,1,0,0:0:0:0:
448,192,46040,1,0,0:0:0:0:
64,192,46247,1,0,0:0:0:0:
192,192,46247,1,0,0:0:0:0:
320,192,46247,1,0,0:0:0:0:
192,192,46454,1,0,0:0:0:0:
64,192,46454,1,0,0:0:0:0:
320,192,46661,1,0,0:0:0:0:
448,192,46661,1,0,0:0:0:0:
64,192,46764,1,0,0:0:0:0:
192,192,46816,1,0,0:0:0:0:
320,192,46971,1,0,0:0:0:0:
64,192,47074,1,0,0:0:0:0:
448,192,47074,1,0,0:0:0:0:
192,192,47074,1,0,0:0:0:0:
320,192,47281,1,0,0:0:0:0:
448,192,47488,1,0,0:0:0:0:
64,192,47488,1,0,0:0:0:0:
320,192,47695,1,0,0:0:0:0:
320,192,47798,1,0,0:0:0:0:
64,192,47902,1,0,0:0:0:0:
192,192,47902,1,0,0:0:0:0:
320,192,48109,1,0,0:0:0:0:
192,192,48316,1,0,0:0:0:0:
448,192,48316,1,0,0:0:0:0:
320,192,48523,1,0,0:0:0:0:
192,192,48626,1,0,0:0:0:0:
64,192,48730,1,0,0:0:0:0:
320,192,48730,1,0,0:0:0:0:
192,192,48936,1,0,0:0:0:0:
320,192,49040,1,0,0:0:0:0:
64,192,49143,1,0,0:0:0:0:
448,192,49143,1,0,0:0:0:0:
320,192,49350,1,0,0:0:0:0:
320,192,49454,1,0,0:0:0:0:
64,192,49557,1,0,0:0:0:0:
448,192,49557,1,0,0:0:0:0:
192,192,49764,1,0,0:0:0:0:
448,192,49971,1,0,0:0:0:0:
320,192,49971,128,0,50385:0:0:0:0:
192,192,50178,1,0,0:0:0:0:
64,192,50385,1,0,0:0:0:0:
448,192,50385,1,0,0:0:0:0:
192,192,50488,1,0,0:0:0:0:
64,192,50592,1,0,0:0:0:0:
192,192,50695,1,0,0:0:0:0:
320,192,50798,1,0,0:0:0:0:
448,192,50902,1,0,0:0:0:0:
320,192,51005,1,0,0:0:0:0:
192,192,51109,1,0,0:0:0:0:
64,192,51212,1,0,0:0:0:0:
192,192,51316,1,0,0:0:0:0:
320,192,51419,1,0,0:0:0:0:
448,192,51523,1,0,0:0:0:0:
192,192,51626,1,0,0:0:0:0:
64,192,51730,1,0,0:0:0:0:
192,192,51833,1,0,0:0:0:0:
320,192,51936,1,0,0:0:0:0:
448,192,52040,1,0,0:0:0:0:
320,192,52143,1,0,0:0:0:0:
192,192,52247,1,0,0:0:0:0:
64,192,52350,1,0,0:0:0:0:
448,192,52454,1,0,0:0:0:0:
320,192,52557,1,0,0:0:0:0:
64,192,52661,1,0,0:0:0:0:
192,192,52730,1,0,0:0:0:0:
320,192,52798,1,0,0:0:0:0:
64,192,52867,1,0,0:0:0:0:
192,192,52867,1,0,0:0:0:0:
448,192,53074,1,0,0:0:0:0:
192,192,53178,1,0,0:0:0:0:
320,192,53178,1,0,0:0:0:0:
64,192,53385,1,0,0:0:0:0:
192,192,53488,1,0,0:0:0:0:
448,192,53488,1,0,0:0:0:0:
64,192,53695,1,0,0:0:0:0:
448,192,53695,128,0,54316:0:0:0:0:
320,192,53695,1,0,0:0:0:0:
192,192,54316,128,0,54523:0:0:0:0:
320,192,54523,1,0,0:0:0:0:
64,192,54523,128,0,54833:0:0:0:0:
320,192,54936,1,0,0:0:0:0:
64,192,54936,1,0,0:0:0:0:
64,192,55143,128,0,55350:0:0:0:0:
192,192,55350,1,0,0:0:0:0:
320,192,55350,1,0,0:0:0:0:
448,192,55350,128,0,55661:0:0:0:0:
192,192,55764,1,0,0:0:0:0:
448,192,55764,1,0,0:0:0:0:
192,192,55971,1,0,0:0:0:0:
448,192,55971,128,0,56178:0:0:0:0:
64,192,56178,1,0,0:0:0:0:
320,192,56178,1,0,0:0:0:0:
448,192,56488,128,0,57005:0:0:0:0:
192,192,56592,1,0,0:0:0:0:
64,192,57005,1,0,0:0:0:0:
320,192,57005,128,0,57316:0:0:0:0:
64,192,57419,1,0,0:0:0:0:
320,192,57523,1,0,0:0:0:0:
192,192,57626,1,0,0:0:0:0:
448,192,57730,1,0,0:0:0:0:
64,192,57833,1,0,0:0:0:0:
192,192,57833,1,0,0:0:0:0:
320,192,57936,1,0,0:0:0:0:
192,192,58040,1,0,0:0:0:0:
448,192,58143,1,0,0:0:0:0:
192,192,58247,1,0,0:0:0:0:
320,192,58350,128,0,58661:0:0:0:0:
64,192,58661,1,0,0:0:0:0:
192,192,58661,1,0,0:0:0:0:
448,192,58764,1,0,0:0:0:0:
320,192,58867,1,0,0:0:0:0:
64,192,58971,1,0,0:0:0:0:
192,192,59074,1,0,0:0:0:0:
320,192,59178,1,0,0:0:0:0:
192,192,59281,1,0,0:0:0:0:
320,192,59385,1,0,0:0:0:0:
448,192,59488,1,0,0:0:0:0:
64,192,59488,1,0,0:0:0:0:
192,192,59592,1,0,0:0:0:0:
320,192,59695,1,0,0:0:0:0:
192,192,59798,1,0,0:0:0:0:
320,192,59902,128,0,60316:0:0:0:0:
192,192,60316,1,0,0:0:0:0:
64,192,60316,128,0,61143:0:0:0:0:
320,192,60730,128,0,61143:0:0:0:0:
192,192,61143,1,0,0:0:0:0:
448,192,61247,128,0,61454:0:0:0:0:
320,192,61247,1,0,0:0:0:0:
64,192,61557,1,0,0:0:0:0:
192,192,61557,1,0,0:0:0:0:
448,192,61764,128,0,61971:0:0:0:0:
64,192,61971,1,0,0:0:0:0:
320,192,61971,1,0,0:0:0:0:
64,192,62074,128,0,62281:0:0:0:0:
64,192,62385,1,0,0:0:0:0:
320,192,62385,1,0,0:0:0:0:
448,192,62592,128,0,62798:0:0:0:0:
64,192,62798,1,0,0:0:0:0:
192,192,62798,1,0,0:0:0:0:
320,192,62902,128,0,63109:0:0:0:0:
448,192,63212,128,0,63626:0:0:0:0:
64,192,63626,1,0,0:0:0:0:
192,192,63626,1,0,0:0:0:0:
320,192,63730,1,0,0:0:0:0:
192,192,63833,1,0,0:0:0:0:
64,192,63936,1,0,0:0:0:0:
192,192,64040,1,0,0:0:0:0:
320,192,64143,1,0,0:0:0:0:
448,192,64247,1,0,0:0:0:0:
320,192,64350,1,0,0:0:0:0:
192,192,64454,1,0,0:0:0:0:
64,192,64557,1,0,0:0:0:0:
192,192,64661,1,0,0:0:0:0:
320,192,64764,1,0,0:0:0:0:
448,192,64867,1,0,0:0:0:0:
320,192,64971,1,0,0:0:0:0:
448,192,65074,1,0,0:0:0:0:
64,192,65074,1,0,0:0:0:0:
192,192,65178,1,0,0:0:0:0:
320,192,65178,1,0,0:0:0:0:
448,192,65281,128,0,66936:0:0:0:0:
64,192,65281,1,0,0:0:0:0:
64,192,66523,1,0,0:0:0:0:
320,192,66523,1,0,0:0:0:0:
192,192,66626,1,0,0:0:0:0:
64,192,66730,1,0,0:0:0:0:
192,192,66833,1,0,0:0:0:0:
64,192,66936,1,0,0:0:0:0:
320,192,66936,1,0,0:0:0:0:
192,192,67143,1,0,0:0:0:0:
320,192,67247,1,0,0:0:0:0:
64,192,67350,1,0,0:0:0:0:
192,192,67350,1,0,0:0:0:0:
448,192,67454,1,0,0:0:0:0:
320,192,67557,1,0,0:0:0:0:
64,192,67661,1,0,0:0:0:0:
192,192,67764,1,0,0:0:0:0:
448,192,67764,1,0,0:0:0:0:
320,192,67867,1,0,0:0:0:0:
64,192,67971,1,0,0:0:0:0:
320,192,68074,1,0,0:0:0:0:
192,192,68178,1,0,0:0:0:0:
448,192,68178,1,0,0:0:0:0:
320,192,68281,1,0,0:0:0:0:
64,192,68385,1,0,0:0:0:0:
192,192,68488,1,0,0:0:0:0:
448,192,68592,128,0,68902:0:0:0:0:
320,192,68592,1,0,0:0:0:0:
320,192,68902,1,0,0:0:0:0:
192,192,69005,1,0,0:0:0:0:
64,192,69005,1,0,0:0:0:0:
448,192,69109,1,0,0:0:0:0:
320,192,69212,1,0,0:0:0:0:
192,192,69316,1,0,0:0:0:0:
320,192,69419,1,0,0:0:0:0:
448,192,69419,1,0,0:0:0:0:
64,192,69523,1,0,0:0:0:0:
192,192,69626,1,0,0:0:0:0:
320,192,69730,1,0,0:0:0:0:
192,192,69833,1,0,0:0:0:0:
64,192,69833,1,0,0:0:0:0:
448,192,69936,1,0,0:0:0:0:
192,192,70040,1,0,0:0:0:0:
320,192,70143,1,0,0:0:0:0:
448,192,70247,128,0,70557:0:0:0:0:
64,192,70247,1,0,0:0:0:0:
192,192,70557,1,0,0:0:0:0:
320,192,70661,1,0,0:0:0:0:
64,192,70661,1,0,0:0:0:0:
192,192,70764,1,0,0:0:0:0:
448,192,70867,1,0,0:0:0:0:
192,192,70971,1,0,0:0:0:0:
320,192,71074,1,0,0:0:0:0:
448,192,71074,1,0,0:0:0:0:
64,192,71178,1,0,0:0:0:0:
192,192,71281,1,0,0:0:0:0:
448,192,71385,1,0,0:0:0:0:
320,192,71488,1,0,0:0:0:0:
192,192,71488,1,0,0:0:0:0:
64,192,71592,1,0,0:0:0:0:
320,192,71695,1,0,0:0:0:0:
192,192,71798,1,0,0:0:0:0:
448,192,71902,128,0,72212:0:0:0:0:
64,192,71902,1,0,0:0:0:0:
192,192,72212,1,0,0:0:0:0:
320,192,72316,1,0,0:0:0:0:
64,192,72316,1,0,0:0:0:0:
192,192,72419,1,0,0:0:0:0:
448,192,72523,1,0,0:0:0:0:
320,192,72626,1,0,0:0:0:0:
64,192,72730,1,0,0:0:0:0:
448,192,72730,1,0,0:0:0:0:
192,192,72833,1,0,0:0:0:0:
320,192,72936,1,0,0:0:0:0:
192,192,73040,1,0,0:0:0:0:
64,192,73143,1,0,0:0:0:0:
320,192,73143,1,0,0:0:0:0:
448,192,73143,1,0,0:0:0:0:
192,192,73247,1,0,0:0:0:0:
320,192,73350,1,0,0:0:0:0:
192,192,73454,1,0,0:0:0:0:
64,192,73557,1,0,0:0:0:0:
448,192,73557,1,0,0:0:0:0:
192,192,73764,1,0,0:0:0:0:
320,192,73867,1,0,0:0:0:0:
448,192,73971,1,0,0:0:0:0:
64,192,73971,1,0,0:0:0:0:
192,192,74074,1,0,0:0:0:0:
320,192,74178,1,0,0:0:0:0:
64,192,74281,1,0,0:0:0:0:
448,192,74385,1,0,0:0:0:0:
320,192,74385,1,0,0:0:0:0:
192,192,74488,1,0,0:0:0:0:
320,192,74592,1,0,0:0:0:0:
64,192,74695,1,0,0:0:0:0:
448,192,74798,1,0,0:0:0:0:
192,192,74798,1,0,0:0:0:0:
320,192,74902,1,0,0:0:0:0:
192,192,75005,1,0,0:0:0:0:
320,192,75109,1,0,0:0:0:0:
64,192,75212,128,0,75523:0:0:0:0:
448,192,75212,1,0,0:0:0:0:
192,192,75212,1,0,0:0:0:0:
320,192,75523,1,0,0:0:0:0:
192,192,75626,1,0,0:0:0:0:
448,192,75626,1,0,0:0:0:0:
320,192,75730,1,0,0:0:0:0:
64,192,75833,1,0,0:0:0:0:
320,192,75936,1,0,0:0:0:0:
192,192,76040,1,0,0:0:0:0:
448,192,76040,1,0,0:0:0:0:
64,192,76143,1,0,0:0:0:0:
448,192,76247,1,0,0:0:0:0:
192,192,76350,1,0,0:0:0:0:
320,192,76454,1,0,0:0:0:0:
192,192,76557,1,0,0:0:0:0:
448,192,76661,1,0,0:0:0:0:
320,192,76764,1,0,0:0:0:0:
64,192,76867,128,0,77178:0:0:0:0:
192,192,76867,1,0,0:0:0:0:
448,192,77178,1,0,0:0:0:0:
320,192,77281,1,0,0:0:0:0:
192,192,77281,1,0,0:0:0:0:
64,192,77385,1,0,0:0:0:0:
192,192,77488,1,0,0:0:0:0:
320,192,77592,1,0,0:0:0:0:
64,192,77695,1,0,0:0:0:0:
448,192,77695,1,0,0:0:0:0:
192,192,77798,128,0,78005:0:0:0:0:
320,192,77798,1,0,0:0:0:0:
448,192,78109,1,0,0:0:0:0:
192,192,78109,1,0,0:0:0:0:
192,192,78316,128,0,78523:0:0:0:0:
320,192,78523,1,0,0:0:0:0:
64,192,78523,128,0,78730:0:0:0:0:
448,192,78523,128,0,78833:0:0:0:0:
192,192,78936,1,0,0:0:0:0:
448,192,78936,1,0,0:0:0:0:
448,192,79143,128,0,79350:0:0:0:0:
320,192,79350,1,0,0:0:0:0:
64,192,79350,128,0,79764:0:0:0:0:
192,192,79764,128,0,80178:0:0:0:0:
320,192,79764,1,0,0:0:0:0:
64,192,80178,1,0,0:0:0:0:
448,192,80178,1,0,0:0:0:0:
320,192,80385,1,0,0:0:0:0:
64,192,80488,1,0,0:0:0:0:
192,192,80592,1,0,0:0:0:0:
320,192,80592,1,0,0:0:0:0:
448,192,80695,1,0,0:0:0:0:
320,192,80798,1,0,0:0:0:0:
192,192,80902,1,0,0:0:0:0:
320,192,81005,1,0,0:0:0:0:
64,192,81109,1,0,0:0:0:0:
448,192,81212,1,0,0:0:0:0:
192,192,81316,1,0,0:0:0:0:
320,192,81419,1,0,0:0:0:0:
448,192,81419,1,0,0:0:0:0:
64,192,81523,1,0,0:0:0:0:
448,192,81626,1,0,0:0:0:0:
320,192,81730,1,0,0:0:0:0:
64,192,81833,128,0,82143:0:0:0:0:
192,192,81833,1,0,0:0:0:0:
320,192,82143,1,0,0:0:0:0:
448,192,82247,1,0,0:0:0:0:
192,192,82247,1,0,0:0:0:0:
64,192,82350,1,0,0:0:0:0:
320,192,82454,1,0,0:0:0:0:
64,192,82557,1,0,0:0:0:0:
192,192,82661,1,0,0:0:0:0:
448,192,82661,1,0,0:0:0:0:
320,192,82764,1,0,0:0:0:0:
64,192,82867,1,0,0:0:0:0:
320,192,82971,1,0,0:0:0:0:
192,192,83074,1,0,0:0:0:0:
64,192,83074,1,0,0:0:0:0:
320,192,83178,1,0,0:0:0:0:
448,192,83281,1,0,0:0:0:0:
192,192,83385,1,0,0:0:0:0:
64,192,83488,128,0,83798:0:0:0:0:
320,192,83488,1,0,0:0:0:0:
192,192,83798,1,0,0:0:0:0:
448,192,83902,1,0,0:0:0:0:
320,192,83902,1,0,0:0:0:0:
192,192,84005,1,0,0:0:0:0:
64,192,84109,1,0,0:0:0:0:
192,192,84212,1,0,0:0:0:0:
448,192,84316,1,0,0:0:0:0:
64,192,84316,1,0,0:0:0:0:
320,192,84419,1,0,0:0:0:0:
192,192,84523,1,0,0:0:0:0:
64,192,84626,1,0,0:0:0:0:
320,192,84730,1,0,0:0:0:0:
448,192,84730,1,0,0:0:0:0:
192,192,84833,1,0,0:0:0:0:
448,192,84936,128,0,85143:0:0:0:0:
320,192,85040,1,0,0:0:0:0:
64,192,85143,128,0,85454:0:0:0:0:
192,192,85143,1,0,0:0:0:0:
320,192,85454,1,0,0:0:0:0:
448,192,85557,1,0,0:0:0:0:
192,192,85557,1,0,0:0:0:0:
320,192,85661,1,0,0:0:0:0:
192,192,85764,1,0,0:0:0:0:
64,192,85867,1,0,0:0:0:0:
448,192,85971,1,0,0:0:0:0:
320,192,85971,1,0,0:0:0:0:
192,192,86074,1,0,0:0:0:0:
320,192,86178,1,0,0:0:0:0:
64,192,86281,1,0,0:0:0:0:
192,192,86385,1,0,0:0:0:0:
448,192,86385,1,0,0:0:0:0:
320,192,86488,1,0,0:0:0:0:
192,192,86592,1,0,0:0:0:0:
64,192,86695,128,0,86798:0:0:0:0:
320,192,86798,1,0,0:0:0:0:
448,192,86798,1,0,0:0:0:0:
320,192,87005,1,0,0:0:0:0:
448,192,87005,1,0,0:0:0:0:
64,192,87109,1,0,0:0:0:0:
192,192,87109,1,0,0:0:0:0:
64,192,87316,1,0,0:0:0:0:
192,192,87316,1,0,0:0:0:0:
320,192,87419,1,0,0:0:0:0:
448,192,87419,1,0,0:0:0:0:
192,192,87626,1,0,0:0:0:0:
64,192,87626,1,0,0:0:0:0:
64,192,87833,1,0,0:0:0:0:
192,192,87833,1,0,0:0:0:0:
320,192,87936,1,0,0:0:0:0:
448,192,87936,1,0,0:0:0:0:
320,192,88143,1,0,0:0:0:0:
448,192,88143,1,0,0:0:0:0:
64,192,88247,1,0,0:0:0:0:
192,192,88247,1,0,0:0:0:0:
320,192,88350,1,0,0:0:0:0:
64,192,88454,1,0,0:0:0:0:
192,192,88454,1,0,0:0:0:0:
64,192,88661,1,0,0:0:0:0:
192,192,88661,1,0,0:0:0:0:
320,192,88764,1,0,0:0:0:0:
448,192,88764,1,0,0:0:0:0:
320,192,88971,1,0,0:0:0:0:
448,192,88971,1,0,0:0:0:0:
64,192,89074,1,0,0:0:0:0:
192,192,89074,1,0,0:0:0:0:
64,192,89281,1,0,0:0:0:0:
192,192,89281,1,0,0:0:0:0:
64,192,89488,1,0,0:0:0:0:
192,192,89488,1,0,0:0:0:0:
320,192,89592,1,0,0:0:0:0:
448,192,89592,1,0,0:0:0:0:
320,192,89798,1,0,0:0:0:0:
448,192,89798,1,0,0:0:0:0:
64,192,89902,1,0,0:0:0:0:
192,192,89902,1,0,0:0:0:0:
64,192,90109,1,0,0:0:0:0:
320,192,90109,1,0,0:0:0:0:
448,192,90109,1,0,0:0:0:0:
192,192,90212,1,0,0:0:0:0:
64,192,90316,1,0,0:0:0:0:
448,192,90316,1,0,0:0:0:0:
320,192,90419,1,0,0:0:0:0:
448,192,90523,1,0,0:0:0:0:
64,192,90523,1,0,0:0:0:0:
192,192,90626,1,0,0:0:0:0:
448,192,90730,1,0,0:0:0:0:
64,192,90730,1,0,0:0:0:0:
320,192,90833,1,0,0:0:0:0:
64,192,90936,1,0,0:0:0:0:
192,192,90936,1,0,0:0:0:0:
320,192,91040,1,0,0:0:0:0:
448,192,91040,1,0,0:0:0:0:
64,192,91143,1,0,0:0:0:0:
192,192,91143,1,0,0:0:0:0:
320,192,91247,1,0,0:0:0:0:
448,192,91247,1,0,0:0:0:0:
64,192,91350,1,0,0:0:0:0:
192,192,91350,1,0,0:0:0:0:
320,192,91402,1,0,0:0:0:0:
448,192,91454,1,0,0:0:0:0:
64,192,91505,1,0,0:0:0:0:
192,192,91557,1,0,0:0:0:0:
320,192,91609,1,0,0:0:0:0:
448,192,91661,1,0,0:0:0:0:
64,192,91764,128,0,92178:0:0:0:0:
192,192,91764,128,0,92074:0:0:0:0:
448,192,92281,1,0,0:0:0:0:
320,192,92385,1,0,0:0:0:0:
64,192,92454,1,0,0:0:0:0:
192,192,92523,1,0,0:0:0:0:
320,192,92592,1,0,0:0:0:0:
448,192,92592,1,0,0:0:0:0:
192,192,93005,1,0,0:0:0:0:
448,192,93005,1,0,0:0:0:0:
64,192,93419,1,0,0:0:0:0:
448,192,93419,1,0,0:0:0:0:
192,192,93523,1,0,0:0:0:0:
320,192,93626,1,0,0:0:0:0:
192,192,93730,1,0,0:0:0:0:
64,192,93833,1,0,0:0:0:0:
320,192,93833,1,0,0:0:0:0:
448,192,93936,1,0,0:0:0:0:
320,192,94040,1,0,0:0:0:0:
192,192,94143,1,0,0:0:0:0:
320,192,94247,1,0,0:0:0:0:
448,192,94247,1,0,0:0:0:0:
64,192,94350,1,0,0:0:0:0:
192,192,94454,1,0,0:0:0:0:
320,192,94557,1,0,0:0:0:0:
64,192,94661,1,0,0:0:0:0:
192,192,94661,1,0,0:0:0:0:
448,192,94764,1,0,0:0:0:0:
320,192,94867,1,0,0:0:0:0:
64,192,94971,1,0,0:0:0:0:
192,192,95074,1,0,0:0:0:0:
448,192,95074,1,0,0:0:0:0:
320,192,95178,1,0,0:0:0:0:
192,192,95281,1,0,0:0:0:0:
448,192,95385,1,0,0:0:0:0:
64,192,95488,1,0,0:0:0:0:
320,192,95488,1,0,0:0:0:0:
192,192,95592,1,0,0:0:0:0:
448,192,95695,1,0,0:0:0:0:
64,192,95798,1,0,0:0:0:0:
192,192,95902,1,0,0:0:0:0:
320,192,95902,1,0,0:0:0:0:
448,192,96005,1,0,0:0:0:0:
64,192,96109,1,0,0:0:0:0:
320,192,96212,1,0,0:0:0:0:
64,192,96316,1,0,0:0:0:0:
192,192,96316,1,0,0:0:0:0:
448,192,96419,1,0,0:0:0:0:
320,192,96523,1,0,0:0:0:0:
64,192,96626,1,0,0:0:0:0:
192,192,96730,1,0,0:0:0:0:
448,192,96730,1,0,0:0:0:0:
320,192,96833,1,0,0:0:0:0:
64,192,96936,1,0,0:0:0:0:
448,192,97040,1,0,0:0:0:0:
320,192,97143,1,0,0:0:0:0:
192,192,97143,1,0,0:0:0:0:
64,192,97247,1,0,0:0:0:0:
448,192,97350,1,0,0:0:0:0:
192,192,97454,1,0,0:0:0:0:
320,192,97557,1,0,0:0:0:0:
448,192,97557,1,0,0:0:0:0:
64,192,97661,1,0,0:0:0:0:
192,192,97764,1,0,0:0:0:0:
320,192,97867,1,0,0:0:0:0:
64,192,97971,1,0,0:0:0:0:
192,192,97971,1,0,0:0:0:0:
448,192,98074,1,0,0:0:0:0:
320,192,98178,1,0,0:0:0:0:
64,192,98281,1,0,0:0:0:0:
192,192,98385,1,0,0:0:0:0:
448,192,98385,1,0,0:0:0:0:
320,192,98488,1,0,0:0:0:0:
192,192,98592,1,0,0:0:0:0:
64,192,98695,1,0,0:0:0:0:
192,192,98798,1,0,0:0:0:0:
448,192,98798,1,0,0:0:0:0:
320,192,98902,1,0,0:0:0:0:
64,192,99005,1,0,0:0:0:0:
192,192,99109,1,0,0:0:0:0:
320,192,99212,1,0,0:0:0:0:
448,192,99212,1,0,0:0:0:0:
64,192,99316,1,0,0:0:0:0:
192,192,99419,1,0,0:0:0:0:
448,192,99523,1,0,0:0:0:0:
64,192,99626,1,0,0:0:0:0:
320,192,99626,1,0,0:0:0:0:
192,192,99730,1,0,0:0:0:0:
320,192,99833,1,0,0:0:0:0:
64,192,99936,1,0,0:0:0:0:
192,192,100040,1,0,0:0:0:0:
448,192,100040,1,0,0:0:0:0:
320,192,100143,1,0,0:0:0:0:
64,192,100247,1,0,0:0:0:0:
192,192,100350,1,0,0:0:0:0:
64,192,100454,1,0,0:0:0:0:
320,192,100454,1,0,0:0:0:0:
448,192,100557,1,0,0:0:0:0:
192,192,100661,1,0,0:0:0:0:
320,192,100764,1,0,0:0:0:0:
64,192,100867,1,0,0:0:0:0:
192,192,100867,1,0,0:0:0:0:
448,192,100971,1,0,0:0:0:0:
320,192,101074,1,0,0:0:0:0:
64,192,101178,1,0,0:0:0:0:
192,192,101281,1,0,0:0:0:0:
448,192,101281,1,0,0:0:0:0:
320,192,101385,1,0,0:0:0:0:
192,192,101488,1,0,0:0:0:0:
64,192,101592,1,0,0:0:0:0:
192,192,101695,1,0,0:0:0:0:
448,192,101695,1,0,0:0:0:0:
320,192,101798,1,0,0:0:0:0:
64,192,101902,1,0,0:0:0:0:
192,192,102005,1,0,0:0:0:0:
320,192,102109,1,0,0:0:0:0:
448,192,102109,1,0,0:0:0:0:
192,192,102212,1,0,0:0:0:0:
64,192,102316,1,0,0:0:0:0:
448,192,102419,1,0,0:0:0:0:
64,192,102523,1,0,0:0:0:0:
320,192,102523,1,0,0:0:0:0:
192,192,102626,1,0,0:0:0:0:
320,192,102730,1,0,0:0:0:0:
64,192,102833,1,0,0:0:0:0:
192,192,102936,1,0,0:0:0:0:
448,192,102936,1,0,0:0:0:0:
320,192,103040,1,0,0:0:0:0:
64,192,103143,1,0,0:0:0:0:
192,192,103247,1,0,0:0:0:0:
320,192,103350,1,0,0:0:0:0:
448,192,103350,1,0,0:0:0:0:
64,192,103454,1,0,0:0:0:0:
192,192,103557,1,0,0:0:0:0:
448,192,103661,1,0,0:0:0:0:
64,192,103764,1,0,0:0:0:0:
320,192,103764,1,0,0:0:0:0:
192,192,103867,1,0,0:0:0:0:
448,192,103971,1,0,0:0:0:0:
320,192,104074,1,0,0:0:0:0:
64,192,104178,1,0,0:0:0:0:
192,192,104178,1,0,0:0:0:0:
448,192,104281,1,0,0:0:0:0:
320,192,104385,1,0,0:0:0:0:
64,192,104488,1,0,0:0:0:0:
192,192,104592,1,0,0:0:0:0:
448,192,104592,1,0,0:0:0:0:
320,192,104695,1,0,0:0:0:0:
64,192,104798,1,0,0:0:0:0:
192,192,104902,1,0,0:0:0:0:
448,192,105005,1,0,0:0:0:0:
320,192,105109,1,0,0:0:0:0:
448,192,105212,1,0,0:0:0:0:
64,192,105212,1,0,0:0:0:0:
448,192,105419,1,0,0:0:0:0:
64,192,105419,128,0,105833:0:0:0:0:
320,192,105833,1,0,0:0:0:0:
448,192,105833,1,0,0:0:0:0:
192,192,105936,1,0,0:0:0:0:
320,192,106040,1,0,0:0:0:0:
448,192,106040,1,0,0:0:0:0:
192,192,106143,1,0,0:0:0:0:
64,192,106247,1,0,0:0:0:0:
448,192,106247,1,0,0:0:0:0:
320,192,106454,128,0,106661:0:0:0:0:
64,192,106661,1,0,0:0:0:0:
448,192,106661,1,0,0:0:0:0:
192,192,106764,1,0,0:0:0:0:
320,192,106867,1,0,0:0:0:0:
448,192,106971,1,0,0:0:0:0:
64,192,107074,1,0,0:0:0:0:
320,192,107074,1,0,0:0:0:0:
192,192,107178,1,0,0:0:0:0:
320,192,107281,1,0,0:0:0:0:
64,192,107385,1,0,0:0:0:0:
192,192,107488,1,0,0:0:0:0:
448,192,107488,1,0,0:0:0:0:
320,192,107592,1,0,0:0:0:0:
64,192,107695,1,0,0:0:0:0:
192,192,107798,1,0,0:0:0:0:
320,192,107902,1,0,0:0:0:0:
448,192,107902,1,0,0:0:0:0:
64,192,108005,1,0,0:0:0:0:
448,192,108109,1,0,0:0:0:0:
320,192,108212,1,0,0:0:0:0:
64,192,108316,1,0,0:0:0:0:
192,192,108316,1,0,0:0:0:0:
448,192,108419,1,0,0:0:0:0:
320,192,108523,1,0,0:0:0:0:
64,192,108626,1,0,0:0:0:0:
192,192,108730,1,0,0:0:0:0:
448,192,108730,1,0,0:0:0:0:
320,192,108833,1,0,0:0:0:0:
64,192,108936,1,0,0:0:0:0:
448,192,109040,1,0,0:0:0:0:
64,192,109143,1,0,0:0:0:0:
320,192,109143,1,0,0:0:0:0:
192,192,109247,1,0,0:0:0:0:
320,192,109350,1,0,0:0:0:0:
448,192,109454,1,0,0:0:0:0:
64,192,109557,1,0,0:0:0:0:
320,192,109557,1,0,0:0:0:0:
192,192,109661,1,0,0:0:0:0:
320,192,109764,1,0,0:0:0:0:
64,192,109867,1,0,0:0:0:0:
192,192,109971,1,0,0:0:0:0:
448,192,109971,1,0,0:0:0:0:
320,192,110074,1,0,0:0:0:0:
64,192,110178,1,0,0:0:0:0:
192,192,110281,1,0,0:0:0:0:
320,192,110385,1,0,0:0:0:0:
448,192,110385,1,0,0:0:0:0:
192,192,110488,1,0,0:0:0:0:
64,192,110592,1,0,0:0:0:0:
448,192,110695,1,0,0:0:0:0:
64,192,110798,1,0,0:0:0:0:
320,192,110798,1,0,0:0:0:0:
192,192,110902,1,0,0:0:0:0:
448,192,111005,1,0,0:0:0:0:
320,192,111109,1,0,0:0:0:0:
64,192,111212,1,0,0:0:0:0:
192,192,111212,1,0,0:0:0:0:
448,192,111316,1,0,0:0:0:0:
320,192,111419,1,0,0:0:0:0:
192,192,111523,1,0,0:0:0:0:
320,192,111626,1,0,0:0:0:0:
448,192,111626,1,0,0:0:0:0:
64,192,111730,1,0,0:0:0:0:
192,192,111833,1,0,0:0:0:0:
448,192,111936,1,0,0:0:0:0:
64,192,112040,1,0,0:0:0:0:
320,192,112040,1,0,0:0:0:0:
192,192,112143,1,0,0:0:0:0:
320,192,112247,1,0,0:0:0:0:
448,192,112350,1,0,0:0:0:0:
192,192,112454,1,0,0:0:0:0:
320,192,112454,1,0,0:0:0:0:
64,192,112557,1,0,0:0:0:0:
448,192,112661,1,0,0:0:0:0:
192,192,112764,1,0,0:0:0:0:
320,192,112867,1,0,0:0:0:0:
448,192,112867,1,0,0:0:0:0:
64,192,112971,1,0,0:0:0:0:
320,192,113074,1,0,0:0:0:0:
192,192,113178,1,0,0:0:0:0:
64,192,113281,1,0,0:0:0:0:
320,192,113281,1,0,0:0:0:0:
448,192,113385,1,0,0:0:0:0:
320,192,113488,1,0,0:0:0:0:
64,192,113592,1,0,0:0:0:0:
192,192,113695,1,0,0:0:0:0:
448,192,113695,1,0,0:0:0:0:
320,192,113798,1,0,0:0:0:0:
64,192,113902,1,0,0:0:0:0:
448,192,114005,1,0,0:0:0:0:
192,192,114109,1,0,0:0:0:0:
320,192,114109,1,0,0:0:0:0:
64,192,114212,1,0,0:0:0:0:
448,192,114316,1,0,0:0:0:0:
320,192,114419,1,0,0:0:0:0:
64,192,114523,1,0,0:0:0:0:
192,192,114523,1,0,0:0:0:0:
448,192,114626,1,0,0:0:0:0:
320,192,114730,1,0,0:0:0:0:
192,192,114833,1,0,0:0:0:0:
320,192,114936,1,0,0:0:0:0:
448,192,114936,1,0,0:0:0:0:
64,192,115040,1,0,0:0:0:0:
192,192,115143,1,0,0:0:0:0:
320,192,115247,1,0,0:0:0:0:
192,192,115350,1,0,0:0:0:0:
64,192,115350,1,0,0:0:0:0:
64,192,115557,1,0,0:0:0:0:
192,192,115557,1,0,0:0:0:0:
64,192,115764,1,0,0:0:0:0:
448,192,115764,1,0,0:0:0:0:
320,192,115867,1,0,0:0:0:0:
64,192,115971,1,0,0:0:0:0:
192,192,115971,1,0,0:0:0:0:
320,192,116178,1,0,0:0:0:0:
448,192,116178,1,0,0:0:0:0:
320,192,116385,1,0,0:0:0:0:
448,192,116385,1,0,0:0:0:0:
320,192,116592,1,0,0:0:0:0:
448,192,116592,1,0,0:0:0:0:
64,192,116592,128,0,117212:0:0:0:0:
448,192,117419,128,0,117523:0:0:0:0:
320,192,117523,128,0,117626:0:0:0:0:
192,192,117626,128,0,117730:0:0:0:0:
64,192,117833,1,0,0:0:0:0:
64,192,118040,1,0,0:0:0:0:
320,192,118040,1,0,0:0:0:0:
64,192,118247,1,0,0:0:0:0:
320,192,118247,1,0,0:0:0:0:
448,192,118247,128,0,118867:0:0:0:0:
64,192,118867,1,0,0:0:0:0:
192,192,118936,1,0,0:0:0:0:
320,192,119005,1,0,0:0:0:0:
64,192,119074,1,0,0:0:0:0:
192,192,119074,1,0,0:0:0:0:
448,192,119281,1,0,0:0:0:0:
320,192,119350,1,0,0:0:0:0:
192,192,119419,1,0,0:0:0:0:
320,192,119488,1,0,0:0:0:0:
448,192,119488,1,0,0:0:0:0:
64,192,119695,1,0,0:0:0:0:
64,192,119798,1,0,0:0:0:0:
320,192,119902,1,0,0:0:0:0:
448,192,119902,1,0,0:0:0:0:
192,192,120005,1,0,0:0:0:0:
320,192,120109,1,0,0:0:0:0:
448,192,120212,1,0,0:0:0:0:
192,192,120316,1,0,0:0:0:0:
64,192,120316,1,0,0:0:0:0:
320,192,120419,1,0,0:0:0:0:
192,192,120523,1,0,0:0:0:0:
448,192,120626,1,0,0:0:0:0:
64,192,120730,1,0,0:0:0:0:
320,192,120730,1,0,0:0:0:0:
192,192,120833,1,0,0:0:0:0:
320,192,120936,1,0,0:0:0:0:
64,192,121040,1,0,0:0:0:0:
192,192,121143,1,0,0:0:0:0:
448,192,121143,1,0,0:0:0:0:
320,192,121247,1,0,0:0:0:0:
64,192,121350,1,0,0:0:0:0:
64,192,121454,1,0,0:0:0:0:
320,192,121557,1,0,0:0:0:0:
448,192,121557,1,0,0:0:0:0:
192,192,121661,1,0,0:0:0:0:
448,192,121764,1,0,0:0:0:0:
64,192,121867,1,0,0:0:0:0:
448,192,121971,1,0,0:0:0:0:
192,192,121971,1,0,0:0:0:0:
320,192,122074,1,0,0:0:0:0:
64,192,122178,1,0,0:0:0:0:
192,192,122281,1,0,0:0:0:0:
320,192,122385,1,0,0:0:0:0:
448,192,122385,1,0,0:0:0:0:
64,192,122488,1,0,0:0:0:0:
192,192,122592,1,0,0:0:0:0:
448,192,122695,1,0,0:0:0:0:
64,192,122798,1,0,0:0:0:0:
320,192,122798,1,0,0:0:0:0:
192,192,122902,1,0,0:0:0:0:
448,192,123005,1,0,0:0:0:0:
448,192,123109,1,0,0:0:0:0:
320,192,123212,1,0,0:0:0:0:
64,192,123212,1,0,0:0:0:0:
192,192,123316,1,0,0:0:0:0:
64,192,123419,1,0,0:0:0:0:
448,192,123471,1,0,0:0:0:0:
320,192,123626,1,0,0:0:0:0:
64,192,123626,1,0,0:0:0:0:
192,192,123730,1,0,0:0:0:0:
448,192,123833,1,0,0:0:0:0:
320,192,123936,1,0,0:0:0:0:
64,192,124040,1,0,0:0:0:0:
192,192,124040,1,0,0:0:0:0:
448,192,124143,1,0,0:0:0:0:
320,192,124247,1,0,0:0:0:0:
192,192,124350,1,0,0:0:0:0:
320,192,124454,1,0,0:0:0:0:
448,192,124454,1,0,0:0:0:0:
64,192,124557,1,0,0:0:0:0:
192,192,124661,1,0,0:0:0:0:
192,192,124764,1,0,0:0:0:0:
320,192,124867,1,0,0:0:0:0:
448,192,124867,1,0,0:0:0:0:
64,192,124971,1,0,0:0:0:0:
448,192,125074,1,0,0:0:0:0:
320,192,125178,1,0,0:0:0:0:
64,192,125281,1,0,0:0:0:0:
448,192,125281,1,0,0:0:0:0:
192,192,125385,1,0,0:0:0:0:
448,192,125488,1,0,0:0:0:0:
320,192,125592,1,0,0:0:0:0:
64,192,125695,1,0,0:0:0:0:
192,192,125695,1,0,0:0:0:0:
448,192,125798,1,0,0:0:0:0:
320,192,125902,1,0,0:0:0:0:
64,192,126005,1,0,0:0:0:0:
192,192,126109,1,0,0:0:0:0:
448,192,126109,1,0,0:0:0:0:
320,192,126212,1,0,0:0:0:0:
192,192,126316,1,0,0:0:0:0:
192,192,126419,1,0,0:0:0:0:
64,192,126523,1,0,0:0:0:0:
448,192,126523,1,0,0:0:0:0:
320,192,126626,1,0,0:0:0:0:
192,192,126730,1,0,0:0:0:0:
64,192,126833,1,0,0:0:0:0:
192,192,126936,1,0,0:0:0:0:
448,192,126936,1,0,0:0:0:0:
320,192,127040,1,0,0:0:0:0:
64,192,127143,1,0,0:0:0:0:
192,192,127247,1,0,0:0:0:0:
320,192,127350,1,0,0:0:0:0:
448,192,127350,1,0,0:0:0:0:
64,192,127454,1,0,0:0:0:0:
192,192,127557,1,0,0:0:0:0:
448,192,127661,1,0,0:0:0:0:
64,192,127764,1,0,0:0:0:0:
320,192,127764,1,0,0:0:0:0:
192,192,127867,1,0,0:0:0:0:
320,192,127971,1,0,0:0:0:0:
320,192,128074,1,0,0:0:0:0:
64,192,128178,1,0,0:0:0:0:
192,192,128178,1,0,0:0:0:0:
320,192,128281,1,0,0:0:0:0:
448,192,128385,1,0,0:0:0:0:
64,192,128488,1,0,0:0:0:0:
192,192,128592,1,0,0:0:0:0:
448,192,128592,1,0,0:0:0:0:
320,192,128695,1,0,0:0:0:0:
64,192,128798,1,0,0:0:0:0:
192,192,128902,1,0,0:0:0:0:
64,192,129005,1,0,0:0:0:0:
448,192,129005,1,0,0:0:0:0:
320,192,129109,1,0,0:0:0:0:
192,192,129212,1,0,0:0:0:0:
448,192,129316,1,0,0:0:0:0:
64,192,129419,1,0,0:0:0:0:
192,192,129419,1,0,0:0:0:0:
320,192,129523,1,0,0:0:0:0:
192,192,129626,1,0,0:0:0:0:
192,192,129730,1,0,0:0:0:0:
64,192,129833,1,0,0:0:0:0:
320,192,129833,1,0,0:0:0:0:
448,192,129833,128,0,130661:0:0:0:0:
192,192,130247,128,0,130661:0:0:0:0:
64,192,130661,1,0,0:0:0:0:
320,192,130661,1,0,0:0:0:0:
64,192,131281,1,0,0:0:0:0:
192,192,131385,1,0,0:0:0:0:
320,192,131488,1,0,0:0:0:0:
448,192,131488,1,0,0:0:0:0:
64,192,131488,1,0,0:0:0:0:
64,192,131695,1,0,0:0:0:0:
192,192,131695,1,0,0:0:0:0:
64,192,131902,128,0,132316:0:0:0:0:
192,192,131902,1,0,0:0:0:0:
192,192,132316,1,0,0:0:0:0:
448,192,132316,1,0,0:0:0:0:
320,192,132523,1,0,0:0:0:0:
192,192,132626,1,0,0:0:0:0:
320,192,132730,1,0,0:0:0:0:
448,192,132730,1,0,0:0:0:0:
64,192,132936,1,0,0:0:0:0:
192,192,133040,1,0,0:0:0:0:
64,192,133143,1,0,0:0:0:0:
448,192,133143,1,0,0:0:0:0:
320,192,133143,1,0,0:0:0:0:
448,192,133557,1,0,0:0:0:0:
192,192,133557,1,0,0:0:0:0:
192,192,133971,1,0,0:0:0:0:
448,192,133971,1,0,0:0:0:0:
192,192,134385,1,0,0:0:0:0:
448,192,134385,1,0,0:0:0:0:
192,192,134592,1,0,0:0:0:0:
192,192,134695,1,0,0:0:0:0:
64,192,134798,1,0,0:0:0:0:
448,192,134798,1,0,0:0:0:0:
64,192,135212,1,0,0:0:0:0:
448,192,135212,1,0,0:0:0:0:
64,192,135626,1,0,0:0:0:0:
448,192,135626,1,0,0:0:0:0:
64,192,136040,1,0,0:0:0:0:
448,192,136040,1,0,0:0:0:0:
448,192,136247,1,0,0:0:0:0:
448,192,136350,1,0,0:0:0:0:
192,192,136454,1,0,0:0:0:0:
320,192,136454,1,0,0:0:0:0:
192,192,136867,1,0,0:0:0:0:
320,192,136867,1,0,0:0:0:0:
192,192,137281,1,0,0:0:0:0:
320,192,137281,1,0,0:0:0:0:
192,192,137695,1,0,0:0:0:0:
320,192,137695,1,0,0:0:0:0:
192,192,137902,1,0,0:0:0:0:
192,192,138005,1,0,0:0:0:0:
64,192,138109,1,0,0:0:0:0:
320,192,138109,1,0,0:0:0:0:
64,192,138523,1,0,0:0:0:0:
320,192,138523,1,0,0:0:0:0:
448,192,138730,1,0,0:0:0:0:
448,192,138833,1,0,0:0:0:0:
192,192,138936,1,0,0:0:0:0:
64,192,138936,1,0,0:0:0:0:
320,192,139143,1,0,0:0:0:0:
320,192,139247,1,0,0:0:0:0:
448,192,139350,1,0,0:0:0:0:
64,192,139350,1,0,0:0:0:0:
64,192,139557,1,0,0:0:0:0:
64,192,139661,1,0,0:0:0:0:
448,192,139764,1,0,0:0:0:0:
192,192,139764,1,0,0:0:0:0:
320,192,139764,1,0,0:0:0:0:
448,192,139971,1,0,0:0:0:0:
192,192,139971,1,0,0:0:0:0:
320,192,140178,1,0,0:0:0:0:
448,192,140178,1,0,0:0:0:0:
64,192,140385,1,0,0:0:0:0:
320,192,140385,1,0,0:0:0:0:
192,192,140592,1,0,0:0:0:0:
320,192,140592,1,0,0:0:0:0:
192,192,140798,1,0,0:0:0:0:
448,192,140798,1,0,0:0:0:0:
448,192,141005,1,0,0:0:0:0:
320,192,141005,1,0,0:0:0:0:
320,192,141212,1,0,0:0:0:0:
64,192,141212,1,0,0:0:0:0:
64,192,141419,1,0,0:0:0:0:
192,192,141419,1,0,0:0:0:0:
192,192,141626,1,0,0:0:0:0:
448,192,141626,1,0,0:0:0:0:
320,192,141833,1,0,0:0:0:0:
448,192,141833,1,0,0:0:0:0:
320,192,142040,1,0,0:0:0:0:
64,192,142040,1,0,0:0:0:0:
192,192,142247,1,0,0:0:0:0:
320,192,142247,1,0,0:0:0:0:
448,192,142454,1,0,0:0:0:0:
320,192,142454,1,0,0:0:0:0:
64,192,142661,1,0,0:0:0:0:
192,192,142661,1,0,0:0:0:0:
192,192,142867,1,0,0:0:0:0:
448,192,142867,1,0,0:0:0:0:
192,192,143074,1,0,0:0:0:0:
64,192,143074,1,0,0:0:0:0:
448,192,143178,1,0,0:0:0:0:
320,192,143178,1,0,0:0:0:0:
192,192,143281,1,0,0:0:0:0:
64,192,143281,1,0,0:0:0:0:
448,192,143385,1,0,0:0:0:0:
320,192,143385,1,0,0:0:0:0:
192,192,143488,1,0,0:0:0:0:
64,192,143488,1,0,0:0:0:0:
448,192,143592,1,0,0:0:0:0:
320,192,143592,1,0,0:0:0:0:
192,192,143695,1,0,0:0:0:0:
64,192,143695,1,0,0:0:0:0:
448,192,143798,1,0,0:0:0:0:
320,192,143798,1,0,0:0:0:0:
192,192,143902,1,0,0:0:0:0:
64,192,143902,1,0,0:0:0:0:
448,192,144005,1,0,0:0:0:0:
320,192,144005,1,0,0:0:0:0:
192,192,144109,1,0,0:0:0:0:
64,192,144109,1,0,0:0:0:0:
448,192,144212,1,0,0:0:0:0:
320,192,144212,1,0,0:0:0:0:
192,192,144316,1,0,0:0:0:0:
64,192,144316,1,0,0:0:0:0:
448,192,144419,1,0,0:0:0:0:
320,192,144419,1,0,0:0:0:0:
192,192,144523,1,0,0:0:0:0:
64,192,144523,1,0,0:0:0:0:
448,192,144626,1,0,0:0:0:0:
320,192,144626,1,0,0:0:0:0:
192,192,144730,1,0,0:0:0:0:
64,192,144730,1,0,0:0:0:0:
64,192,145143,1,0,0:0:0:0:
320,192,145143,1,0,0:0:0:0:
448,192,145557,1,0,0:0:0:0:
64,192,145557,1,0,0:0:0:0:
320,192,145971,1,0,0:0:0:0:
64,192,145971,1,0,0:0:0:0:
192,192,145971,1,0,0:0:0:0:
448,192,145971,1,0,0:0:0:0:
64,192,146385,1,0,0:0:0:0:
320,192,146385,1,0,0:0:0:0:
448,192,146385,1,0,0:0:0:0:
192,192,146592,1,0,0:0:0:0:
320,192,146798,1,0,0:0:0:0:
448,192,146798,1,0,0:0:0:0:
192,192,147005,1,0,0:0:0:0:
192,192,147109,1,0,0:0:0:0:
64,192,147212,1,0,0:0:0:0:
320,192,147212,1,0,0:0:0:0:
320,192,147419,1,0,0:0:0:0:
64,192,147626,1,0,0:0:0:0:
192,192,147626,1,0,0:0:0:0:
320,192,147833,1,0,0:0:0:0:
192,192,147936,1,0,0:0:0:0:
320,192,148040,1,0,0:0:0:0:
448,192,148040,1,0,0:0:0:0:
192,192,148247,1,0,0:0:0:0:
320,192,148350,1,0,0:0:0:0:
64,192,148454,1,0,0:0:0:0:
192,192,148454,1,0,0:0:0:0:
448,192,148661,1,0,0:0:0:0:
448,192,148764,1,0,0:0:0:0:
64,192,148867,1,0,0:0:0:0:
320,192,148867,1,0,0:0:0:0:
192,192,149074,1,0,0:0:0:0:
320,192,149281,1,0,0:0:0:0:
448,192,149281,1,0,0:0:0:0:
64,192,149281,128,0,149695:0:0:0:0:
192,192,149488,1,0,0:0:0:0:
320,192,149695,1,0,0:0:0:0:
448,192,149695,1,0,0:0:0:0:
320,192,150109,1,0,0:0:0:0:
448,192,150109,1,0,0:0:0:0:
192,192,150316,1,0,0:0:0:0:
320,192,150523,1,0,0:0:0:0:
448,192,150523,1,0,0:0:0:0:
64,192,150730,1,0,0:0:0:0:
192,192,150833,1,0,0:0:0:0:
320,192,150936,1,0,0:0:0:0:
448,192,150936,1,0,0:0:0:0:
192,192,151143,128,0,151350:0:0:0:0:
320,192,151350,1,0,0:0:0:0:
64,192,151350,1,0,0:0:0:0:
448,192,151454,1,0,0:0:0:0:
320,192,151505,1,0,0:0:0:0:
192,192,151557,1,0,0:0:0:0:
64,192,151609,1,0,0:0:0:0:
448,192,151661,1,0,0:0:0:0:
320,192,151712,1,0,0:0:0:0:
192,192,151764,1,0,0:0:0:0:
64,192,151816,1,0,0:0:0:0:
448,192,151867,1,0,0:0:0:0:
320,192,151919,1,0,0:0:0:0:
192,192,151971,1,0,0:0:0:0:
64,192,152023,1,0,0:0:0:0:
320,192,152074,1,0,0:0:0:0:
64,192,152178,1,0,0:0:0:0:
192,192,152178,1,0,0:0:0:0:
448,192,152178,1,0,0:0:0:0:
320,192,152385,1,0,0:0:0:0:
64,192,152592,1,0,0:0:0:0:
192,192,152643,1,0,0:0:0:0:
448,192,152695,1,0,0:0:0:0:
320,192,152798,1,0,0:0:0:0:
192,192,152902,1,0,0:0:0:0:
64,192,153005,1,0,0:0:0:0:
448,192,153005,1,0,0:0:0:0:
320,192,153005,1,0,0:0:0:0:
192,192,153212,1,0,0:0:0:0:
64,192,153419,1,0,0:0:0:0:
320,192,153419,1,0,0:0:0:0:
192,192,153626,1,0,0:0:0:0:
192,192,153730,1,0,0:0:0:0:
64,192,153833,1,0,0:0:0:0:
448,192,153833,1,0,0:0:0:0:
320,192,154040,1,0,0:0:0:0:
64,192,154247,1,0,0:0:0:0:
192,192,154247,1,0,0:0:0:0:
320,192,154454,1,0,0:0:0:0:
448,192,154557,1,0,0:0:0:0:
64,192,154661,1,0,0:0:0:0:
320,192,154661,1,0,0:0:0:0:
448,192,154867,1,0,0:0:0:0:
320,192,154971,1,0,0:0:0:0:
64,192,155074,1,0,0:0:0:0:
192,192,155074,1,0,0:0:0:0:
448,192,155281,1,0,0:0:0:0:
448,192,155385,1,0,0:0:0:0:
64,192,155488,1,0,0:0:0:0:
320,192,155488,1,0,0:0:0:0:
192,192,155695,1,0,0:0:0:0:
64,192,155902,1,0,0:0:0:0:
320,192,155902,1,0,0:0:0:0:
448,192,155902,128,0,156316:0:0:0:0:
192,192,156109,1,0,0:0:0:0:
320,192,156316,1,0,0:0:0:0:
64,192,156419,1,0,0:0:0:0:
192,192,156471,1,0,0:0:0:0:
320,192,156523,1,0,0:0:0:0:
448,192,156574,1,0,0:0:0:0:
64,192,156626,1,0,0:0:0:0:
192,192,156678,1,0,0:0:0:0:
320,192,156730,1,0,0:0:0:0:
64,192,156781,1,0,0:0:0:0:
448,192,156781,1,0,0:0:0:0:
192,192,156833,1,0,0:0:0:0:
320,192,156885,1,0,0:0:0:0:
448,192,156936,1,0,0:0:0:0:
320,192,157040,1,0,0:0:0:0:
192,192,157143,1,0,0:0:0:0:
64,192,157247,1,0,0:0:0:0:
320,192,157350,1,0,0:0:0:0:
448,192,157454,1,0,0:0:0:0:
320,192,157557,1,0,0:0:0:0:
192,192,157661,1,0,0:0:0:0:
64,192,157764,128,0,157867:0:0:0:0:
192,192,157867,1,0,0:0:0:0:
320,192,157971,1,0,0:0:0:0:
448,192,158074,1,0,0:0:0:0:
64,192,158178,1,0,0:0:0:0:
192,192,158281,1,0,0:0:0:0:
448,192,158385,1,0,0:0:0:0:
320,192,158488,1,0,0:0:0:0:
64,192,158592,1,0,0:0:0:0:
192,192,158661,1,0,0:0:0:0:
320,192,158730,1,0,0:0:0:0:
64,192,158798,1,0,0:0:0:0:
192,192,158798,1,0,0:0:0:0:
448,192,159005,1,0,0:0:0:0:
320,192,159109,1,0,0:0:0:0:
64,192,159109,1,0,0:0:0:0:
192,192,159316,1,0,0:0:0:0:
448,192,159419,1,0,0:0:0:0:
320,192,159419,1,0,0:0:0:0:
448,192,159626,1,0,0:0:0:0:
64,192,159626,128,0,160454:0:0:0:0:
192,192,159626,1,0,0:0:0:0:
192,192,160454,1,0,0:0:0:0:
320,192,160454,1,0,0:0:0:0:
448,192,160557,128,0,160764:0:0:0:0:
448,192,160867,1,0,0:0:0:0:
192,192,160867,1,0,0:0:0:0:
448,192,161074,128,0,161281:0:0:0:0:
64,192,161281,1,0,0:0:0:0:
320,192,161281,1,0,0:0:0:0:
64,192,161385,128,0,161592:0:0:0:0:
64,192,161695,1,0,0:0:0:0:
320,192,161695,1,0,0:0:0:0:
64,192,161902,128,0,162109:0:0:0:0:
192,192,162109,1,0,0:0:0:0:
448,192,162109,1,0,0:0:0:0:
448,192,162212,128,0,162419:0:0:0:0:
448,192,162523,1,0,0:0:0:0:
64,192,162523,1,0,0:0:0:0:
192,192,162626,128,0,162936:0:0:0:0:
448,192,162730,128,0,162936:0:0:0:0:
64,192,162936,1,0,0:0:0:0:
320,192,162936,1,0,0:0:0:0:
64,192,163350,1,0,0:0:0:0:
320,192,163454,1,0,0:0:0:0:
192,192,163557,1,0,0:0:0:0:
448,192,163661,1,0,0:0:0:0:
192,192,163764,1,0,0:0:0:0:
64,192,163764,1,0,0:0:0:0:
320,192,163867,1,0,0:0:0:0:
64,192,163971,1,0,0:0:0:0:
192,192,164074,1,0,0:0:0:0:
320,192,164178,1,0,0:0:0:0:
448,192,164178,128,0,164592:0:0:0:0:
64,192,164592,1,0,0:0:0:0:
320,192,164592,1,0,0:0:0:0:
448,192,165005,1,0,0:0:0:0:
192,192,165109,1,0,0:0:0:0:
320,192,165212,1,0,0:0:0:0:
64,192,165316,1,0,0:0:0:0:
192,192,165419,1,0,0:0:0:0:
448,192,165419,1,0,0:0:0:0:
320,192,165523,1,0,0:0:0:0:
64,192,165626,128,0,166247:0:0:0:0:
192,192,165626,1,0,0:0:0:0:
192,192,166247,1,0,0:0:0:0:
448,192,166247,1,0,0:0:0:0:
320,192,166454,1,0,0:0:0:0:
192,192,166557,1,0,0:0:0:0:
320,192,166661,1,0,0:0:0:0:
448,192,166661,1,0,0:0:0:0:
64,192,166764,1,0,0:0:0:0:
192,192,166867,1,0,0:0:0:0:
192,192,167074,1,0,0:0:0:0:
448,192,167074,1,0,0:0:0:0:
64,192,167074,128,0,167902:0:0:0:0:
320,192,167488,128,0,167902:0:0:0:0:
192,192,167902,1,0,0:0:0:0:
448,192,167902,1,0,0:0:0:0:
448,192,168005,128,0,168212:0:0:0:0:
192,192,168316,1,0,0:0:0:0:
448,192,168316,1,0,0:0:0:0:
448,192,168523,128,0,168730:0:0:0:0:
64,192,168730,1,0,0:0:0:0:
320,192,168730,1,0,0:0:0:0:
192,192,169143,128,0,169557:0:0:0:0:
64,192,169557,1,0,0:0:0:0:
320,192,169557,1,0,0:0:0:0:
448,192,169557,128,0,171212:0:0:0:0:
320,192,171005,1,0,0:0:0:0:
192,192,171074,1,0,0:0:0:0:
64,192,171143,1,0,0:0:0:0:
192,192,171212,1,0,0:0:0:0:
320,192,171212,1,0,0:0:0:0:
64,192,171419,1,0,0:0:0:0:
192,192,171523,1,0,0:0:0:0:
320,192,171626,1,0,0:0:0:0:
448,192,171730,1,0,0:0:0:0:
320,192,171833,1,0,0:0:0:0:
192,192,171936,1,0,0:0:0:0:
64,192,172040,1,0,0:0:0:0:
192,192,172143,1,0,0:0:0:0:
320,192,172247,1,0,0:0:0:0:
448,192,172350,1,0,0:0:0:0:
320,192,172454,1,0,0:0:0:0:
192,192,172557,1,0,0:0:0:0:
64,192,172661,1,0,0:0:0:0:
192,192,172764,1,0,0:0:0:0:
320,192,172867,1,0,0:0:0:0:
448,192,172867,128,0,173178:0:0:0:0:
320,192,173178,1,0,0:0:0:0:
192,192,173281,1,0,0:0:0:0:
320,192,173385,1,0,0:0:0:0:
64,192,173488,1,0,0:0:0:0:
448,192,173592,1,0,0:0:0:0:
192,192,173695,1,0,0:0:0:0:
320,192,173798,1,0,0:0:0:0:
192,192,173902,1,0,0:0:0:0:
64,192,173902,1,0,0:0:0:0:
64,192,174109,1,0,0:0:0:0:
448,192,174109,1,0,0:0:0:0:
64,192,174316,1,0,0:0:0:0:
320,192,174316,1,0,0:0:0:0:
64,192,174523,1,0,0:0:0:0:
448,192,174523,1,0,0:0:0:0:
320,192,174626,1,0,0:0:0:0:
192,192,174730,1,0,0:0:0:0:
320,192,174833,1,0,0:0:0:0:
192,192,174936,1,0,0:0:0:0:
448,192,174936,1,0,0:0:0:0:
64,192,175040,1,0,0:0:0:0:
448,192,175143,1,0,0:0:0:0:
320,192,175247,1,0,0:0:0:0:
64,192,175350,1,0,0:0:0:0:
192,192,175350,1,0,0:0:0:0:
320,192,175454,1,0,0:0:0:0:
448,192,175557,1,0,0:0:0:0:
320,192,175661,1,0,0:0:0:0:
64,192,175764,1,0,0:0:0:0:
448,192,175764,1,0,0:0:0:0:
192,192,175867,1,0,0:0:0:0:
320,192,175971,1,0,0:0:0:0:
64,192,176074,1,0,0:0:0:0:
448,192,176178,128,0,176488:0:0:0:0:
192,192,176178,1,0,0:0:0:0:
320,192,176488,1,0,0:0:0:0:
64,192,176592,1,0,0:0:0:0:
192,192,176592,1,0,0:0:0:0:
320,192,176695,1,0,0:0:0:0:
192,192,176798,1,0,0:0:0:0:
448,192,176902,1,0,0:0:0:0:
320,192,177005,1,0,0:0:0:0:
64,192,177005,1,0,0:0:0:0:
192,192,177109,1,0,0:0:0:0:
320,192,177212,1,0,0:0:0:0:
64,192,177316,1,0,0:0:0:0:
448,192,177419,1,0,0:0:0:0:
192,192,177419,1,0,0:0:0:0:
320,192,177523,1,0,0:0:0:0:
192,192,177626,1,0,0:0:0:0:
64,192,177730,1,0,0:0:0:0:
320,192,177833,128,0,178143:0:0:0:0:
192,192,177833,1,0,0:0:0:0:
448,192,178143,1,0,0:0:0:0:
320,192,178247,1,0,0:0:0:0:
192,192,178247,1,0,0:0:0:0:
64,192,178350,1,0,0:0:0:0:
448,192,178454,1,0,0:0:0:0:
320,192,178557,1,0,0:0:0:0:
192,192,178661,1,0,0:0:0:0:
448,192,178661,1,0,0:0:0:0:
64,192,178764,1,0,0:0:0:0:
192,192,178867,1,0,0:0:0:0:
320,192,178936,1,0,0:0:0:0:
448,192,179005,1,0,0:0:0:0:
64,192,179074,128,0,179488:0:0:0:0:
192,192,179074,1,0,0:0:0:0:
320,192,179281,1,0,0:0:0:0:
192,192,179488,1,0,0:0:0:0:
448,192,179488,1,0,0:0:0:0:
320,192,179592,1,0,0:0:0:0:
192,192,179695,1,0,0:0:0:0:
320,192,179798,1,0,0:0:0:0:
448,192,179902,1,0,0:0:0:0:
64,192,179902,1,0,0:0:0:0:
192,192,180005,1,0,0:0:0:0:
64,192,180109,1,0,0:0:0:0:
320,192,180212,1,0,0:0:0:0:
192,192,180316,1,0,0:0:0:0:
64,192,180316,1,0,0:0:0:0:
320,192,180419,1,0,0:0:0:0:
448,192,180523,1,0,0:0:0:0:
192,192,180626,1,0,0:0:0:0:
64,192,180730,1,0,0:0:0:0:
320,192,180730,1,0,0:0:0:0:
192,192,180833,1,0,0:0:0:0:
448,192,180936,1,0,0:0:0:0:
320,192,181040,1,0,0:0:0:0:
64,192,181143,128,0,181454:0:0:0:0:
192,192,181143,1,0,0:0:0:0:
448,192,181454,1,0,0:0:0:0:
320,192,181557,1,0,0:0:0:0:
64,192,181557,1,0,0:0:0:0:
192,192,181661,1,0,0:0:0:0:
64,192,181764,1,0,0:0:0:0:
320,192,181867,1,0,0:0:0:0:
192,192,181971,1,0,0:0:0:0:
448,192,181971,1,0,0:0:0:0:
320,192,182074,1,0,0:0:0:0:
448,192,182178,1,0,0:0:0:0:
64,192,182281,1,0,0:0:0:0:
192,192,182385,1,0,0:0:0:0:
448,192,182385,1,0,0:0:0:0:
320,192,182488,1,0,0:0:0:0:
192,192,182592,1,0,0:0:0:0:
448,192,182695,1,0,0:0:0:0:
192,192,182798,128,0,183626:0:0:0:0:
320,192,182798,1,0,0:0:0:0:
320,192,183212,1,0,0:0:0:0:
64,192,183626,1,0,0:0:0:0:
448,192,183626,1,0,0:0:0:0:
320,192,183626,1,0,0:0:0:0:
192,192,184040,1,0,0:0:0:0:
64,192,184454,1,0,0:0:0:0:
320,192,184454,1,0,0:0:0:0:
448,192,184454,1,0,0:0:0:0:
192,192,184867,1,0,0:0:0:0:
64,192,185281,1,0,0:0:0:0:
448,192,185281,1,0,0:0:0:0:
192,192,185281,128,0,185695:0:0:0:0:
64,192,185695,1,0,0:0:0:0:
320,192,185695,128,0,186109:0:0:0:0:
64,192,186109,1,0,0:0:0:0:
448,192,186109,1,0,0:0:0:0:
192,192,186212,1,0,0:0:0:0:
320,192,186316,1,0,0:0:0:0:
192,192,186419,1,0,0:0:0:0:
448,192,186523,1,0,0:0:0:0:
64,192,186523,1,0,0:0:0:0:
320,192,186626,1,0,0:0:0:0:
64,192,186730,1,0,0:0:0:0:
192,192,186833,1,0,0:0:0:0:
448,192,186936,1,0,0:0:0:0:
64,192,186936,1,0,0:0:0:0:
320,192,187040,1,0,0:0:0:0:
192,192,187143,1,0,0:0:0:0:
64,192,187247,1,0,0:0:0:0:
192,192,187350,1,0,0:0:0:0:
448,192,187350,1,0,0:0:0:0:
320,192,187454,1,0,0:0:0:0:
448,192,187557,1,0,0:0:0:0:
320,192,187661,1,0,0:0:0:0:
192,192,187764,128,0,188074:0:0:0:0:
64,192,187764,1,0,0:0:0:0:
448,192,188074,1,0,0:0:0:0:
320,192,188178,1,0,0:0:0:0:
64,192,188178,1,0,0:0:0:0:
192,192,188281,1,0,0:0:0:0:
64,192,188385,1,0,0:0:0:0:
320,192,188488,1,0,0:0:0:0:
192,192,188592,1,0,0:0:0:0:
448,192,188592,1,0,0:0:0:0:
64,192,188695,1,0,0:0:0:0:
320,192,188798,1,0,0:0:0:0:
192,192,188902,1,0,0:0:0:0:
448,192,189005,1,0,0:0:0:0:
64,192,189005,1,0,0:0:0:0:
320,192,189109,1,0,0:0:0:0:
192,192,189212,1,0,0:0:0:0:
64,192,189316,1,0,0:0:0:0:
320,192,189419,128,0,189730:0:0:0:0:
192,192,189419,1,0,0:0:0:0:
448,192,189730,1,0,0:0:0:0:
192,192,189833,1,0,0:0:0:0:
320,192,189833,1,0,0:0:0:0:
64,192,189936,1,0,0:0:0:0:
192,192,190040,1,0,0:0:0:0:
320,192,190143,1,0,0:0:0:0:
192,192,190247,1,0,0:0:0:0:
448,192,190247,1,0,0:0:0:0:
320,192,190350,1,0,0:0:0:0:
448,192,190454,1,0,0:0:0:0:
64,192,190557,1,0,0:0:0:0:
192,192,190661,1,0,0:0:0:0:
320,192,190661,1,0,0:0:0:0:
448,192,190764,1,0,0:0:0:0:
320,192,190867,1,0,0:0:0:0:
192,192,190971,1,0,0:0:0:0:
64,192,191074,1,0,0:0:0:0:
448,192,191074,128,0,191385:0:0:0:0:
192,192,191385,1,0,0:0:0:0:
64,192,191488,1,0,0:0:0:0:
320,192,191488,1,0,0:0:0:0:
192,192,191592,1,0,0:0:0:0:
320,192,191695,1,0,0:0:0:0:
192,192,191798,1,0,0:0:0:0:
320,192,191902,1,0,0:0:0:0:
64,192,191902,1,0,0:0:0:0:
448,192,192005,1,0,0:0:0:0:
320,192,192109,1,0,0:0:0:0:
192,192,192212,1,0,0:0:0:0:
64,192,192316,1,0,0:0:0:0:
448,192,192316,1,0,0:0:0:0:
320,192,192419,1,0,0:0:0:0:
448,192,192523,1,0,0:0:0:0:
320,192,192626,1,0,0:0:0:0:
64,192,192730,1,0,0:0:0:0:
192,192,192730,1,0,0:0:0:0:
320,192,192936,1,0,0:0:0:0:
448,192,192936,1,0,0:0:0:0:
64,192,193040,1,0,0:0:0:0:
192,192,193040,1,0,0:0:0:0:
320,192,193247,1,0,0:0:0:0:
448,192,193247,1,0,0:0:0:0:
192,192,193350,1,0,0:0:0:0:
64,192,193350,1,0,0:0:0:0:
64,192,193557,1,0,0:0:0:0:
192,192,193557,1,0,0:0:0:0:
320,192,193764,1,0,0:0:0:0:
448,192,193764,1,0,0:0:0:0:
64,192,193867,1,0,0:0:0:0:
192,192,193867,1,0,0:0:0:0:
64,192,194074,1,0,0:0:0:0:
192,192,194074,1,0,0:0:0:0:
320,192,194178,1,0,0:0:0:0:
448,192,194178,1,0,0:0:0:0:
192,192,194281,1,0,0:0:0:0:
320,192,194385,1,0,0:0:0:0:
448,192,194385,1,0,0:0:0:0:
64,192,194592,1,0,0:0:0:0:
192,192,194592,1,0,0:0:0:0:
320,192,194695,1,0,0:0:0:0:
448,192,194695,1,0,0:0:0:0:
320,192,194902,1,0,0:0:0:0:
448,192,194902,1,0,0:0:0:0:
192,192,195005,1,0,0:0:0:0:
64,192,195212,1,0,0:0:0:0:
192,192,195212,1,0,0:0:0:0:
64,192,195419,1,0,0:0:0:0:
192,192,195419,1,0,0:0:0:0:
320,192,195523,1,0,0:0:0:0:
448,192,195523,1,0,0:0:0:0:
320,192,195730,1,0,0:0:0:0:
448,192,195730,1,0,0:0:0:0:
64,192,195833,1,0,0:0:0:0:
192,192,195833,1,0,0:0:0:0:
320,192,195936,1,0,0:0:0:0:
448,192,195936,1,0,0:0:0:0:
64,192,196040,1,0,0:0:0:0:
192,192,196040,1,0,0:0:0:0:
320,192,196143,1,0,0:0:0:0:
448,192,196143,1,0,0:0:0:0:
192,192,196247,1,0,0:0:0:0:
64,192,196247,1,0,0:0:0:0:
320,192,196350,1,0,0:0:0:0:
448,192,196350,1,0,0:0:0:0:
64,192,196454,1,0,0:0:0:0:
192,192,196454,1,0,0:0:0:0:
320,192,196557,1,0,0:0:0:0:
448,192,196557,1,0,0:0:0:0:
64,192,196661,1,0,0:0:0:0:
192,192,196661,1,0,0:0:0:0:
320,192,196764,1,0,0:0:0:0:
448,192,196764,1,0,0:0:0:0:
64,192,196867,1,0,0:0:0:0:
192,192,196867,1,0,0:0:0:0:
320,192,196971,1,0,0:0:0:0:
448,192,196971,1,0,0:0:0:0:
192,192,197074,1,0,0:0:0:0:
64,192,197074,1,0,0:0:0:0:
320,192,197178,1,0,0:0:0:0:
448,192,197178,1,0,0:0:0:0:
192,192,197281,1,0,0:0:0:0:
64,192,197281,1,0,0:0:0:0:
320,192,197385,1,0,0:0:0:0:
448,192,197385,1,0,0:0:0:0:
192,192,197488,1,0,0:0:0:0:
64,192,197488,1,0,0:0:0:0:
320,192,197592,1,0,0:0:0:0:
448,192,197592,1,0,0:0:0:0:
64,192,197695,1,0,0:0:0:0:
192,192,197695,1,0,0:0:0:0:
448,192,197798,1,0,0:0:0:0:
320,192,197850,1,0,0:0:0:0:
192,192,197902,1,0,0:0:0:0:
64,192,197954,1,0,0:0:0:0:
448,192,198005,1,0,0:0:0:0:
320,192,198057,1,0,0:0:0:0:
192,192,198109,1,0,0:0:0:0:
64,192,198161,1,0,0:0:0:0:
448,192,198212,1,0,0:0:0:0:
320,192,198264,1,0,0:0:0:0:
192,192,198316,1,0,0:0:0:0:
64,192,198367,1,0,0:0:0:0:
448,192,198419,1,0,0:0:0:0:
320,192,198471,1,0,0:0:0:0:
192,192,198523,1,0,0:0:0:0:
64,192,198574,1,0,0:0:0:0:
448,192,198626,1,0,0:0:0:0:
320,192,198678,1,0,0:0:0:0:
192,192,198730,1,0,0:0:0:0:
64,192,198781,1,0,0:0:0:0:
192,192,198936,1,0,0:0:0:0:
448,192,198936,1,0,0:0:0:0:
64,192,199350,128,0,202661:0:0:0:0:
448,192,199350,128,0,201005:0:0:0:0:
320,192,201005,1,0,0:0:0:0:
192,192,201005,128,0,202661:0:0:0:0:
320,192,202661,1,0,0:0:0:0:
448,192,202661,128,0,212592:0:0:0:0:
192,192,202971,1,0,0:0:0:0:
192,192,203281,1,0,0:0:0:0:
320,192,203592,1,0,0:0:0:0:
192,192,203902,1,0,0:0:0:0:
64,192,204109,1,0,0:0:0:0:
192,192,204419,1,0,0:0:0:0:
192,192,204730,1,0,0:0:0:0:
64,192,205040,1,0,0:0:0:0:
64,192,205350,1,0,0:0:0:0:
192,192,205557,1,0,0:0:0:0:
320,192,205661,1,0,0:0:0:0:
192,192,205764,1,0,0:0:0:0:
64,192,205971,1,0,0:0:0:0:
192,192,206281,1,0,0:0:0:0:
192,192,206592,1,0,0:0:0:0:
320,192,206902,1,0,0:0:0:0:
320,192,207212,1,0,0:0:0:0:
192,192,207419,1,0,0:0:0:0:
64,192,207626,1,0,0:0:0:0:
64,192,207936,1,0,0:0:0:0:
192,192,208247,1,0,0:0:0:0:
192,192,208557,1,0,0:0:0:0:
320,192,208764,1,0,0:0:0:0:
320,192,208867,1,0,0:0:0:0:
192,192,209074,1,0,0:0:0:0:
64,192,209281,1,0,0:0:0:0:
64,192,209592,1,0,0:0:0:0:
192,192,209902,1,0,0:0:0:0:
192,192,210212,1,0,0:0:0:0:
64,192,210523,128,0,212592:0:0:0:0:
192,192,211764,1,0,0:0:0:0:
320,192,211764,1,0,0:0:0:0:
192,192,212178,1,0,0:0:0:0:
320,192,212178,1,0,0:0:0:0:
192,192,212592,128,0,214247:0:0:0:0:
320,192,212592,128,0,214247:0:0:0:0:
64,192,214247,128,0,215902:0:0:0:0:
448,192,214247,128,0,215902:0:0:0:0:
192,192,215902,1,0,0:0:0:0:
320,192,215902,128,0,219212:0:0:0:0:
192,192,219212,1,0,0:0:0:0:
64,192,219212,1,0,0:0:0:0:
320,192,219419,1,0,0:0:0:0:
448,192,219419,1,0,0:0:0:0:
320,192,219626,1,0,0:0:0:0:
64,192,219626,1,0,0:0:0:0:
192,192,219833,1,0,0:0:0:0:
320,192,219833,1,0,0:0:0:0:
192,192,220040,1,0,0:0:0:0:
448,192,220040,1,0,0:0:0:0:
64,192,220247,1,0,0:0:0:0:
192,192,220247,1,0,0:0:0:0:
64,192,220454,1,0,0:0:0:0:
448,192,220454,1,0,0:0:0:0:
320,192,220661,1,0,0:0:0:0:
448,192,220661,1,0,0:0:0:0:
320,192,220867,1,0,0:0:0:0:
64,192,220867,1,0,0:0:0:0:
192,192,221074,1,0,0:0:0:0:
320,192,221074,1,0,0:0:0:0:
192,192,221281,1,0,0:0:0:0:
448,192,221281,1,0,0:0:0:0:
320,192,221488,1,0,0:0:0:0:
448,192,221488,1,0,0:0:0:0:
320,192,221695,1,0,0:0:0:0:
64,192,221695,1,0,0:0:0:0:
192,192,221902,1,0,0:0:0:0:
320,192,221902,1,0,0:0:0:0:
192,192,222109,1,0,0:0:0:0:
448,192,222109,1,0,0:0:0:0:
64,192,222316,1,0,0:0:0:0:
320,192,222316,1,0,0:0:0:0:
64,192,222523,1,0,0:0:0:0:
192,192,222523,1,0,0:0:0:0:
320,192,222626,1,0,0:0:0:0:
448,192,222626,1,0,0:0:0:0:
64,192,222730,1,0,0:0:0:0:
192,192,222730,1,0,0:0:0:0:
320,192,222833,1,0,0:0:0:0:
448,192,222833,1,0,0:0:0:0:
64,192,222936,1,0,0:0:0:0:
192,192,222936,1,0,0:0:0:0:
320,192,223040,1,0,0:0:0:0:
448,192,223040,1,0,0:0:0:0:
64,192,223143,1,0,0:0:0:0:
192,192,223143,1,0,0:0:0:0:
320,192,223247,1,0,0:0:0:0:
448,192,223247,1,0,0:0:0:0:
192,192,223350,1,0,0:0:0:0:
64,192,223350,1,0,0:0:0:0:
320,192,223454,1,0,0:0:0:0:
448,192,223454,1,0,0:0:0:0:
192,192,223557,1,0,0:0:0:0:
64,192,223557,1,0,0:0:0:0:
320,192,223661,1,0,0:0:0:0:
448,192,223661,1,0,0:0:0:0:
192,192,223764,1,0,0:0:0:0:
64,192,223764,1,0,0:0:0:0:
320,192,223867,1,0,0:0:0:0:
448,192,223867,1,0,0:0:0:0:
64,192,223971,1,0,0:0:0:0:
192,192,223971,1,0,0:0:0:0:
320,192,224074,1,0,0:0:0:0:
448,192,224074,1,0,0:0:0:0:
192,192,224178,1,0,0:0:0:0:
64,192,224178,128,0,224592:0:0:0:0:
192,192,224385,1,0,0:0:0:0:
448,192,224385,1,0,0:0:0:0:
192,192,224592,1,0,0:0:0:0:
448,192,224592,1,0,0:0:0:0:
320,192,224695,1,0,0:0:0:0:
192,192,224798,1,0,0:0:0:0:
320,192,224902,1,0,0:0:0:0:
64,192,225005,1,0,0:0:0:0:
448,192,225005,1,0,0:0:0:0:
192,192,225419,1,0,0:0:0:0:
320,192,225419,1,0,0:0:0:0:
64,192,225833,1,0,0:0:0:0:
448,192,225833,1,0,0:0:0:0:
320,192,225936,1,0,0:0:0:0:
192,192,226040,1,0,0:0:0:0:
64,192,226143,1,0,0:0:0:0:
192,192,226247,1,0,0:0:0:0:
448,192,226247,1,0,0:0:0:0:
320,192,226350,1,0,0:0:0:0:
64,192,226454,1,0,0:0:0:0:
192,192,226557,1,0,0:0:0:0:
320,192,226661,1,0,0:0:0:0:
448,192,226661,1,0,0:0:0:0:
64,192,226764,1,0,0:0:0:0:
448,192,226867,1,0,0:0:0:0:
320,192,226971,1,0,0:0:0:0:
64,192,227074,1,0,0:0:0:0:
192,192,227074,1,0,0:0:0:0:
448,192,227178,1,0,0:0:0:0:
192,192,227281,1,0,0:0:0:0:
320,192,227385,1,0,0:0:0:0:
64,192,227488,1,0,0:0:0:0:
192,192,227488,1,0,0:0:0:0:
448,192,227592,1,0,0:0:0:0:
320,192,227695,1,0,0:0:0:0:
64,192,227798,1,0,0:0:0:0:
192,192,227902,1,0,0:0:0:0:
448,192,227902,1,0,0:0:0:0:
320,192,228005,1,0,0:0:0:0:
192,192,228109,1,0,0:0:0:0:
64,192,228212,1,0,0:0:0:0:
192,192,228316,1,0,0:0:0:0:
448,192,228316,1,0,0:0:0:0:
320,192,228419,1,0,0:0:0:0:
64,192,228523,1,0,0:0:0:0:
192,192,228626,1,0,0:0:0:0:
320,192,228730,1,0,0:0:0:0:
448,192,228730,1,0,0:0:0:0:
64,192,228833,1,0,0:0:0:0:
192,192,228936,1,0,0:0:0:0:
448,192,229040,1,0,0:0:0:0:
64,192,229143,1,0,0:0:0:0:
320,192,229143,1,0,0:0:0:0:
192,192,229247,1,0,0:0:0:0:
448,192,229350,1,0,0:0:0:0:
64,192,229454,1,0,0:0:0:0:
448,192,229557,1,0,0:0:0:0:
192,192,229557,1,0,0:0:0:0:
320,192,229661,1,0,0:0:0:0:
64,192,229764,1,0,0:0:0:0:
192,192,229867,1,0,0:0:0:0:
320,192,229971,1,0,0:0:0:0:
448,192,229971,1,0,0:0:0:0:
64,192,230074,1,0,0:0:0:0:
192,192,230178,1,0,0:0:0:0:
448,192,230281,1,0,0:0:0:0:
64,192,230385,1,0,0:0:0:0:
320,192,230385,1,0,0:0:0:0:
192,192,230488,1,0,0:0:0:0:
320,192,230592,1,0,0:0:0:0:
64,192,230695,1,0,0:0:0:0:
192,192,230798,1,0,0:0:0:0:
448,192,230798,1,0,0:0:0:0:
320,192,230902,1,0,0:0:0:0:
192,192,231005,1,0,0:0:0:0:
64,192,231109,1,0,0:0:0:0:
192,192,231212,1,0,0:0:0:0:
320,192,231212,1,0,0:0:0:0:
448,192,231316,1,0,0:0:0:0:
64,192,231419,1,0,0:0:0:0:
192,192,231523,1,0,0:0:0:0:
320,192,231626,1,0,0:0:0:0:
448,192,231626,1,0,0:0:0:0:
64,192,231730,1,0,0:0:0:0:
320,192,231833,1,0,0:0:0:0:
192,192,231936,1,0,0:0:0:0:
64,192,232040,1,0,0:0:0:0:
448,192,232040,1,0,0:0:0:0:
320,192,232143,1,0,0:0:0:0:
192,192,232247,1,0,0:0:0:0:
320,192,232350,1,0,0:0:0:0:
64,192,232454,1,0,0:0:0:0:
192,192,232454,1,0,0:0:0:0:
320,192,232557,1,0,0:0:0:0:
448,192,232661,1,0,0:0:0:0:
64,192,232764,1,0,0:0:0:0:
192,192,232867,1,0,0:0:0:0:
448,192,232867,1,0,0:0:0:0:
320,192,232971,1,0,0:0:0:0:
192,192,233074,1,0,0:0:0:0:
64,192,233178,1,0,0:0:0:0:
192,192,233281,1,0,0:0:0:0:
448,192,233281,1,0,0:0:0:0:
320,192,233385,1,0,0:0:0:0:
192,192,233488,1,0,0:0:0:0:
448,192,233592,1,0,0:0:0:0:
64,192,233695,1,0,0:0:0:0:
320,192,233695,1,0,0:0:0:0:
192,192,233798,1,0,0:0:0:0:
448,192,233902,1,0,0:0:0:0:
320,192,234005,1,0,0:0:0:0:
64,192,234109,1,0,0:0:0:0:
192,192,234109,1,0,0:0:0:0:
448,192,234212,1,0,0:0:0:0:
320,192,234316,1,0,0:0:0:0:
64,192,234419,1,0,0:0:0:0:
192,192,234523,1,0,0:0:0:0:
448,192,234523,1,0,0:0:0:0:
320,192,234626,1,0,0:0:0:0:
64,192,234730,1,0,0:0:0:0:
192,192,234833,1,0,0:0:0:0:
320,192,234936,1,0,0:0:0:0:
448,192,234936,1,0,0:0:0:0:
192,192,235040,1,0,0:0:0:0:
64,192,235143,1,0,0:0:0:0:
448,192,235247,1,0,0:0:0:0:
64,192,235350,1,0,0:0:0:0:
320,192,235350,1,0,0:0:0:0:
192,192,235454,1,0,0:0:0:0:
448,192,235557,1,0,0:0:0:0:
64,192,235661,1,0,0:0:0:0:
192,192,235764,1,0,0:0:0:0:
320,192,235764,1,0,0:0:0:0:
448,192,235867,1,0,0:0:0:0:
64,192,235971,1,0,0:0:0:0:
320,192,236074,1,0,0:0:0:0:
64,192,236178,1,0,0:0:0:0:
192,192,236178,1,0,0:0:0:0:
448,192,236281,1,0,0:0:0:0:
320,192,236385,1,0,0:0:0:0:
64,192,236488,1,0,0:0:0:0:
192,192,236592,1,0,0:0:0:0:
448,192,236592,1,0,0:0:0:0:
320,192,236695,1,0,0:0:0:0:
192,192,236798,1,0,0:0:0:0:
320,192,236902,1,0,0:0:0:0:
64,192,237005,1,0,0:0:0:0:
448,192,237005,1,0,0:0:0:0:
192,192,237109,1,0,0:0:0:0:
320,192,237212,1,0,0:0:0:0:
192,192,237316,1,0,0:0:0:0:
448,192,237419,1,0,0:0:0:0:
320,192,237419,1,0,0:0:0:0:
448,192,237626,1,0,0:0:0:0:
192,192,237626,1,0,0:0:0:0:
448,192,237833,1,0,0:0:0:0:
64,192,237833,128,0,239074:0:0:0:0:
192,192,238247,1,0,0:0:0:0:
448,192,238454,1,0,0:0:0:0:
320,192,238557,1,0,0:0:0:0:
192,192,238764,1,0,0:0:0:0:
320,192,238867,1,0,0:0:0:0:
192,192,239074,1,0,0:0:0:0:
448,192,239074,1,0,0:0:0:0:
320,192,239178,1,0,0:0:0:0:
64,192,239488,1,0,0:0:0:0:
320,192,239488,1,0,0:0:0:0:
448,192,239488,1,0,0:0:0:0:
192,192,239592,1,0,0:0:0:0:
320,192,239695,1,0,0:0:0:0:
64,192,239798,1,0,0:0:0:0:
192,192,239902,1,0,0:0:0:0:
448,192,239902,1,0,0:0:0:0:
320,192,240005,1,0,0:0:0:0:
64,192,240109,1,0,0:0:0:0:
192,192,240212,1,0,0:0:0:0:
320,192,240316,1,0,0:0:0:0:
448,192,240316,1,0,0:0:0:0:
192,192,240419,1,0,0:0:0:0:
64,192,240523,1,0,0:0:0:0:
320,192,240626,1,0,0:0:0:0:
192,192,240730,1,0,0:0:0:0:
448,192,240730,1,0,0:0:0:0:
320,192,240833,1,0,0:0:0:0:
64,192,240936,1,0,0:0:0:0:
192,192,241040,1,0,0:0:0:0:
320,192,241143,1,0,0:0:0:0:
448,192,241143,1,0,0:0:0:0:
64,192,241247,1,0,0:0:0:0:
448,192,241350,1,0,0:0:0:0:
320,192,241454,1,0,0:0:0:0:
64,192,241557,1,0,0:0:0:0:
192,192,241557,1,0,0:0:0:0:
448,192,241661,1,0,0:0:0:0:
320,192,241764,1,0,0:0:0:0:
64,192,241867,1,0,0:0:0:0:
192,192,241971,1,0,0:0:0:0:
448,192,241971,1,0,0:0:0:0:
320,192,242074,1,0,0:0:0:0:
64,192,242178,1,0,0:0:0:0:
192,192,242281,1,0,0:0:0:0:
320,192,242385,1,0,0:0:0:0:
448,192,242385,1,0,0:0:0:0:
64,192,242488,1,0,0:0:0:0:
192,192,242592,1,0,0:0:0:0:
448,192,242695,1,0,0:0:0:0:
64,192,242798,1,0,0:0:0:0:
320,192,242798,1,0,0:0:0:0:
192,192,242902,1,0,0:0:0:0:
320,192,243005,1,0,0:0:0:0:
64,192,243109,1,0,0:0:0:0:
192,192,243212,1,0,0:0:0:0:
448,192,243212,1,0,0:0:0:0:
320,192,243316,1,0,0:0:0:0:
192,192,243419,1,0,0:0:0:0:
64,192,243523,1,0,0:0:0:0:
192,192,243626,1,0,0:0:0:0:
448,192,243626,1,0,0:0:0:0:
320,192,243730,1,0,0:0:0:0:
192,192,243833,1,0,0:0:0:0:
320,192,243936,1,0,0:0:0:0:
64,192,244040,1,0,0:0:0:0:
448,192,244040,1,0,0:0:0:0:
192,192,244143,1,0,0:0:0:0:
320,192,244247,1,0,0:0:0:0:
192,192,244350,1,0,0:0:0:0:
64,192,244454,1,0,0:0:0:0:
320,192,244454,1,0,0:0:0:0:
448,192,244557,1,0,0:0:0:0:
320,192,244661,1,0,0:0:0:0:
192,192,244764,1,0,0:0:0:0:
320,192,244867,1,0,0:0:0:0:
448,192,244867,1,0,0:0:0:0:
64,192,244971,1,0,0:0:0:0:
192,192,245074,1,0,0:0:0:0:
320,192,245178,1,0,0:0:0:0:
64,192,245281,1,0,0:0:0:0:
192,192,245281,1,0,0:0:0:0:
448,192,245385,1,0,0:0:0:0:
320,192,245488,1,0,0:0:0:0:
64,192,245592,1,0,0:0:0:0:
192,192,245695,1,0,0:0:0:0:
448,192,245695,1,0,0:0:0:0:
320,192,245798,1,0,0:0:0:0:
192,192,245902,1,0,0:0:0:0:
64,192,246005,1,0,0:0:0:0:
192,192,246109,1,0,0:0:0:0:
448,192,246109,1,0,0:0:0:0:
320,192,246212,1,0,0:0:0:0:
64,192,246316,1,0,0:0:0:0:
192,192,246419,1,0,0:0:0:0:
320,192,246523,1,0,0:0:0:0:
448,192,246523,1,0,0:0:0:0:
64,192,246626,1,0,0:0:0:0:
448,192,246730,1,0,0:0:0:0:
320,192,246833,1,0,0:0:0:0:
64,192,246936,1,0,0:0:0:0:
192,192,246936,1,0,0:0:0:0:
448,192,247040,1,0,0:0:0:0:
320,192,247143,1,0,0:0:0:0:
64,192,247247,1,0,0:0:0:0:
192,192,247350,1,0,0:0:0:0:
448,192,247350,1,0,0:0:0:0:
320,192,247454,1,0,0:0:0:0:
192,192,247557,1,0,0:0:0:0:
320,192,247661,1,0,0:0:0:0:
64,192,247764,1,0,0:0:0:0:
448,192,247764,1,0,0:0:0:0:
192,192,247971,1,0,0:0:0:0:
448,192,247971,1,0,0:0:0:0:
320,192,248178,1,0,0:0:0:0:
192,192,248385,1,0,0:0:0:0:
64,192,248592,1,0,0:0:0:0:
448,192,248592,1,0,0:0:0:0:
64,192,248798,1,0,0:0:0:0:
320,192,248798,1,0,0:0:0:0:
448,192,249005,128,0,249833:0:0:0:0:
64,192,249005,1,0,0:0:0:0:
192,192,249833,128,0,250247:0:0:0:0:
64,192,249833,1,0,0:0:0:0:
320,192,250040,128,0,250247:0:0:0:0:
448,192,250143,128,0,250247:0:0:0:0:
64,192,250247,128,0,250661:0:0:0:0:
320,192,250454,1,0,0:0:0:0:
448,192,250454,1,0,0:0:0:0:
320,192,250661,1,0,0:0:0:0:
448,192,250661,128,0,251488:0:0:0:0:
320,192,251281,1,0,0:0:0:0:
192,192,251350,1,0,0:0:0:0:
64,192,251419,1,0,0:0:0:0:
192,192,251488,1,0,0:0:0:0:
320,192,251488,1,0,0:0:0:0:
64,192,251695,1,0,0:0:0:0:
192,192,251764,1,0,0:0:0:0:
320,192,251833,1,0,0:0:0:0:
64,192,251902,1,0,0:0:0:0:
192,192,251902,1,0,0:0:0:0:
448,192,252109,1,0,0:0:0:0:
320,192,252212,1,0,0:0:0:0:
192,192,252316,1,0,0:0:0:0:
64,192,252316,128,0,252730:0:0:0:0:
192,192,252730,1,0,0:0:0:0:
448,192,252730,1,0,0:0:0:0:
320,192,252833,1,0,0:0:0:0:
64,192,252936,1,0,0:0:0:0:
192,192,253040,1,0,0:0:0:0:
448,192,253143,1,0,0:0:0:0:
320,192,253143,1,0,0:0:0:0:
192,192,253247,1,0,0:0:0:0:
64,192,253350,1,0,0:0:0:0:
192,192,253454,1,0,0:0:0:0:
320,192,253557,1,0,0:0:0:0:
448,192,253557,1,0,0:0:0:0:
64,192,253661,1,0,0:0:0:0:
192,192,253764,1,0,0:0:0:0:
192,192,253867,1,0,0:0:0:0:
320,192,253971,1,0,0:0:0:0:
448,192,253971,1,0,0:0:0:0:
192,192,254074,1,0,0:0:0:0:
64,192,254178,1,0,0:0:0:0:
448,192,254281,1,0,0:0:0:0:
192,192,254385,1,0,0:0:0:0:
320,192,254385,1,0,0:0:0:0:
64,192,254488,1,0,0:0:0:0:
448,192,254592,1,0,0:0:0:0:
320,192,254695,1,0,0:0:0:0:
64,192,254798,1,0,0:0:0:0:
192,192,254798,1,0,0:0:0:0:
448,192,254902,1,0,0:0:0:0:
320,192,255005,1,0,0:0:0:0:
64,192,255109,1,0,0:0:0:0:
192,192,255212,1,0,0:0:0:0:
448,192,255212,1,0,0:0:0:0:
64,192,255316,1,0,0:0:0:0:
320,192,255419,1,0,0:0:0:0:
320,192,255523,1,0,0:0:0:0:
192,192,255626,1,0,0:0:0:0:
448,192,255626,1,0,0:0:0:0:
64,192,255730,1,0,0:0:0:0:
320,192,255833,1,0,0:0:0:0:
192,192,255936,1,0,0:0:0:0:
320,192,256040,1,0,0:0:0:0:
448,192,256040,1,0,0:0:0:0:
64,192,256143,1,0,0:0:0:0:
192,192,256247,1,0,0:0:0:0:
448,192,256350,1,0,0:0:0:0:
64,192,256454,1,0,0:0:0:0:
320,192,256454,1,0,0:0:0:0:
192,192,256557,1,0,0:0:0:0:
448,192,256661,1,0,0:0:0:0:
320,192,256764,1,0,0:0:0:0:
64,192,256867,1,0,0:0:0:0:
192,192,256867,1,0,0:0:0:0:
320,192,256971,1,0,0:0:0:0:
192,192,257074,1,0,0:0:0:0:
192,192,257178,1,0,0:0:0:0:
64,192,257281,1,0,0:0:0:0:
448,192,257281,1,0,0:0:0:0:
320,192,257385,1,0,0:0:0:0:
192,192,257488,1,0,0:0:0:0:
448,192,257592,1,0,0:0:0:0:
64,192,257695,1,0,0:0:0:0:
320,192,257695,1,0,0:0:0:0:
192,192,257798,1,0,0:0:0:0:
64,192,257902,1,0,0:0:0:0:
192,192,258005,1,0,0:0:0:0:
320,192,258109,1,0,0:0:0:0:
448,192,258109,1,0,0:0:0:0:
64,192,258212,1,0,0:0:0:0:
192,192,258316,1,0,0:0:0:0:
448,192,258419,1,0,0:0:0:0:
64,192,258523,1,0,0:0:0:0:
320,192,258523,1,0,0:0:0:0:
192,192,258626,1,0,0:0:0:0:
448,192,258730,1,0,0:0:0:0:
448,192,258833,1,0,0:0:0:0:
64,192,258936,1,0,0:0:0:0:
320,192,258936,1,0,0:0:0:0:
192,192,259040,1,0,0:0:0:0:
320,192,259143,1,0,0:0:0:0:
448,192,259247,1,0,0:0:0:0:
320,192,259350,1,0,0:0:0:0:
192,192,259350,1,0,0:0:0:0:
64,192,259454,1,0,0:0:0:0:
192,192,259557,1,0,0:0:0:0:
448,192,259661,1,0,0:0:0:0:
64,192,259764,1,0,0:0:0:0:
320,192,259764,1,0,0:0:0:0:
192,192,259867,1,0,0:0:0:0:
320,192,259971,1,0,0:0:0:0:
64,192,260074,1,0,0:0:0:0:
192,192,260178,1,0,0:0:0:0:
448,192,260178,1,0,0:0:0:0:
64,192,260281,1,0,0:0:0:0:
320,192,260385,1,0,0:0:0:0:
320,192,260488,1,0,0:0:0:0:
64,192,260592,1,0,0:0:0:0:
448,192,260592,1,0,0:0:0:0:
192,192,260695,1,0,0:0:0:0:
320,192,260798,1,0,0:0:0:0:
448,192,260902,1,0,0:0:0:0:
64,192,261005,1,0,0:0:0:0:
320,192,261005,1,0,0:0:0:0:
192,192,261109,1,0,0:0:0:0:
320,192,261212,1,0,0:0:0:0:
64,192,261316,1,0,0:0:0:0:
192,192,261419,1,0,0:0:0:0:
448,192,261419,1,0,0:0:0:0:
320,192,261523,1,0,0:0:0:0:
192,192,261626,1,0,0:0:0:0:
64,192,261730,1,0,0:0:0:0:
320,192,261833,1,0,0:0:0:0:
448,192,261833,1,0,0:0:0:0:
64,192,261936,1,0,0:0:0:0:
192,192,262040,1,0,0:0:0:0:
192,192,262143,1,0,0:0:0:0:
448,192,262247,128,0,263074:0:0:0:0:
64,192,262247,1,0,0:0:0:0:
192,192,262661,128,0,263074:0:0:0:0:
64,192,263074,1,0,0:0:0:0:
320,192,263074,1,0,0:0:0:0:
64,192,263902,1,0,0:0:0:0:
192,192,263902,1,0,0:0:0:0:
448,192,263902,1,0,0:0:0:0:
320,192,264109,128,0,264212:0:0:0:0:
320,192,264316,128,0,264730:0:0:0:0:
64,192,264730,1,0,0:0:0:0:
192,192,264730,1,0,0:0:0:0:
448,192,264730,1,0,0:0:0:0:
320,192,264936,1,0,0:0:0:0:
192,192,265040,1,0,0:0:0:0:
320,192,265143,1,0,0:0:0:0:
448,192,265143,1,0,0:0:0:0:
192,192,265350,1,0,0:0:0:0:
192,192,265454,1,0,0:0:0:0:
64,192,265557,1,0,0:0:0:0:
320,192,265557,1,0,0:0:0:0:
448,192,265557,1,0,0:0:0:0:
192,192,265661,1,0,0:0:0:0:
320,192,265764,1,0,0:0:0:0:
64,192,265867,1,0,0:0:0:0:
192,192,265971,1,0,0:0:0:0:
448,192,265971,1,0,0:0:0:0:
320,192,266074,1,0,0:0:0:0:
64,192,266178,1,0,0:0:0:0:
192,192,266281,1,0,0:0:0:0:
320,192,266385,1,0,0:0:0:0:
448,192,266385,1,0,0:0:0:0:
64,192,266488,1,0,0:0:0:0:
192,192,266592,1,0,0:0:0:0:
448,192,266695,1,0,0:0:0:0:
320,192,266798,1,0,0:0:0:0:
64,192,266798,1,0,0:0:0:0:
192,192,266902,1,0,0:0:0:0:
320,192,267005,1,0,0:0:0:0:
320,192,267109,1,0,0:0:0:0:
192,192,267212,1,0,0:0:0:0:
448,192,267212,1,0,0:0:0:0:
64,192,267316,1,0,0:0:0:0:
192,192,267419,1,0,0:0:0:0:
448,192,267523,1,0,0:0:0:0:
64,192,267626,1,0,0:0:0:0:
320,192,267626,1,0,0:0:0:0:
192,192,267730,1,0,0:0:0:0:
320,192,267833,1,0,0:0:0:0:
64,192,267936,1,0,0:0:0:0:
192,192,268040,1,0,0:0:0:0:
448,192,268040,1,0,0:0:0:0:
320,192,268143,1,0,0:0:0:0:
192,192,268247,1,0,0:0:0:0:
64,192,268350,1,0,0:0:0:0:
192,192,268454,1,0,0:0:0:0:
448,192,268454,1,0,0:0:0:0:
320,192,268557,1,0,0:0:0:0:
192,192,268661,1,0,0:0:0:0:
192,192,268764,1,0,0:0:0:0:
64,192,268867,1,0,0:0:0:0:
448,192,268867,1,0,0:0:0:0:
320,192,268971,1,0,0:0:0:0:
192,192,269074,1,0,0:0:0:0:
320,192,269178,1,0,0:0:0:0:
64,192,269281,1,0,0:0:0:0:
192,192,269281,1,0,0:0:0:0:
448,192,269385,1,0,0:0:0:0:
320,192,269488,1,0,0:0:0:0:
64,192,269592,1,0,0:0:0:0:
192,192,269695,1,0,0:0:0:0:
448,192,269695,1,0,0:0:0:0:
320,192,269798,1,0,0:0:0:0:
64,192,269902,1,0,0:0:0:0:
192,192,270005,1,0,0:0:0:0:
320,192,270109,1,0,0:0:0:0:
448,192,270109,1,0,0:0:0:0:
64,192,270212,1,0,0:0:0:0:
192,192,270316,1,0,0:0:0:0:
192,192,270419,1,0,0:0:0:0:
320,192,270523,1,0,0:0:0:0:
448,192,270523,1,0,0:0:0:0:
64,192,270626,1,0,0:0:0:0:
192,192,270730,1,0,0:0:0:0:
448,192,270833,1,0,0:0:0:0:
320,192,270936,1,0,0:0:0:0:
64,192,270936,1,0,0:0:0:0:
192,192,271040,1,0,0:0:0:0:
320,192,271143,1,0,0:0:0:0:
448,192,271247,1,0,0:0:0:0:
192,192,271350,1,0,0:0:0:0:
320,192,271350,1,0,0:0:0:0:
64,192,271454,1,0,0:0:0:0:
192,192,271557,1,0,0:0:0:0:
320,192,271661,1,0,0:0:0:0:
64,192,271764,1,0,0:0:0:0:
192,192,271764,1,0,0:0:0:0:
320,192,271867,1,0,0:0:0:0:
192,192,271971,1,0,0:0:0:0:
192,192,272074,1,0,0:0:0:0:
320,192,272178,1,0,0:0:0:0:
448,192,272178,1,0,0:0:0:0:
64,192,272385,1,0,0:0:0:0:
320,192,272385,1,0,0:0:0:0:
192,192,272592,1,0,0:0:0:0:
320,192,272592,1,0,0:0:0:0:
192,192,272798,1,0,0:0:0:0:
448,192,272798,1,0,0:0:0:0:
320,192,273005,1,0,0:0:0:0:
448,192,273005,1,0,0:0:0:0:
64,192,273212,1,0,0:0:0:0:
320,192,273212,1,0,0:0:0:0:
192,192,273419,1,0,0:0:0:0:
448,192,273419,1,0,0:0:0:0:
320,192,273626,1,0,0:0:0:0:
448,192,273626,1,0,0:0:0:0:
320,192,273833,1,0,0:0:0:0:
64,192,273833,1,0,0:0:0:0:
192,192,274040,1,0,0:0:0:0:
320,192,274040,1,0,0:0:0:0:
192,192,274247,1,0,0:0:0:0:
448,192,274247,1,0,0:0:0:0:
320,192,274454,1,0,0:0:0:0:
448,192,274454,1,0,0:0:0:0:
448,192,274661,1,0,0:0:0:0:
64,192,274661,1,0,0:0:0:0:
192,192,274867,1,0,0:0:0:0:
448,192,274867,1,0,0:0:0:0:
320,192,275074,1,0,0:0:0:0:
448,192,275074,1,0,0:0:0:0:
64,192,275281,1,0,0:0:0:0:
320,192,275281,1,0,0:0:0:0:
64,192,275488,1,0,0:0:0:0:
192,192,275488,1,0,0:0:0:0:
320,192,275592,1,0,0:0:0:0:
448,192,275592,1,0,0:0:0:0:
64,192,275695,1,0,0:0:0:0:
192,192,275695,1,0,0:0:0:0:
320,192,275798,1,0,0:0:0:0:
448,192,275798,1,0,0:0:0:0:
64,192,275902,1,0,0:0:0:0:
192,192,275902,1,0,0:0:0:0:
320,192,276005,1,0,0:0:0:0:
448,192,276005,1,0,0:0:0:0:
64,192,276109,1,0,0:0:0:0:
192,192,276109,1,0,0:0:0:0:
320,192,276212,1,0,0:0:0:0:
448,192,276212,1,0,0:0:0:0:
64,192,276316,1,0,0:0:0:0:
192,192,276316,1,0,0:0:0:0:
320,192,276419,1,0,0:0:0:0:
448,192,276419,1,0,0:0:0:0:
64,192,276523,1,0,0:0:0:0:
192,192,276523,1,0,0:0:0:0:
320,192,276626,1,0,0:0:0:0:
448,192,276626,1,0,0:0:0:0:
64,192,276730,1,0,0:0:0:0:
192,192,276730,1,0,0:0:0:0:
320,192,276833,1,0,0:0:0:0:
448,192,276833,1,0,0:0:0:0:
64,192,276936,1,0,0:0:0:0:
192,192,276936,1,0,0:0:0:0:
320,192,277040,1,0,0:0:0:0:
448,192,277040,1,0,0:0:0:0:
64,192,277143,1,0,0:0:0:0:
192,192,277143,1,0,0:0:0:0:
320,192,277281,1,0,0:0:0:0:
448,192,277281,1,0,0:0:0:0:
64,192,277419,1,0,0:0:0:0:
192,192,277419,1,0,0:0:0:0:
320,192,277557,1,0,0:0:0:0:
448,192,277557,1,0,0:0:0:0:
64,192,277695,1,0,0:0:0:0:
192,192,277695,1,0,0:0:0:0:
320,192,277833,1,0,0:0:0:0:
448,192,277833,1,0,0:0:0:0:
64,192,277971,1,0,0:0:0:0:
192,192,277971,1,0,0:0:0:0:
320,192,278109,1,0,0:0:0:0:
448,192,278109,128,0,278798:0:0:0:0:
320,192,278385,128,0,278798:0:0:0:0:
192,192,278798,1,0,0:0:0:0:
64,192,278798,128,0,279005:0:0:0:0:
448,192,279005,1,0,0:0:0:0:
320,192,279005,128,0,279212:0:0:0:0:
64,192,279212,1,0,0:0:0:0:
192,192,279212,128,0,279419:0:0:0:0:
448,192,279419,1,0,0:0:0:0:
320,192,279419,128,0,279626:0:0:0:0:
192,192,279626,1,0,0:0:0:0:
64,192,279626,128,0,279833:0:0:0:0:
448,192,279833,128,0,280040:0:0:0:0:
320,192,279833,1,0,0:0:0:0:
192,192,280247,1,0,0:0:0:0:
320,192,280247,128,0,280661:0:0:0:0:
64,192,280661,1,0,0:0:0:0:
192,192,280764,1,0,0:0:0:0:
320,192,280867,1,0,0:0:0:0:
448,192,280867,128,0,281281:0:0:0:0:
320,192,281488,1,0,0:0:0:0:
64,192,281488,128,0,281695:0:0:0:0:
192,192,281695,128,0,281902:0:0:0:0:
448,192,281695,1,0,0:0:0:0:
448,192,281902,1,0,0:0:0:0:
320,192,281902,128,0,282316:0:0:0:0:
448,192,282523,1,0,0:0:0:0:
320,192,282626,1,0,0:0:0:0:
64,192,282730,128,0,283143:0:0:0:0:
192,192,282730,1,0,0:0:0:0:
192,192,283350,1,0,0:0:0:0:
448,192,283350,128,0,283557:0:0:0:0:
64,192,283557,1,0,0:0:0:0:
320,192,283557,128,0,283971:0:0:0:0:
448,192,283971,1,0,0:0:0:0:
192,192,283971,128,0,284385:0:0:0:0:
320,192,284385,1,0,0:0:0:0:
448,192,284385,128,0,284798:0:0:0:0:
64,192,285419,1,0,0:0:0:0:
192,192,285419,128,0,285626:0:0:0:0:
320,192,285626,128,0,285833:0:0:0:0:
448,192,285626,1,0,0:0:0:0:
64,192,285833,1,0,0:0:0:0:
192,192,285833,128,0,286040:0:0:0:0:
448,192,286040,1,0,0:0:0:0:
320,192,286040,128,0,286247:0:0:0:0:
64,192,286247,1,0,0:0:0:0:
192,192,286247,128,0,286454:0:0:0:0:
448,192,286454,128,0,286661:0:0:0:0:
320,192,286454,1,0,0:0:0:0:
64,192,286867,1,0,0:0:0:0:
448,192,286867,128,0,287281:0:0:0:0:
64,192,287281,1,0,0:0:0:0:
192,192,287385,1,0,0:0:0:0:
64,192,287488,128,0,287902:0:0:0:0:
320,192,287488,1,0,0:0:0:0:
192,192,288109,1,0,0:0:0:0:
64,192,288109,128,0,288316:0:0:0:0:
192,192,288316,128,0,288523:0:0:0:0:
320,192,288316,1,0,0:0:0:0:
448,192,288523,1,0,0:0:0:0:
320,192,288523,128,0,288936:0:0:0:0:
64,192,288936,1,0,0:0:0:0:
192,192,289040,1,0,0:0:0:0:
320,192,289143,1,0,0:0:0:0:
448,192,289143,128,0,289454:0:0:0:0:
64,192,289764,1,0,0:0:0:0:
320,192,289764,128,0,289971:0:0:0:0:
192,192,289971,1,0,0:0:0:0:
448,192,289971,128,0,290178:0:0:0:0:
320,192,290178,128,0,290592:0:0:0:0:
64,192,290178,1,0,0:0:0:0:
448,192,290592,1,0,0:0:0:0:
192,192,290592,128,0,291005:0:0:0:0:
320,192,291005,1,0,0:0:0:0:
64,192,291005,128,0,291419:0:0:0:0:
192,192,291419,1,0,0:0:0:0:
448,192,291419,128,0,292040:0:0:0:0:
320,192,291523,1,0,0:0:0:0:
192,192,291626,1,0,0:0:0:0:
64,192,291833,128,0,292040:0:0:0:0:
192,192,292040,128,0,292867:0:0:0:0:
320,192,292040,128,0,293488:0:0:0:0:
64,192,292867,128,0,295143:0:0:0:0:
448,192,293488,128,0,296798:0:0:0:0:
320,192,295143,128,0,298661:0:0:0:0:
192,192,296798,128,0,299488:0:0:0:0:
448,192,298661,128,0,299488:0:0:0:0:
64,192,299488,128,0,310247:0:0:0:0:
192,192,300109,128,0,310247:0:0:0:0:
320,192,301764,128,0,310247:0:0:0:0:
448,192,303419,128,0,310247:0:0:0:0:
