osu file format v14

[General]
AudioFilename: audio.ogg
AudioLeadIn: 0
PreviewTime: 53235
Countdown: 0
SampleSet: Soft
StackLeniency: 0.7
Mode: 3
LetterboxInBreaks: 0
SpecialStyle: 0
WidescreenStoryboard: 0

[Editor]
DistanceSpacing: 1.3
BeatDivisor: 9
GridSize: 32
TimelineZoom: 1.9

[Metadata]
Title:Subete ga Maboroshi ni Natta Ato de
TitleUnicode:すべてが幻になった後で
Artist:Camellia ChouKisouGengakutai
ArtistUnicode:かめりあ・超機装幻楽隊
Creator:Lami-
Version:EXCEED
Source:SOUND VOLTEX EXCEED GEAR
Tags:FAMoss electronic instrumental video game sdvx 6 vi KONAMI HEXA DIVER マキナ・苺ハートビート Machina Mai heartbeat SDVXオリジナル EG38 スティンガー・超奇想幻画隊 松田博泰・超希想箋楽隊
BeatmapID:3790445
BeatmapSetID:1845223

[Difficulty]
HPDrainRate:9
CircleSize:4
OverallDifficulty:8.5
ApproachRate:5
SliderMultiplier:1.4
SliderTickRate:1

[Events]
//Background and Video events
0,0,"BG.jpg",0,0
//Break Periods
//Storyboard Layer 0 (Background)
//Storyboard Layer 1 (Fail)
//Storyboard Layer 2 (Pass)
//Storyboard Layer 3 (Foreground)
//Storyboard Layer 4 (Overlay)
//Storyboard Sound Samples

[TimingPoints]
1116,379.746835443038,3,2,1,60,1,8
1116,-200,3,2,1,60,0,8
2351,759.493670886076,3,2,1,60,1,0
31971,759.493670886076,5,2,1,60,1,0
39565,759.493670886076,3,2,1,60,1,0
53235,379.746835443038,6,2,1,60,1,0
53235,-200,6,2,1,60,0,9
71462,-200,6,2,1,60,0,8
85134,759.493670886076,5,2,1,60,1,0
96526,379.746835443038,6,2,1,60,1,0
96526,-200,6,2,1,60,0,9
103361,759.493670886076,4,2,1,60,1,0
109436,759.493670886076,3,2,1,60,1,0
109436,-100,3,2,1,60,0,0
114752,769.230769230769,3,2,1,60,1,8
115521,779.220779220779,3,2,1,60,1,8
116300,800,3,2,1,60,1,0
116300,-97.0873786407767,3,2,1,60,0,0
117100,833.333333333333,3,2,1,60,1,8
117100,-95.2380952380952,3,2,1,60,0,8
117933,909.090909090909,3,2,1,60,1,8
117933,-83.3333333333333,3,2,1,60,0,8
118842,909.090909090909,3,2,1,60,1,0
118842,-83.3333333333333,3,2,1,60,0,8

[HitObjects]
192,192,2255,5,0,0:0:0:0:
320,192,2286,1,0,0:0:0:0:
448,192,2318,1,0,0:0:0:0:
64,192,2351,128,0,4502:0:0:0:0:
192,192,2351,128,0,2604:0:0:0:0:
320,192,3110,128,0,3363:0:0:0:0:
448,192,3110,128,0,3363:0:0:0:0:
192,192,4502,1,0,0:0:0:0:
320,192,4566,1,0,0:0:0:0:
64,192,4582,1,0,0:0:0:0:
192,192,4629,128,0,4882:0:0:0:0:
448,192,4629,128,0,5642:0:0:0:0:
320,192,4692,1,0,0:0:0:0:
64,192,5388,128,0,5642:0:0:0:0:
192,192,5388,128,0,5642:0:0:0:0:
320,192,6148,1,0,0:0:0:0:
320,192,6781,1,0,0:0:0:0:
192,192,6813,1,0,0:0:0:0:
64,192,6844,1,0,0:0:0:0:
320,192,6907,128,0,7414:0:0:0:0:
448,192,6907,128,0,8933:0:0:0:0:
64,192,7667,128,0,8173:0:0:0:0:
192,192,7667,128,0,7920:0:0:0:0:
192,192,8379,1,0,0:0:0:0:
64,192,8426,128,0,9819:0:0:0:0:
320,192,8426,128,0,8933:0:0:0:0:
448,192,9123,1,0,0:0:0:0:
192,192,9186,128,0,10578:0:0:0:0:
320,192,9186,128,0,10642:0:0:0:0:
64,192,9945,128,0,10578:0:0:0:0:
448,192,9945,128,0,10642:0:0:0:0:
64,192,10642,1,2,0:0:0:0:
192,192,10642,1,0,0:0:0:0:
320,192,10705,1,2,0:0:0:0:
448,192,10705,1,0,0:0:0:0:
64,192,10789,1,8,0:0:0:0:
192,192,10789,1,0,0:0:0:0:
448,192,10874,1,8,0:0:0:0:
192,192,10958,1,2,0:0:0:0:
320,192,10958,1,0,0:0:0:0:
64,192,11042,1,0,0:0:0:0:
448,192,11042,1,0,0:0:0:0:
320,192,11127,1,0,0:0:0:0:
64,192,11211,1,2,0:0:0:0:
192,192,11211,1,0,0:0:0:0:
320,192,11296,1,0,0:0:0:0:
448,192,11296,1,0,0:0:0:0:
64,192,11380,1,0,0:0:0:0:
192,192,11464,128,2,11802:0:0:0:0:
320,192,11464,128,4,11886:0:0:0:0:
448,192,11464,128,0,15937:0:0:0:0:
64,192,11886,128,0,12477:0:0:0:0:
192,192,11971,128,0,12561:0:0:0:0:
320,192,12055,128,0,12646:0:0:0:0:
64,192,12561,1,0,0:0:0:0:
192,192,12646,1,0,0:0:0:0:
320,192,12730,1,0,0:0:0:0:
64,192,12815,1,0,0:0:0:0:
192,192,12899,1,0,0:0:0:0:
64,192,12983,1,0,0:0:0:0:
320,192,13068,1,0,0:0:0:0:
192,192,13152,1,0,0:0:0:0:
64,192,13237,1,0,0:0:0:0:
320,192,13321,1,0,0:0:0:0:
192,192,13405,1,0,0:0:0:0:
320,192,13490,1,0,0:0:0:0:
64,192,13574,1,0,0:0:0:0:
192,192,13659,1,0,0:0:0:0:
320,192,13743,128,0,13827:0:0:0:0:
64,192,13827,128,0,13912:0:0:0:0:
192,192,13912,128,0,13996:0:0:0:0:
320,192,13996,128,0,14080:0:0:0:0:
64,192,14080,128,0,14165:0:0:0:0:
192,192,14165,128,0,14249:0:0:0:0:
320,192,14249,128,0,14334:0:0:0:0:
64,192,14334,128,0,14418:0:0:0:0:
192,192,14418,128,0,14502:0:0:0:0:
64,192,14502,128,0,14671:0:0:0:0:
320,192,14587,128,0,14671:0:0:0:0:
192,192,14671,128,0,14840:0:0:0:0:
64,192,14756,128,0,14840:0:0:0:0:
320,192,14840,128,0,15009:0:0:0:0:
192,192,14924,128,0,15009:0:0:0:0:
64,192,15009,128,0,15178:0:0:0:0:
320,192,15093,128,0,15178:0:0:0:0:
192,192,15178,128,0,15346:0:0:0:0:
64,192,15262,128,0,15431:0:0:0:0:
320,192,15346,128,0,15515:0:0:0:0:
192,192,15431,128,0,15599:0:0:0:0:
64,192,15515,128,0,15684:0:0:0:0:
320,192,15599,128,0,15768:0:0:0:0:
192,192,15684,128,0,15853:0:0:0:0:
64,192,15768,128,0,15937:0:0:0:0:
320,192,15853,128,0,16021:0:0:0:0:
192,192,15937,128,0,16021:0:0:0:0:
64,192,16021,1,6,0:0:0:0:
448,192,16021,1,0,0:0:0:70:tick02_edit.wav
448,192,16275,1,0,0:0:0:0:
192,192,16528,1,0,0:0:0:0:
64,192,16781,1,2,0:0:0:0:
192,192,16781,1,0,0:0:0:70:tick02_edit.wav
448,192,16844,1,0,0:0:0:0:
320,192,17034,1,0,0:0:0:0:
192,192,17118,1,0,0:0:0:0:
320,192,17203,1,0,0:0:0:0:
448,192,17287,1,0,0:0:0:0:
448,192,17456,1,0,0:0:0:0:
64,192,17540,1,2,0:0:0:0:
192,192,17540,1,0,0:0:0:70:tick02_edit.wav
320,192,17709,128,0,17794:0:0:0:0:
448,192,17962,128,0,18215:0:0:0:0:
320,192,18215,1,0,0:0:0:0:
64,192,18252,1,0,0:0:0:0:
192,192,18300,1,2,0:0:0:0:
448,192,18300,1,0,0:0:0:70:tick02_edit.wav
448,192,18553,1,0,0:0:0:0:
192,192,18806,1,0,0:0:0:0:
64,192,19059,1,2,0:0:0:0:
448,192,19059,1,0,0:0:0:70:tick02_edit.wav
320,192,19123,1,0,0:0:0:0:
320,192,19313,1,0,0:0:0:0:
192,192,19397,1,0,0:0:0:0:
320,192,19481,1,0,0:0:0:0:
448,192,19566,1,0,0:0:0:0:
448,192,19734,1,0,0:0:0:0:
64,192,19819,1,2,0:0:0:0:
192,192,19819,1,0,0:0:0:70:tick02_edit.wav
320,192,19988,128,0,20072:0:0:0:0:
192,192,20241,128,0,20494:0:0:0:0:
320,192,20494,1,0,0:0:0:0:
64,192,20578,1,2,0:0:0:0:
320,192,20578,1,0,0:0:0:70:tick02_edit.wav
448,192,20832,1,0,0:0:0:0:
448,192,21000,1,0,0:0:0:0:
192,192,21021,1,0,0:0:0:0:
64,192,21085,128,0,21169:0:0:0:0:
320,192,21085,128,0,21169:0:0:0:0:
192,192,21253,128,0,21338:0:0:0:0:
320,192,21253,128,0,21338:0:0:0:0:
64,192,21338,1,2,0:0:0:0:
448,192,21338,1,0,0:0:0:70:tick02_edit.wav
320,192,21507,128,0,21591:0:0:0:0:
448,192,21507,128,0,21591:0:0:0:0:
64,192,21591,128,0,21675:0:0:0:0:
192,192,21591,128,0,21675:0:0:0:0:
64,192,22013,1,0,0:0:0:0:
192,192,22050,1,0,0:0:0:0:
320,192,22097,1,2,0:0:0:0:
448,192,22097,1,0,0:0:0:70:tick02_edit.wav
448,192,22351,1,0,0:0:0:0:
320,192,22401,128,0,22553:0:0:0:0:
192,192,22604,128,0,22857:0:0:0:0:
64,192,22857,1,2,0:0:0:0:
448,192,22857,1,0,0:0:0:70:tick02_edit.wav
448,192,22941,1,0,0:0:0:0:
192,192,23026,1,0,0:0:0:0:
320,192,23110,1,0,0:0:0:0:
320,192,23279,1,0,0:0:0:0:
64,192,23363,128,0,23448:0:0:0:0:
192,192,23363,128,0,23448:0:0:0:0:
320,192,23532,128,0,23616:0:0:0:0:
448,192,23532,128,0,23616:0:0:0:0:
64,192,23616,1,2,0:0:0:0:
192,192,23616,1,0,0:0:0:70:tick02_edit.wav
192,192,23785,128,0,23869:0:0:0:0:
320,192,23785,128,0,23869:0:0:0:0:
64,192,23869,128,0,23954:0:0:0:0:
448,192,23869,128,0,23954:0:0:0:0:
64,192,24123,128,0,24207:0:0:0:0:
320,192,24123,128,0,24207:0:0:0:0:
192,192,24291,128,0,24376:0:0:0:0:
448,192,24291,128,0,24376:0:0:0:0:
64,192,24376,1,2,0:0:0:0:
320,192,24376,1,0,0:0:0:70:tick02_edit.wav
64,192,24545,128,0,24629:0:0:0:0:
192,192,24545,128,0,24629:0:0:0:0:
320,192,24629,128,0,24713:0:0:0:0:
448,192,24629,128,0,24713:0:0:0:0:
64,192,24882,128,0,24967:0:0:0:0:
320,192,24882,128,0,24967:0:0:0:0:
192,192,24967,1,0,0:0:0:0:
448,192,25051,1,0,0:0:0:0:
64,192,25135,1,2,0:0:0:0:
192,192,25135,1,0,0:0:0:70:tick02_edit.wav
448,192,25135,1,0,0:0:0:0:
320,192,25304,1,0,0:0:0:0:
64,192,25388,128,0,25473:0:0:0:0:
192,192,25557,1,0,0:0:0:0:
320,192,25642,128,0,25726:0:0:0:0:
64,192,25895,1,2,0:0:0:0:
192,192,25895,1,0,0:0:0:70:tick02_edit.wav
448,192,25895,128,0,25979:0:0:0:0:
320,192,25958,1,0,0:0:0:0:
320,192,26148,128,0,26232:0:0:0:0:
64,192,26232,128,0,26317:0:0:0:0:
320,192,26317,128,0,26401:0:0:0:0:
448,192,26401,128,0,26486:0:0:0:0:
192,192,26486,1,0,0:0:0:0:
320,192,26570,128,0,26654:0:0:0:0:
64,192,26654,1,2,0:0:0:0:
192,192,26654,1,0,0:0:0:70:tick02_edit.wav
448,192,26654,1,0,0:0:0:0:
320,192,26823,128,0,26907:0:0:0:0:
64,192,26907,1,0,0:0:0:0:
192,192,27076,1,0,0:0:0:0:
448,192,27076,128,0,27329:0:0:0:0:
320,192,27161,1,0,0:0:0:0:
64,192,27329,1,0,0:0:0:0:
320,192,27366,1,0,0:0:0:0:
64,192,27414,1,2,0:0:0:0:
448,192,27414,1,0,0:0:0:70:tick02_edit.wav
192,192,27498,1,0,0:0:0:0:
448,192,27583,1,0,0:0:0:0:
64,192,27667,128,0,27751:0:0:0:0:
64,192,27836,1,0,0:0:0:0:
192,192,27920,128,0,28005:0:0:0:0:
64,192,28173,1,2,0:0:0:0:
320,192,28173,128,0,28258:0:0:0:70:tick02_edit.wav
448,192,28173,1,0,0:0:0:0:
192,192,28237,1,0,0:0:0:0:
448,192,28426,128,0,28511:0:0:0:0:
192,192,28511,128,0,28595:0:0:0:0:
64,192,28595,128,0,28680:0:0:0:0:
448,192,28680,128,0,28764:0:0:0:0:
192,192,28764,1,0,0:0:0:0:
320,192,28848,128,0,28933:0:0:0:0:
64,192,28933,1,2,0:0:0:0:
192,192,28933,1,0,0:0:0:70:tick02_edit.wav
448,192,28933,1,0,0:0:0:0:
320,192,29102,128,0,29186:0:0:0:0:
64,192,29186,1,0,0:0:0:0:
192,192,29355,128,0,29608:0:0:0:0:
448,192,29355,1,0,0:0:0:0:
320,192,29439,1,0,0:0:0:0:
64,192,29523,1,0,0:0:0:0:
448,192,29608,1,0,0:0:0:0:
64,192,29692,1,2,0:0:0:0:
320,192,29692,1,0,0:0:0:70:tick02_edit.wav
448,192,29692,1,0,0:0:0:0:
64,192,29861,1,0,0:0:0:0:
192,192,29945,128,0,30030:0:0:0:0:
320,192,29945,1,0,0:0:0:0:
320,192,30114,128,0,30789:0:0:0:0:
448,192,30114,1,0,0:0:0:0:
64,192,30199,1,0,0:0:0:0:
192,192,30367,1,0,0:0:0:0:
64,192,30452,1,0,0:0:0:70:tick02_edit.wav
448,192,30452,1,0,0:0:0:0:
192,192,30621,1,0,0:0:0:0:
448,192,30705,128,0,30874:0:0:0:0:
64,192,30789,1,0,0:0:0:0:
320,192,30874,1,0,0:0:0:0:
64,192,30958,128,0,31127:0:0:0:0:
192,192,31042,128,0,31211:0:0:0:0:
320,192,31127,128,0,31296:0:0:0:0:
64,192,31211,128,0,31296:0:0:0:70:tick02_edit.wav
448,192,31211,1,0,0:0:0:0:
192,192,31296,128,0,31380:0:0:0:0:
448,192,31380,128,0,31549:0:0:0:0:
64,192,31380,128,0,31464:0:0:0:0:
320,192,31464,128,0,31633:0:0:0:0:
192,192,31549,128,0,31718:0:0:0:0:
64,192,31633,128,0,31718:0:0:0:0:
448,192,31633,128,0,31802:0:0:0:0:
320,192,31718,128,0,31802:0:0:0:0:
64,192,31802,128,0,31886:0:0:0:0:
192,192,31802,128,0,31886:0:0:0:0:
320,192,31886,128,0,31971:0:0:0:0:
448,192,31886,1,0,0:0:0:0:
64,192,31971,128,2,32139:0:0:0:0:
192,192,31971,128,4,32055:0:0:0:0:
448,192,31971,128,0,32139:0:0:0:70:tick02_edit.wav
320,192,32139,128,0,32308:0:0:0:0:
64,192,32224,128,2,32477:0:0:0:0:
192,192,32224,128,4,32392:0:0:0:0:
448,192,32224,128,0,32477:0:0:0:70:tick02_edit.wav
320,192,32392,128,0,32561:0:0:0:0:
192,192,32477,128,0,32730:0:0:0:0:
448,192,32646,128,0,32814:0:0:0:0:
64,192,32730,1,0,0:0:0:70:tick02_edit.wav
320,192,32730,128,0,32983:0:0:0:0:
64,192,32899,128,0,33068:0:0:0:0:
448,192,32899,1,0,0:0:0:0:
192,192,32983,128,0,33321:0:0:0:0:
320,192,33152,128,0,33321:0:0:0:0:
64,192,33236,1,0,0:0:0:0:
448,192,33321,128,0,33489:0:0:0:0:
192,192,33489,128,0,34080:0:0:0:70:tick02_edit.wav
320,192,33489,1,0,0:0:0:0:
320,192,33658,128,2,33827:0:0:0:0:
448,192,33658,128,0,33743:0:0:0:0:
64,192,33658,128,4,33743:0:0:0:0:
64,192,33806,1,0,0:0:0:0:
320,192,33869,1,0,0:0:0:0:
448,192,33933,1,0,0:0:0:0:
64,192,33996,128,0,34165:0:0:0:0:
320,192,34080,128,0,34165:0:0:0:0:
64,192,34249,128,2,34333:0:0:0:0:
192,192,34249,128,4,34418:0:0:0:0:
320,192,34249,1,0,0:0:0:0:
448,192,34249,1,0,0:0:0:0:
64,192,34418,1,8,0:0:0:0:
320,192,34418,1,0,0:0:0:70:tick02_edit.wav
448,192,34418,1,0,0:0:0:0:
192,192,34502,1,0,0:0:0:0:
320,192,34587,1,0,0:0:0:70:tick02_edit.wav
448,192,34587,128,0,34755:0:0:0:0:
192,192,34671,128,0,34924:0:0:0:0:
64,192,34755,128,0,34924:0:0:0:70:tick02_edit.wav
320,192,34755,1,0,0:0:0:0:
448,192,34840,1,0,0:0:0:0:
320,192,34924,1,0,0:0:0:70:tick02_edit.wav
64,192,35008,1,0,0:0:0:0:
192,192,35008,1,0,0:0:0:0:
448,192,35008,1,0,0:0:0:0:
320,192,35093,1,0,0:0:0:0:
64,192,35177,1,0,0:0:0:70:tick02_edit.wav
192,192,35177,1,0,0:0:0:0:
64,192,35262,1,0,0:0:0:70:tick02_edit.wav
320,192,35262,1,0,0:0:0:0:
448,192,35262,1,0,0:0:0:0:
192,192,35346,1,0,0:0:0:0:
320,192,35430,1,0,0:0:0:70:tick02_edit.wav
448,192,35430,1,0,0:0:0:0:
64,192,35515,1,0,0:0:0:70:tick02_edit.wav
192,192,35515,1,0,0:0:0:0:
448,192,35515,1,0,0:0:0:0:
320,192,35599,1,0,0:0:0:70:tick02_edit.wav
192,192,35684,1,0,0:0:0:70:tick02_edit.wav
320,192,35768,128,2,35852:0:0:0:0:
448,192,35768,128,0,35937:0:0:0:0:
64,192,35768,128,4,35937:0:0:0:0:
192,192,35937,128,0,36106:0:0:0:0:
64,192,36021,128,4,36274:0:0:0:0:
320,192,36021,128,2,36190:0:0:0:0:
448,192,36021,128,0,36274:0:0:0:0:
192,192,36190,128,0,36359:0:0:0:0:
320,192,36274,128,0,36527:0:0:0:70:clap02.wav
64,192,36443,128,0,36612:0:0:0:0:
192,192,36527,128,0,36781:0:0:0:70:clap02.wav
448,192,36527,1,0,0:0:0:0:
320,192,36696,1,0,0:0:0:0:
448,192,36696,128,0,36865:0:0:0:0:
64,192,36781,128,0,37118:0:0:0:70:clap02.wav
192,192,36949,128,0,37118:0:0:0:0:
448,192,37034,1,0,0:0:0:70:clap02.wav
320,192,37118,128,0,37203:0:0:0:0:
192,192,37287,1,0,0:0:0:70:clap02.wav
320,192,37287,128,0,37709:0:0:0:0:
64,192,37456,128,2,37540:0:0:0:0:
192,192,37456,128,4,37625:0:0:0:0:
448,192,37456,128,0,37540:0:0:0:0:
448,192,37603,1,0,0:0:0:0:
192,192,37667,1,0,0:0:0:0:
64,192,37730,128,0,37793:0:0:0:0:
320,192,37878,128,0,37962:0:0:0:0:
64,192,38046,1,4,0:0:0:0:
192,192,38046,1,2,0:0:0:0:
320,192,38046,128,0,38215:0:0:0:0:
448,192,38046,128,0,38131:0:0:0:0:
64,192,38215,1,8,0:0:0:0:
192,192,38215,1,0,0:0:0:0:
448,192,38215,1,0,0:0:0:0:
320,192,38300,1,0,0:0:0:0:
64,192,38384,128,8,38553:0:0:0:0:
192,192,38384,128,0,38468:0:0:0:0:
320,192,38468,128,0,38553:0:0:0:0:
448,192,38553,128,0,38637:0:0:0:0:
192,192,38553,128,8,38637:0:0:0:0:
320,192,38637,128,0,38722:0:0:0:0:
64,192,38637,128,8,38806:0:0:0:0:
192,192,38722,128,0,38890:0:0:0:0:
448,192,38806,128,0,38975:0:0:0:0:
320,192,38806,1,8,0:0:0:0:
64,192,38890,128,8,38975:0:0:0:0:
320,192,38975,128,0,39059:0:0:0:0:
192,192,38975,128,0,39143:0:0:0:0:
448,192,39059,128,0,39143:0:0:0:0:
64,192,39059,1,8,0:0:0:0:
320,192,39143,128,8,39228:0:0:0:0:
64,192,39228,1,8,0:0:0:0:
192,192,39228,128,0,39312:0:0:0:0:
64,192,39312,128,0,39481:0:0:0:0:
320,192,39312,128,0,39397:0:0:0:0:
448,192,39312,128,0,39481:0:0:0:0:
192,192,39397,128,8,39481:0:0:0:0:
320,192,39481,128,0,39565:0:0:0:0:
64,192,39565,128,2,39733:0:0:0:0:
192,192,39565,128,4,39649:0:0:0:0:
448,192,39565,128,0,39733:0:0:0:70:tick02_edit.wav
320,192,39733,128,0,39902:0:0:0:0:
64,192,39818,128,2,40071:0:0:0:0:
192,192,39818,128,4,39986:0:0:0:0:
448,192,39818,128,0,40071:0:0:0:70:tick02_edit.wav
320,192,39986,128,0,40155:0:0:0:0:
192,192,40071,128,0,40324:0:0:0:0:
64,192,40240,128,0,40408:0:0:0:0:
320,192,40324,128,0,40577:0:0:0:70:tick02_edit.wav
448,192,40324,1,0,0:0:0:0:
64,192,40493,1,0,0:0:0:0:
448,192,40493,128,0,40662:0:0:0:0:
192,192,40577,128,0,40915:0:0:0:0:
320,192,40746,128,0,40915:0:0:0:0:
64,192,40830,1,0,0:0:0:0:
448,192,40915,128,0,41083:0:0:0:0:
64,192,41083,128,0,41421:0:0:0:70:tick02_edit.wav
320,192,41083,1,0,0:0:0:0:
320,192,41252,128,4,41337:0:0:0:0:
448,192,41252,128,2,41421:0:0:0:0:
192,192,41337,128,0,41505:0:0:0:0:
64,192,41505,1,0,0:0:0:0:
448,192,41505,1,0,0:0:0:0:
192,192,41590,1,0,0:0:0:0:
320,192,41674,1,0,0:0:0:0:
192,192,41759,1,0,0:0:0:0:
64,192,41843,1,2,0:0:0:0:
320,192,41843,1,0,0:0:0:0:
448,192,41843,128,0,42175:0:0:0:0:
320,192,42096,128,0,42223:0:0:0:0:
192,192,42128,128,0,42270:0:0:0:0:
64,192,42159,128,0,42602:0:0:0:0:
320,192,42349,128,0,42539:0:0:0:0:
192,192,42602,1,0,0:0:0:0:
320,192,42650,128,0,43362:0:0:0:0:
64,192,42887,128,0,43030:0:0:0:0:
448,192,42982,128,0,43125:0:0:0:0:
64,192,43077,128,0,43220:0:0:0:0:
192,192,43172,128,0,43409:0:0:0:0:
448,192,43362,128,0,43979:0:0:0:0:
64,192,43552,128,0,43837:0:0:0:0:
192,192,43599,128,0,43884:0:0:0:0:
320,192,43647,128,0,43932:0:0:0:0:
64,192,43953,128,0,44037:0:0:0:0:
192,192,44037,128,0,44121:0:0:0:0:
64,192,44121,1,8,0:0:0:0:
320,192,44121,128,4,44206:0:0:0:0:
448,192,44121,128,2,44375:0:0:0:0:
192,192,44206,1,0,0:0:0:0:
320,192,44290,1,0,0:0:0:0:
64,192,44375,1,8,0:0:0:0:
192,192,44375,1,4,0:0:0:0:
320,192,44459,1,0,0:0:0:0:
448,192,44459,1,0,0:0:0:0:
64,192,44543,1,0,0:0:0:0:
192,192,44628,1,8,0:0:0:0:
320,192,44628,1,2,0:0:0:0:
448,192,44628,1,4,0:0:0:0:
64,192,44712,1,0,0:0:0:0:
192,192,44797,1,0,0:0:0:0:
320,192,44797,1,0,0:0:0:0:
64,192,44881,128,8,45219:0:0:0:0:
448,192,44881,128,0,44965:0:0:0:0:
320,192,44965,1,0,0:0:0:0:
192,192,45050,1,8,0:0:0:0:
448,192,45050,1,2,0:0:0:0:
320,192,45134,1,0,0:0:0:0:
192,192,45219,1,8,0:0:0:0:
320,192,45303,1,2,0:0:0:0:
448,192,45303,1,0,0:0:0:0:
64,192,45387,1,10,0:0:0:0:
192,192,45387,1,4,0:0:0:0:
320,192,45472,1,0,0:0:0:0:
448,192,45472,1,0,0:0:0:0:
64,192,45556,128,0,45640:0:0:0:0:
192,192,45640,128,8,45725:0:0:0:0:
320,192,45640,128,4,45894:0:0:0:0:
448,192,45640,128,0,45809:0:0:0:0:
64,192,45725,1,0,0:0:0:0:
192,192,45809,1,8,0:0:0:0:
64,192,45894,1,10,0:0:0:0:
448,192,45894,1,4,0:0:0:0:
320,192,45978,1,8,0:0:0:0:
64,192,46062,1,8,0:0:0:0:
192,192,46062,1,0,0:0:0:0:
448,192,46062,1,0,0:0:0:0:
320,192,46147,1,8,0:0:0:0:
64,192,46231,1,8,0:0:0:0:
448,192,46231,128,0,46316:0:0:0:0:
192,192,46316,128,8,46400:0:0:0:0:
64,192,46400,128,8,46569:0:0:0:0:
320,192,46400,128,0,46484:0:0:0:0:
448,192,46400,128,0,46569:0:0:0:0:
192,192,46484,1,8,0:0:0:0:
320,192,46569,1,8,0:0:0:0:
64,192,46653,1,8,0:0:0:0:
192,192,46653,1,2,0:0:0:0:
448,192,46653,1,4,0:0:0:0:
320,192,46737,1,8,0:0:0:0:
192,192,46822,1,8,0:0:0:0:
64,192,46906,1,8,0:0:0:0:
320,192,46906,1,2,0:0:0:0:
448,192,46906,1,4,0:0:0:0:
192,192,46991,1,8,0:0:0:0:
64,192,47075,128,8,47159:0:0:0:0:
448,192,47075,1,0,0:0:0:0:
192,192,47159,128,8,47328:0:0:0:0:
320,192,47159,1,4,0:0:0:0:
448,192,47244,1,8,0:0:0:0:
64,192,47328,1,10,0:0:0:0:
192,192,47413,128,8,47581:0:0:0:0:
320,192,47413,1,0,0:0:0:0:
448,192,47413,1,0,0:0:0:0:
64,192,47497,1,8,0:0:0:0:
448,192,47581,128,10,47666:0:0:0:0:
64,192,47666,1,8,0:0:0:0:
192,192,47666,1,0,0:0:0:0:
320,192,47666,128,0,47835:0:0:0:0:
448,192,47750,1,8,0:0:0:0:
192,192,47835,1,10,0:0:0:0:
64,192,47919,128,8,48003:0:0:0:0:
320,192,47919,128,2,48003:0:0:0:0:
448,192,47919,128,4,48003:0:0:0:0:
192,192,48003,1,8,0:0:0:0:
320,192,48088,128,8,48256:0:0:0:0:
64,192,48088,1,0,0:0:0:0:
192,192,48172,128,10,48341:0:0:0:0:
448,192,48172,128,4,48256:0:0:0:0:
64,192,48256,128,8,48425:0:0:0:0:
320,192,48341,128,8,48510:0:0:0:0:
448,192,48341,128,0,48425:0:0:0:0:
192,192,48425,128,12,48594:0:0:0:0:
64,192,48510,128,8,48594:0:0:0:0:
448,192,48510,128,0,48678:0:0:0:0:
320,192,48594,128,8,48678:0:0:0:0:
64,192,48678,128,4,50282:0:0:0:0:
192,192,48678,128,2,49438:0:0:0:0:
192,192,50197,128,0,50282:0:0:0:0:
320,192,50282,128,0,50366:0:0:0:0:
64,192,50366,128,0,50451:0:0:0:0:
448,192,50366,128,0,50451:0:0:0:0:
192,192,50451,128,0,50535:0:0:0:0:
320,192,50535,128,0,50619:0:0:0:0:
64,192,50619,128,0,50788:0:0:0:0:
192,192,50704,128,0,50873:0:0:0:0:
448,192,50788,128,0,50873:0:0:0:0:
64,192,50873,128,0,50957:0:0:0:0:
192,192,50957,128,0,51126:0:0:0:0:
320,192,50957,128,0,51126:0:0:0:0:
448,192,50957,128,0,51632:0:0:0:0:
64,192,51210,128,0,51379:0:0:0:0:
320,192,51210,128,0,51379:0:0:0:0:
64,192,51463,128,0,51632:0:0:0:0:
192,192,51463,128,0,51632:0:0:0:0:
64,192,51716,128,0,52392:0:0:0:0:
320,192,51716,128,0,51885:0:0:0:0:
448,192,51716,128,0,51885:0:0:0:0:
192,192,51970,128,0,52138:0:0:0:0:
448,192,51970,128,0,52138:0:0:0:0:
192,192,52223,128,0,52392:0:0:0:0:
320,192,52223,128,0,52392:0:0:0:0:
448,192,52223,128,0,52392:0:0:0:0:
64,192,52476,128,8,52666:0:0:0:0:
320,192,52476,128,0,52602:0:0:0:0:
448,192,52476,128,0,52539:0:0:0:0:
192,192,52539,1,0,0:0:0:0:
448,192,52602,1,0,0:0:0:0:
320,192,52666,1,0,0:0:0:0:
64,192,52729,1,0,0:0:0:0:
192,192,52792,1,0,0:0:0:0:
320,192,52856,1,0,0:0:0:0:
448,192,52919,1,0,0:0:0:0:
192,192,52982,1,0,0:0:0:0:
64,192,53046,1,0,0:0:0:0:
320,192,53109,1,0,0:0:0:0:
448,192,53172,1,0,0:0:0:0:
64,192,53235,1,2,0:0:0:0:
192,192,53235,1,4,0:0:0:0:
320,192,53235,1,0,0:0:0:0:
192,192,53319,1,0,0:0:0:0:
320,192,53403,1,0,0:0:0:0:
448,192,53488,1,0,0:0:0:0:
320,192,53572,1,0,0:0:0:0:
448,192,53656,128,0,53699:0:0:0:0:
320,192,53699,128,0,53741:0:0:0:0:
192,192,53741,128,0,53783:0:0:0:0:
320,192,53852,1,0,0:0:0:0:
64,192,53899,1,0,0:0:0:0:
192,192,53994,1,2,0:0:0:0:
320,192,53994,1,0,0:0:0:0:
448,192,53994,1,0,0:0:0:0:
320,192,54078,1,0,0:0:0:0:
192,192,54163,1,0,0:0:0:0:
64,192,54247,1,0,0:0:0:0:
192,192,54332,1,0,0:0:0:0:
64,192,54416,128,0,54458:0:0:0:0:
192,192,54458,128,0,54500:0:0:0:0:
320,192,54500,128,0,54543:0:0:0:0:
192,192,54611,1,0,0:0:0:0:
448,192,54659,1,0,0:0:0:0:
64,192,54753,1,2,0:0:0:0:
320,192,54753,1,0,0:0:0:0:
448,192,54753,1,0,0:0:0:0:
192,192,54817,1,0,0:0:0:0:
64,192,54880,1,0,0:0:0:0:
320,192,54943,1,0,0:0:0:0:
192,192,55007,1,0,0:0:0:0:
448,192,55070,1,0,0:0:0:0:
320,192,55133,1,0,0:0:0:0:
192,192,55197,1,0,0:0:0:0:
448,192,55260,1,0,0:0:0:0:
64,192,55323,1,0,0:0:0:0:
192,192,55386,1,0,0:0:0:0:
448,192,55450,1,0,0:0:0:0:
64,192,55513,1,2,0:0:0:0:
192,192,55513,1,0,0:0:0:0:
320,192,55513,1,0,0:0:0:0:
320,192,55597,1,0,0:0:0:0:
192,192,55682,1,0,0:0:0:0:
64,192,55766,1,0,0:0:0:0:
192,192,55851,1,0,0:0:0:0:
448,192,55935,128,0,55977:0:0:0:0:
320,192,55977,128,0,56019:0:0:0:0:
64,192,56019,128,0,56062:0:0:0:0:
192,192,56130,1,0,0:0:0:0:
64,192,56178,1,0,0:0:0:0:
192,192,56272,1,2,0:0:0:0:
320,192,56272,1,0,0:0:0:0:
448,192,56272,1,0,0:0:0:0:
192,192,56357,1,0,0:0:0:0:
320,192,56441,1,0,0:0:0:0:
448,192,56526,1,0,0:0:0:0:
320,192,56610,1,0,0:0:0:0:
64,192,56694,128,0,56737:0:0:0:0:
192,192,56737,128,0,56779:0:0:0:0:
448,192,56779,128,0,56821:0:0:0:0:
320,192,56890,1,0,0:0:0:0:
448,192,56937,1,0,0:0:0:0:
64,192,57032,1,2,0:0:0:0:
192,192,57032,1,0,0:0:0:0:
320,192,57032,1,0,0:0:0:0:
448,192,57095,1,0,0:0:0:0:
64,192,57159,1,0,0:0:0:0:
448,192,57222,1,0,0:0:0:0:
320,192,57285,1,0,0:0:0:0:
64,192,57348,1,0,0:0:0:0:
320,192,57412,1,0,0:0:0:0:
192,192,57475,1,0,0:0:0:0:
448,192,57538,1,0,0:0:0:0:
192,192,57602,1,0,0:0:0:0:
64,192,57665,1,0,0:0:0:0:
320,192,57728,1,0,0:0:0:0:
64,192,57791,1,2,0:0:0:0:
192,192,57791,1,0,0:0:0:0:
448,192,57791,1,0,0:0:0:0:
448,192,57876,1,0,0:0:0:0:
320,192,57960,128,0,58045:0:0:0:0:
64,192,58045,128,0,58467:0:0:0:0:
320,192,58129,1,0,0:0:0:0:
448,192,58213,128,0,58256:0:0:0:0:
320,192,58256,128,0,58298:0:0:0:0:
192,192,58298,128,0,58340:0:0:0:0:
448,192,58382,1,0,0:0:0:0:
320,192,58467,1,0,0:0:0:0:
64,192,58551,1,2,0:0:0:0:
192,192,58551,1,0,0:0:0:0:
448,192,58551,1,0,0:0:0:0:
64,192,58635,1,0,0:0:0:0:
192,192,58720,128,0,58804:0:0:0:0:
448,192,58804,128,0,59226:0:0:0:0:
192,192,58889,128,0,58973:0:0:0:0:
64,192,58973,128,0,59015:0:0:0:0:
192,192,59015,128,0,59057:0:0:0:0:
320,192,59057,128,0,59099:0:0:0:0:
64,192,59142,1,0,0:0:0:0:
192,192,59226,1,0,0:0:0:0:
64,192,59310,1,2,0:0:0:0:
320,192,59310,1,0,0:0:0:0:
448,192,59310,1,0,0:0:0:0:
192,192,59374,1,0,0:0:0:0:
448,192,59437,1,0,0:0:0:0:
192,192,59500,1,0,0:0:0:0:
64,192,59564,1,0,0:0:0:0:
320,192,59627,1,0,0:0:0:0:
64,192,59690,1,0,0:0:0:0:
320,192,59753,1,0,0:0:0:0:
448,192,59817,1,0,0:0:0:0:
320,192,59880,1,0,0:0:0:0:
192,192,59943,1,0,0:0:0:0:
64,192,60007,1,0,0:0:0:0:
192,192,60070,1,2,0:0:0:0:
320,192,60070,1,0,0:0:0:0:
448,192,60070,1,0,0:0:0:0:
448,192,60133,128,0,60197:0:0:0:0:
192,192,60197,128,0,60260:0:0:0:0:
64,192,60260,128,0,60323:0:0:0:0:
192,192,60323,128,0,60386:0:0:0:0:
320,192,60407,128,0,60492:0:0:0:0:
64,192,60492,128,0,60745:0:0:0:0:
192,192,60492,1,0,0:0:0:0:
448,192,60576,128,0,60640:0:0:0:0:
320,192,60640,128,0,60703:0:0:0:0:
448,192,60703,128,0,60766:0:0:0:0:
192,192,60745,128,0,60829:0:0:0:0:
64,192,60829,1,2,0:0:0:0:
320,192,60829,1,0,0:0:0:0:
448,192,60829,1,0,0:0:0:0:
320,192,60914,128,0,61251:0:0:0:0:
192,192,60998,128,0,61083:0:0:0:0:
448,192,61083,128,0,61125:0:0:0:0:
192,192,61125,128,0,61167:0:0:0:0:
64,192,61167,128,0,61209:0:0:0:0:
448,192,61251,128,0,61336:0:0:0:0:
64,192,61336,128,0,61462:0:0:0:0:
320,192,61399,1,0,0:0:0:0:
448,192,61462,1,0,0:0:0:0:
192,192,61526,1,0,0:0:0:0:
64,192,61589,128,2,61631:0:0:0:0:
320,192,61589,1,0,0:0:0:0:
448,192,61589,1,0,0:0:0:0:
192,192,61652,1,0,0:0:0:0:
64,192,61716,128,0,61758:0:0:0:0:
320,192,61779,1,0,0:0:0:0:
64,192,61842,128,0,61884:0:0:0:0:
448,192,61905,1,0,0:0:0:0:
64,192,61969,128,0,62011:0:0:0:0:
192,192,62032,1,0,0:0:0:0:
64,192,62095,128,0,62137:0:0:0:0:
320,192,62159,1,0,0:0:0:0:
64,192,62222,128,0,62264:0:0:0:0:
448,192,62285,1,0,0:0:0:0:
64,192,62348,128,2,62517:0:0:0:0:
192,192,62348,128,4,62433:0:0:0:0:
320,192,62348,1,0,0:0:0:0:
320,192,62433,128,0,62644:0:0:0:0:
192,192,62517,128,0,62686:0:0:0:0:
64,192,62602,128,0,62728:0:0:0:0:
448,192,62686,128,0,62770:0:0:0:0:
192,192,62770,128,0,62813:0:0:0:0:
320,192,62813,128,0,62855:0:0:0:0:
448,192,62855,128,0,62897:0:0:0:0:
192,192,62939,128,0,63024:0:0:0:0:
64,192,63024,128,0,63108:0:0:0:0:
192,192,63108,1,2,0:0:0:0:
320,192,63108,128,0,63192:0:0:0:0:
448,192,63108,128,0,63277:0:0:0:0:
192,192,63192,128,0,63403:0:0:0:0:
320,192,63277,128,0,63445:0:0:0:0:
448,192,63361,128,0,63488:0:0:0:0:
64,192,63445,128,0,63530:0:0:0:0:
320,192,63530,128,0,63572:0:0:0:0:
192,192,63572,128,0,63614:0:0:0:0:
64,192,63614,128,0,63656:0:0:0:0:
320,192,63699,128,0,63783:0:0:0:0:
448,192,63783,128,0,63867:0:0:0:0:
64,192,63867,128,2,64057:0:0:0:0:
192,192,63867,128,0,63994:0:0:0:0:
320,192,63867,128,0,63931:0:0:0:0:
448,192,63931,128,0,63994:0:0:0:0:
320,192,63994,128,0,64057:0:0:0:0:
192,192,64057,128,0,64121:0:0:0:0:
320,192,64121,128,0,64184:0:0:0:0:
64,192,64184,128,0,64247:0:0:0:0:
320,192,64247,128,0,64310:0:0:0:0:
192,192,64310,128,0,64374:0:0:0:0:
320,192,64374,128,0,64437:0:0:0:0:
448,192,64437,128,0,64500:0:0:0:0:
64,192,64500,128,0,64564:0:0:0:0:
192,192,64564,128,0,64627:0:0:0:0:
64,192,64627,128,2,64796:0:0:0:0:
320,192,64627,128,0,64711:0:0:0:0:
448,192,64627,128,0,64711:0:0:0:0:
192,192,64711,128,0,64880:0:0:0:0:
320,192,64796,128,0,64880:0:0:0:0:
448,192,64796,128,0,64964:0:0:0:0:
64,192,64880,128,0,65133:0:0:0:0:
320,192,64964,128,0,65049:0:0:0:0:
192,192,64964,128,0,65091:0:0:0:0:
448,192,65049,128,0,65091:0:0:0:0:
320,192,65091,128,0,65133:0:0:0:0:
192,192,65133,128,0,65175:0:0:0:0:
64,192,65218,128,0,65302:0:0:0:0:
448,192,65218,128,0,65302:0:0:0:0:
320,192,65302,1,0,0:0:0:0:
64,192,65386,128,2,65471:0:0:0:0:
192,192,65386,128,0,65471:0:0:0:0:
448,192,65386,128,0,65555:0:0:0:0:
320,192,65471,128,0,65640:0:0:0:0:
64,192,65555,128,0,65724:0:0:0:0:
192,192,65555,128,0,65640:0:0:0:0:
448,192,65640,128,0,65893:0:0:0:0:
192,192,65724,128,0,65808:0:0:0:0:
320,192,65724,128,0,65851:0:0:0:0:
64,192,65808,128,0,65851:0:0:0:0:
192,192,65851,128,0,65893:0:0:0:0:
320,192,65893,128,0,65935:0:0:0:0:
192,192,65977,128,0,66062:0:0:0:0:
448,192,65977,128,0,66062:0:0:0:0:
64,192,66062,1,0,0:0:0:0:
192,192,66146,128,2,66209:0:0:0:0:
320,192,66146,128,0,66272:0:0:0:0:
448,192,66146,128,0,66336:0:0:0:0:
64,192,66209,128,0,66526:0:0:0:0:
192,192,66272,128,0,66336:0:0:0:0:
320,192,66336,128,0,66526:0:0:0:0:
192,192,66399,128,0,66462:0:0:0:0:
448,192,66462,128,0,66716:0:0:0:0:
192,192,66526,128,0,66589:0:0:0:0:
320,192,66589,128,0,66779:0:0:0:0:
192,192,66652,128,0,66716:0:0:0:0:
64,192,66716,128,0,66842:0:0:0:0:
448,192,66779,128,0,66842:0:0:0:0:
320,192,66842,128,0,66905:0:0:0:0:
64,192,66905,1,2,0:0:0:0:
192,192,66905,128,4,67074:0:0:0:0:
448,192,66905,128,0,66990:0:0:0:0:
64,192,66990,128,0,67116:0:0:0:0:
448,192,67074,128,0,67116:0:0:0:0:
320,192,67116,128,0,67159:0:0:0:0:
192,192,67159,128,0,67201:0:0:0:0:
64,192,67243,1,0,0:0:0:70:electronic28.wav
320,192,67243,128,0,67327:0:0:0:0:
448,192,67243,1,0,0:0:0:0:
192,192,67327,128,0,67412:0:0:0:0:
64,192,67412,128,0,67496:0:0:0:0:
192,192,67496,128,2,67623:0:0:0:0:
320,192,67496,128,4,67665:0:0:0:0:
448,192,67496,1,0,0:0:0:0:
448,192,67580,128,0,67707:0:0:0:0:
64,192,67665,128,0,67707:0:0:0:0:
192,192,67707,128,0,67749:0:0:0:0:
320,192,67749,128,0,67791:0:0:0:0:
64,192,67834,1,0,0:0:0:70:electronic28.wav
192,192,67834,128,0,67918:0:0:0:0:
448,192,67834,1,0,0:0:0:0:
320,192,67918,128,0,68002:0:0:0:0:
448,192,68002,128,0,68087:0:0:0:0:
64,192,68087,128,2,68171:0:0:0:0:
192,192,68087,128,4,68213:0:0:0:0:
320,192,68087,1,0,0:0:0:0:
320,192,68171,128,0,68256:0:0:0:0:
64,192,68256,128,0,68298:0:0:0:0:
192,192,68298,128,0,68340:0:0:0:0:
448,192,68382,1,0,0:0:0:0:
64,192,68424,128,0,68593:0:0:0:70:electronic28.wav
192,192,68424,128,0,68551:0:0:0:0:
320,192,68424,128,0,68509:0:0:0:0:
448,192,68509,128,0,68593:0:0:0:0:
320,192,68593,128,0,68678:0:0:0:0:
64,192,68678,128,2,68762:0:0:0:0:
192,192,68678,128,4,68762:0:0:0:0:
448,192,68678,128,0,68846:0:0:0:0:
320,192,68762,128,0,68846:0:0:0:0:
192,192,68846,1,0,0:0:0:0:
64,192,68889,1,0,0:0:0:0:
448,192,68931,1,0,0:0:0:0:
320,192,68973,1,0,0:0:0:0:
192,192,69015,1,0,0:0:0:0:
64,192,69057,1,0,0:0:0:0:
448,192,69099,1,0,0:0:0:0:
320,192,69142,1,0,0:0:0:0:
64,192,69184,1,0,0:0:0:0:
192,192,69184,1,0,0:0:0:0:
448,192,69184,1,0,0:0:0:0:
320,192,69268,128,0,69310:0:0:0:0:
320,192,69353,128,0,69437:0:0:0:0:
64,192,69437,1,0,0:0:0:0:
448,192,69437,128,0,69521:0:0:0:0:
192,192,69521,128,0,69606:0:0:0:0:
448,192,69606,1,0,0:0:0:0:
320,192,69648,1,0,0:0:0:0:
64,192,69690,128,0,69775:0:0:0:0:
192,192,69690,1,0,0:0:0:0:
448,192,69775,128,0,69859:0:0:0:0:
320,192,69859,128,0,69943:0:0:0:0:
64,192,69943,128,0,70028:0:0:0:0:
448,192,69943,1,0,0:0:0:0:
192,192,70028,128,0,70112:0:0:0:0:
320,192,70112,128,0,70197:0:0:0:0:
64,192,70197,1,0,0:0:0:0:
448,192,70197,128,0,70281:0:0:0:0:
320,192,70281,128,0,70365:0:0:0:0:
64,192,70365,1,0,0:0:0:0:
192,192,70365,128,0,70450:0:0:0:0:
320,192,70450,128,0,70534:0:0:0:0:
448,192,70450,1,0,0:0:0:0:
192,192,70534,128,0,70618:0:0:0:0:
64,192,70618,1,0,0:0:0:0:
448,192,70618,1,0,0:0:0:0:
64,192,70703,1,0,0:0:0:70:electronic28.wav
320,192,70703,1,0,0:0:0:0:
448,192,70703,1,0,0:0:0:0:
192,192,70745,1,0,0:0:0:0:
320,192,70787,1,0,0:0:0:0:
448,192,70829,1,0,0:0:0:0:
64,192,70872,1,0,0:0:0:0:
192,192,70914,1,0,0:0:0:0:
448,192,70956,1,0,0:0:0:0:
64,192,70998,1,0,0:0:0:0:
192,192,71040,1,0,0:0:0:0:
320,192,71083,1,0,0:0:0:0:
64,192,71125,1,0,0:0:0:0:
192,192,71167,1,0,0:0:0:0:
448,192,71209,1,2,0:0:0:0:
64,192,71251,1,0,0:0:0:0:
192,192,71294,1,2,0:0:0:0:
320,192,71336,1,0,0:0:0:0:
448,192,71378,1,2,0:0:0:0:
64,192,71420,1,0,0:0:0:0:
192,192,71462,128,2,71547:0:0:0:0:
320,192,71462,128,4,71631:0:0:0:0:
448,192,71462,128,0,71716:0:0:0:0:
64,192,71547,128,0,71631:0:0:0:0:
192,192,71631,128,0,71716:0:0:0:0:
320,192,71716,128,0,72011:0:0:0:0:
192,192,71800,128,0,71884:0:0:0:0:
448,192,71884,128,0,71926:0:0:0:0:
192,192,71926,128,0,71969:0:0:0:0:
64,192,71969,128,0,72011:0:0:0:0:
320,192,72053,128,0,72137:0:0:0:0:
448,192,72137,128,0,72222:0:0:0:0:
64,192,72222,1,0,0:0:0:70:electronic28.wav
192,192,72222,1,0,0:0:0:0:
320,192,72222,1,0,0:0:0:0:
448,192,72306,1,0,0:0:0:0:
320,192,72391,1,0,0:0:0:0:
192,192,72475,1,0,0:0:0:0:
448,192,72559,1,0,0:0:0:0:
64,192,72644,128,0,72686:0:0:0:0:
192,192,72686,128,0,72728:0:0:0:0:
320,192,72728,128,0,72770:0:0:0:0:
192,192,72813,1,0,0:0:0:0:
448,192,72813,1,0,0:0:0:0:
64,192,72897,1,0,0:0:0:0:
320,192,72981,128,0,73045:0:0:0:0:
448,192,72981,128,0,73108:0:0:0:0:
64,192,73045,128,0,73108:0:0:0:0:
192,192,73108,128,0,73171:0:0:0:0:
320,192,73108,128,0,73235:0:0:0:0:
64,192,73171,128,0,73298:0:0:0:0:
448,192,73171,128,0,73235:0:0:0:0:
192,192,73235,128,0,73361:0:0:0:0:
320,192,73298,128,0,73424:0:0:0:0:
448,192,73298,128,0,73424:0:0:0:0:
64,192,73361,128,0,73424:0:0:0:0:
192,192,73424,128,0,73488:0:0:0:0:
64,192,73488,1,2,0:0:0:0:
320,192,73488,1,0,0:0:0:0:
448,192,73488,1,0,0:0:0:0:
192,192,73551,1,0,0:0:0:0:
320,192,73614,1,0,0:0:0:0:
448,192,73678,1,0,0:0:0:0:
64,192,73741,128,4,73994:0:0:0:0:
192,192,73741,128,2,73910:0:0:0:0:
320,192,73741,128,0,73825:0:0:0:0:
448,192,73825,128,0,74121:0:0:0:0:
320,192,73910,128,0,73994:0:0:0:0:
192,192,73994,128,0,74205:0:0:0:0:
320,192,74078,128,0,74163:0:0:0:0:
448,192,74163,128,0,74205:0:0:0:0:
320,192,74205,128,0,74247:0:0:0:0:
192,192,74247,128,0,74289:0:0:0:0:
64,192,74332,128,0,74416:0:0:0:0:
320,192,74416,128,0,74500:0:0:0:0:
64,192,74500,1,0,0:0:0:70:electronic28.wav
192,192,74500,1,0,0:0:0:0:
448,192,74500,1,0,0:0:0:0:
320,192,74585,1,0,0:0:0:0:
192,192,74669,1,0,0:0:0:0:
64,192,74753,1,0,0:0:0:0:
448,192,74838,1,0,0:0:0:0:
192,192,74922,128,0,74964:0:0:0:0:
320,192,74964,128,0,75007:0:0:0:0:
64,192,75007,1,0,0:0:0:0:
448,192,75007,128,0,75049:0:0:0:0:
64,192,75091,1,0,0:0:0:0:
192,192,75175,1,8,0:0:0:0:
320,192,75175,1,0,0:0:0:0:
64,192,75260,128,4,75386:0:0:0:0:
448,192,75260,128,0,75323:0:0:0:0:
192,192,75323,128,0,75386:0:0:0:0:
448,192,75386,128,0,75450:0:0:0:0:
64,192,75450,128,0,75513:0:0:0:0:
192,192,75450,128,0,75576:0:0:0:0:
320,192,75513,128,0,75640:0:0:0:0:
448,192,75513,128,0,75703:0:0:0:0:
64,192,75576,1,0,0:0:0:0:
192,192,75640,1,0,0:0:0:0:
320,192,75703,1,0,0:0:0:0:
64,192,75766,1,0,0:0:0:70:electronic28.wav
192,192,75766,1,0,0:0:0:0:
448,192,75766,1,0,0:0:0:0:
320,192,75829,1,0,0:0:0:0:
192,192,75893,1,0,0:0:0:0:
320,192,75956,1,0,0:0:0:0:
64,192,76019,128,2,76483:0:0:0:0:
192,192,76019,128,4,76104:0:0:0:0:
448,192,76019,128,0,76272:0:0:0:0:
320,192,76104,128,0,76188:0:0:0:0:
192,192,76188,128,0,76441:0:0:0:0:
320,192,76272,128,0,76399:0:0:0:0:
448,192,76357,128,0,76694:0:0:0:0:
320,192,76441,128,0,76483:0:0:0:0:
192,192,76483,128,0,76526:0:0:0:0:
64,192,76526,128,0,76568:0:0:0:0:
320,192,76610,128,0,76694:0:0:0:0:
192,192,76694,128,0,76779:0:0:0:0:
64,192,76779,1,0,0:0:0:70:electronic28.wav
320,192,76779,1,0,0:0:0:0:
448,192,76779,1,0,0:0:0:0:
192,192,76863,1,0,0:0:0:0:
448,192,76948,1,0,0:0:0:0:
192,192,77032,1,0,0:0:0:0:
320,192,77116,1,0,0:0:0:0:
64,192,77201,128,0,77243:0:0:0:0:
192,192,77243,128,0,77285:0:0:0:0:
320,192,77285,128,0,77327:0:0:0:0:
448,192,77285,1,0,0:0:0:0:
64,192,77370,1,0,0:0:0:0:
192,192,77370,1,0,0:0:0:0:
320,192,77412,1,0,0:0:0:0:
192,192,77454,1,0,0:0:0:0:
64,192,77538,128,2,77728:0:0:0:0:
320,192,77538,128,4,77602:0:0:0:0:
448,192,77538,128,0,77728:0:0:0:0:
192,192,77602,128,0,77665:0:0:0:0:
320,192,77665,128,0,77728:0:0:0:0:
192,192,77728,1,0,0:0:0:0:
64,192,77791,1,0,0:0:0:0:
448,192,77855,1,0,0:0:0:0:
64,192,77918,128,2,78108:0:0:0:0:
192,192,77918,128,4,78045:0:0:0:0:
320,192,77918,128,0,77981:0:0:0:0:
448,192,77981,128,0,78108:0:0:0:0:
320,192,78045,1,0,0:0:0:0:
192,192,78108,1,0,0:0:0:0:
64,192,78171,1,0,0:0:0:0:
320,192,78235,1,0,0:0:0:0:
64,192,78298,1,2,0:0:0:0:
192,192,78298,1,4,0:0:0:0:
448,192,78298,128,0,78340:0:0:0:0:
320,192,78340,128,0,78382:0:0:0:0:
192,192,78382,128,0,78424:0:0:0:0:
64,192,78467,1,0,0:0:0:0:
448,192,78467,1,0,0:0:0:0:
320,192,78551,1,0,0:0:0:0:
448,192,78635,1,0,0:0:0:0:
192,192,78720,1,0,0:0:0:0:
64,192,78804,1,2,0:0:0:0:
192,192,78804,128,0,78846:0:0:0:0:
320,192,78846,128,0,78889:0:0:0:0:
448,192,78889,128,0,78931:0:0:0:0:
64,192,78973,1,0,0:0:0:70:electronic28.wav
192,192,78973,1,0,0:0:0:0:
320,192,78973,1,0,0:0:0:0:
448,192,79057,128,0,79142:0:0:0:0:
320,192,79142,128,0,79310:0:0:0:0:
192,192,79226,128,0,79353:0:0:0:0:
64,192,79310,128,0,79395:0:0:0:0:
448,192,79310,128,0,79437:0:0:0:0:
320,192,79395,128,0,79437:0:0:0:0:
192,192,79437,128,0,79479:0:0:0:0:
64,192,79479,128,0,79521:0:0:0:0:
320,192,79564,128,0,79732:0:0:0:0:
448,192,79564,128,0,79648:0:0:0:0:
192,192,79648,128,0,79732:0:0:0:0:
448,192,79732,128,0,79817:0:0:0:0:
192,192,79817,128,0,79880:0:0:0:0:
320,192,79880,128,0,79943:0:0:0:0:
64,192,79943,128,0,80007:0:0:0:0:
320,192,80007,128,0,80070:0:0:0:0:
192,192,80070,128,0,80260:0:0:0:0:
448,192,80133,128,0,80197:0:0:0:0:
320,192,80197,128,0,80386:0:0:0:0:
448,192,80260,128,0,80450:0:0:0:0:
64,192,80323,128,0,80386:0:0:0:0:
192,192,80386,128,0,80513:0:0:0:0:
64,192,80450,128,0,80513:0:0:0:0:
320,192,80513,128,0,80576:0:0:0:0:
64,192,80576,128,2,80745:0:0:0:0:
192,192,80576,128,4,80661:0:0:0:0:
448,192,80576,128,0,80745:0:0:0:0:
320,192,80661,128,0,80829:0:0:0:0:
192,192,80745,128,0,81040:0:0:0:0:
448,192,80829,128,0,80914:0:0:0:0:
64,192,80914,128,0,81083:0:0:0:0:
320,192,80998,1,0,0:0:0:0:
448,192,80998,1,0,0:0:0:0:
192,192,81083,128,0,81125:0:0:0:0:
64,192,81125,128,0,81167:0:0:0:0:
448,192,81167,128,0,81209:0:0:0:0:
64,192,81251,128,0,81336:0:0:0:0:
192,192,81336,1,0,0:0:0:70:electronic28.wav
320,192,81336,1,0,0:0:0:0:
448,192,81336,1,0,0:0:0:0:
64,192,81420,1,0,0:0:0:0:
192,192,81505,1,0,0:0:0:0:
320,192,81589,1,0,0:0:0:0:
192,192,81673,1,0,0:0:0:0:
64,192,81758,1,0,0:0:0:0:
320,192,81842,128,2,81884:0:0:0:0:
448,192,81842,1,0,0:0:0:0:
192,192,81884,128,0,81926:0:0:0:0:
320,192,81926,128,0,81969:0:0:0:0:
64,192,82011,1,2,0:0:0:0:
192,192,82011,1,0,0:0:0:0:
320,192,82095,1,2,0:0:0:0:
448,192,82095,1,0,0:0:0:0:
64,192,82137,128,0,82180:0:0:0:0:
192,192,82180,128,0,82222:0:0:0:0:
448,192,82222,128,0,82264:0:0:0:0:
320,192,82264,128,0,82306:0:0:0:0:
192,192,82306,128,0,82348:0:0:0:0:
448,192,82348,128,0,82391:0:0:0:0:
320,192,82391,128,0,82433:0:0:0:0:
64,192,82433,128,0,82475:0:0:0:0:
192,192,82475,128,0,82517:0:0:0:0:
320,192,82517,128,0,82559:0:0:0:70:electronic28.wav
64,192,82559,128,0,82602:0:0:0:0:
192,192,82602,128,0,82644:0:0:0:0:
448,192,82644,128,0,82686:0:0:0:0:
64,192,82686,128,0,82728:0:0:0:0:
192,192,82728,128,0,82770:0:0:0:0:
320,192,82770,128,0,82813:0:0:0:0:
448,192,82813,128,0,82855:0:0:0:0:
64,192,82855,128,2,83108:0:0:0:0:
192,192,82855,128,4,82939:0:0:0:0:
320,192,82855,128,0,83024:0:0:0:0:
448,192,82939,128,0,83108:0:0:0:0:
192,192,83024,128,0,83361:0:0:0:0:
320,192,83108,128,0,83235:0:0:0:0:
448,192,83192,128,0,83488:0:0:0:0:
320,192,83277,128,0,83403:0:0:0:0:
64,192,83361,128,0,83403:0:0:0:0:
192,192,83403,128,0,83445:0:0:0:0:
320,192,83445,128,0,83488:0:0:0:0:
448,192,83530,128,0,83614:0:0:0:0:
64,192,83614,1,0,0:0:0:70:electronic28.wav
192,192,83614,1,0,0:0:0:0:
320,192,83614,1,0,0:0:0:0:
448,192,83699,1,0,0:0:0:0:
192,192,83783,1,0,0:0:0:0:
320,192,83867,1,0,0:0:0:0:
64,192,83952,1,0,0:0:0:0:
192,192,84036,1,0,0:0:0:0:
64,192,84121,1,2,0:0:0:0:
448,192,84121,128,0,84163:0:0:0:0:
320,192,84163,128,0,84205:0:0:0:0:
192,192,84205,128,0,84247:0:0:0:0:
320,192,84289,1,2,0:0:0:0:
448,192,84289,1,0,0:0:0:0:
64,192,84374,1,2,0:0:0:0:
192,192,84374,1,0,0:0:0:0:
448,192,84416,1,0,0:0:0:0:
320,192,84458,1,0,0:0:0:0:
192,192,84500,1,0,0:0:0:0:
448,192,84543,1,0,0:0:0:0:
320,192,84585,1,0,0:0:0:0:
64,192,84627,1,0,0:0:0:0:
192,192,84669,1,0,0:0:0:0:
320,192,84711,1,0,0:0:0:0:
448,192,84753,1,0,0:0:0:0:
64,192,84796,1,0,0:0:0:0:
192,192,84838,1,0,0:0:0:0:
320,192,84880,1,0,0:0:0:0:
448,192,84922,1,0,0:0:0:0:
64,192,84964,1,0,0:0:0:0:
192,192,85007,1,0,0:0:0:0:
320,192,85049,1,0,0:0:0:0:
448,192,85091,1,0,0:0:0:0:
64,192,85133,128,0,85809:0:0:0:0:
320,192,85133,128,0,85809:0:0:0:0:
192,192,85134,128,6,85471:0:0:0:0:
192,192,85555,128,0,85809:0:0:0:0:
448,192,85555,128,0,85809:0:0:0:0:
64,192,85893,128,0,85977:0:0:0:0:
448,192,85893,128,0,85977:0:0:0:0:
320,192,85977,128,0,86062:0:0:0:0:
192,192,86062,128,0,86146:0:0:0:0:
448,192,86146,128,0,86231:0:0:0:0:
320,192,86231,128,0,86315:0:0:0:0:
64,192,86315,128,0,86399:0:0:0:0:
192,192,86315,128,0,86399:0:0:0:0:
448,192,86399,128,0,86484:0:0:0:0:
192,192,86484,128,0,86568:0:0:0:0:
64,192,86568,128,0,86737:0:0:0:0:
192,192,86652,128,0,86821:0:0:0:0:
448,192,86652,128,0,86737:0:0:0:0:
320,192,86737,128,0,86906:0:0:0:0:
448,192,86821,128,0,86990:0:0:0:0:
192,192,86906,128,0,87074:0:0:0:0:
320,192,86990,128,0,87243:0:0:0:0:
64,192,87074,128,0,87243:0:0:0:0:
448,192,87074,128,0,87159:0:0:0:0:
192,192,87159,128,0,87328:0:0:0:0:
448,192,87243,128,0,87412:0:0:0:0:
64,192,87328,128,0,87412:0:0:0:0:
320,192,87412,128,0,87496:0:0:0:0:
192,192,87412,128,0,87581:0:0:0:0:
64,192,87496,128,0,87665:0:0:0:0:
448,192,87581,128,0,87834:0:0:0:0:
320,192,87665,128,0,87750:0:0:0:0:
192,192,87750,128,0,87918:0:0:0:0:
64,192,87834,128,0,88003:0:0:0:0:
320,192,87834,128,0,88003:0:0:0:0:
448,192,87918,128,0,88087:0:0:0:0:
192,192,88003,128,0,88171:0:0:0:0:
320,192,88087,128,0,88340:0:0:0:0:
64,192,88171,128,0,88340:0:0:0:0:
448,192,88171,128,0,88256:0:0:0:0:
192,192,88256,128,0,88425:0:0:0:0:
448,192,88340,128,0,88509:0:0:0:0:
64,192,88425,128,0,88678:0:0:0:0:
320,192,88425,128,0,88509:0:0:0:0:
192,192,88509,128,0,88593:0:0:0:0:
320,192,88593,128,0,88678:0:0:0:0:
448,192,88593,128,0,88847:0:0:0:0:
192,192,88678,128,0,88847:0:0:0:0:
64,192,88762,128,0,88847:0:0:0:0:
320,192,88762,128,0,88847:0:0:0:0:
64,192,88931,1,2,0:0:0:0:
192,192,88931,1,4,0:0:0:0:
320,192,88931,1,0,0:0:0:0:
448,192,88931,1,0,0:0:0:0:
64,192,89353,128,0,89522:0:0:0:0:
192,192,89353,128,0,89522:0:0:0:0:
320,192,89353,128,0,89522:0:0:0:0:
448,192,89353,128,0,89522:0:0:0:0:
64,192,89596,1,0,0:0:0:0:
192,192,89643,1,0,0:0:0:0:
320,192,89690,128,0,89775:0:0:0:0:
448,192,89690,128,0,89859:0:0:0:0:
64,192,89775,128,0,89859:0:0:0:0:
192,192,89859,128,0,89944:0:0:0:0:
64,192,89944,128,0,90028:0:0:0:0:
320,192,90028,128,0,90112:0:0:0:0:
64,192,90112,128,0,90197:0:0:0:0:
192,192,90112,128,0,90281:0:0:0:0:
448,192,90197,128,0,90281:0:0:0:0:
320,192,90281,128,0,90366:0:0:0:0:
64,192,90366,128,0,90450:0:0:0:0:
448,192,90450,128,0,90619:0:0:0:0:
320,192,90450,128,0,90534:0:0:0:0:
192,192,90534,128,0,90703:0:0:0:0:
64,192,90619,128,0,90788:0:0:0:0:
448,192,90703,128,0,90788:0:0:0:0:
320,192,90788,128,0,90956:0:0:0:0:
448,192,90872,128,0,91125:0:0:0:0:
64,192,90872,128,0,91125:0:0:0:0:
192,192,90956,1,0,0:0:0:0:
320,192,91041,1,0,0:0:0:0:
192,192,91125,1,0,0:0:0:0:
64,192,91209,128,2,91378:0:0:0:0:
320,192,91209,128,0,91294:0:0:0:0:
448,192,91209,128,0,91378:0:0:0:0:
192,192,91294,128,0,91463:0:0:0:0:
320,192,91378,128,0,91547:0:0:0:0:
448,192,91463,128,0,91547:0:0:0:0:
192,192,91547,128,0,91631:0:0:0:0:
64,192,91631,128,2,91716:0:0:0:0:
320,192,91631,128,0,91800:0:0:0:0:
448,192,91631,128,0,91716:0:0:0:0:
192,192,91716,128,0,91885:0:0:0:0:
64,192,91800,128,0,91885:0:0:0:0:
320,192,91885,128,0,91969:0:0:0:0:
64,192,91969,128,0,92053:0:0:0:0:
448,192,91969,128,0,92138:0:0:0:0:
192,192,91969,128,0,92138:0:0:0:0:
320,192,92053,128,0,92138:0:0:0:0:
64,192,92138,128,0,92222:0:0:0:0:
448,192,92222,128,0,92306:0:0:0:0:
320,192,92222,128,0,92391:0:0:0:0:
192,192,92222,128,0,92391:0:0:0:0:
64,192,92306,128,0,92391:0:0:0:0:
448,192,92391,128,0,92475:0:0:0:0:
320,192,92475,128,0,92644:0:0:0:0:
192,192,92475,128,0,92644:0:0:0:0:
64,192,92475,128,0,92560:0:0:0:0:
448,192,92560,128,0,92644:0:0:0:0:
64,192,92644,128,0,92813:0:0:0:0:
192,192,92728,128,0,92813:0:0:0:0:
320,192,92728,128,0,92813:0:0:0:0:
448,192,92728,128,0,92813:0:0:0:0:
64,192,92897,128,2,93150:0:0:0:0:
192,192,92897,128,4,93404:0:0:0:0:
448,192,92897,128,0,93150:0:0:0:0:
64,192,93235,128,2,93825:0:0:0:0:
320,192,93235,128,4,93404:0:0:0:0:
448,192,93235,128,0,93404:0:0:0:0:
192,192,93488,128,2,93825:0:0:0:0:
320,192,93488,128,4,93825:0:0:0:0:
448,192,93488,128,0,94163:0:0:0:0:
64,192,93910,128,2,94163:0:0:0:0:
192,192,93910,128,4,94163:0:0:0:0:
320,192,93910,128,0,94163:0:0:0:0:
64,192,94247,128,4,94585:0:0:0:0:
192,192,94247,128,2,94501:0:0:0:0:
320,192,94247,128,0,94416:0:0:0:0:
448,192,94247,128,0,94332:0:0:0:0:
448,192,94501,128,0,94585:0:0:0:0:
192,192,94754,128,0,94838:0:0:0:0:
320,192,95007,128,0,95091:0:0:0:0:
448,192,95260,128,0,95344:0:0:0:0:
320,192,95513,128,0,95598:0:0:0:0:
64,192,95766,128,2,96463:0:0:0:0:
192,192,95766,128,8,95851:0:0:0:0:
320,192,95766,128,0,95851:0:0:0:0:
448,192,95766,128,0,96463:0:0:0:0:
192,192,96020,128,0,96463:0:0:0:0:
320,192,96273,128,0,96463:0:0:0:0:
64,192,96526,128,2,96652:0:0:0:0:
192,192,96526,128,4,96589:0:0:0:0:
448,192,96526,1,0,0:0:0:0:
320,192,96589,1,0,0:0:0:0:
192,192,96652,1,0,0:0:0:0:
64,192,96715,1,0,0:0:0:0:
320,192,96779,128,0,96842:0:0:0:0:
448,192,96779,128,0,96842:0:0:0:0:
192,192,96842,1,0,0:0:0:0:
320,192,96905,1,0,0:0:0:0:
64,192,96969,1,0,0:0:0:0:
192,192,97032,128,0,97095:0:0:0:0:
448,192,97032,128,0,97095:0:0:0:0:
320,192,97095,1,0,0:0:0:0:
192,192,97158,1,0,0:0:0:0:
64,192,97222,1,0,0:0:0:0:
320,192,97285,128,2,97332:0:0:0:0:
448,192,97285,128,0,97332:0:0:0:0:
64,192,97332,128,0,97380:0:0:0:0:
192,192,97380,128,0,97427:0:0:0:0:
320,192,97427,128,0,97475:0:0:0:0:
448,192,97475,128,0,97522:0:0:0:0:
192,192,97522,128,0,97570:0:0:0:0:
320,192,97570,128,0,97617:0:0:0:0:
64,192,97617,128,0,97665:0:0:0:0:
448,192,97665,128,0,97712:0:0:0:0:
320,192,97712,128,0,97760:0:0:0:0:
192,192,97760,128,0,97807:0:0:0:0:
64,192,97807,128,0,97855:0:0:0:0:
320,192,97855,128,0,97902:0:0:0:0:
192,192,97902,128,0,97950:0:0:0:0:
448,192,97950,128,0,97997:0:0:0:0:
320,192,97997,128,0,98044:0:0:0:0:
64,192,98044,1,2,0:0:0:0:
192,192,98044,1,0,0:0:0:0:
64,192,98171,1,0,0:0:0:0:
192,192,98171,1,0,0:0:0:0:
64,192,98298,128,0,98340:0:0:0:0:
320,192,98298,128,0,98340:0:0:0:0:
64,192,98424,128,0,98466:0:0:0:0:
320,192,98424,128,0,98466:0:0:0:0:
192,192,98551,128,0,98635:0:0:0:0:
448,192,98551,128,0,98635:0:0:0:0:
192,192,98677,128,0,98762:0:0:0:0:
448,192,98677,128,0,98762:0:0:0:0:
64,192,98804,128,2,98931:0:0:0:0:
192,192,98804,128,4,98867:0:0:0:0:
448,192,98804,1,0,0:0:0:0:
320,192,98867,1,0,0:0:0:0:
192,192,98931,1,0,0:0:0:0:
448,192,98994,1,0,0:0:0:0:
64,192,99057,128,0,99120:0:0:0:0:
320,192,99057,128,0,99120:0:0:0:0:
192,192,99120,1,0,0:0:0:0:
320,192,99184,1,0,0:0:0:0:
448,192,99247,1,0,0:0:0:0:
64,192,99310,128,0,99374:0:0:0:0:
192,192,99310,128,0,99374:0:0:0:0:
448,192,99374,1,0,0:0:0:0:
320,192,99437,1,0,0:0:0:0:
192,192,99500,1,0,0:0:0:0:
64,192,99563,128,2,99611:0:0:0:0:
448,192,99563,128,0,99611:0:0:0:0:
320,192,99611,128,0,99658:0:0:0:0:
192,192,99658,128,0,99706:0:0:0:0:
448,192,99706,128,0,99753:0:0:0:0:
320,192,99753,128,0,99801:0:0:0:0:
64,192,99801,128,0,99848:0:0:0:0:
448,192,99848,128,0,99896:0:0:0:0:
320,192,99896,128,0,99943:0:0:0:0:
192,192,99943,128,0,99991:0:0:0:0:
64,192,99991,128,0,100038:0:0:0:0:
320,192,100038,128,0,100086:0:0:0:0:
448,192,100086,128,0,100133:0:0:0:0:
192,192,100133,128,0,100181:0:0:0:0:
320,192,100181,128,0,100228:0:0:0:0:
64,192,100228,128,0,100276:0:0:0:0:
192,192,100276,128,0,100323:0:0:0:0:
320,192,100323,128,2,100450:0:0:0:0:
448,192,100323,128,0,100450:0:0:0:0:
64,192,100513,128,0,100639:0:0:0:0:
320,192,100513,128,0,100639:0:0:0:0:
448,192,100513,128,0,100639:0:0:0:0:
64,192,100703,128,0,100829:0:0:0:0:
192,192,100703,128,0,100829:0:0:0:0:
320,192,100703,128,0,100829:0:0:0:0:
192,192,100893,128,0,100956:0:0:0:0:
448,192,100893,128,0,100956:0:0:0:0:
320,192,100956,128,0,101019:0:0:0:0:
192,192,101019,128,0,101082:0:0:0:0:
64,192,101082,128,2,101167:0:0:0:0:
320,192,101082,128,0,101167:0:0:0:0:
448,192,101082,128,0,101167:0:0:0:0:
192,192,101167,1,0,0:0:0:0:
320,192,101251,1,0,0:0:0:0:
64,192,101336,128,2,101420:0:0:0:0:
192,192,101336,128,0,101420:0:0:0:0:
448,192,101336,128,0,101420:0:0:0:0:
320,192,101420,1,0,0:0:0:0:
192,192,101504,1,0,0:0:0:0:
64,192,101589,128,2,101673:0:0:0:0:
320,192,101589,128,0,101673:0:0:0:0:
448,192,101589,128,0,101673:0:0:0:0:
192,192,101673,1,0,0:0:0:0:
448,192,101758,1,0,0:0:0:0:
64,192,101842,128,2,101937:0:0:0:0:
192,192,101842,128,4,101889:0:0:0:0:
448,192,101889,1,0,0:0:0:0:
320,192,101937,1,0,0:0:0:0:
192,192,101984,1,0,0:0:0:0:
64,192,102032,128,0,102079:0:0:0:0:
448,192,102079,128,0,102127:0:0:0:0:
320,192,102127,128,0,102174:0:0:0:0:
192,192,102174,128,0,102222:0:0:0:0:
320,192,102222,128,2,102269:0:0:0:0:
448,192,102222,128,0,102317:0:0:0:0:
64,192,102269,1,0,0:0:0:0:
192,192,102317,1,0,0:0:0:0:
320,192,102364,1,0,0:0:0:0:
64,192,102412,128,0,102459:0:0:0:0:
192,192,102459,128,0,102507:0:0:0:0:
320,192,102507,128,0,102554:0:0:0:0:
448,192,102554,128,0,102601:0:0:0:0:
64,192,102601,128,2,102696:0:0:0:0:
192,192,102601,128,4,102649:0:0:0:0:
320,192,102649,1,0,0:0:0:0:
448,192,102696,1,0,0:0:0:0:
192,192,102744,1,0,0:0:0:0:
64,192,102791,128,0,102839:0:0:0:0:
448,192,102839,128,0,102886:0:0:0:0:
320,192,102886,128,0,102934:0:0:0:0:
192,192,102934,128,0,102981:0:0:0:0:
64,192,102981,128,2,103076:0:0:0:0:
448,192,102981,128,0,103029:0:0:0:0:
320,192,103029,1,0,0:0:0:0:
192,192,103076,1,0,0:0:0:0:
448,192,103124,1,0,0:0:0:0:
64,192,103171,128,0,103219:0:0:0:0:
192,192,103219,128,0,103266:0:0:0:0:
320,192,103266,128,0,103313:0:0:0:0:
448,192,103313,128,0,103361:0:0:0:0:
64,192,103361,128,2,103698:0:0:0:0:
192,192,103361,128,4,103782:0:0:0:0:
320,192,103614,128,0,103867:0:0:0:0:
64,192,103867,128,2,104036:0:0:0:0:
192,192,103867,128,4,103951:0:0:0:0:
448,192,103867,128,0,103951:0:0:0:0:
320,192,103951,128,0,104036:0:0:0:0:
448,192,104036,128,0,104204:0:0:0:0:
320,192,104120,128,0,104289:0:0:0:0:
192,192,104120,128,0,104204:0:0:0:0:
64,192,104204,128,0,104289:0:0:0:0:
192,192,104289,128,0,104373:0:0:0:0:
320,192,104373,128,4,104542:0:0:0:0:
448,192,104373,128,0,104542:0:0:0:0:
64,192,104373,128,2,104458:0:0:0:0:
64,192,104547,128,0,104642:0:0:0:0:
192,192,104595,128,0,104690:0:0:0:0:
320,192,104642,128,0,104737:0:0:0:0:
448,192,104690,128,0,104785:0:0:0:0:
64,192,104737,1,0,0:0:0:0:
192,192,104785,1,0,0:0:0:0:
320,192,104832,1,0,0:0:0:0:
64,192,104879,128,2,104964:0:0:0:0:
192,192,104879,128,4,105048:0:0:0:0:
448,192,104879,128,0,104964:0:0:0:0:
320,192,104964,128,0,105133:0:0:0:0:
64,192,105048,128,0,105301:0:0:0:0:
448,192,105048,128,0,105133:0:0:0:0:
192,192,105133,128,0,105217:0:0:0:0:
448,192,105217,128,0,105301:0:0:0:0:
320,192,105301,128,0,105386:0:0:0:0:
64,192,105386,128,2,105470:0:0:0:0:
192,192,105386,128,4,105639:0:0:0:0:
448,192,105386,128,0,105470:0:0:0:0:
320,192,105470,128,0,105723:0:0:0:0:
64,192,105555,128,0,105808:0:0:0:0:
448,192,105639,128,0,105723:0:0:0:0:
192,192,105723,128,0,105808:0:0:0:0:
448,192,105808,128,0,105892:0:0:0:0:
64,192,105892,128,2,105977:0:0:0:0:
192,192,105892,128,4,106061:0:0:0:0:
320,192,105892,128,0,106230:0:0:0:0:
448,192,105977,128,0,106145:0:0:0:0:
64,192,106061,128,0,106314:0:0:0:0:
192,192,106145,128,0,106314:0:0:0:0:
448,192,106230,128,0,106314:0:0:0:0:
320,192,106314,128,0,106398:0:0:0:0:
64,192,106398,128,2,107791:0:0:0:0:
192,192,106398,1,4,0:0:0:0:
448,192,106398,128,0,108677:0:0:0:0:
320,192,106462,1,0,0:0:0:0:
192,192,106525,1,0,0:0:0:0:
320,192,106588,1,0,0:0:0:0:
192,192,106652,1,0,0:0:0:0:
320,192,106715,1,0,0:0:0:0:
192,192,106778,1,0,0:0:0:0:
320,192,106842,1,0,0:0:0:0:
192,192,106905,1,0,0:0:0:0:
320,192,106968,1,0,0:0:0:0:
192,192,107031,1,0,0:0:0:0:
320,192,107095,1,0,0:0:0:0:
192,192,107158,1,0,0:0:0:0:
320,192,107221,1,0,0:0:0:0:
192,192,107285,1,0,0:0:0:0:
320,192,107348,1,0,0:0:0:0:
192,192,107411,1,0,0:0:0:0:
320,192,107474,1,0,0:0:0:0:
192,192,107538,1,0,0:0:0:0:
320,192,107601,1,0,0:0:0:0:
192,192,107664,1,0,0:0:0:0:
320,192,107728,1,0,0:0:0:0:
192,192,107791,1,0,0:0:0:0:
320,192,107854,1,0,0:0:0:0:
64,192,107917,1,2,0:0:0:0:
192,192,107917,1,0,0:0:0:0:
320,192,107981,1,0,0:0:0:0:
192,192,108044,1,0,0:0:0:0:
320,192,108107,1,0,0:0:0:0:
64,192,108171,1,2,0:0:0:0:
192,192,108171,1,0,0:0:0:0:
320,192,108234,1,0,0:0:0:0:
192,192,108297,1,0,0:0:0:0:
320,192,108361,1,0,0:0:0:0:
64,192,108424,1,2,0:0:0:0:
192,192,108424,1,0,0:0:0:0:
320,192,108487,1,0,0:0:0:0:
192,192,108550,1,0,0:0:0:0:
320,192,108614,1,0,0:0:0:0:
64,192,108677,128,2,108740:0:0:0:0:
192,192,108677,128,0,108804:0:0:0:0:
320,192,108740,128,0,108867:0:0:0:0:
448,192,108804,128,0,108867:0:0:0:0:
64,192,108867,128,0,108993:0:0:0:0:
192,192,108930,128,2,108993:0:0:0:0:
448,192,108930,128,0,109120:0:0:0:0:
320,192,108993,128,0,109120:0:0:0:0:
64,192,109057,128,0,109120:0:0:0:0:
192,192,109120,128,0,109247:0:0:0:0:
64,192,109183,128,2,109373:0:0:0:0:
448,192,109183,128,0,109373:0:0:0:0:
320,192,109247,128,0,109310:0:0:0:0:
192,192,109310,128,0,109373:0:0:0:0:
320,192,109373,1,0,0:0:0:0:
64,192,109436,128,2,110132:0:0:0:0:
192,192,109436,128,0,110132:0:0:0:70:tick02_edit.wav
448,192,109436,128,0,110511:0:0:0:0:
320,192,109815,128,0,111271:0:0:0:0:
64,192,110195,128,0,110891:0:0:0:70:tick02_edit.wav
192,192,110195,128,0,110891:0:0:0:0:
448,192,110575,128,0,111651:0:0:0:0:
64,192,110954,128,0,111651:0:0:0:70:tick02_edit.wav
192,192,110954,128,0,112030:0:0:0:0:
320,192,111334,128,0,112410:0:0:0:0:
64,192,111714,128,0,112790:0:0:0:70:tick02_edit.wav
448,192,111714,128,0,112410:0:0:0:0:
192,192,112094,128,0,113170:0:0:0:0:
320,192,112473,128,0,113106:0:0:0:70:tick02_edit.wav
448,192,112473,128,0,113106:0:0:0:0:
64,192,112853,128,0,113170:0:0:0:0:
320,192,113170,1,2,0:0:0:0:
448,192,113170,1,0,0:0:0:0:
64,192,113233,1,2,0:0:0:0:
192,192,113233,1,0,0:0:0:0:
320,192,113317,1,8,0:0:0:0:
448,192,113317,1,0,0:0:0:0:
64,192,113402,1,8,0:0:0:0:
192,192,113486,1,2,0:0:0:0:
320,192,113486,1,0,0:0:0:0:
64,192,113571,1,0,0:0:0:0:
448,192,113571,1,0,0:0:0:0:
192,192,113655,1,0,0:0:0:0:
320,192,113739,1,2,0:0:0:0:
448,192,113739,1,0,0:0:0:0:
64,192,113824,1,0,0:0:0:0:
192,192,113824,1,0,0:0:0:0:
448,192,113908,1,0,0:0:0:0:
64,192,113992,128,4,118842:0:0:0:0:
192,192,113992,128,2,114161:0:0:0:0:
320,192,113992,128,0,114077:0:0:0:0:
448,192,114077,128,0,114161:0:0:0:0:
320,192,114161,128,0,114246:0:0:0:0:
192,192,114246,128,0,114330:0:0:0:0:
448,192,114330,128,0,114414:0:0:0:0:
320,192,114414,128,0,114499:0:0:0:0:
448,192,114499,128,0,114583:0:0:0:0:
192,192,114583,128,0,114668:0:0:0:0:
448,192,114668,128,0,114752:0:0:0:0:
192,192,114752,128,0,114837:0:0:0:70:electronic28.wav
320,192,114752,1,0,0:0:0:0:
448,192,114837,128,0,114922:0:0:0:0:
320,192,114922,128,0,115008:0:0:0:0:
192,192,115008,128,0,115093:0:0:0:0:
448,192,115093,128,0,115179:0:0:0:0:
192,192,115179,128,0,115264:0:0:0:0:
320,192,115264,128,0,115350:0:0:0:0:
448,192,115350,128,0,115435:0:0:0:0:
320,192,115435,128,0,115521:0:0:0:0:
448,192,115521,128,0,115607:0:0:0:0:
192,192,115607,128,0,115694:0:0:0:0:
320,192,115694,128,0,115780:0:0:0:0:
448,192,115780,128,0,115867:0:0:0:0:
192,192,115867,128,0,115953:0:0:0:0:
320,192,115953,128,0,116040:0:0:0:0:
192,192,116040,128,0,116127:0:0:0:0:
448,192,116127,128,0,116213:0:0:0:0:
320,192,116213,128,0,116300:0:0:0:0:
192,192,116300,128,0,116388:0:0:0:0:
448,192,116388,128,0,116477:0:0:0:0:
320,192,116477,128,0,116566:0:0:0:0:
448,192,116566,128,0,116655:0:0:0:0:
192,192,116655,128,0,116744:0:0:0:0:
320,192,116744,128,0,116833:0:0:0:0:
448,192,116833,128,0,116922:0:0:0:0:
320,192,116922,128,0,117011:0:0:0:0:
192,192,117011,128,0,117100:0:0:0:0:
448,192,117100,128,0,117192:0:0:0:0:
320,192,117192,128,0,117285:0:0:0:0:
192,192,117285,128,0,117377:0:0:0:0:
320,192,117377,128,0,117470:0:0:0:0:
448,192,117470,128,0,117562:0:0:0:0:
192,192,117562,128,0,117655:0:0:0:0:
320,192,117655,128,0,117748:0:0:0:0:
192,192,117748,128,0,117840:0:0:0:0:
448,192,117840,128,0,117933:0:0:0:0:
192,192,117933,128,0,118034:0:0:0:0:
320,192,117933,128,0,118135:0:0:0:0:
448,192,118034,128,0,118236:0:0:0:0:
192,192,118135,128,0,118337:0:0:0:0:
320,192,118236,128,0,118438:0:0:0:0:
448,192,118337,128,0,118640:0:0:0:0:
192,192,118438,128,0,118539:0:0:0:0:
320,192,118539,128,0,118741:0:0:0:0:
192,192,118640,128,0,118842:0:0:0:0:
448,192,118741,128,0,118842:0:0:0:0:
320,192,118842,1,0,0:0:0:0:
64,192,118898,128,0,120660:0:0:0:0:
448,192,118898,128,0,120660:0:0:0:0:
