osu file format v14

[General]
AudioFilename: audio.mp3
AudioLeadIn: 0
PreviewTime: -1
Countdown: 1
SampleSet: None
StackLeniency: 0.2
Mode: 0
LetterboxInBreaks: 0
WidescreenStoryboard: 0

[Editor]
Bookmarks: 107569,111190
DistanceSpacing: 1
BeatDivisor: 4
GridSize: 8
TimelineZoom: 2.599999

[Metadata]
Title:shadows of cats
TitleUnicode:shadows of cats
Artist:Camellia
ArtistUnicode:かめりあ
Creator:Shinra Bansho
Version:meow
Source:
Tags:
BeatmapID:1432471
BeatmapSetID:677296

[Difficulty]
HPDrainRate:6
CircleSize:3.9
OverallDifficulty:8
ApproachRate:9.6
SliderMultiplier:1.4
SliderTickRate:1

[Events]
//Background and Video events
0,0,"cat_art-t2 (1).jpg",0,0
//Break Periods
2,78459,89474
//Storyboard Layer 0 (Background)
//Storyboard Layer 1 (Fail)
//Storyboard Layer 2 (Pass)
//Storyboard Layer 3 (Foreground)
//Storyboard Sound Samples

[TimingPoints]
1020,344.827586206897,4,1,0,50,1,0
21709,-25,4,1,0,50,0,0
22744,-1000,4,1,0,50,0,0
23088,-50,4,1,0,50,0,0
28433,-200,4,1,0,50,0,0
28606,-50,4,1,0,50,0,0
33433,-25,4,1,0,50,0,0
34123,-33.3333333333333,4,1,0,50,0,0
39640,-25,4,1,0,50,0,0
39985,172.413793103448,4,1,0,50,1,0
39985,-33.3333333333333,4,1,0,50,0,0
40329,-28.5714285714286,4,1,0,50,0,0
40674,-25,4,1,0,50,0,0
41019,344.827586206897,4,1,0,50,1,0
41019,-25,4,1,0,50,0,0
43777,172.413793103448,4,1,0,50,1,0
43777,-25,4,1,0,50,0,0
45156,344.827586206897,4,1,0,50,1,0
45156,-1000,4,1,0,50,0,0
55845,-66.6666666666667,4,1,0,50,0,0
56190,-50,4,1,0,50,0,0
57914,-25,4,1,0,50,0,0
58431,-1000,4,1,0,50,0,0
58949,-33.3333333333333,4,1,0,50,0,0
60156,-100,4,1,0,50,0,0
60845,-25,4,1,0,50,0,0
61190,-50,4,1,0,50,0,0
65845,-100,4,1,0,50,0,0
67224,-57.1428571428571,4,1,0,50,0,0
72742,-50,4,1,0,50,0,0
97569,-100,4,1,0,50,0,0
98431,-33.3333333333333,4,1,0,50,0,0
99293,-50,4,1,0,50,0,0
99466,-66.6666666666667,4,1,0,50,0,0
99638,-133.333333333333,4,1,0,50,0,0
99811,-400,4,1,0,50,0,0
99983,-50,4,1,0,50,0,0
100328,-50,4,1,0,50,0,0
116621,-100,4,1,0,50,0,0
119638,-50,4,1,0,50,0,0
123776,-25,4,1,0,50,0,0
129983,-33.3333333333333,4,1,0,50,0,0
130199,-50,4,1,0,50,0,0
130328,-66.6666666666667,4,1,0,50,0,0
130414,-100,4,1,0,50,0,0
130673,-33.3333333333333,4,1,0,50,0,0
133087,-1000,4,1,0,50,0,0
133431,-25,4,1,0,50,0,0
144466,-33.3333333333333,4,1,0,50,0,0
152052,-50,4,1,0,50,0,0
152224,-100,4,1,0,50,0,0
152742,-28.5714285714286,4,1,0,50,0,0
163431,-100,4,1,0,50,0,0
163604,-50,4,1,0,50,0,0

[Colours]
Combo1 : 0,255,128
Combo2 : 255,128,255
Combo3 : 0,255,255

[HitObjects]
379,66,20330,6,0,L|373:102,2,35
377,75,20588,2,0,L|360:176,1,70
365,144,20847,6,0,L|359:180,1,35
346,249,21020,1,0,0:0:0:0:
198,313,21192,1,0,0:0:0:0:
216,152,21364,1,0,0:0:0:0:
255,238,21709,2,0,B|314:106|314:106|323:111|323:111|317:102|317:102|326:108|326:108|320:101|320:101|330:108|330:108|319:100|319:100|331:108|331:108|321:99|321:99|333:109|333:109|321:100|321:100|333:110|333:110|319:99|319:99|332:109|332:109|321:98|321:98|334:109|334:109|322:97|322:97|488:263,1,560
347,335,22226,6,0,P|331:313|351:336,1,140
171,331,22399,6,0,P|155:309|175:332,1,140
86,172,22571,6,0,P|70:150|90:173,1,140
180,42,22744,2,0,L|189:49,1,10.5
181,48,23088,6,0,P|231:118|244:178,1,140
177,267,23433,2,0,P|238:304|295:261,1,140
354,166,23778,5,0,0:0:0:0:
351,124,23864,1,0,0:0:0:0:
337,83,23951,1,0,0:0:0:0:
304,56,24037,1,0,0:0:0:0:
263,43,24123,2,0,L|412:48,1,140
450,244,24468,6,0,P|354:257|291:246,1,140
61,140,24813,2,0,P|130:127|200:132,1,140
450,244,25157,1,0,0:0:0:0:
412,253,25243,1,0,0:0:0:0:
374,257,25329,1,0,0:0:0:0:
336,255,25415,1,0,0:0:0:0:
293,252,25502,2,0,L|381:128,1,140
435,73,25847,6,0,L|339:178,1,140
165,301,26192,2,0,P|84:252|75:211,1,140
110,66,26537,2,0,L|190:79,1,70
207,88,26709,2,0,L|287:101,1,70
346,110,26882,2,0,B|389:133|381:195|374:269,1,140
276,300,27226,6,0,L|317:155,1,140
236,65,27571,6,0,P|166:126|149:180,1,140
164,316,27916,1,0,0:0:0:0:
224,292,28002,1,0,0:0:0:0:
252,243,28088,1,0,0:0:0:0:
250,286,28174,1,0,0:0:0:0:
313,301,28260,1,0,0:0:0:0:
252,243,28433,2,0,L|250:218,1,17.5
187,51,28606,6,0,B|134:53|97:89|130:122|98:180,1,140
274,219,28951,2,0,L|179:115,1,140
69,226,29295,1,0,0:0:0:0:
95,259,29382,1,0,0:0:0:0:
131,279,29468,1,0,0:0:0:0:
170,293,29554,1,0,0:0:0:0:
224,301,29640,2,0,B|251:289|251:289|305:266|305:266|322:245|318:202,1,140
404,54,29985,5,0,0:0:0:0:
319,218,30157,1,0,0:0:0:0:
360,31,30330,1,0,0:0:0:0:
208,92,30502,1,0,0:0:0:0:
121,224,30675,6,0,P|190:293|243:315,1,140
347,306,31020,2,0,L|355:146,1,140
388,61,31364,2,0,P|460:69|424:101,1,140
353,166,31709,2,0,L|226:264,1,140
101,306,32054,6,0,B|84:194|84:194|98:139,1,140
167,82,32399,2,0,B|209:84|209:84|236:130|236:130|214:204,1,140
218,291,32744,2,0,B|312:259|312:259|290:170,1,140
310,44,33088,2,0,B|370:41|370:41|382:95|382:95|337:104,1,140
195,222,33433,6,0,B|135:195|135:195|182:170|182:170|195:222,1,140
317,222,33606,6,0,B|377:195|377:195|330:170|330:170|317:222,1,140
256,264,33778,2,0,B|255:122|255:122|255:122|255:122|255:122|255:122|255:122|255:122|255:122|255:122|255:122|255:122|255:122|255:122|255:155|255:155|255:155|255:155|255:155|255:155|255:155|255:155|255:155|255:155|255:155|255:155|257:66|257:66|259:58|259:58|255:44|255:44|249:55|249:55|260:58|260:58|255:44|255:44|249:55|249:55|259:57|259:57|255:44|255:44|249:55|249:55|259:57|259:57|255:44|255:44|260:57|260:57|249:56|249:56|252:60,1,420
255,48,34123,2,0,L|85:171,1,210.000008010865
49,304,34468,2,0,L|219:181,1,210.000008010865
391,70,34813,2,0,L|442:291,1,210.000008010865
292,69,35157,2,0,L|306:291,1,210.000008010865
198,73,35502,2,0,L|154:325,1,210.000008010865
95,64,35847,2,0,L|19:293,1,210.000008010865
115,349,36192,2,0,L|183:122,1,210.000008010865
377,49,36537,5,0,0:0:0:0:
299,203,36709,1,0,0:0:0:0:
282,160,36795,1,0,0:0:0:0:
318,164,36882,2,0,B|416:168|416:168|362:261|362:261|392:222,1,210.000008010865
354,341,37226,6,0,L|103:344,1,210.000008010865
72,41,37571,6,0,L|323:38,1,210.000008010865
389,340,37916,2,0,L|138:343,1,210.000008010865
107,40,38261,2,0,L|358:37,1,210.000008010865
454,69,38606,6,0,L|332:297,1,210.000008010865
96,316,38951,2,0,B|54:104|54:104|55:110|55:110|53:98|53:98|55:102|55:102|57:122|57:122|55:101|55:101|55:101|55:101|56:121|56:121|51:80,1,315.000012016297
59,85,39295,1,0,0:0:0:0:
120,68,39382,1,0,0:0:0:0:
198,85,39468,1,0,0:0:0:0:
266,109,39554,1,0,0:0:0:0:
323,119,39640,2,0,B|361:118|378:105|378:105|382:96|388:81|390:70|390:70|405:122,1,140
166,129,39813,2,0,B|128:128|111:115|111:115|107:106|101:91|99:80|99:80|84:132,1,140
323,119,39985,2,0,B|361:118|378:105|378:105|382:96|388:81|413:54|413:54|457:145,1,210.000008010865
166,129,40157,2,0,B|128:128|111:115|111:115|107:106|101:91|76:64|76:64|36:145,1,210.000008010865
321,119,40329,2,0,B|359:118|376:105|376:105|380:96|386:81|421:36|421:36|436:116|493:198,1,306.250002920628
166,129,40502,2,0,B|128:128|111:115|111:115|107:106|101:91|66:46|66:46|51:126|-6:208,1,306.250002920628
321,119,40674,2,0,B|359:118|376:105|376:105|380:96|386:81|421:36|421:36|436:116|537:175|538:342|251:360,1,560
254,202,40933,5,0,0:0:0:0:
270,198,41019,2,0,B|298:177|298:177|297:153|307:148|325:143|346:151|368:179|334:226,1,140
242,198,41191,2,0,B|214:177|214:177|215:153|205:148|187:143|166:151|144:179|178:226,1,140
315,90,41363,2,0,B|355:75|355:75|429:86|429:86|454:105,1,140
167,86,41536,2,0,B|127:71|127:71|53:82|53:82|28:101,1,140
383,170,41708,2,0,P|455:113|525:78,1,140
130,163,41881,2,0,P|58:106|-12:71,1,140
392,211,42053,2,0,P|472:182|532:184,1,140
120,211,42225,2,0,P|40:182|-20:184,1,140
303,112,42398,5,0,0:0:0:0:
358,108,42484,1,0,0:0:0:0:
395,66,42570,1,0,0:0:0:0:
377,12,42656,1,0,0:0:0:0:
320,6,42743,1,0,0:0:0:0:
265,19,42829,1,0,0:0:0:0:
251,73,42915,1,0,0:0:0:0:
290,112,43001,1,0,0:0:0:0:
322,157,43087,1,0,0:0:0:0:
328,213,43174,1,0,0:0:0:0:
306,264,43260,1,0,0:0:0:0:
267,304,43346,1,0,0:0:0:0:
215,340,43432,1,0,0:0:0:0:
147,323,43519,1,0,0:0:0:0:
90,262,43605,1,0,0:0:0:0:
84,181,43691,1,0,0:0:0:0:
113,123,43777,6,0,P|78:112|119:118,1,140
142,121,43863,2,0,P|112:98|149:118,1,140
178,125,43949,2,0,P|158:94|185:125,1,140
212,123,44035,2,0,P|219:158|204:120,1,140
223,109,44121,2,0,P|215:73|230:111,1,140
270,109,44208,2,0,P|277:144|262:106,1,140
320,92,44294,2,0,B|384:55|384:55|367:127,1,140
373,100,44380,2,0,B|362:178|362:178|420:136,1,140
365,158,44466,2,0,B|344:211|344:211|357:186|357:186|327:244,1,140
330,187,44552,2,0,P|374:210|445:279,1,140
307,211,44639,2,0,B|311:171|311:171|287:199|287:199|260:188|261:188|223:158,1,140
263,241,44725,2,0,P|231:263|271:245,1,140
225,272,44811,2,0,B|265:332|265:332|188:315,1,140
177,280,44897,2,0,P|147:235|162:288,1,140
130,257,44983,2,0,B|51:229|51:229|132:254,1,140
111,207,45070,2,0,B|144:163|144:163|120:258,1,140
80,159,45156,2,0,P|62:99|110:159,1,220.5
110,158,50673,2,0,L|219:183,1,112
256,192,53604,12,0,55673,0:0:0:0:
299,96,55845,6,0,B|359:92|403:61|403:61|385:120|394:151,1,157.500006008148
392,131,56190,2,0,B|409:213|409:213|428:238|470:223|480:172|396:175|396:175|342:214|342:214|313:187|313:187|227:211|256:155|141:180,1,490
123,172,56880,6,0,B|67:101|51:39|51:39|-24:166|-17:253|139:267,1,420
123,172,57569,1,0,0:0:0:0:
423,62,57742,1,0,0:0:0:0:
392,191,57914,2,0,B|337:224|357:288|357:288|390:260|390:260|324:192|270:208,1,280
92,53,58259,1,0,0:0:0:0:
85,175,58431,2,0,L|84:184,1,7
92,53,58776,1,0,0:0:0:0:
242,147,58949,6,0,B|305:137|354:83|352:77|352:77|357:128|393:201|366:269,1,315.000012016297
370,254,59293,1,0,0:0:0:0:
207,256,59466,6,0,B|151:258|151:258|192:221,1,105.000004005432
192,57,59638,1,0,0:0:0:0:
97,126,59811,2,0,B|69:189|69:189|48:51|48:51|102:138,1,262.500010013581
155,116,60156,2,0,B|221:133|257:130|257:130|255:199|317:222,1,210
360,132,60845,6,0,P|344:110|364:133,1,140
367,113,61018,1,0,0:0:0:0:
118,208,61190,2,0,L|74:154,1,70
74,154,61362,2,0,B|55:252|55:252|235:331,1,280
368,203,62052,5,0,0:0:0:0:
389,139,62138,1,0,0:0:0:0:
352,80,62224,1,0,0:0:0:0:
285,76,62311,1,0,0:0:0:0:
243,118,62397,2,0,P|232:220|374:176,1,280
297,175,62914,2,0,L|210:337,1,140
110,190,63259,6,0,P|70:150|117:191,1,280
402,119,63776,1,0,0:0:0:0:
120,139,63949,1,0,0:0:0:0:
402,119,64121,1,0,0:0:0:0:
120,139,64294,1,0,0:0:0:0:
230,275,64466,6,0,L|301:293,3,70
230,275,64811,1,0,0:0:0:0:
320,86,64983,1,0,0:0:0:0:
286,139,65069,1,0,0:0:0:0:
274,80,65156,2,0,P|310:164|270:83,1,280
338,317,65673,5,0,0:0:0:0:
159,199,65845,2,0,L|152:243,2,35
321,78,66190,6,0,B|278:109|278:109|237:113,1,70
88,87,66535,6,0,L|50:65,1,35
146,276,66707,2,0,L|103:244,1,35
101,162,66880,2,0,L|202:168,1,70
321,106,67224,6,0,B|343:77|349:32|349:32|362:69|402:26|437:6|466:52|449:67|449:67|461:122|437:178,1,306.250002920628
425,213,67742,1,0,0:0:0:0:
321,208,67828,1,0,0:0:0:0:
217,199,67914,2,0,B|114:184|114:184|243:96,1,245.000002336502
363,59,68431,6,0,L|298:50,1,61.2500005841255
360,204,68604,1,0,0:0:0:0:
132,63,68862,1,0,0:0:0:0:
118,274,69121,1,0,0:0:0:0:
324,249,69293,2,0,L|370:246,1,30.6250002920628
118,274,69466,1,0,0:0:0:0:
184,116,69638,1,0,0:0:0:0:
253,66,69724,1,0,0:0:0:0:
337,48,69811,1,0,0:0:0:0:
419,72,69897,1,0,0:0:0:0:
448,152,69983,2,0,P|455:235|297:286,1,245.000002336502
135,113,70500,5,0,0:0:0:0:
202,104,70587,1,0,0:0:0:0:
158,55,70673,2,0,L|212:298,1,245.000002336502
158,55,71190,2,0,L|174:121,1,61.2500005841255
211,294,71362,1,0,0:0:0:0:
158,55,71621,1,0,0:0:0:0:
211,294,71880,1,0,0:0:0:0:
425,117,72052,6,0,L|425:159,1,30.6250002920628
211,294,72224,1,0,0:0:0:0:
425,117,72397,6,0,P|426:211|385:258,1,122.500001168251
323,297,72742,2,0,B|232:317|232:317|287:348|287:348|252:217,1,280
231,113,73259,5,0,0:0:0:0:
224,43,73345,1,0,0:0:0:0:
287,72,73431,2,0,P|286:160|160:99,1,280
426,74,73949,6,0,L|473:49,1,35
336,115,74121,1,0,0:0:0:0:
227,178,74380,1,0,0:0:0:0:
120,244,74638,1,0,0:0:0:0:
49,290,74811,2,0,L|17:313,1,35
227,178,74983,1,0,0:0:0:0:
59,166,75156,5,0,0:0:0:0:
95,123,75242,1,0,0:0:0:0:
153,84,75328,1,0,0:0:0:0:
234,62,75414,1,0,0:0:0:0:
322,81,75500,2,0,B|390:138|394:298|394:298|338:283,1,280
149,180,76018,5,0,0:0:0:0:
94,116,76104,1,0,0:0:0:0:
176,100,76190,2,0,B|259:110|259:110|245:248|245:248|180:240,1,280
259,113,76707,2,0,L|343:122,1,70
453,129,76880,1,0,0:0:0:0:
259,113,77138,1,0,0:0:0:0:
453,129,77397,1,0,0:0:0:0:
277,289,77569,6,0,L|246:309,1,35
453,129,77742,1,0,0:0:0:0:
121,90,77914,1,0,0:0:0:0:
86,83,78000,1,0,0:0:0:0:
71,115,78087,1,0,0:0:0:0:
91,143,78173,1,0,0:0:0:0:
124,133,78259,1,0,0:0:0:0:
256,192,89983,12,0,91880,0:0:0:0:
339,65,92052,5,0,0:0:0:0:
339,65,92397,1,0,0:0:0:0:
385,317,92742,5,0,0:0:0:0:
385,317,93087,1,0,0:0:0:0:
253,193,93431,5,0,0:0:0:0:
253,193,93776,1,0,0:0:0:0:
451,197,94121,5,0,0:0:0:0:
451,197,94466,1,0,0:0:0:0:
96,84,94811,5,0,0:0:0:0:
96,84,95156,1,0,0:0:0:0:
90,250,95500,5,0,0:0:0:0:
90,250,95845,1,0,0:0:0:0:
292,234,96190,5,0,0:0:0:0:
292,234,96535,1,0,0:0:0:0:
89,83,96880,2,0,L|51:59,4,35
142,115,97138,1,0,0:0:0:0:
196,147,97224,1,0,0:0:0:0:
297,221,97397,1,0,0:0:0:0:
202,262,97569,2,0,B|262:289|306:367|306:367|326:294|367:268,1,245
374,259,98259,1,0,0:0:0:0:
241,58,98431,6,0,P|234:142|253:195,1,105.000004005432
161,93,98604,6,0,P|220:152|273:171,1,105.000004005432
136,176,98776,6,0,P|219:168|268:140,1,105.000004005432
184,248,98949,6,0,P|232:178|242:123,1,105.000004005432
270,257,99121,6,0,P|247:175|211:132,1,105.000004005432
342,219,99293,6,0,P|295:187|255:183,1,70
346,132,99466,2,0,P|317:134|280:151,1,52.5000020027161
301,53,99638,2,0,P|278:53|268:61,1,26.2500010013581
192,62,99811,2,0,P|192:68|194:73,1,8.75
106,119,99983,1,0,0:0:0:0:
88,179,100069,1,0,0:0:0:0:
103,247,100156,1,0,0:0:0:0:
154,303,100242,1,0,0:0:0:0:
229,339,100328,2,0,P|310:340|364:317,1,140
334,201,100673,6,0,P|270:157|179:146,1,140
96,197,101018,1,0,0:0:0:0:
316,235,101276,2,0,L|233:223,1,70
96,235,101535,1,0,0:0:0:0:
315,194,101707,1,0,0:0:0:0:
57,79,102052,5,0,0:0:0:0:
75,174,102397,2,0,L|96:306,1,70
99,311,102656,1,0,0:0:0:0:
75,174,102914,1,0,0:0:0:0:
43,24,103087,1,0,0:0:0:0:
400,80,103431,5,0,0:0:0:0:
305,210,103776,1,0,0:0:0:0:
219,339,104035,2,0,L|264:271,1,70
305,210,104293,1,0,0:0:0:0:
400,80,104466,5,0,0:0:0:0:
223,72,104811,2,0,B|82:84|82:84|233:131,1,280
338,149,105414,2,0,L|415:173,1,70
280,292,105673,1,0,0:0:0:0:
214,125,105845,2,0,L|185:51,3,70
188,60,106190,1,0,0:0:0:0:
299,317,106535,1,0,0:0:0:0:
214,125,106793,2,0,L|185:51,1,70
299,317,107052,1,0,0:0:0:0:
403,141,107224,5,0,0:0:0:0:
299,317,107569,1,0,0:0:0:0:
403,141,107914,1,0,0:0:0:0:
208,149,108173,2,0,L|124:150,1,70
403,141,108431,1,0,0:0:0:0:
299,317,108604,1,0,0:0:0:0:
138,149,108949,5,0,0:0:0:0:
403,141,109293,1,0,0:0:0:0:
299,317,109552,2,0,L|232:266,1,70
144,195,109811,1,0,0:0:0:0:
48,112,109983,1,0,0:0:0:0:
300,108,110328,1,0,0:0:0:0:
124,288,110673,1,0,0:0:0:0:
162,103,110931,2,0,L|175:23,1,70
124,288,111190,1,0,0:0:0:0:
234,227,111362,5,0,0:0:0:0:
366,331,111535,1,0,0:0:0:0:
393,165,111707,1,0,0:0:0:0:
393,165,111793,1,0,0:0:0:0:
393,165,111880,1,0,0:0:0:0:
224,95,112052,1,0,0:0:0:0:
114,244,112224,5,0,0:0:0:0:
148,279,112311,2,0,L|249:307,1,70
392,197,112483,1,0,0:0:0:0:
358,160,112570,2,0,L|277:154,1,70
112,112,112742,5,0,0:0:0:0:
83,269,112914,1,0,0:0:0:0:
104,305,113000,1,0,0:0:0:0:
138,329,113087,2,0,L|222:327,1,70
353,211,113259,1,0,0:0:0:0:
325,179,113345,1,0,0:0:0:0:
286,161,113431,1,0,0:0:0:0:
121,53,113604,5,0,0:0:0:0:
116,94,113690,2,0,L|114:171,1,70
332,256,113862,1,0,0:0:0:0:
333,213,113949,1,0,0:0:0:0:
324,172,114035,1,0,0:0:0:0:
313,131,114121,2,0,P|293:78|279:60,2,70
303,281,114380,2,0,L|281:351,1,70
69,198,114552,5,0,0:0:0:0:
109,188,114638,1,0,0:0:0:0:
150,186,114724,1,0,0:0:0:0:
192,187,114811,2,0,L|342:221,1,140
328,217,115069,1,0,0:0:0:0:
335,60,115156,5,0,0:0:0:0:
350,99,115242,1,0,0:0:0:0:
362,139,115328,1,0,0:0:0:0:
372,179,115414,1,0,0:0:0:0:
373,220,115500,2,0,B|375:261|375:261|361:317|362:314,2,70
235,230,115759,6,0,B|197:188|167:152|167:152|152:86,1,140
157,140,116018,1,0,0:0:0:0:
141,179,116104,1,0,0:0:0:0:
120,215,116190,1,0,0:0:0:0:
99,279,116276,6,0,L|56:195,1,70
201,221,116449,6,0,L|190:127,1,70
310,198,116621,6,0,L|331:106,1,70
325,137,116880,1,0,0:0:0:0:
325,126,116966,1,0,0:0:0:0:
327,115,117052,1,0,0:0:0:0:
334,107,117138,1,0,0:0:0:0:
343,102,117224,1,0,0:0:0:0:
353,100,117311,1,0,0:0:0:0:
362,104,117397,1,0,0:0:0:0:
368,111,117483,1,0,0:0:0:0:
372,120,117569,1,0,0:0:0:0:
374,130,117656,1,0,0:0:0:0:
371,147,117742,1,0,0:0:0:0:
364,166,117828,1,0,0:0:0:0:
353,188,117914,1,0,0:0:0:0:
335,213,118000,1,0,0:0:0:0:
311,239,118087,1,0,0:0:0:0:
284,261,118173,1,0,0:0:0:0:
248,274,118259,1,0,0:0:0:0:
209,277,118345,1,0,0:0:0:0:
167,275,118431,1,0,0:0:0:0:
124,258,118518,1,0,0:0:0:0:
90,226,118604,1,0,0:0:0:0:
66,182,118690,1,0,0:0:0:0:
53,127,118776,1,0,0:0:0:0:
60,71,118862,1,0,0:0:0:0:
103,35,118949,1,0,0:0:0:0:
158,32,119035,1,0,0:0:0:0:
213,38,119121,1,0,0:0:0:0:
255,62,119207,1,0,0:0:0:0:
273,104,119293,1,0,0:0:0:0:
278,149,119380,1,0,0:0:0:0:
276,187,119466,1,0,0:0:0:0:
264,223,119552,1,0,0:0:0:0:
213,257,119638,6,0,L|227:295,1,35
155,270,119724,2,0,L|159:306,1,35
97,262,119811,2,0,L|82:305,1,35
48,229,119897,2,0,L|10:253,1,35
32,166,119983,2,0,L|-6:165,1,35
55,104,120069,2,0,L|10:89,1,35
97,53,120156,2,0,L|68:31,1,35
154,24,120242,2,0,L|159:84,1,35
224,31,120328,2,0,L|206:73,1,35
283,57,120414,2,0,L|257:88,1,35
340,82,120500,2,0,L|361:53,1,35
387,129,120587,2,0,L|361:157,1,35
441,169,120673,2,0,L|481:171,1,35
426,224,120759,2,0,L|386:222,1,35
419,291,120845,2,0,L|465:308,1,35
378,335,120931,2,0,L|309:364,1,70
42,142,122052,5,0,0:0:0:0:
47,225,122138,1,0,0:0:0:0:
130,214,122224,1,0,0:0:0:0:
117,297,122311,1,0,0:0:0:0:
198,277,122397,2,0,B|123:280|123:280|151:285|172:272|272:242|320:204,1,280
415,174,122914,6,0,L|462:235,1,70
356,119,123087,5,0,0:0:0:0:
321,117,123173,1,0,0:0:0:0:
244,119,123259,5,0,0:0:0:0:
209,117,123345,1,0,0:0:0:0:
132,114,123431,5,0,0:0:0:0:
97,112,123517,1,0,0:0:0:0:
43,113,123604,2,0,B|30:72|30:72|79:53,1,70
305,84,123776,6,0,B|367:52|367:52|377:129|325:135,1,140
313,269,123949,1,0,0:0:0:0:
313,269,124035,2,0,B|225:298|225:298|235:262|292:229,1,140
137,161,124207,2,0,P|114:157|137:159,1,70
112,159,124293,2,0,P|89:155|112:157,1,70
77,157,124380,2,0,P|54:153|77:155,1,70
32,157,124466,6,0,P|96:275|168:214,1,210
177,243,124638,2,0,L|253:208,1,70
222,265,124724,2,0,L|294:220,1,70
277,178,124811,2,0,B|348:153|348:153|416:214|406:242,1,140
440,244,124983,2,0,L|381:170,1,70
170,66,125156,2,0,P|85:135|214:148,1,280
198,174,125414,2,0,P|86:145|170:66,1,280
170,66,125673,2,0,P|85:135|214:148,1,280
206,166,125931,5,0,0:0:0:0:
247,159,126018,1,0,0:0:0:0:
282,180,126104,1,0,0:0:0:0:
302,216,126190,1,0,0:0:0:0:
290,256,126276,1,0,0:0:0:0:
253,276,126362,1,0,0:0:0:0:
211,281,126449,1,0,0:0:0:0:
169,279,126535,1,0,0:0:0:0:
130,260,126707,2,0,B|102:281|81:312|81:312|109:321|162:309,1,140
116,132,126880,2,0,B|81:137|48:154|48:154|68:176|121:190,1,140
213,50,127052,2,0,B|182:32|145:26|145:26|148:55|181:99,1,140
379,86,127224,6,0,P|434:155|434:217,1,140
381,336,127397,2,0,P|343:267|353:197,1,140
379,86,127569,6,0,P|434:155|279:84,1,560
327,187,128000,2,0,B|296:223|278:177|278:177|265:181|265:209|227:224|190:210|190:210|218:194|218:194|171:242|184:166|169:224|169:224|160:197|160:197|234:266|159:156|47:237|19:178,1,420
42,174,128431,2,0,P|48:249|108:278,2,140
245,67,129293,6,0,P|233:56|244:67,1,70
246,103,129380,6,0,P|234:92|245:103,1,70
246,134,129466,6,0,P|234:123|245:134,1,70
245,204,129552,2,0,L|245:353,1,140
336,342,129724,2,0,P|374:339|402:319,1,70
333,293,129811,2,0,P|364:315|398:317,1,70
358,262,129897,2,0,P|370:297|397:319,1,70
430,220,129983,6,0,P|452:190|374:189,1,157.500006008148
352,201,130156,2,0,L|298:206,1,52.5000020027161
230,211,130242,2,0,L|190:212,1,35
121,215,130328,2,0,L|90:217,1,26.2500010013581
26,220,130414,2,0,L|48:220,1,17.5
121,215,130500,2,0,L|186:210,1,52.5
189,211,130673,6,0,P|269:275|245:191,1,210.000008010865
237,157,130931,2,0,P|270:109|334:197,1,210.000008010865
317,293,131190,2,0,P|350:336|391:299,1,105.000004005432
426,188,131362,6,0,L|320:211,1,105.000004005432
398,149,131535,2,0,L|309:220,1,105.000004005432
283,79,131707,6,0,L|232:174,1,105.000004005432
235,75,131880,2,0,L|232:188,1,105.000004005432
107,144,132052,6,0,L|148:244,1,105.000004005432
73,178,132225,2,0,L|158:253,1,105.000004005432
208,331,132397,2,0,L|313:302,1,105.000004005432
268,277,132569,2,0,L|385:315,1,105.000004005432
363,342,132742,2,0,L|465:291,1,105.000004005432
412,277,132914,2,0,L|523:316,1,105.000004005432
503,286,133087,2,0,L|514:287,1,10.5
403,196,133431,6,0,B|449:176|473:136|451:97|456:48|456:48|443:59|410:86|375:107|371:56|337:47|294:75|292:50|256:6|256:6|243:30|221:63|198:114|227:152|245:167,1,560
88,120,133949,1,0,0:0:0:0:
68,161,134035,2,0,L|174:200,1,105
343,328,134207,1,0,0:0:0:0:
310,299,134293,1,0,0:0:0:0:
341,256,134380,1,0,0:0:0:0:
312,227,134466,1,0,0:0:0:0:
325,179,134552,1,0,0:0:0:0:
296,150,134638,1,0,0:0:0:0:
294,78,134725,1,0,0:0:0:0:
265,51,134811,6,0,P|194:37|119:72,1,140
161,157,134983,2,0,P|222:229|199:117,1,280
107,95,135242,6,0,L|63:239,1,140
72,328,135414,2,0,B|45:318|45:318|152:358,1,140
259,349,135587,2,0,L|259:268,1,70
318,349,135673,2,0,L|318:268,1,70
375,349,135759,2,0,L|375:268,1,70
434,349,135845,2,0,L|434:268,1,70
499,337,135931,2,0,P|560:288|424:184,1,280
448,172,136190,6,0,B|414:128|410:83|410:83|395:124|366:152|353:162|353:162|338:147|291:122|206:149|201:156|201:156|188:134|175:100|172:75|172:75|153:108|135:133|124:175,1,490
148,115,136535,2,0,B|110:193|106:261|158:338|202:354,1,210
155,314,136707,2,0,B|183:386|267:398|367:387|410:359,1,280
437,320,136966,1,0,0:0:0:0:
455,282,137052,1,0,0:0:0:0:
453,240,137138,1,0,0:0:0:0:
437,201,137224,1,0,0:0:0:0:
402,176,137311,1,0,0:0:0:0:
360,173,137397,1,0,0:0:0:0:
332,180,137483,1,0,0:0:0:0:
307,193,137569,1,0,0:0:0:0:
282,207,137656,1,0,0:0:0:0:
257,220,137742,6,0,L|137:303,1,140
140,179,137914,2,0,L|255:99,1,140
417,111,138087,2,0,L|301:190,1,140
29,154,138259,6,0,P|59:63|118:21,3,140
166,150,138604,2,0,B|146:241|112:315|112:315|233:298|233:298|263:337|263:337|319:342|372:313,1,420
418,216,138949,6,0,B|459:184|459:184|459:146|459:146|435:122|435:122|388:122|388:122|363:152|363:152|365:199|365:199|418:215|418:215|460:146|460:146|363:151|363:151|365:198|365:198|409:215|409:215|408:215,1,560
294,168,139380,1,0,0:0:0:0:
288,168,139466,1,0,0:0:0:0:
282,166,139552,2,0,L|130:164,1,140
95,145,139724,5,0,0:0:0:0:
63,98,139811,1,0,0:0:0:0:
77,43,139897,1,0,0:0:0:0:
144,24,139983,1,0,0:0:0:0:
227,20,140069,1,0,0:0:0:0:
295,38,140156,1,0,0:0:0:0:
347,85,140241,5,0,0:0:0:0:
361,124,140327,1,0,0:0:0:0:
361,124,140328,2,0,P|422:166|434:233,1,140
410,334,140500,2,0,B|347:274|331:170|331:170|297:172|252:108,1,280
156,93,140759,6,0,P|75:88|32:47,1,140
158,151,140931,2,0,L|85:166,1,70
57,338,141190,6,0,P|167:321|121:189,1,280
104,272,141535,6,0,P|214:255|168:123,1,280
284,62,144121,5,0,0:0:0:0:
356,105,144207,1,0,0:0:0:0:
294,151,144293,1,0,0:0:0:0:
328,219,144380,1,0,0:0:0:0:
342,280,144466,2,0,B|314:338|314:338|252:291|252:291|220:317|220:317|188:284|184:238|280:233|198:188|198:188|161:126|161:126|159:178,1,420.000016021729
288,60,144983,2,0,L|190:144,1,105.000004005432
155,173,145156,6,0,B|112:118|112:118|64:113,1,105.000004005432
175,307,145328,6,0,B|140:303|140:303|97:248,1,105.000004005432
351,257,145500,6,0,B|308:202|308:202|260:197,1,105.000004005432
368,372,145673,6,0,B|333:368|333:368|290:313,1,105.000004005432
188,143,145845,2,0,B|140:107|147:108|147:108|97:153,1,105.000004005432
105,246,146018,6,0,B|115:308|150:355|150:355|196:323|199:264,1,210.000008010865
280,228,146276,1,0,0:0:0:0:
305,291,146362,1,0,0:0:0:0:
280,228,146449,1,0,0:0:0:0:
305,291,146535,6,0,B|351:342|379:351|379:351|374:317|371:287,1,157.500006008148
382,262,146707,2,0,B|452:212|452:212|434:228,1,105.000004005432
402,162,146880,2,0,B|417:150|417:150|347:200,1,105.000004005432
224,228,147052,6,0,B|179:192|132:163|132:163|114:219|122:252,1,157.500006008148
126,241,147224,6,0,P|68:171|144:-44,1,315.000012016297
141,96,147569,2,0,P|132:205|119:242,1,105.000004005432
96,313,147742,2,0,P|71:235|79:175,1,105.000004005432
159,239,147914,1,0,0:0:0:0:
173,210,148000,1,0,0:0:0:0:
190,183,148087,1,0,0:0:0:0:
214,163,148173,1,0,0:0:0:0:
243,152,148259,1,0,0:0:0:0:
274,155,148345,1,0,0:0:0:0:
290,181,148431,1,0,0:0:0:0:
272,219,148518,1,0,0:0:0:0:
222,236,148604,1,0,0:0:0:0:
130,253,148690,1,0,0:0:0:0:
40,235,148776,6,0,P|34:166|39:121,1,105.000004005432
106,213,148949,2,0,P|116:137|146:80,1,105.000004005432
168,205,149121,2,0,P|200:146|252:124,1,105.000004005432
264,222,149293,6,0,B|317:291|317:291|297:264,3,105.000004005432
323,302,149638,2,0,P|381:351|363:213,1,315.000012016297
294,202,149983,6,0,B|285:147|265:120|240:107|240:107|194:138|171:202|171:202|210:200|210:200|179:141|138:97|138:97|111:117|84:142|64:220,1,525.000020027161
55,242,150500,6,0,P|85:286|128:324,1,105.000004005432
237,335,150673,5,0,0:0:0:0:
284,324,150759,1,0,0:0:0:0:
287,271,150845,5,0,0:0:0:0:
325,261,150931,1,0,0:0:0:0:
342,212,151018,5,0,0:0:0:0:
380,197,151104,1,0,0:0:0:0:
367,146,151190,5,0,0:0:0:0:
402,120,151276,1,0,0:0:0:0:
388,63,151362,6,0,P|323:46|288:60,1,105.000004005432
273,109,151535,2,0,P|215:84|185:43,2,105.000004005432
325,144,151793,6,0,L|381:119,1,52.5000020027161
336,206,151880,2,0,L|390:222,1,52.5000020027161
312,262,151966,2,0,L|343:308,1,52.5000020027161
251,271,152052,6,0,P|202:282|159:283,1,70
115,278,152224,2,0,L|94:281,1,17.5
168,271,152311,2,0,L|145:275,1,17.5
224,267,152397,2,0,L|201:270,1,17.5
281,262,152483,2,0,L|249:267,1,17.5
341,256,152569,2,0,L|406:245,1,52.5
428,245,152742,6,0,B|468:305|457:331|417:346|377:300|415:251|446:209|452:178|451:140|430:87|430:87|394:129|259:142,1,490.000004673004
205,238,153259,1,0,0:0:0:0:
106,111,153431,6,0,B|174:173|152:198|104:234|72:192|137:167|177:124|176:89|162:71|153:116,1,183.750001752377
155,127,153647,2,0,B|95:75|45:60|45:60|46:128|86:186,1,245.000002336502
97,200,153906,2,0,B|21:225|-16:261|-16:261|43:294|113:289,1,245.000002336502
241,264,154207,2,0,B|301:316|351:331|351:331|350:263|310:205,1,245.000002336502
346,136,154466,2,0,B|419:104|454:66|454:66|392:37|323:48,1,245.000002336502
292,146,154724,2,0,B|232:94|182:79|182:79|183:147|223:205,1,245.000002336502
235,265,154983,2,0,B|175:213|125:198|125:198|126:266|166:324,1,245.000002336502
204,342,155242,6,0,B|292:275|317:186|271:105|271:106|272:109|272:109|334:118,1,306.250002920628
330,128,155500,6,0,B|274:156|274:156|347:118|347:118|335:171|335:171|292:100|292:100|348:118|348:118|274:155|274:155|292:101|292:101|335:172,1,551.25000525713
323,218,156018,1,0,0:0:0:0:
290,254,156104,1,0,0:0:0:0:
229,264,156190,1,0,0:0:0:0:
196,300,156276,1,0,0:0:0:0:
159,348,156362,1,0,0:0:0:0:
97,344,156449,1,0,0:0:0:0:
74,287,156535,1,0,0:0:0:0:
60,227,156621,1,0,0:0:0:0:
47,167,156707,1,0,0:0:0:0:
40,106,156793,1,0,0:0:0:0:
35,32,156880,6,0,P|112:37|162:55,1,122.500001168251
88,95,157052,2,0,P|174:93|205:28,2,122.500001168251
93,200,157311,6,0,L|20:186,1,61.2500005841255
125,235,157397,2,0,L|53:248,1,61.2500005841255
170,267,157483,2,0,B|114:279|114:279|303:233,1,245.000002336502
353,255,157742,6,0,L|418:242,1,61.2500005841255
377,251,157828,6,0,L|442:238,1,61.2500005841255
430,242,157914,2,0,P|441:164|415:106,3,122.500001168251
340,91,158259,6,0,B|272:155|272:155|181:180|181:180|241:78|241:78|377:67,1,428.750004088879
340,91,158604,6,0,B|272:155|272:155|181:180|181:180|241:78|241:78,1,306.250002920628
242,77,158862,2,0,L|201:150,1,61.2500005841255
183,182,158949,6,0,B|100:189|100:189|117:163|118:162|127:183|127:183|97:178|97:178|128:166|128:166|110:189|110:189|103:166|103:166|137:175|136:174|111:186|111:186|110:158|110:158|126:169|126:169|98:196|98:196|99:173|101:170|114:163|114:163|125:189|121:186|109:175|109:175|129:171|129:171|113:206|151:351|152:350|183:332|183:332|131:323|131:323|157:328|157:328|144:345|144:345|166:327|166:327|154:346|154:346|125:318|125:317|169:296|169:296|184:312|184:312|136:324|136:324|174:324|174:323|130:331|132:330|343:287,1,1163.75001109838
375,297,159811,6,0,L|507:286,1,122.500001168251
366,214,159983,6,0,L|498:203,1,122.500001168251
357,126,160156,6,0,L|489:115,1,122.500001168251
290,73,160328,6,0,P|206:50|151:64,3,122.500001168251
172,55,160673,2,0,B|167:180|167:180|170:116|170:116|161:298,1,367.500003504753
199,311,161018,6,0,B|317:369|317:369|294:284|294:284|386:296|386:296|309:126,1,490.000004673004
312,134,161449,1,0,0:0:0:0:
312,134,161535,2,0,L|345:205,1,61.2500005841255
255,81,161707,5,0,0:0:0:0:
218,79,161793,1,0,0:0:0:0:
180,76,161880,5,0,0:0:0:0:
143,74,161966,1,0,0:0:0:0:
106,77,162052,5,0,0:0:0:0:
69,75,162138,1,0,0:0:0:0:
32,75,162224,5,0,0:0:0:0:
0,73,162310,1,0,0:0:0:0:
32,75,162397,2,0,B|96:74|96:74|96:68|96:68|96:82|96:82|95:74|95:74|143:71,1,122.500001168251
151,43,162569,2,0,B|183:75|183:75|185:93|185:93|143:138,2,122.500001168251
182,82,162828,2,0,L|245:82,1,61.2500005841255
230,129,162914,2,0,L|300:129,1,61.2500005841255
257,178,163000,2,0,L|320:178,1,61.2500005841255
305,225,163086,2,0,L|375:225,1,61.2500005841255
407,106,163259,5,0,0:0:0:0:
177,238,163431,2,0,B|166:267|166:267|198:260,1,52.5
188,219,163604,2,0,B|162:274|162:274|225:255,1,105
242,253,163776,2,0,B|253:188|232:172|232:172|266:159|266:159|270:140|270:140|282:153|282:154|284:176|261:188|254:181|257:164|259:133|242:92|212:63,1,280
161,77,164466,5,0,0:0:0:0:
125,297,164638,1,0,0:0:0:0:
278,133,164811,1,0,0:0:0:0:
55,154,164983,1,0,0:0:0:0:
244,274,165156,1,0,0:0:0:0:
120,87,165328,1,0,0:0:0:0:
120,87,165414,1,0,0:0:0:0:
333,158,165587,1,0,0:0:0:0:
333,158,165673,1,0,0:0:0:0:
87,232,165845,1,0,0:0:0:0:
87,232,165931,1,0,0:0:0:0:
316,138,166190,5,0,0:0:0:0:
317,157,166276,1,0,0:0:0:0:
337,139,166362,1,0,0:0:0:0:
299,141,166449,1,0,0:0:0:0:
316,157,166535,1,0,0:0:0:0:
256,192,169293,12,0,171535,0:0:0:0:
276,90,171880,5,0,0:0:0:0:
276,90,172052,5,0,0:0:0:0:
276,90,172224,5,0,0:0:0:0:
