osu file format v14

[General]
AudioFilename: 1.0x.mp3
AudioLeadIn: 0
PreviewTime: 122600
Countdown: 0
SampleSet: None
StackLeniency: 0.7
Mode: 3
LetterboxInBreaks: 0
SpecialStyle: 0
WidescreenStoryboard: 0

[Editor]
Bookmarks: 23289,45358,56393,67427,78462,97772,100531,111565,117082,119841,144668
DistanceSpacing: 2
BeatDivisor: 4
GridSize: 4
TimelineZoom: 2.750006

[Metadata]
Title:shadow of cats
TitleUnicode:shadow of cats
Artist:Camellia
ArtistUnicode:Camellia
Creator:riunosk
Version:Silhouette
Source:
Tags:
BeatmapID:1278407
BeatmapSetID:539825

[Difficulty]
HPDrainRate:9
CircleSize:4
OverallDifficulty:9
ApproachRate:5
SliderMultiplier:1.4
SliderTickRate:1

[Events]
//Background and Video events
0,0,"shadow of cats.jpg",0,0
//Break Periods
//Storyboard Layer 0 (Background)
//Storyboard Layer 1 (Fail)
//Storyboard Layer 2 (Pass)
//Storyboard Layer 3 (Foreground)
//Storyboard Sound Samples

[TimingPoints]
2600,344.827586206897,4,2,0,30,1,0
122600,-100,4,2,0,60,0,1
166737,-100,4,2,0,30,0,0

[HitObjects]
448,192,1910,5,0,0:0:0:0:
192,192,2600,1,0,0:0:0:0:
320,192,3117,1,0,0:0:0:0:
448,192,3289,1,0,0:0:0:0:
192,192,3979,1,0,0:0:0:0:
448,192,4668,1,0,0:0:0:0:
320,192,4668,1,0,0:0:0:0:
64,192,5358,1,0,0:0:0:0:
192,192,5875,1,0,0:0:0:0:
448,192,6048,1,0,0:0:0:0:
64,192,6048,1,0,0:0:0:0:
320,192,6220,1,0,0:0:0:0:
64,192,6737,1,0,0:0:0:0:
192,192,6737,1,0,0:0:0:0:
320,192,7427,1,0,0:0:0:0:
64,192,7427,1,0,0:0:0:0:
448,192,7427,1,0,0:0:0:0:
192,192,8117,1,0,0:0:0:0:
320,192,8117,1,0,0:0:0:0:
64,192,8634,1,0,0:0:0:0:
320,192,8634,1,0,0:0:0:0:
320,192,8806,1,0,0:0:0:0:
192,192,8806,1,0,0:0:0:0:
448,192,8806,1,0,0:0:0:0:
192,192,9496,1,0,0:0:0:0:
448,192,9496,1,0,0:0:0:0:
64,192,10186,1,0,0:0:0:0:
192,192,10186,1,0,0:0:0:0:
320,192,10186,1,0,0:0:0:0:
64,192,10875,1,0,0:0:0:0:
448,192,10875,1,0,0:0:0:0:
64,192,11393,1,0,0:0:0:0:
192,192,11393,1,0,0:0:0:0:
448,192,11565,1,0,0:0:0:0:
320,192,11565,1,0,0:0:0:0:
192,192,11565,1,0,0:0:0:0:
320,192,11737,1,0,0:0:0:0:
64,192,11737,1,0,0:0:0:0:
64,192,12255,1,0,0:0:0:0:
192,192,12255,1,0,0:0:0:0:
320,192,12341,1,0,0:0:0:0:
448,192,12427,1,0,0:0:0:0:
192,192,12513,1,0,0:0:0:0:
448,192,12686,1,0,0:0:0:0:
320,192,12772,1,0,0:0:0:0:
192,192,12858,1,0,0:0:0:0:
448,192,12944,1,0,0:0:0:0:
320,192,12944,1,0,0:0:0:0:
64,192,12944,1,0,0:0:0:0:
192,192,13031,1,0,0:0:0:0:
320,192,13117,1,0,0:0:0:0:
448,192,13203,1,0,0:0:0:0:
192,192,13375,1,0,0:0:0:0:
320,192,13462,1,0,0:0:0:0:
448,192,13548,1,0,0:0:0:0:
192,192,13634,1,0,0:0:0:0:
64,192,13634,1,0,0:0:0:0:
320,192,13720,1,0,0:0:0:0:
192,192,13806,1,0,0:0:0:0:
64,192,13893,1,0,0:0:0:0:
320,192,14065,1,0,0:0:0:0:
448,192,14151,1,0,0:0:0:0:
192,192,14151,1,0,0:0:0:0:
64,192,14237,1,0,0:0:0:0:
192,192,14324,1,0,0:0:0:0:
320,192,14324,1,0,0:0:0:0:
448,192,14324,1,0,0:0:0:0:
64,192,14410,1,0,0:0:0:0:
320,192,14496,1,0,0:0:0:0:
192,192,14582,1,0,0:0:0:0:
64,192,14841,1,0,0:0:0:0:
192,192,14927,1,0,0:0:0:0:
320,192,15013,1,0,0:0:0:0:
448,192,15013,1,0,0:0:0:0:
64,192,15100,1,0,0:0:0:0:
192,192,15186,1,0,0:0:0:0:
320,192,15272,1,0,0:0:0:0:
192,192,15444,1,0,0:0:0:0:
448,192,15531,1,0,0:0:0:0:
320,192,15617,1,0,0:0:0:0:
192,192,15703,1,0,0:0:0:0:
64,192,15703,1,0,0:0:0:0:
448,192,15703,1,0,0:0:0:0:
320,192,15789,1,0,0:0:0:0:
192,192,15875,1,0,0:0:0:0:
320,192,15962,1,0,0:0:0:0:
64,192,16134,1,0,0:0:0:0:
192,192,16220,1,0,0:0:0:0:
448,192,16306,1,0,0:0:0:0:
320,192,16393,1,0,0:0:0:0:
192,192,16393,1,0,0:0:0:0:
64,192,16479,1,0,0:0:0:0:
320,192,16565,1,0,0:0:0:0:
448,192,16651,1,0,0:0:0:0:
320,192,16824,1,0,0:0:0:0:
448,192,16910,1,0,0:0:0:0:
192,192,16910,1,0,0:0:0:0:
64,192,16996,1,0,0:0:0:0:
192,192,17082,1,0,0:0:0:0:
320,192,17082,1,0,0:0:0:0:
448,192,17082,1,0,0:0:0:0:
64,192,17168,1,0,0:0:0:0:
320,192,17255,1,0,0:0:0:0:
448,192,17255,1,0,0:0:0:0:
192,192,17341,1,0,0:0:0:0:
64,192,17427,1,0,0:0:0:0:
448,192,17600,1,0,0:0:0:0:
320,192,17686,1,0,0:0:0:0:
64,192,17772,1,0,0:0:0:0:
192,192,17772,1,0,0:0:0:0:
320,192,17858,1,0,0:0:0:0:
192,192,17944,1,0,0:0:0:0:
64,192,18031,1,0,0:0:0:0:
192,192,18203,1,0,0:0:0:0:
320,192,18289,1,0,0:0:0:0:
192,192,18375,1,0,0:0:0:0:
448,192,18462,1,0,0:0:0:0:
320,192,18462,1,0,0:0:0:0:
64,192,18462,1,0,0:0:0:0:
192,192,18548,1,0,0:0:0:0:
320,192,18634,1,0,0:0:0:0:
448,192,18720,1,0,0:0:0:0:
64,192,18893,1,0,0:0:0:0:
192,192,18979,1,0,0:0:0:0:
320,192,19065,1,0,0:0:0:0:
448,192,19151,1,0,0:0:0:0:
64,192,19151,1,0,0:0:0:0:
192,192,19237,1,0,0:0:0:0:
320,192,19324,1,0,0:0:0:0:
448,192,19410,1,0,0:0:0:0:
320,192,19582,1,0,0:0:0:0:
192,192,19668,1,0,0:0:0:0:
64,192,19668,1,0,0:0:0:0:
448,192,19755,1,0,0:0:0:0:
192,192,19841,1,0,0:0:0:0:
320,192,19841,1,0,0:0:0:0:
64,192,19841,1,0,0:0:0:0:
448,192,19927,1,0,0:0:0:0:
192,192,20013,1,0,0:0:0:0:
64,192,20100,1,0,0:0:0:0:
192,192,20272,1,0,0:0:0:0:
320,192,20358,1,0,0:0:0:0:
448,192,20444,1,0,0:0:0:0:
64,192,20531,1,0,0:0:0:0:
192,192,20531,1,0,0:0:0:0:
192,192,20617,1,0,0:0:0:0:
64,192,20703,1,0,0:0:0:0:
64,192,20789,1,0,0:0:0:0:
320,192,20962,1,0,0:0:0:0:
320,192,21048,1,0,0:0:0:0:
448,192,21134,1,0,0:0:0:0:
448,192,21220,1,0,0:0:0:0:
320,192,21220,1,0,0:0:0:0:
64,192,21220,1,0,0:0:0:0:
192,192,21306,1,0,0:0:0:0:
64,192,21393,1,0,0:0:0:0:
320,192,21479,1,0,0:0:0:0:
192,192,21565,1,0,0:0:0:0:
320,192,21651,1,0,0:0:0:0:
448,192,21737,1,0,0:0:0:0:
320,192,21824,1,0,0:0:0:0:
192,192,21910,1,0,0:0:0:0:
64,192,21910,128,0,22168:0:0:0:0:
320,192,22025,1,0,0:0:0:0:
448,192,22168,128,0,22427:0:0:0:0:
192,192,22168,1,0,0:0:0:0:
320,192,22341,1,0,0:0:0:0:
192,192,22513,1,0,0:0:0:0:
320,192,22600,1,0,0:0:0:0:
448,192,22772,1,0,0:0:0:0:
64,192,22944,128,0,23289:0:0:0:0:
192,192,22944,1,0,0:0:0:0:
320,192,23289,1,0,0:0:0:0:
448,192,23289,1,0,0:0:0:0:
192,192,23375,1,0,0:0:0:0:
64,192,23462,1,0,0:0:0:0:
320,192,23548,1,0,0:0:0:0:
448,192,23634,1,0,0:0:0:0:
64,192,23634,1,0,0:0:0:0:
192,192,23634,1,0,0:0:0:0:
320,192,23720,1,0,0:0:0:0:
192,192,23806,1,0,0:0:0:0:
64,192,23893,1,0,0:0:0:0:
448,192,23979,1,0,0:0:0:0:
320,192,23979,1,0,0:0:0:0:
192,192,24065,1,0,0:0:0:0:
320,192,24151,1,0,0:0:0:0:
64,192,24237,1,0,0:0:0:0:
192,192,24324,1,0,0:0:0:0:
320,192,24324,1,0,0:0:0:0:
448,192,24324,1,0,0:0:0:0:
64,192,24410,1,0,0:0:0:0:
320,192,24496,1,0,0:0:0:0:
192,192,24582,1,0,0:0:0:0:
320,192,24668,1,0,0:0:0:0:
448,192,24668,1,0,0:0:0:0:
64,192,24755,1,0,0:0:0:0:
192,192,24841,1,0,0:0:0:0:
320,192,24927,1,0,0:0:0:0:
448,192,25013,1,0,0:0:0:0:
192,192,25013,1,0,0:0:0:0:
64,192,25013,1,0,0:0:0:0:
320,192,25100,1,0,0:0:0:0:
448,192,25186,1,0,0:0:0:0:
192,192,25272,1,0,0:0:0:0:
64,192,25358,1,0,0:0:0:0:
320,192,25358,1,0,0:0:0:0:
448,192,25444,1,0,0:0:0:0:
64,192,25531,1,0,0:0:0:0:
192,192,25617,1,0,0:0:0:0:
320,192,25703,1,0,0:0:0:0:
448,192,25703,1,0,0:0:0:0:
64,192,25703,1,0,0:0:0:0:
192,192,25789,1,0,0:0:0:0:
320,192,25875,1,0,0:0:0:0:
64,192,25962,1,0,0:0:0:0:
192,192,26048,1,0,0:0:0:0:
448,192,26048,1,0,0:0:0:0:
320,192,26134,1,0,0:0:0:0:
192,192,26220,1,0,0:0:0:0:
64,192,26306,1,0,0:0:0:0:
192,192,26393,1,0,0:0:0:0:
320,192,26393,1,0,0:0:0:0:
448,192,26393,1,0,0:0:0:0:
64,192,26479,1,0,0:0:0:0:
320,192,26565,1,0,0:0:0:0:
192,192,26651,1,0,0:0:0:0:
448,192,26737,1,0,0:0:0:0:
64,192,26737,1,0,0:0:0:0:
320,192,26824,1,0,0:0:0:0:
192,192,26910,1,0,0:0:0:0:
64,192,26996,1,0,0:0:0:0:
448,192,27082,1,0,0:0:0:0:
320,192,27082,1,0,0:0:0:0:
192,192,27082,1,0,0:0:0:0:
64,192,27168,1,0,0:0:0:0:
320,192,27255,1,0,0:0:0:0:
448,192,27341,1,0,0:0:0:0:
192,192,27427,1,0,0:0:0:0:
64,192,27427,1,0,0:0:0:0:
320,192,27513,1,0,0:0:0:0:
448,192,27600,1,0,0:0:0:0:
64,192,27686,1,0,0:0:0:0:
192,192,27772,1,0,0:0:0:0:
320,192,27772,1,0,0:0:0:0:
448,192,27772,1,0,0:0:0:0:
64,192,27858,1,0,0:0:0:0:
320,192,27944,1,0,0:0:0:0:
192,192,28031,1,0,0:0:0:0:
64,192,28117,1,0,0:0:0:0:
448,192,28117,1,0,0:0:0:0:
320,192,28203,1,0,0:0:0:0:
192,192,28289,1,0,0:0:0:0:
320,192,28375,1,0,0:0:0:0:
448,192,28462,1,0,0:0:0:0:
192,192,28462,1,0,0:0:0:0:
64,192,28462,1,0,0:0:0:0:
320,192,28548,1,0,0:0:0:0:
448,192,28634,128,0,28720:0:0:0:0:
320,192,28720,128,0,28806:0:0:0:0:
64,192,28806,1,0,0:0:0:0:
192,192,28806,1,0,0:0:0:0:
448,192,28893,1,0,0:0:0:0:
320,192,28979,1,0,0:0:0:0:
64,192,29065,1,0,0:0:0:0:
192,192,29151,1,0,0:0:0:0:
320,192,29151,1,0,0:0:0:0:
448,192,29151,1,0,0:0:0:0:
64,192,29237,1,0,0:0:0:0:
192,192,29324,1,0,0:0:0:0:
320,192,29410,1,0,0:0:0:0:
448,192,29496,1,0,0:0:0:0:
192,192,29496,1,0,0:0:0:0:
64,192,29582,1,0,0:0:0:0:
320,192,29668,1,0,0:0:0:0:
448,192,29755,1,0,0:0:0:0:
320,192,29841,1,0,0:0:0:0:
192,192,29841,1,0,0:0:0:0:
64,192,29841,1,0,0:0:0:0:
448,192,29927,1,0,0:0:0:0:
320,192,30013,1,0,0:0:0:0:
64,192,30100,1,0,0:0:0:0:
192,192,30186,1,0,0:0:0:0:
320,192,30186,1,0,0:0:0:0:
448,192,30272,1,0,0:0:0:0:
64,192,30358,1,0,0:0:0:0:
320,192,30444,1,0,0:0:0:0:
192,192,30531,1,0,0:0:0:0:
448,192,30531,1,0,0:0:0:0:
64,192,30531,1,0,0:0:0:0:
320,192,30617,1,0,0:0:0:0:
192,192,30703,1,0,0:0:0:0:
64,192,30789,1,0,0:0:0:0:
448,192,30875,1,0,0:0:0:0:
320,192,30875,1,0,0:0:0:0:
192,192,30962,1,0,0:0:0:0:
320,192,31048,1,0,0:0:0:0:
64,192,31134,1,0,0:0:0:0:
192,192,31220,1,0,0:0:0:0:
448,192,31220,1,0,0:0:0:0:
320,192,31220,1,0,0:0:0:0:
64,192,31306,1,0,0:0:0:0:
448,192,31393,1,0,0:0:0:0:
320,192,31479,1,0,0:0:0:0:
192,192,31565,1,0,0:0:0:0:
64,192,31565,1,0,0:0:0:0:
320,192,31651,1,0,0:0:0:0:
448,192,31737,1,0,0:0:0:0:
64,192,31824,1,0,0:0:0:0:
192,192,31910,1,0,0:0:0:0:
320,192,31910,1,0,0:0:0:0:
448,192,31910,1,0,0:0:0:0:
64,192,31996,1,0,0:0:0:0:
192,192,32082,1,0,0:0:0:0:
320,192,32168,1,0,0:0:0:0:
448,192,32255,1,0,0:0:0:0:
64,192,32255,1,0,0:0:0:0:
192,192,32341,1,0,0:0:0:0:
320,192,32427,1,0,0:0:0:0:
448,192,32513,1,0,0:0:0:0:
64,192,32600,1,0,0:0:0:0:
192,192,32600,1,0,0:0:0:0:
320,192,32600,1,0,0:0:0:0:
448,192,32686,1,0,0:0:0:0:
64,192,32772,1,0,0:0:0:0:
192,192,32858,1,0,0:0:0:0:
320,192,32944,1,0,0:0:0:0:
448,192,32944,1,0,0:0:0:0:
192,192,33031,1,0,0:0:0:0:
320,192,33117,1,0,0:0:0:0:
64,192,33203,1,0,0:0:0:0:
192,192,33289,1,0,0:0:0:0:
320,192,33289,1,0,0:0:0:0:
448,192,33289,1,0,0:0:0:0:
64,192,33375,1,0,0:0:0:0:
448,192,33462,1,0,0:0:0:0:
320,192,33548,1,0,0:0:0:0:
64,192,33634,128,0,33720:0:0:0:0:
192,192,33634,1,0,0:0:0:0:
64,192,33806,128,0,33893:0:0:0:0:
448,192,33979,1,0,0:0:0:0:
320,192,33979,1,0,0:0:0:0:
192,192,33979,1,0,0:0:0:0:
64,192,34065,1,0,0:0:0:0:
192,192,34151,1,0,0:0:0:0:
320,192,34237,1,0,0:0:0:0:
448,192,34324,1,0,0:0:0:0:
192,192,34324,1,0,0:0:0:0:
64,192,34324,1,0,0:0:0:0:
320,192,34410,1,0,0:0:0:0:
64,192,34496,1,0,0:0:0:0:
192,192,34582,1,0,0:0:0:0:
320,192,34668,1,0,0:0:0:0:
448,192,34668,1,0,0:0:0:0:
64,192,34668,1,0,0:0:0:0:
192,192,34755,1,0,0:0:0:0:
448,192,34841,1,0,0:0:0:0:
64,192,34927,1,0,0:0:0:0:
192,192,35013,1,0,0:0:0:0:
320,192,35013,1,0,0:0:0:0:
448,192,35013,1,0,0:0:0:0:
64,192,35100,1,0,0:0:0:0:
320,192,35186,1,0,0:0:0:0:
192,192,35272,1,0,0:0:0:0:
320,192,35358,1,0,0:0:0:0:
448,192,35358,1,0,0:0:0:0:
64,192,35358,1,0,0:0:0:0:
192,192,35444,1,0,0:0:0:0:
448,192,35531,1,0,0:0:0:0:
320,192,35617,1,0,0:0:0:0:
64,192,35703,1,0,0:0:0:0:
192,192,35703,1,0,0:0:0:0:
448,192,35703,1,0,0:0:0:0:
320,192,35789,1,0,0:0:0:0:
64,192,35875,1,0,0:0:0:0:
192,192,35962,1,0,0:0:0:0:
320,192,36048,1,0,0:0:0:0:
448,192,36048,1,0,0:0:0:0:
64,192,36048,1,0,0:0:0:0:
192,192,36134,1,0,0:0:0:0:
320,192,36220,1,0,0:0:0:0:
448,192,36306,1,0,0:0:0:0:
64,192,36393,1,0,0:0:0:0:
192,192,36393,1,0,0:0:0:0:
320,192,36393,1,0,0:0:0:0:
448,192,36479,1,0,0:0:0:0:
64,192,36565,1,0,0:0:0:0:
192,192,36651,1,0,0:0:0:0:
320,192,36737,128,0,36824:0:0:0:0:
320,192,36910,128,0,36996:0:0:0:0:
64,192,37082,1,0,0:0:0:0:
192,192,37082,1,0,0:0:0:0:
448,192,37082,1,0,0:0:0:0:
320,192,37168,1,0,0:0:0:0:
64,192,37255,1,0,0:0:0:0:
192,192,37341,1,0,0:0:0:0:
320,192,37427,1,0,0:0:0:0:
448,192,37427,1,0,0:0:0:0:
64,192,37427,1,0,0:0:0:0:
192,192,37513,1,0,0:0:0:0:
448,192,37600,1,0,0:0:0:0:
64,192,37686,1,0,0:0:0:0:
192,192,37772,1,0,0:0:0:0:
320,192,37772,1,0,0:0:0:0:
448,192,37772,1,0,0:0:0:0:
64,192,37858,1,0,0:0:0:0:
320,192,37944,1,0,0:0:0:0:
192,192,38031,1,0,0:0:0:0:
320,192,38117,1,0,0:0:0:0:
448,192,38117,1,0,0:0:0:0:
64,192,38117,1,0,0:0:0:0:
192,192,38203,1,0,0:0:0:0:
448,192,38289,1,0,0:0:0:0:
64,192,38375,1,0,0:0:0:0:
192,192,38462,1,0,0:0:0:0:
320,192,38462,1,0,0:0:0:0:
448,192,38462,1,0,0:0:0:0:
64,192,38548,1,0,0:0:0:0:
192,192,38634,1,0,0:0:0:0:
320,192,38720,1,0,0:0:0:0:
448,192,38806,1,0,0:0:0:0:
192,192,38806,1,0,0:0:0:0:
64,192,38806,1,0,0:0:0:0:
320,192,38893,1,0,0:0:0:0:
64,192,38979,1,0,0:0:0:0:
192,192,39065,1,0,0:0:0:0:
320,192,39151,1,0,0:0:0:0:
448,192,39151,1,0,0:0:0:0:
64,192,39151,1,0,0:0:0:0:
192,192,39237,1,0,0:0:0:0:
448,192,39324,1,0,0:0:0:0:
320,192,39410,1,0,0:0:0:0:
192,192,39496,1,0,0:0:0:0:
64,192,39496,1,0,0:0:0:0:
192,192,39582,1,0,0:0:0:0:
320,192,39668,1,0,0:0:0:0:
320,192,39755,1,0,0:0:0:0:
192,192,39841,1,0,0:0:0:0:
448,192,39841,1,0,0:0:0:0:
64,192,39841,1,0,0:0:0:0:
64,192,39927,1,0,0:0:0:0:
192,192,40013,1,0,0:0:0:0:
320,192,40013,1,0,0:0:0:0:
448,192,40013,1,0,0:0:0:0:
320,192,40100,1,0,0:0:0:0:
64,192,40186,1,0,0:0:0:0:
192,192,40186,1,0,0:0:0:0:
448,192,40186,1,0,0:0:0:0:
448,192,40272,1,0,0:0:0:0:
320,192,40358,1,0,0:0:0:0:
192,192,40358,1,0,0:0:0:0:
64,192,40358,1,0,0:0:0:0:
192,192,40444,1,0,0:0:0:0:
448,192,40531,1,0,0:0:0:0:
320,192,40531,1,0,0:0:0:0:
64,192,40531,1,0,0:0:0:0:
64,192,40617,1,0,0:0:0:0:
448,192,40703,1,0,0:0:0:0:
320,192,40703,1,0,0:0:0:0:
192,192,40703,1,0,0:0:0:0:
448,192,40789,1,0,0:0:0:0:
320,192,40875,1,0,0:0:0:0:
192,192,40875,1,0,0:0:0:0:
64,192,40875,1,0,0:0:0:0:
192,192,41048,1,0,0:0:0:0:
320,192,41048,1,0,0:0:0:0:
448,192,41048,1,0,0:0:0:0:
64,192,41220,1,0,0:0:0:0:
320,192,41220,1,0,0:0:0:0:
448,192,41220,1,0,0:0:0:0:
64,192,41306,1,0,0:0:0:0:
192,192,41393,1,0,0:0:0:0:
320,192,41393,1,0,0:0:0:0:
448,192,41393,1,0,0:0:0:0:
320,192,41479,1,0,0:0:0:0:
192,192,41565,1,0,0:0:0:0:
448,192,41565,1,0,0:0:0:0:
64,192,41565,1,0,0:0:0:0:
192,192,41651,1,0,0:0:0:0:
64,192,41737,1,0,0:0:0:0:
320,192,41737,1,0,0:0:0:0:
448,192,41737,1,0,0:0:0:0:
320,192,41824,1,0,0:0:0:0:
448,192,41910,1,0,0:0:0:0:
192,192,41910,1,0,0:0:0:0:
64,192,41910,1,0,0:0:0:0:
64,192,41996,1,0,0:0:0:0:
192,192,42082,1,0,0:0:0:0:
320,192,42082,1,0,0:0:0:0:
448,192,42082,1,0,0:0:0:0:
448,192,42168,1,0,0:0:0:0:
64,192,42255,1,0,0:0:0:0:
192,192,42255,1,0,0:0:0:0:
320,192,42255,1,0,0:0:0:0:
192,192,42427,1,0,0:0:0:0:
320,192,42427,1,0,0:0:0:0:
448,192,42427,1,0,0:0:0:0:
64,192,42600,1,0,0:0:0:0:
192,192,42600,1,0,0:0:0:0:
192,192,42686,1,0,0:0:0:0:
448,192,42686,1,0,0:0:0:0:
64,192,42772,1,0,0:0:0:0:
320,192,42772,1,0,0:0:0:0:
320,192,42858,1,0,0:0:0:0:
448,192,42858,1,0,0:0:0:0:
64,192,42944,1,0,0:0:0:0:
192,192,42944,1,0,0:0:0:0:
448,192,43031,1,0,0:0:0:0:
192,192,43031,1,0,0:0:0:0:
64,192,43117,1,0,0:0:0:0:
448,192,43117,1,0,0:0:0:0:
192,192,43203,1,0,0:0:0:0:
64,192,43203,1,0,0:0:0:0:
192,192,43289,1,0,0:0:0:0:
320,192,43289,1,0,0:0:0:0:
320,192,43375,1,0,0:0:0:0:
448,192,43375,1,0,0:0:0:0:
64,192,43462,1,0,0:0:0:0:
448,192,43462,1,0,0:0:0:0:
64,192,43548,1,0,0:0:0:0:
192,192,43548,1,0,0:0:0:0:
448,192,43634,1,0,0:0:0:0:
320,192,43634,1,0,0:0:0:0:
64,192,43720,1,0,0:0:0:0:
320,192,43720,1,0,0:0:0:0:
192,192,43806,1,0,0:0:0:0:
448,192,43806,1,0,0:0:0:0:
320,192,43893,1,0,0:0:0:0:
448,192,43893,1,0,0:0:0:0:
64,192,43979,1,0,0:0:0:0:
192,192,43979,1,0,0:0:0:0:
320,192,44022,1,0,0:0:0:0:
448,192,44065,1,0,0:0:0:0:
64,192,44065,1,0,0:0:0:0:
192,192,44108,1,0,0:0:0:0:
320,192,44151,1,0,0:0:0:0:
448,192,44151,1,0,0:0:0:0:
64,192,44194,1,0,0:0:0:0:
192,192,44237,1,0,0:0:0:0:
320,192,44237,1,0,0:0:0:0:
448,192,44281,1,0,0:0:0:0:
64,192,44324,1,0,0:0:0:0:
192,192,44324,1,0,0:0:0:0:
320,192,44367,1,0,0:0:0:0:
448,192,44410,1,0,0:0:0:0:
64,192,44410,1,0,0:0:0:0:
192,192,44453,1,0,0:0:0:0:
320,192,44496,1,0,0:0:0:0:
448,192,44496,1,0,0:0:0:0:
64,192,44539,1,0,0:0:0:0:
192,192,44582,1,0,0:0:0:0:
320,192,44582,1,0,0:0:0:0:
448,192,44625,1,0,0:0:0:0:
64,192,44668,1,0,0:0:0:0:
192,192,44668,1,0,0:0:0:0:
320,192,44712,1,0,0:0:0:0:
448,192,44755,1,0,0:0:0:0:
64,192,44755,1,0,0:0:0:0:
192,192,44798,1,0,0:0:0:0:
320,192,44841,1,0,0:0:0:0:
448,192,44841,1,0,0:0:0:0:
64,192,44884,1,0,0:0:0:0:
192,192,44927,1,0,0:0:0:0:
320,192,44927,1,0,0:0:0:0:
448,192,44970,1,0,0:0:0:0:
64,192,45013,1,0,0:0:0:0:
192,192,45013,1,0,0:0:0:0:
320,192,45056,1,0,0:0:0:0:
448,192,45100,1,0,0:0:0:0:
64,192,45100,1,0,0:0:0:0:
192,192,45143,1,0,0:0:0:0:
320,192,45186,1,0,0:0:0:0:
448,192,45186,1,0,0:0:0:0:
64,192,45229,1,0,0:0:0:0:
192,192,45272,1,0,0:0:0:0:
320,192,45272,1,0,0:0:0:0:
448,192,45315,1,0,0:0:0:0:
64,192,45358,1,0,0:0:0:0:
192,192,45358,1,0,0:0:0:0:
320,192,45617,1,0,0:0:0:0:
64,192,45789,1,0,0:0:0:0:
448,192,45875,1,0,0:0:0:0:
64,192,45962,1,0,0:0:0:0:
320,192,46048,1,0,0:0:0:0:
64,192,46134,1,0,0:0:0:0:
192,192,46306,1,0,0:0:0:0:
64,192,46479,1,0,0:0:0:0:
320,192,46565,1,0,0:0:0:0:
448,192,46651,1,0,0:0:0:0:
320,192,46737,1,0,0:0:0:0:
64,192,46824,1,0,0:0:0:0:
192,192,46996,1,0,0:0:0:0:
64,192,47168,1,0,0:0:0:0:
448,192,47255,1,0,0:0:0:0:
64,192,47341,1,0,0:0:0:0:
320,192,47427,1,0,0:0:0:0:
64,192,47513,1,0,0:0:0:0:
192,192,47686,1,0,0:0:0:0:
64,192,47858,1,0,0:0:0:0:
320,192,47944,1,0,0:0:0:0:
448,192,48031,1,0,0:0:0:0:
192,192,48117,1,0,0:0:0:0:
64,192,48203,1,0,0:0:0:0:
448,192,48375,1,0,0:0:0:0:
64,192,48548,1,0,0:0:0:0:
320,192,48634,1,0,0:0:0:0:
64,192,48720,1,0,0:0:0:0:
192,192,48806,1,0,0:0:0:0:
64,192,48893,1,0,0:0:0:0:
320,192,49065,1,0,0:0:0:0:
64,192,49237,1,0,0:0:0:0:
192,192,49324,1,0,0:0:0:0:
320,192,49410,1,0,0:0:0:0:
192,192,49496,1,0,0:0:0:0:
64,192,49582,1,0,0:0:0:0:
448,192,49755,1,0,0:0:0:0:
64,192,49927,1,0,0:0:0:0:
192,192,50013,1,0,0:0:0:0:
64,192,50100,1,0,0:0:0:0:
320,192,50186,1,0,0:0:0:0:
64,192,50272,1,0,0:0:0:0:
192,192,50444,1,0,0:0:0:0:
320,192,50531,1,0,0:0:0:0:
64,192,50617,1,0,0:0:0:0:
448,192,50703,1,0,0:0:0:0:
320,192,50789,1,0,0:0:0:0:
192,192,50875,1,0,0:0:0:0:
64,192,50962,1,0,0:0:0:0:
320,192,51134,1,0,0:0:0:0:
64,192,51306,1,0,0:0:0:0:
192,192,51393,1,0,0:0:0:0:
64,192,51479,1,0,0:0:0:0:
320,192,51565,1,0,0:0:0:0:
64,192,51651,1,0,0:0:0:0:
192,192,51824,1,0,0:0:0:0:
64,192,51996,1,0,0:0:0:0:
320,192,52082,1,0,0:0:0:0:
192,192,52168,1,0,0:0:0:0:
320,192,52255,1,0,0:0:0:0:
64,192,52341,1,0,0:0:0:0:
192,192,52513,1,0,0:0:0:0:
64,192,52686,1,0,0:0:0:0:
320,192,52772,1,0,0:0:0:0:
64,192,52858,1,0,0:0:0:0:
192,192,52944,1,0,0:0:0:0:
64,192,53031,1,0,0:0:0:0:
320,192,53203,1,0,0:0:0:0:
64,192,53375,1,0,0:0:0:0:
192,192,53462,1,0,0:0:0:0:
448,192,53548,1,0,0:0:0:0:
320,192,53634,1,0,0:0:0:0:
64,192,53720,1,0,0:0:0:0:
64,192,54065,1,0,0:0:0:0:
64,192,54237,1,0,0:0:0:0:
64,192,54410,1,0,0:0:0:0:
64,192,54755,1,0,0:0:0:0:
192,192,56048,128,0,56393:0:0:0:0:
320,192,56393,128,0,57082:0:0:0:0:
64,192,56393,1,0,0:0:0:0:
448,192,56393,1,0,0:0:0:0:
448,192,57082,128,0,57772:0:0:0:0:
320,192,57772,128,0,57944:0:0:0:0:
64,192,57944,128,0,58117:0:0:0:0:
192,192,58117,128,0,58462:0:0:0:0:
448,192,58117,1,0,0:0:0:0:
64,192,58462,128,0,58806:0:0:0:0:
320,192,58462,1,0,0:0:0:0:
448,192,58462,1,0,0:0:0:0:
448,192,58634,1,0,0:0:0:0:
192,192,58806,128,0,59151:0:0:0:0:
320,192,58979,1,0,0:0:0:0:
448,192,58979,1,0,0:0:0:0:
320,192,59151,128,0,59496:0:0:0:0:
64,192,59151,1,0,0:0:0:0:
448,192,59496,128,0,59668:0:0:0:0:
192,192,59755,128,0,59841:0:0:0:0:
320,192,59841,1,0,0:0:0:0:
448,192,59841,1,0,0:0:0:0:
64,192,59841,128,0,60358:0:0:0:0:
192,192,60013,1,0,0:0:0:0:
320,192,60013,1,0,0:0:0:0:
448,192,60358,128,0,61048:0:0:0:0:
320,192,60358,1,0,0:0:0:0:
64,192,61048,128,0,61134:0:0:0:0:
320,192,61393,128,0,61565:0:0:0:0:
192,192,61393,1,0,0:0:0:0:
64,192,61393,1,0,0:0:0:0:
448,192,61565,128,0,61910:0:0:0:0:
192,192,61910,128,0,62255:0:0:0:0:
320,192,61910,1,0,0:0:0:0:
64,192,61910,1,0,0:0:0:0:
320,192,62255,1,0,0:0:0:0:
64,192,62341,1,0,0:0:0:0:
448,192,62427,1,0,0:0:0:0:
192,192,62513,1,0,0:0:0:0:
320,192,62600,128,0,63117:0:0:0:0:
448,192,62600,1,0,0:0:0:0:
64,192,62600,1,0,0:0:0:0:
192,192,63117,128,0,63462:0:0:0:0:
64,192,63117,1,0,0:0:0:0:
448,192,63117,1,0,0:0:0:0:
64,192,63462,128,0,63634:0:0:0:0:
448,192,63634,128,0,63806:0:0:0:0:
192,192,63979,128,0,64324:0:0:0:0:
448,192,63979,1,0,0:0:0:0:
64,192,63979,1,0,0:0:0:0:
64,192,64151,1,0,0:0:0:0:
320,192,64324,128,0,64668:0:0:0:0:
448,192,64324,1,0,0:0:0:0:
64,192,64324,1,0,0:0:0:0:
448,192,64496,1,0,0:0:0:0:
64,192,64668,1,0,0:0:0:0:
192,192,64668,1,0,0:0:0:0:
320,192,64755,1,0,0:0:0:0:
192,192,64841,1,0,0:0:0:0:
320,192,64927,1,0,0:0:0:0:
448,192,65100,1,0,0:0:0:0:
192,192,65186,1,0,0:0:0:0:
64,192,65186,1,0,0:0:0:0:
320,192,65272,1,0,0:0:0:0:
448,192,65272,1,0,0:0:0:0:
192,192,65358,1,0,0:0:0:0:
64,192,65358,1,0,0:0:0:0:
448,192,65358,1,0,0:0:0:0:
320,192,65531,1,0,0:0:0:0:
192,192,65703,1,0,0:0:0:0:
64,192,65875,1,0,0:0:0:0:
320,192,65875,1,0,0:0:0:0:
192,192,66048,1,0,0:0:0:0:
448,192,66048,1,0,0:0:0:0:
320,192,66163,1,0,0:0:0:0:
64,192,66306,1,0,0:0:0:0:
192,192,66306,1,0,0:0:0:0:
448,192,66479,1,0,0:0:0:0:
320,192,66565,1,0,0:0:0:0:
192,192,66565,1,0,0:0:0:0:
64,192,66651,1,0,0:0:0:0:
192,192,66737,1,0,0:0:0:0:
320,192,66737,1,0,0:0:0:0:
448,192,66737,1,0,0:0:0:0:
64,192,66910,1,0,0:0:0:0:
192,192,67082,1,0,0:0:0:0:
320,192,67082,1,0,0:0:0:0:
448,192,67082,1,0,0:0:0:0:
64,192,67427,1,0,0:0:0:0:
192,192,67427,1,0,0:0:0:0:
448,192,67427,1,0,0:0:0:0:
320,192,67600,1,0,0:0:0:0:
448,192,67686,1,0,0:0:0:0:
320,192,67858,1,0,0:0:0:0:
64,192,67944,1,0,0:0:0:0:
192,192,67944,1,0,0:0:0:0:
448,192,68031,1,0,0:0:0:0:
320,192,68031,1,0,0:0:0:0:
192,192,68117,1,0,0:0:0:0:
448,192,68117,1,0,0:0:0:0:
64,192,68117,1,0,0:0:0:0:
320,192,68203,1,0,0:0:0:0:
192,192,68289,1,0,0:0:0:0:
64,192,68375,1,0,0:0:0:0:
448,192,68548,1,0,0:0:0:0:
320,192,68634,1,0,0:0:0:0:
192,192,68634,1,0,0:0:0:0:
448,192,68720,1,0,0:0:0:0:
192,192,68806,1,0,0:0:0:0:
64,192,68806,1,0,0:0:0:0:
320,192,68893,1,0,0:0:0:0:
64,192,68979,1,0,0:0:0:0:
192,192,69065,1,0,0:0:0:0:
320,192,69065,1,0,0:0:0:0:
192,192,69237,1,0,0:0:0:0:
448,192,69324,1,0,0:0:0:0:
64,192,69324,1,0,0:0:0:0:
320,192,69410,1,0,0:0:0:0:
192,192,69496,1,0,0:0:0:0:
448,192,69496,1,0,0:0:0:0:
64,192,69496,1,0,0:0:0:0:
320,192,69582,1,0,0:0:0:0:
192,192,69668,1,0,0:0:0:0:
64,192,69668,1,0,0:0:0:0:
448,192,69755,1,0,0:0:0:0:
320,192,69841,1,0,0:0:0:0:
192,192,70013,1,0,0:0:0:0:
64,192,70100,1,0,0:0:0:0:
192,192,70186,1,0,0:0:0:0:
320,192,70186,1,0,0:0:0:0:
448,192,70272,1,0,0:0:0:0:
64,192,70358,1,0,0:0:0:0:
192,192,70444,1,0,0:0:0:0:
448,192,70617,1,0,0:0:0:0:
192,192,70703,1,0,0:0:0:0:
320,192,70703,1,0,0:0:0:0:
448,192,70789,1,0,0:0:0:0:
64,192,70789,1,0,0:0:0:0:
192,192,70875,1,0,0:0:0:0:
320,192,70875,1,0,0:0:0:0:
64,192,70875,1,0,0:0:0:0:
448,192,70962,1,0,0:0:0:0:
320,192,71048,1,0,0:0:0:0:
192,192,71134,1,0,0:0:0:0:
320,192,71306,1,0,0:0:0:0:
64,192,71393,1,0,0:0:0:0:
192,192,71393,1,0,0:0:0:0:
448,192,71479,1,0,0:0:0:0:
192,192,71565,1,0,0:0:0:0:
320,192,71565,1,0,0:0:0:0:
64,192,71651,1,0,0:0:0:0:
192,192,71737,1,0,0:0:0:0:
448,192,71824,1,0,0:0:0:0:
320,192,71824,1,0,0:0:0:0:
64,192,71996,1,0,0:0:0:0:
320,192,72082,1,0,0:0:0:0:
192,192,72082,1,0,0:0:0:0:
448,192,72168,1,0,0:0:0:0:
64,192,72255,1,0,0:0:0:0:
192,192,72255,1,0,0:0:0:0:
320,192,72255,1,0,0:0:0:0:
64,192,72427,1,0,0:0:0:0:
448,192,72427,1,0,0:0:0:0:
448,192,72600,1,0,0:0:0:0:
192,192,72600,1,0,0:0:0:0:
320,192,72600,1,0,0:0:0:0:
64,192,72686,1,0,0:0:0:0:
192,192,72772,1,0,0:0:0:0:
320,192,72858,1,0,0:0:0:0:
64,192,72944,1,0,0:0:0:0:
192,192,72944,1,0,0:0:0:0:
448,192,73031,1,0,0:0:0:0:
64,192,73117,1,0,0:0:0:0:
192,192,73203,1,0,0:0:0:0:
320,192,73375,1,0,0:0:0:0:
64,192,73462,1,0,0:0:0:0:
448,192,73462,1,0,0:0:0:0:
192,192,73548,1,0,0:0:0:0:
320,192,73548,1,0,0:0:0:0:
64,192,73634,1,0,0:0:0:0:
320,192,73634,1,0,0:0:0:0:
448,192,73634,1,0,0:0:0:0:
192,192,73720,1,0,0:0:0:0:
320,192,73806,1,0,0:0:0:0:
448,192,73893,1,0,0:0:0:0:
64,192,74065,1,0,0:0:0:0:
448,192,74151,1,0,0:0:0:0:
192,192,74151,1,0,0:0:0:0:
320,192,74237,1,0,0:0:0:0:
64,192,74324,1,0,0:0:0:0:
192,192,74324,1,0,0:0:0:0:
320,192,74410,1,0,0:0:0:0:
448,192,74496,1,0,0:0:0:0:
64,192,74582,1,0,0:0:0:0:
192,192,74582,1,0,0:0:0:0:
448,192,74755,1,0,0:0:0:0:
192,192,74841,1,0,0:0:0:0:
320,192,74841,1,0,0:0:0:0:
64,192,74927,1,0,0:0:0:0:
320,192,75013,1,0,0:0:0:0:
448,192,75013,1,0,0:0:0:0:
192,192,75013,1,0,0:0:0:0:
448,192,75186,1,0,0:0:0:0:
64,192,75186,1,0,0:0:0:0:
320,192,75272,1,0,0:0:0:0:
192,192,75358,1,0,0:0:0:0:
320,192,75531,1,0,0:0:0:0:
448,192,75617,1,0,0:0:0:0:
64,192,75703,1,0,0:0:0:0:
192,192,75703,1,0,0:0:0:0:
320,192,75789,1,0,0:0:0:0:
192,192,75875,1,0,0:0:0:0:
64,192,75962,1,0,0:0:0:0:
192,192,76134,1,0,0:0:0:0:
448,192,76220,1,0,0:0:0:0:
320,192,76220,1,0,0:0:0:0:
192,192,76306,1,0,0:0:0:0:
64,192,76306,1,0,0:0:0:0:
448,192,76393,1,0,0:0:0:0:
320,192,76393,1,0,0:0:0:0:
64,192,76393,1,0,0:0:0:0:
192,192,76479,1,0,0:0:0:0:
320,192,76565,1,0,0:0:0:0:
448,192,76651,1,0,0:0:0:0:
320,192,76824,1,0,0:0:0:0:
64,192,76910,1,0,0:0:0:0:
192,192,76910,1,0,0:0:0:0:
448,192,76996,1,0,0:0:0:0:
192,192,77082,1,0,0:0:0:0:
320,192,77082,1,0,0:0:0:0:
64,192,77168,1,0,0:0:0:0:
192,192,77255,1,0,0:0:0:0:
320,192,77341,1,0,0:0:0:0:
448,192,77341,1,0,0:0:0:0:
192,192,77513,1,0,0:0:0:0:
448,192,77600,1,0,0:0:0:0:
320,192,77600,1,0,0:0:0:0:
64,192,77686,1,0,0:0:0:0:
448,192,77772,1,0,0:0:0:0:
320,192,77772,1,0,0:0:0:0:
192,192,77772,1,0,0:0:0:0:
64,192,77858,1,0,0:0:0:0:
192,192,77944,1,0,0:0:0:0:
320,192,78031,1,0,0:0:0:0:
64,192,78117,1,0,0:0:0:0:
192,192,78117,1,0,0:0:0:0:
448,192,78117,1,0,0:0:0:0:
320,192,78203,1,0,0:0:0:0:
192,192,78289,1,0,0:0:0:0:
64,192,78375,1,0,0:0:0:0:
192,192,78462,1,0,0:0:0:0:
448,192,78462,1,0,0:0:0:0:
320,192,78462,1,0,0:0:0:0:
192,192,78634,1,0,0:0:0:0:
192,192,78893,1,0,0:0:0:0:
320,192,79151,1,0,0:0:0:0:
320,192,79410,1,0,0:0:0:0:
320,192,79668,1,0,0:0:0:0:
448,192,79755,1,0,0:0:0:0:
192,192,80013,1,0,0:0:0:0:
192,192,80272,1,0,0:0:0:0:
320,192,80531,1,0,0:0:0:0:
320,192,80789,1,0,0:0:0:0:
64,192,81048,1,0,0:0:0:0:
448,192,81134,1,0,0:0:0:0:
192,192,81306,1,0,0:0:0:0:
320,192,81393,1,0,0:0:0:0:
192,192,81565,1,0,0:0:0:0:
320,192,81651,1,0,0:0:0:0:
64,192,81824,1,0,0:0:0:0:
192,192,81910,1,0,0:0:0:0:
64,192,82082,1,0,0:0:0:0:
192,192,82168,1,0,0:0:0:0:
64,192,82341,1,0,0:0:0:0:
192,192,82427,1,0,0:0:0:0:
320,192,82513,1,0,0:0:0:0:
192,192,82600,1,0,0:0:0:0:
64,192,82686,1,0,0:0:0:0:
192,192,82772,1,0,0:0:0:0:
64,192,82944,1,0,0:0:0:0:
320,192,83031,1,0,0:0:0:0:
64,192,83203,1,0,0:0:0:0:
448,192,83289,1,0,0:0:0:0:
192,192,83462,1,0,0:0:0:0:
320,192,83548,1,0,0:0:0:0:
192,192,83720,1,0,0:0:0:0:
448,192,83806,1,0,0:0:0:0:
320,192,83893,1,0,0:0:0:0:
64,192,84065,1,0,0:0:0:0:
192,192,84151,1,0,0:0:0:0:
64,192,84324,1,0,0:0:0:0:
320,192,84410,1,0,0:0:0:0:
448,192,84582,1,0,0:0:0:0:
320,192,84668,1,0,0:0:0:0:
320,192,84841,1,0,0:0:0:0:
448,192,84927,1,0,0:0:0:0:
320,192,85100,1,0,0:0:0:0:
448,192,85186,1,0,0:0:0:0:
320,192,85272,1,0,0:0:0:0:
192,192,85444,1,0,0:0:0:0:
320,192,85531,1,0,0:0:0:0:
192,192,85703,1,0,0:0:0:0:
448,192,85789,1,0,0:0:0:0:
64,192,85962,1,0,0:0:0:0:
448,192,86048,1,0,0:0:0:0:
64,192,86220,1,0,0:0:0:0:
448,192,86306,1,0,0:0:0:0:
192,192,86479,1,0,0:0:0:0:
448,192,86565,1,0,0:0:0:0:
192,192,86651,1,0,0:0:0:0:
64,192,86824,1,0,0:0:0:0:
320,192,86910,1,0,0:0:0:0:
64,192,87082,1,0,0:0:0:0:
320,192,87168,1,0,0:0:0:0:
192,192,87341,1,0,0:0:0:0:
320,192,87427,1,0,0:0:0:0:
192,192,87600,1,0,0:0:0:0:
320,192,87686,1,0,0:0:0:0:
192,192,87858,1,0,0:0:0:0:
320,192,87944,1,0,0:0:0:0:
448,192,88031,1,0,0:0:0:0:
192,192,88203,1,0,0:0:0:0:
320,192,88289,1,0,0:0:0:0:
64,192,88462,1,0,0:0:0:0:
320,192,88548,1,0,0:0:0:0:
192,192,88720,1,0,0:0:0:0:
320,192,88806,1,0,0:0:0:0:
192,192,88979,1,0,0:0:0:0:
320,192,89065,1,0,0:0:0:0:
448,192,89151,1,0,0:0:0:0:
192,192,89237,1,0,0:0:0:0:
64,192,89324,1,0,0:0:0:0:
192,192,89410,1,0,0:0:0:0:
320,192,89496,1,0,0:0:0:0:
64,192,89582,1,0,0:0:0:0:
192,192,89668,1,0,0:0:0:0:
64,192,89841,1,0,0:0:0:0:
192,192,89927,1,0,0:0:0:0:
64,192,90100,1,0,0:0:0:0:
320,192,90186,1,0,0:0:0:0:
64,192,90358,1,0,0:0:0:0:
320,192,90444,1,0,0:0:0:0:
192,192,90617,1,0,0:0:0:0:
320,192,90703,1,0,0:0:0:0:
448,192,90789,1,0,0:0:0:0:
64,192,90962,1,0,0:0:0:0:
192,192,91048,1,0,0:0:0:0:
64,192,91220,1,0,0:0:0:0:
192,192,91306,1,0,0:0:0:0:
64,192,91479,1,0,0:0:0:0:
320,192,91565,1,0,0:0:0:0:
64,192,91737,1,0,0:0:0:0:
320,192,91824,1,0,0:0:0:0:
64,192,91996,1,0,0:0:0:0:
192,192,92082,1,0,0:0:0:0:
448,192,92168,1,0,0:0:0:0:
192,192,92341,1,0,0:0:0:0:
64,192,92427,1,0,0:0:0:0:
192,192,92600,1,0,0:0:0:0:
64,192,92686,1,0,0:0:0:0:
192,192,92858,1,0,0:0:0:0:
320,192,92944,1,0,0:0:0:0:
192,192,93117,1,0,0:0:0:0:
320,192,93203,1,0,0:0:0:0:
192,192,93462,1,0,0:0:0:0:
320,192,93548,1,0,0:0:0:0:
448,192,93634,1,0,0:0:0:0:
192,192,93806,1,0,0:0:0:0:
64,192,94065,1,0,0:0:0:0:
192,192,94324,1,0,0:0:0:0:
320,192,94582,1,0,0:0:0:0:
448,192,94841,1,0,0:0:0:0:
320,192,94927,1,0,0:0:0:0:
64,192,95013,1,0,0:0:0:0:
192,192,95013,1,0,0:0:0:0:
320,192,95358,1,0,0:0:0:0:
192,192,95358,1,0,0:0:0:0:
448,192,95703,1,0,0:0:0:0:
320,192,95703,1,0,0:0:0:0:
64,192,96048,1,0,0:0:0:0:
320,192,96048,1,0,0:0:0:0:
192,192,96393,1,0,0:0:0:0:
448,192,96393,1,0,0:0:0:0:
64,192,96737,1,0,0:0:0:0:
192,192,96737,1,0,0:0:0:0:
448,192,97082,1,0,0:0:0:0:
320,192,97082,1,0,0:0:0:0:
192,192,97125,1,0,0:0:0:0:
64,192,97168,1,0,0:0:0:0:
320,192,97255,1,0,0:0:0:0:
448,192,97255,1,0,0:0:0:0:
192,192,97341,1,0,0:0:0:0:
64,192,97341,1,0,0:0:0:0:
320,192,97427,1,0,0:0:0:0:
448,192,97427,1,0,0:0:0:0:
64,192,97600,1,0,0:0:0:0:
192,192,97600,1,0,0:0:0:0:
448,192,97772,128,0,98117:0:0:0:0:
320,192,97858,128,0,98203:0:0:0:0:
192,192,97944,128,0,98289:0:0:0:0:
64,192,98031,128,0,98375:0:0:0:0:
64,192,98462,1,0,0:0:0:0:
192,192,98462,1,0,0:0:0:0:
448,192,98462,1,0,0:0:0:0:
320,192,98462,1,0,0:0:0:0:
448,192,98677,1,0,0:0:0:0:
192,192,98699,1,0,0:0:0:0:
320,192,98699,1,0,0:0:0:0:
64,192,98720,1,0,0:0:0:0:
448,192,99022,1,0,0:0:0:0:
320,192,99043,1,0,0:0:0:0:
192,192,99043,1,0,0:0:0:0:
64,192,99065,1,0,0:0:0:0:
320,192,99367,1,0,0:0:0:0:
448,192,99388,1,0,0:0:0:0:
192,192,99388,1,0,0:0:0:0:
64,192,99410,1,0,0:0:0:0:
192,192,99496,1,0,0:0:0:0:
320,192,99582,1,0,0:0:0:0:
192,192,99712,1,0,0:0:0:0:
320,192,99733,1,0,0:0:0:0:
448,192,99733,1,0,0:0:0:0:
64,192,99755,1,0,0:0:0:0:
192,192,99841,1,0,0:0:0:0:
320,192,99927,1,0,0:0:0:0:
64,192,100013,1,0,0:0:0:0:
192,192,100035,1,0,0:0:0:0:
320,192,100035,1,0,0:0:0:0:
448,192,100056,1,0,0:0:0:0:
320,192,100186,1,0,0:0:0:0:
192,192,100272,1,0,0:0:0:0:
64,192,100358,1,0,0:0:0:0:
192,192,100380,1,0,0:0:0:0:
448,192,100380,1,0,0:0:0:0:
320,192,100401,1,0,0:0:0:0:
64,192,100531,1,0,0:0:0:0:
192,192,100531,1,0,0:0:0:0:
64,192,100617,1,0,0:0:0:0:
320,192,100703,1,0,0:0:0:0:
320,192,100789,1,0,0:0:0:0:
64,192,100875,1,0,0:0:0:0:
192,192,100875,1,0,0:0:0:0:
448,192,100962,1,0,0:0:0:0:
320,192,101048,1,0,0:0:0:0:
64,192,101134,1,0,0:0:0:0:
192,192,101220,1,0,0:0:0:0:
448,192,101220,1,0,0:0:0:0:
320,192,101393,1,0,0:0:0:0:
64,192,101479,1,0,0:0:0:0:
192,192,101479,1,0,0:0:0:0:
448,192,101565,1,0,0:0:0:0:
320,192,101565,1,0,0:0:0:0:
192,192,101737,1,0,0:0:0:0:
320,192,101737,1,0,0:0:0:0:
64,192,101910,1,0,0:0:0:0:
448,192,101910,1,0,0:0:0:0:
320,192,101996,1,0,0:0:0:0:
192,192,102082,1,0,0:0:0:0:
320,192,102168,1,0,0:0:0:0:
192,192,102255,1,0,0:0:0:0:
64,192,102255,1,0,0:0:0:0:
448,192,102341,1,0,0:0:0:0:
320,192,102427,1,0,0:0:0:0:
64,192,102513,1,0,0:0:0:0:
192,192,102600,1,0,0:0:0:0:
448,192,102600,1,0,0:0:0:0:
320,192,102772,1,0,0:0:0:0:
192,192,102858,1,0,0:0:0:0:
448,192,102858,1,0,0:0:0:0:
64,192,102944,1,0,0:0:0:0:
320,192,103117,1,0,0:0:0:0:
448,192,103117,1,0,0:0:0:0:
64,192,103289,1,0,0:0:0:0:
448,192,103289,1,0,0:0:0:0:
448,192,103375,1,0,0:0:0:0:
192,192,103462,1,0,0:0:0:0:
192,192,103548,1,0,0:0:0:0:
448,192,103634,1,0,0:0:0:0:
64,192,103634,1,0,0:0:0:0:
320,192,103720,1,0,0:0:0:0:
448,192,103806,1,0,0:0:0:0:
64,192,103893,1,0,0:0:0:0:
192,192,103979,1,0,0:0:0:0:
320,192,103979,1,0,0:0:0:0:
448,192,104151,1,0,0:0:0:0:
192,192,104237,1,0,0:0:0:0:
64,192,104237,1,0,0:0:0:0:
320,192,104324,1,0,0:0:0:0:
448,192,104324,1,0,0:0:0:0:
192,192,104496,1,0,0:0:0:0:
320,192,104496,1,0,0:0:0:0:
64,192,104668,1,0,0:0:0:0:
192,192,104668,1,0,0:0:0:0:
448,192,104755,1,0,0:0:0:0:
192,192,104841,1,0,0:0:0:0:
64,192,104927,1,0,0:0:0:0:
320,192,105013,1,0,0:0:0:0:
448,192,105013,1,0,0:0:0:0:
192,192,105100,1,0,0:0:0:0:
320,192,105272,1,0,0:0:0:0:
64,192,105358,1,0,0:0:0:0:
192,192,105358,1,0,0:0:0:0:
448,192,105473,1,0,0:0:0:0:
64,192,105617,1,0,0:0:0:0:
320,192,105617,1,0,0:0:0:0:
192,192,105789,1,0,0:0:0:0:
320,192,105875,1,0,0:0:0:0:
448,192,105875,1,0,0:0:0:0:
192,192,106048,1,0,0:0:0:0:
64,192,106048,1,0,0:0:0:0:
192,192,106134,1,0,0:0:0:0:
320,192,106220,1,0,0:0:0:0:
320,192,106306,1,0,0:0:0:0:
192,192,106393,1,0,0:0:0:0:
448,192,106393,1,0,0:0:0:0:
64,192,106565,1,0,0:0:0:0:
192,192,106651,1,0,0:0:0:0:
448,192,106737,1,0,0:0:0:0:
320,192,106737,1,0,0:0:0:0:
64,192,106910,1,0,0:0:0:0:
192,192,106996,1,0,0:0:0:0:
320,192,106996,1,0,0:0:0:0:
448,192,107082,1,0,0:0:0:0:
320,192,107255,1,0,0:0:0:0:
64,192,107255,1,0,0:0:0:0:
192,192,107427,1,0,0:0:0:0:
448,192,107427,1,0,0:0:0:0:
320,192,107542,1,0,0:0:0:0:
448,192,107686,1,0,0:0:0:0:
192,192,107772,1,0,0:0:0:0:
64,192,107772,1,0,0:0:0:0:
320,192,107858,1,0,0:0:0:0:
448,192,108031,1,0,0:0:0:0:
320,192,108117,1,0,0:0:0:0:
192,192,108117,1,0,0:0:0:0:
64,192,108289,1,0,0:0:0:0:
192,192,108375,1,0,0:0:0:0:
448,192,108375,1,0,0:0:0:0:
320,192,108462,1,0,0:0:0:0:
448,192,108634,1,0,0:0:0:0:
64,192,108634,1,0,0:0:0:0:
192,192,108806,1,0,0:0:0:0:
320,192,108806,1,0,0:0:0:0:
192,192,108893,1,0,0:0:0:0:
64,192,108979,1,0,0:0:0:0:
64,192,109065,1,0,0:0:0:0:
448,192,109151,1,0,0:0:0:0:
320,192,109151,1,0,0:0:0:0:
192,192,109266,1,0,0:0:0:0:
64,192,109381,1,0,0:0:0:0:
320,192,109496,1,0,0:0:0:0:
448,192,109496,1,0,0:0:0:0:
192,192,109668,1,0,0:0:0:0:
64,192,109755,1,0,0:0:0:0:
320,192,109755,1,0,0:0:0:0:
448,192,109841,1,0,0:0:0:0:
320,192,110013,1,0,0:0:0:0:
192,192,110013,1,0,0:0:0:0:
64,192,110186,1,0,0:0:0:0:
448,192,110186,1,0,0:0:0:0:
64,192,110272,1,0,0:0:0:0:
448,192,110358,1,0,0:0:0:0:
448,192,110444,1,0,0:0:0:0:
320,192,110531,1,0,0:0:0:0:
192,192,110531,1,0,0:0:0:0:
64,192,110617,1,0,0:0:0:0:
320,192,110789,1,0,0:0:0:0:
448,192,110875,1,0,0:0:0:0:
192,192,110875,1,0,0:0:0:0:
64,192,110962,1,0,0:0:0:0:
64,192,111134,1,0,0:0:0:0:
192,192,111134,1,0,0:0:0:0:
448,192,111306,1,0,0:0:0:0:
320,192,111393,1,0,0:0:0:0:
192,192,111393,1,0,0:0:0:0:
64,192,111565,1,0,0:0:0:0:
192,192,111565,1,0,0:0:0:0:
64,192,111651,1,0,0:0:0:0:
320,192,111737,1,0,0:0:0:0:
448,192,111737,1,0,0:0:0:0:
320,192,111824,1,0,0:0:0:0:
192,192,111910,1,0,0:0:0:0:
448,192,111910,1,0,0:0:0:0:
64,192,111996,1,0,0:0:0:0:
192,192,112082,1,0,0:0:0:0:
320,192,112082,1,0,0:0:0:0:
448,192,112168,1,0,0:0:0:0:
64,192,112255,1,0,0:0:0:0:
192,192,112255,1,0,0:0:0:0:
320,192,112427,1,0,0:0:0:0:
64,192,112427,1,0,0:0:0:0:
192,192,112513,1,0,0:0:0:0:
448,192,112513,1,0,0:0:0:0:
64,192,112600,1,0,0:0:0:0:
448,192,112686,1,0,0:0:0:0:
192,192,112686,1,0,0:0:0:0:
64,192,112772,1,0,0:0:0:0:
320,192,112772,1,0,0:0:0:0:
64,192,112944,1,0,0:0:0:0:
192,192,112944,1,0,0:0:0:0:
192,192,113031,1,0,0:0:0:0:
448,192,113117,1,0,0:0:0:0:
320,192,113117,1,0,0:0:0:0:
320,192,113203,1,0,0:0:0:0:
64,192,113289,1,0,0:0:0:0:
192,192,113289,1,0,0:0:0:0:
448,192,113375,1,0,0:0:0:0:
320,192,113462,1,0,0:0:0:0:
192,192,113462,1,0,0:0:0:0:
64,192,113548,1,0,0:0:0:0:
320,192,113634,1,0,0:0:0:0:
448,192,113634,1,0,0:0:0:0:
192,192,113806,1,0,0:0:0:0:
320,192,113806,1,0,0:0:0:0:
448,192,113893,1,0,0:0:0:0:
64,192,113893,1,0,0:0:0:0:
192,192,113979,1,0,0:0:0:0:
448,192,114065,1,0,0:0:0:0:
64,192,114065,1,0,0:0:0:0:
192,192,114151,1,0,0:0:0:0:
320,192,114151,1,0,0:0:0:0:
320,192,114324,1,0,0:0:0:0:
448,192,114324,1,0,0:0:0:0:
448,192,114410,1,0,0:0:0:0:
64,192,114496,1,0,0:0:0:0:
192,192,114496,1,0,0:0:0:0:
64,192,114582,1,0,0:0:0:0:
320,192,114668,1,0,0:0:0:0:
448,192,114668,1,0,0:0:0:0:
192,192,114755,1,0,0:0:0:0:
64,192,114841,1,0,0:0:0:0:
448,192,114841,1,0,0:0:0:0:
320,192,114927,1,0,0:0:0:0:
64,192,115013,1,0,0:0:0:0:
192,192,115013,1,0,0:0:0:0:
448,192,115186,1,0,0:0:0:0:
320,192,115186,1,0,0:0:0:0:
192,192,115272,1,0,0:0:0:0:
64,192,115272,1,0,0:0:0:0:
448,192,115358,1,0,0:0:0:0:
64,192,115444,1,0,0:0:0:0:
192,192,115444,1,0,0:0:0:0:
320,192,115531,1,0,0:0:0:0:
448,192,115531,1,0,0:0:0:0:
64,192,115703,1,0,0:0:0:0:
448,192,115703,1,0,0:0:0:0:
64,192,115789,1,0,0:0:0:0:
192,192,115875,1,0,0:0:0:0:
320,192,115875,1,0,0:0:0:0:
320,192,115962,1,0,0:0:0:0:
64,192,116048,1,0,0:0:0:0:
448,192,116048,1,0,0:0:0:0:
192,192,116134,1,0,0:0:0:0:
320,192,116220,1,0,0:0:0:0:
448,192,116220,1,0,0:0:0:0:
64,192,116306,1,0,0:0:0:0:
192,192,116393,1,0,0:0:0:0:
320,192,116393,1,0,0:0:0:0:
448,192,116565,1,0,0:0:0:0:
64,192,116565,1,0,0:0:0:0:
192,192,116651,1,0,0:0:0:0:
320,192,116651,1,0,0:0:0:0:
448,192,116737,1,0,0:0:0:0:
192,192,116824,1,0,0:0:0:0:
320,192,116824,1,0,0:0:0:0:
64,192,116910,1,0,0:0:0:0:
448,192,116910,1,0,0:0:0:0:
448,192,117082,1,0,0:0:0:0:
320,192,117082,1,0,0:0:0:0:
320,192,117168,1,0,0:0:0:0:
64,192,117255,1,0,0:0:0:0:
192,192,117255,1,0,0:0:0:0:
192,192,117341,1,0,0:0:0:0:
448,192,117427,1,0,0:0:0:0:
64,192,117427,1,0,0:0:0:0:
320,192,117513,1,0,0:0:0:0:
192,192,117600,1,0,0:0:0:0:
448,192,117600,1,0,0:0:0:0:
64,192,117686,1,0,0:0:0:0:
320,192,117772,1,0,0:0:0:0:
192,192,117772,1,0,0:0:0:0:
320,192,117858,1,0,0:0:0:0:
448,192,117944,1,0,0:0:0:0:
64,192,117944,1,0,0:0:0:0:
64,192,118031,1,0,0:0:0:0:
448,192,118117,1,0,0:0:0:0:
192,192,118117,1,0,0:0:0:0:
320,192,118203,1,0,0:0:0:0:
64,192,118289,1,0,0:0:0:0:
448,192,118289,1,0,0:0:0:0:
192,192,118375,1,0,0:0:0:0:
320,192,118462,1,0,0:0:0:0:
448,192,118462,1,0,0:0:0:0:
320,192,118548,1,0,0:0:0:0:
64,192,118634,1,0,0:0:0:0:
192,192,118634,1,0,0:0:0:0:
192,192,118720,1,0,0:0:0:0:
448,192,118806,1,0,0:0:0:0:
64,192,118806,1,0,0:0:0:0:
320,192,118893,1,0,0:0:0:0:
192,192,118979,1,0,0:0:0:0:
448,192,118979,1,0,0:0:0:0:
64,192,119065,1,0,0:0:0:0:
192,192,119151,1,0,0:0:0:0:
448,192,119151,1,0,0:0:0:0:
448,192,119237,1,0,0:0:0:0:
64,192,119324,1,0,0:0:0:0:
320,192,119324,1,0,0:0:0:0:
64,192,119410,1,0,0:0:0:0:
448,192,119496,1,0,0:0:0:0:
192,192,119496,1,0,0:0:0:0:
320,192,119582,1,0,0:0:0:0:
64,192,119668,1,0,0:0:0:0:
192,192,119668,1,0,0:0:0:0:
448,192,119755,1,0,0:0:0:0:
64,192,119841,1,0,0:0:0:0:
192,192,119841,1,0,0:0:0:0:
320,192,119884,1,0,0:0:0:0:
448,192,119927,1,0,0:0:0:0:
64,192,119927,1,0,0:0:0:0:
192,192,119970,1,0,0:0:0:0:
448,192,120013,1,0,0:0:0:0:
320,192,120013,1,0,0:0:0:0:
64,192,120056,1,0,0:0:0:0:
192,192,120100,1,0,0:0:0:0:
320,192,120100,1,0,0:0:0:0:
448,192,120143,1,0,0:0:0:0:
64,192,120186,1,0,0:0:0:0:
192,192,120186,1,0,0:0:0:0:
320,192,120229,1,0,0:0:0:0:
448,192,120272,1,0,0:0:0:0:
64,192,120272,1,0,0:0:0:0:
192,192,120315,1,0,0:0:0:0:
320,192,120358,1,0,0:0:0:0:
448,192,120358,1,0,0:0:0:0:
64,192,120401,1,0,0:0:0:0:
192,192,120444,1,0,0:0:0:0:
320,192,120444,1,0,0:0:0:0:
448,192,120487,1,0,0:0:0:0:
64,192,120531,1,0,0:0:0:0:
192,192,120531,1,0,0:0:0:0:
448,192,120574,1,0,0:0:0:0:
320,192,120617,1,0,0:0:0:0:
192,192,120617,1,0,0:0:0:0:
64,192,120660,1,0,0:0:0:0:
448,192,120703,1,0,0:0:0:0:
320,192,120703,1,0,0:0:0:0:
192,192,120746,1,0,0:0:0:0:
64,192,120789,1,0,0:0:0:0:
448,192,120789,1,0,0:0:0:0:
320,192,120832,1,0,0:0:0:0:
192,192,120875,1,0,0:0:0:0:
64,192,120875,1,0,0:0:0:0:
448,192,120918,1,0,0:0:0:0:
320,192,120962,1,0,0:0:0:0:
192,192,120962,1,0,0:0:0:0:
64,192,121005,1,0,0:0:0:0:
448,192,121048,1,0,0:0:0:0:
320,192,121048,1,0,0:0:0:0:
192,192,121091,1,0,0:0:0:0:
64,192,121134,1,0,0:0:0:0:
448,192,121134,1,0,0:0:0:0:
320,192,121177,1,0,0:0:0:0:
64,192,121220,1,0,0:0:0:0:
192,192,121220,1,0,0:0:0:0:
448,192,121393,1,0,0:0:0:0:
320,192,121565,1,0,0:0:0:0:
192,192,121737,1,0,0:0:0:0:
64,192,121910,1,0,0:0:0:0:
320,192,122255,1,0,0:0:0:0:
448,192,122341,1,0,0:0:0:0:
320,192,122427,1,0,0:0:0:0:
192,192,122513,1,0,0:0:0:0:
64,192,122600,1,0,0:0:0:0:
192,192,122628,1,0,0:0:0:0:
320,192,122657,1,0,0:0:0:0:
448,192,122686,1,0,0:0:0:0:
64,192,122714,1,0,0:0:0:0:
192,192,122743,1,0,0:0:0:0:
320,192,122772,128,0,123031:0:0:0:0:
448,192,122858,128,0,123117:0:0:0:0:
64,192,123117,1,0,0:0:0:0:
192,192,123117,1,0,0:0:0:0:
320,192,123203,1,0,0:0:0:0:
448,192,123203,1,0,0:0:0:0:
64,192,123289,1,0,0:0:0:0:
192,192,123289,1,0,0:0:0:0:
192,192,123375,1,0,0:0:0:0:
320,192,123462,1,0,0:0:0:0:
320,192,123548,1,0,0:0:0:0:
64,192,123634,1,0,0:0:0:0:
192,192,123634,1,0,0:0:0:0:
192,192,123720,1,0,0:0:0:0:
64,192,123720,1,0,0:0:0:0:
320,192,123806,1,0,0:0:0:0:
448,192,123806,1,0,0:0:0:0:
320,192,123893,1,0,0:0:0:0:
448,192,123893,1,0,0:0:0:0:
64,192,123979,1,0,0:0:0:0:
192,192,123979,1,0,0:0:0:0:
448,192,124065,1,0,0:0:0:0:
192,192,124151,1,0,0:0:0:0:
448,192,124237,1,0,0:0:0:0:
64,192,124237,1,0,0:0:0:0:
448,192,124410,1,0,0:0:0:0:
192,192,124410,1,0,0:0:0:0:
448,192,124496,1,0,0:0:0:0:
320,192,124582,1,0,0:0:0:0:
192,192,124668,1,0,0:0:0:0:
64,192,124668,1,0,0:0:0:0:
320,192,124668,1,0,0:0:0:0:
448,192,124841,1,0,0:0:0:0:
192,192,124841,1,0,0:0:0:0:
448,192,124927,1,0,0:0:0:0:
320,192,125013,1,0,0:0:0:0:
320,192,125100,1,0,0:0:0:0:
448,192,125186,1,0,0:0:0:0:
64,192,125358,1,0,0:0:0:0:
192,192,125387,1,0,0:0:0:0:
320,192,125416,1,0,0:0:0:0:
448,192,125444,1,0,0:0:0:0:
64,192,125617,1,0,0:0:0:0:
192,192,125645,1,0,0:0:0:0:
320,192,125674,1,0,0:0:0:0:
448,192,125703,1,0,0:0:0:0:
64,192,125875,1,0,0:0:0:0:
192,192,125904,1,0,0:0:0:0:
320,192,125933,1,0,0:0:0:0:
448,192,125962,1,0,0:0:0:0:
64,192,126048,128,0,126565:0:0:0:0:
448,192,126048,1,0,0:0:0:0:
192,192,126048,1,0,0:0:0:0:
320,192,126134,1,0,0:0:0:0:
192,192,126220,1,0,0:0:0:0:
448,192,126306,1,0,0:0:0:0:
320,192,126393,1,0,0:0:0:0:
448,192,126479,1,0,0:0:0:0:
192,192,126565,128,0,126737:0:0:0:0:
320,192,126565,1,0,0:0:0:0:
64,192,126651,1,0,0:0:0:0:
320,192,126737,128,0,127082:0:0:0:0:
448,192,126737,1,0,0:0:0:0:
64,192,126824,1,0,0:0:0:0:
192,192,126910,1,0,0:0:0:0:
448,192,126996,128,0,127082:0:0:0:0:
64,192,126996,1,0,0:0:0:0:
192,192,127082,1,0,0:0:0:0:
448,192,127125,128,0,127212:0:0:0:0:
320,192,127168,1,0,0:0:0:0:
448,192,127255,128,0,127341:0:0:0:0:
192,192,127255,1,0,0:0:0:0:
64,192,127341,1,0,0:0:0:0:
192,192,127427,1,0,0:0:0:0:
320,192,127427,1,0,0:0:0:0:
448,192,127427,1,0,0:0:0:0:
320,192,127542,1,0,0:0:0:0:
320,192,127657,1,0,0:0:0:0:
64,192,127772,1,0,0:0:0:0:
192,192,127772,1,0,0:0:0:0:
448,192,127772,128,0,128117:0:0:0:0:
320,192,127858,1,0,0:0:0:0:
192,192,127944,1,0,0:0:0:0:
320,192,128031,1,0,0:0:0:0:
64,192,128117,1,0,0:0:0:0:
192,192,128174,1,0,0:0:0:0:
448,192,128232,1,0,0:0:0:0:
320,192,128289,128,0,128548:0:0:0:0:
448,192,128375,128,0,128634:0:0:0:0:
64,192,128634,1,0,0:0:0:0:
192,192,128634,1,0,0:0:0:0:
320,192,128720,1,0,0:0:0:0:
448,192,128720,1,0,0:0:0:0:
192,192,128806,1,0,0:0:0:0:
64,192,128806,1,0,0:0:0:0:
64,192,128893,1,0,0:0:0:0:
448,192,128979,1,0,0:0:0:0:
448,192,129065,1,0,0:0:0:0:
320,192,129151,1,0,0:0:0:0:
192,192,129151,1,0,0:0:0:0:
192,192,129237,1,0,0:0:0:0:
320,192,129237,1,0,0:0:0:0:
64,192,129324,1,0,0:0:0:0:
448,192,129324,1,0,0:0:0:0:
64,192,129410,1,0,0:0:0:0:
448,192,129410,1,0,0:0:0:0:
192,192,129496,1,0,0:0:0:0:
320,192,129496,1,0,0:0:0:0:
448,192,129582,1,0,0:0:0:0:
192,192,129668,1,0,0:0:0:0:
448,192,129755,1,0,0:0:0:0:
448,192,129927,1,0,0:0:0:0:
448,192,130013,1,0,0:0:0:0:
320,192,130100,1,0,0:0:0:0:
320,192,130186,1,0,0:0:0:0:
192,192,130186,1,0,0:0:0:0:
64,192,130186,1,0,0:0:0:0:
320,192,130358,1,0,0:0:0:0:
320,192,130444,1,0,0:0:0:0:
192,192,130531,1,0,0:0:0:0:
192,192,130617,1,0,0:0:0:0:
320,192,130703,1,0,0:0:0:0:
448,192,130875,128,0,131220:0:0:0:0:
320,192,130962,128,0,131306:0:0:0:0:
192,192,131048,128,0,131393:0:0:0:0:
64,192,131134,128,0,131479:0:0:0:0:
192,192,131565,1,0,0:0:0:0:
320,192,131565,1,0,0:0:0:0:
448,192,131565,1,0,0:0:0:0:
448,192,131737,1,0,0:0:0:0:
320,192,131759,1,0,0:0:0:0:
192,192,131759,1,0,0:0:0:0:
64,192,131781,1,0,0:0:0:0:
64,192,132082,1,0,0:0:0:0:
192,192,132104,1,0,0:0:0:0:
320,192,132104,1,0,0:0:0:0:
448,192,132125,1,0,0:0:0:0:
192,192,132255,1,0,0:0:0:0:
64,192,132255,1,0,0:0:0:0:
320,192,132427,1,0,0:0:0:0:
448,192,132449,1,0,0:0:0:0:
192,192,132449,1,0,0:0:0:0:
64,192,132470,1,0,0:0:0:0:
192,192,132772,1,0,0:0:0:0:
320,192,132793,1,0,0:0:0:0:
64,192,132793,1,0,0:0:0:0:
448,192,132815,1,0,0:0:0:0:
448,192,132944,1,0,0:0:0:0:
320,192,132944,1,0,0:0:0:0:
64,192,132944,1,0,0:0:0:0:
64,192,133117,1,0,0:0:0:0:
192,192,133138,1,0,0:0:0:0:
320,192,133138,1,0,0:0:0:0:
448,192,133160,1,0,0:0:0:0:
64,192,133289,1,0,0:0:0:0:
192,192,133289,1,0,0:0:0:0:
448,192,133289,128,0,133634:0:0:0:0:
192,192,133634,1,0,0:0:0:0:
64,192,133691,1,0,0:0:0:0:
448,192,133749,1,0,0:0:0:0:
320,192,133806,128,0,134065:0:0:0:0:
192,192,133893,128,0,134151:0:0:0:0:
320,192,134151,1,0,0:0:0:0:
448,192,134151,1,0,0:0:0:0:
192,192,134237,1,0,0:0:0:0:
64,192,134237,1,0,0:0:0:0:
320,192,134324,1,0,0:0:0:0:
448,192,134324,1,0,0:0:0:0:
448,192,134410,1,0,0:0:0:0:
64,192,134496,1,0,0:0:0:0:
64,192,134582,1,0,0:0:0:0:
448,192,134668,1,0,0:0:0:0:
192,192,134668,1,0,0:0:0:0:
448,192,134755,1,0,0:0:0:0:
192,192,134755,1,0,0:0:0:0:
320,192,134841,1,0,0:0:0:0:
64,192,134841,1,0,0:0:0:0:
320,192,134927,1,0,0:0:0:0:
64,192,134927,1,0,0:0:0:0:
192,192,135013,1,0,0:0:0:0:
448,192,135013,1,0,0:0:0:0:
320,192,135100,1,0,0:0:0:0:
64,192,135186,1,0,0:0:0:0:
320,192,135272,1,0,0:0:0:0:
320,192,135444,1,0,0:0:0:0:
320,192,135531,1,0,0:0:0:0:
192,192,135617,1,0,0:0:0:0:
320,192,135703,1,0,0:0:0:0:
448,192,135703,1,0,0:0:0:0:
64,192,135703,1,0,0:0:0:0:
320,192,135875,1,0,0:0:0:0:
320,192,135962,1,0,0:0:0:0:
192,192,136048,1,0,0:0:0:0:
192,192,136163,1,0,0:0:0:0:
320,192,136278,1,0,0:0:0:0:
192,192,136393,1,0,0:0:0:0:
64,192,136421,1,0,0:0:0:0:
320,192,136450,1,0,0:0:0:0:
448,192,136479,1,0,0:0:0:0:
64,192,136651,1,0,0:0:0:0:
192,192,136680,1,0,0:0:0:0:
448,192,136709,1,0,0:0:0:0:
320,192,136737,1,0,0:0:0:0:
64,192,136910,1,0,0:0:0:0:
192,192,136939,1,0,0:0:0:0:
320,192,136967,1,0,0:0:0:0:
448,192,136996,1,0,0:0:0:0:
448,192,137082,1,0,0:0:0:0:
192,192,137082,128,0,137600:0:0:0:0:
320,192,137082,1,0,0:0:0:0:
64,192,137168,1,0,0:0:0:0:
320,192,137255,1,0,0:0:0:0:
448,192,137341,1,0,0:0:0:0:
64,192,137427,1,0,0:0:0:0:
320,192,137513,1,0,0:0:0:0:
64,192,137600,128,0,137772:0:0:0:0:
448,192,137600,1,0,0:0:0:0:
320,192,137686,1,0,0:0:0:0:
192,192,137772,128,0,138117:0:0:0:0:
448,192,137772,1,0,0:0:0:0:
64,192,137858,1,0,0:0:0:0:
320,192,137944,1,0,0:0:0:0:
448,192,137987,128,0,138117:0:0:0:0:
64,192,138031,1,0,0:0:0:0:
320,192,138117,1,0,0:0:0:0:
448,192,138160,128,0,138289:0:0:0:0:
192,192,138203,1,0,0:0:0:0:
64,192,138289,1,0,0:0:0:0:
448,192,138332,128,0,138462:0:0:0:0:
192,192,138375,1,0,0:0:0:0:
320,192,138462,1,0,0:0:0:0:
64,192,138462,1,0,0:0:0:0:
320,192,138577,1,0,0:0:0:0:
320,192,138691,1,0,0:0:0:0:
192,192,138806,1,0,0:0:0:0:
64,192,138806,1,0,0:0:0:0:
448,192,138806,128,0,139151:0:0:0:0:
320,192,138893,1,0,0:0:0:0:
192,192,138979,1,0,0:0:0:0:
64,192,139065,1,0,0:0:0:0:
320,192,139151,1,0,0:0:0:0:
192,192,139209,1,0,0:0:0:0:
64,192,139266,1,0,0:0:0:0:
448,192,139324,128,0,139582:0:0:0:0:
320,192,139410,128,0,139668:0:0:0:0:
192,192,139668,1,0,0:0:0:0:
64,192,139668,1,0,0:0:0:0:
320,192,139755,1,0,0:0:0:0:
448,192,139755,1,0,0:0:0:0:
192,192,139841,1,0,0:0:0:0:
64,192,139841,1,0,0:0:0:0:
192,192,139927,1,0,0:0:0:0:
320,192,140013,1,0,0:0:0:0:
320,192,140100,1,0,0:0:0:0:
448,192,140186,1,0,0:0:0:0:
64,192,140186,1,0,0:0:0:0:
64,192,140272,1,0,0:0:0:0:
448,192,140272,1,0,0:0:0:0:
192,192,140358,1,0,0:0:0:0:
320,192,140358,1,0,0:0:0:0:
192,192,140444,1,0,0:0:0:0:
320,192,140444,1,0,0:0:0:0:
448,192,140531,1,0,0:0:0:0:
64,192,140531,1,0,0:0:0:0:
320,192,140617,1,0,0:0:0:0:
192,192,140703,1,0,0:0:0:0:
320,192,140789,1,0,0:0:0:0:
320,192,140962,1,0,0:0:0:0:
320,192,141048,1,0,0:0:0:0:
192,192,141134,1,0,0:0:0:0:
320,192,141220,1,0,0:0:0:0:
448,192,141220,1,0,0:0:0:0:
64,192,141220,1,0,0:0:0:0:
64,192,141393,1,0,0:0:0:0:
192,192,141393,1,0,0:0:0:0:
320,192,141479,1,0,0:0:0:0:
64,192,141565,128,0,141651:0:0:0:0:
448,192,141737,128,0,141910:0:0:0:0:
320,192,141824,128,0,141910:0:0:0:0:
64,192,141910,128,0,142341:0:0:0:0:
192,192,141996,128,0,142427:0:0:0:0:
320,192,142082,128,0,142513:0:0:0:0:
448,192,142168,128,0,142600:0:0:0:0:
192,192,142600,1,0,0:0:0:0:
192,192,142858,1,0,0:0:0:0:
192,192,143117,1,0,0:0:0:0:
192,192,143375,1,0,0:0:0:0:
448,192,143375,1,0,0:0:0:0:
192,192,143634,1,0,0:0:0:0:
320,192,143634,1,0,0:0:0:0:
192,192,143806,1,0,0:0:0:0:
64,192,143893,1,0,0:0:0:0:
320,192,143979,1,0,0:0:0:0:
64,192,144151,1,0,0:0:0:0:
192,192,144151,1,0,0:0:0:0:
320,192,144237,1,0,0:0:0:0:
448,192,144324,1,0,0:0:0:0:
192,192,144324,1,0,0:0:0:0:
64,192,144410,1,0,0:0:0:0:
192,192,144496,1,0,0:0:0:0:
320,192,144496,1,0,0:0:0:0:
448,192,144582,1,0,0:0:0:0:
64,192,144668,1,0,0:0:0:0:
192,192,144697,1,0,0:0:0:0:
320,192,144726,1,0,0:0:0:0:
448,192,144755,1,0,0:0:0:0:
64,192,144783,1,0,0:0:0:0:
192,192,144812,1,0,0:0:0:0:
320,192,144841,128,0,145013:0:0:0:0:
192,192,145013,1,0,0:0:0:0:
64,192,145013,1,0,0:0:0:0:
448,192,145013,1,0,0:0:0:0:
192,192,145358,1,0,0:0:0:0:
192,192,145444,1,0,0:0:0:0:
192,192,145531,1,0,0:0:0:0:
64,192,145531,1,0,0:0:0:0:
192,192,145617,1,0,0:0:0:0:
320,192,145703,1,0,0:0:0:0:
448,192,145703,1,0,0:0:0:0:
64,192,145703,1,0,0:0:0:0:
320,192,145789,1,0,0:0:0:0:
320,192,145875,1,0,0:0:0:0:
320,192,145962,1,0,0:0:0:0:
64,192,146048,1,0,0:0:0:0:
192,192,146048,1,0,0:0:0:0:
448,192,146134,1,0,0:0:0:0:
192,192,146220,1,0,0:0:0:0:
448,192,146306,1,0,0:0:0:0:
320,192,146393,1,0,0:0:0:0:
192,192,146393,1,0,0:0:0:0:
64,192,146393,1,0,0:0:0:0:
448,192,146479,1,0,0:0:0:0:
448,192,146565,1,0,0:0:0:0:
320,192,146651,1,0,0:0:0:0:
448,192,146737,1,0,0:0:0:0:
448,192,146910,1,0,0:0:0:0:
64,192,146910,1,0,0:0:0:0:
448,192,146996,1,0,0:0:0:0:
320,192,147082,1,0,0:0:0:0:
192,192,147082,1,0,0:0:0:0:
64,192,147082,1,0,0:0:0:0:
320,192,147168,1,0,0:0:0:0:
448,192,147255,1,0,0:0:0:0:
64,192,147427,1,0,0:0:0:0:
192,192,147456,1,0,0:0:0:0:
320,192,147485,1,0,0:0:0:0:
448,192,147513,1,0,0:0:0:0:
64,192,147686,1,0,0:0:0:0:
192,192,147714,1,0,0:0:0:0:
320,192,147743,1,0,0:0:0:0:
448,192,147772,1,0,0:0:0:0:
64,192,147944,1,0,0:0:0:0:
192,192,147973,1,0,0:0:0:0:
320,192,148002,1,0,0:0:0:0:
448,192,148031,1,0,0:0:0:0:
192,192,148117,128,0,148634:0:0:0:0:
64,192,148117,1,0,0:0:0:0:
320,192,148203,1,0,0:0:0:0:
64,192,148289,1,0,0:0:0:0:
448,192,148289,1,0,0:0:0:0:
320,192,148375,1,0,0:0:0:0:
64,192,148462,1,0,0:0:0:0:
448,192,148462,1,0,0:0:0:0:
320,192,148548,1,0,0:0:0:0:
64,192,148634,128,0,148806:0:0:0:0:
448,192,148634,1,0,0:0:0:0:
192,192,148720,1,0,0:0:0:0:
320,192,148806,128,0,149151:0:0:0:0:
448,192,148806,1,0,0:0:0:0:
192,192,148893,1,0,0:0:0:0:
64,192,148979,1,0,0:0:0:0:
448,192,149022,128,0,149151:0:0:0:0:
192,192,149065,1,0,0:0:0:0:
64,192,149151,1,0,0:0:0:0:
448,192,149194,128,0,149324:0:0:0:0:
192,192,149237,1,0,0:0:0:0:
320,192,149324,1,0,0:0:0:0:
448,192,149367,128,0,149496:0:0:0:0:
192,192,149410,1,0,0:0:0:0:
64,192,149496,1,0,0:0:0:0:
320,192,149611,1,0,0:0:0:0:
320,192,149726,1,0,0:0:0:0:
192,192,149841,1,0,0:0:0:0:
64,192,149841,1,0,0:0:0:0:
448,192,149841,128,0,150186:0:0:0:0:
320,192,149927,1,0,0:0:0:0:
192,192,150013,1,0,0:0:0:0:
64,192,150100,1,0,0:0:0:0:
192,192,150186,1,0,0:0:0:0:
320,192,150243,1,0,0:0:0:0:
448,192,150301,1,0,0:0:0:0:
64,192,150358,128,0,150531:0:0:0:0:
448,192,150531,1,0,0:0:0:0:
192,192,150531,1,0,0:0:0:0:
320,192,150531,1,0,0:0:0:0:
64,192,150875,1,0,0:0:0:0:
64,192,150962,1,0,0:0:0:0:
64,192,151048,1,0,0:0:0:0:
320,192,151048,1,0,0:0:0:0:
64,192,151134,1,0,0:0:0:0:
448,192,151220,1,0,0:0:0:0:
192,192,151220,1,0,0:0:0:0:
320,192,151220,1,0,0:0:0:0:
448,192,151306,1,0,0:0:0:0:
448,192,151393,1,0,0:0:0:0:
448,192,151479,1,0,0:0:0:0:
64,192,151565,1,0,0:0:0:0:
192,192,151565,1,0,0:0:0:0:
448,192,151651,1,0,0:0:0:0:
320,192,151737,1,0,0:0:0:0:
448,192,151824,1,0,0:0:0:0:
320,192,151910,1,0,0:0:0:0:
192,192,151910,1,0,0:0:0:0:
64,192,151910,1,0,0:0:0:0:
448,192,151996,1,0,0:0:0:0:
448,192,152082,1,0,0:0:0:0:
320,192,152168,1,0,0:0:0:0:
320,192,152255,1,0,0:0:0:0:
320,192,152427,1,0,0:0:0:0:
64,192,152427,1,0,0:0:0:0:
320,192,152513,1,0,0:0:0:0:
192,192,152600,1,0,0:0:0:0:
448,192,152600,1,0,0:0:0:0:
64,192,152600,1,0,0:0:0:0:
192,192,152686,1,0,0:0:0:0:
320,192,152772,1,0,0:0:0:0:
448,192,152944,128,0,153203:0:0:0:0:
320,192,153031,128,0,153203:0:0:0:0:
192,192,153117,128,0,153203:0:0:0:0:
64,192,153203,128,0,153634:0:0:0:0:
320,192,153289,1,0,0:0:0:0:
448,192,153289,1,0,0:0:0:0:
192,192,153289,1,0,0:0:0:0:
192,192,153634,1,0,0:0:0:0:
64,192,153806,1,0,0:0:0:0:
192,192,153828,1,0,0:0:0:0:
320,192,153828,1,0,0:0:0:0:
448,192,153850,128,0,153979:0:0:0:0:
64,192,154065,1,0,0:0:0:0:
320,192,154087,1,0,0:0:0:0:
192,192,154087,1,0,0:0:0:0:
448,192,154108,128,0,154237:0:0:0:0:
64,192,154324,1,0,0:0:0:0:
192,192,154345,1,0,0:0:0:0:
320,192,154345,1,0,0:0:0:0:
448,192,154367,128,0,154496:0:0:0:0:
64,192,154582,1,0,0:0:0:0:
320,192,154604,1,0,0:0:0:0:
192,192,154604,1,0,0:0:0:0:
448,192,154625,128,0,154755:0:0:0:0:
64,192,154841,1,0,0:0:0:0:
192,192,154862,1,0,0:0:0:0:
320,192,154862,1,0,0:0:0:0:
448,192,154884,128,0,155013:0:0:0:0:
64,192,155100,1,0,0:0:0:0:
320,192,155121,1,0,0:0:0:0:
192,192,155121,1,0,0:0:0:0:
448,192,155143,128,0,155272:0:0:0:0:
64,192,155358,128,0,155703:0:0:0:0:
448,192,155358,1,0,0:0:0:0:
448,192,155444,1,0,0:0:0:0:
320,192,155531,1,0,0:0:0:0:
320,192,155617,1,0,0:0:0:0:
448,192,155703,1,0,0:0:0:0:
192,192,155760,1,0,0:0:0:0:
64,192,155818,1,0,0:0:0:0:
320,192,155875,128,0,156048:0:0:0:0:
448,192,156048,1,0,0:0:0:0:
192,192,156048,1,0,0:0:0:0:
64,192,156048,1,0,0:0:0:0:
64,192,156393,1,0,0:0:0:0:
64,192,156479,1,0,0:0:0:0:
64,192,156565,1,0,0:0:0:0:
448,192,156565,1,0,0:0:0:0:
64,192,156651,1,0,0:0:0:0:
320,192,156737,1,0,0:0:0:0:
192,192,156737,1,0,0:0:0:0:
448,192,156737,1,0,0:0:0:0:
320,192,156824,1,0,0:0:0:0:
320,192,156910,1,0,0:0:0:0:
320,192,156996,1,0,0:0:0:0:
64,192,157082,1,0,0:0:0:0:
192,192,157082,1,0,0:0:0:0:
320,192,157168,1,0,0:0:0:0:
192,192,157255,1,0,0:0:0:0:
320,192,157341,1,0,0:0:0:0:
448,192,157427,1,0,0:0:0:0:
192,192,157427,1,0,0:0:0:0:
64,192,157427,1,0,0:0:0:0:
320,192,157513,1,0,0:0:0:0:
320,192,157600,1,0,0:0:0:0:
192,192,157686,1,0,0:0:0:0:
192,192,157772,1,0,0:0:0:0:
320,192,157944,1,0,0:0:0:0:
448,192,157944,1,0,0:0:0:0:
320,192,158031,1,0,0:0:0:0:
192,192,158117,1,0,0:0:0:0:
64,192,158117,1,0,0:0:0:0:
448,192,158117,1,0,0:0:0:0:
192,192,158203,1,0,0:0:0:0:
320,192,158289,1,0,0:0:0:0:
64,192,158462,1,0,0:0:0:0:
192,192,158490,1,0,0:0:0:0:
320,192,158519,1,0,0:0:0:0:
448,192,158548,1,0,0:0:0:0:
64,192,158720,1,0,0:0:0:0:
192,192,158749,1,0,0:0:0:0:
448,192,158778,1,0,0:0:0:0:
320,192,158806,1,0,0:0:0:0:
64,192,158979,1,0,0:0:0:0:
192,192,159008,1,0,0:0:0:0:
320,192,159036,1,0,0:0:0:0:
448,192,159065,1,0,0:0:0:0:
64,192,159151,128,0,159496:0:0:0:0:
192,192,159151,1,0,0:0:0:0:
320,192,159237,1,0,0:0:0:0:
192,192,159324,1,0,0:0:0:0:
448,192,159410,1,0,0:0:0:0:
192,192,159496,128,0,159841:0:0:0:0:
320,192,159496,1,0,0:0:0:0:
64,192,159668,1,0,0:0:0:0:
320,192,159755,1,0,0:0:0:0:
64,192,159841,128,0,160186:0:0:0:0:
448,192,159841,1,0,0:0:0:0:
320,192,159927,1,0,0:0:0:0:
192,192,160013,1,0,0:0:0:0:
448,192,160056,128,0,160186:0:0:0:0:
320,192,160100,1,0,0:0:0:0:
192,192,160186,1,0,0:0:0:0:
448,192,160229,128,0,160358:0:0:0:0:
64,192,160272,1,0,0:0:0:0:
320,192,160358,1,0,0:0:0:0:
448,192,160401,128,0,160531:0:0:0:0:
192,192,160444,1,0,0:0:0:0:
64,192,160531,1,0,0:0:0:0:
320,192,160660,1,0,0:0:0:0:
192,192,160703,1,0,0:0:0:0:
64,192,160703,1,0,0:0:0:0:
320,192,160768,1,0,0:0:0:0:
192,192,160875,1,0,0:0:0:0:
64,192,160875,1,0,0:0:0:0:
448,192,160875,128,0,161220:0:0:0:0:
64,192,161220,1,0,0:0:0:0:
192,192,161278,1,0,0:0:0:0:
320,192,161335,1,0,0:0:0:0:
448,192,161393,128,0,161565:0:0:0:0:
320,192,161565,1,0,0:0:0:0:
192,192,161565,1,0,0:0:0:0:
64,192,161565,1,0,0:0:0:0:
192,192,161910,1,0,0:0:0:0:
192,192,161996,1,0,0:0:0:0:
192,192,162082,1,0,0:0:0:0:
64,192,162082,1,0,0:0:0:0:
192,192,162168,1,0,0:0:0:0:
448,192,162255,1,0,0:0:0:0:
320,192,162255,1,0,0:0:0:0:
64,192,162255,1,0,0:0:0:0:
448,192,162341,1,0,0:0:0:0:
448,192,162427,1,0,0:0:0:0:
448,192,162513,1,0,0:0:0:0:
192,192,162600,1,0,0:0:0:0:
64,192,162600,1,0,0:0:0:0:
320,192,162686,1,0,0:0:0:0:
192,192,162772,1,0,0:0:0:0:
320,192,162858,1,0,0:0:0:0:
192,192,162944,1,0,0:0:0:0:
448,192,162944,1,0,0:0:0:0:
64,192,162944,1,0,0:0:0:0:
320,192,163031,1,0,0:0:0:0:
320,192,163117,1,0,0:0:0:0:
192,192,163203,1,0,0:0:0:0:
192,192,163289,1,0,0:0:0:0:
448,192,163462,1,0,0:0:0:0:
320,192,163462,1,0,0:0:0:0:
64,192,163634,1,0,0:0:0:0:
192,192,163634,1,0,0:0:0:0:
448,192,163634,1,0,0:0:0:0:
448,192,163979,128,0,164237:0:0:0:0:
320,192,164065,128,0,164237:0:0:0:0:
192,192,164151,128,0,164237:0:0:0:0:
64,192,164237,128,0,164668:0:0:0:0:
192,192,164324,1,0,0:0:0:0:
320,192,164324,1,0,0:0:0:0:
448,192,164324,1,0,0:0:0:0:
192,192,164668,1,0,0:0:0:0:
320,192,164668,1,0,0:0:0:0:
448,192,164668,1,0,0:0:0:0:
448,192,164841,1,0,0:0:0:0:
64,192,164841,1,0,0:0:0:0:
64,192,165013,1,0,0:0:0:0:
192,192,165013,1,0,0:0:0:0:
320,192,165013,1,0,0:0:0:0:
448,192,165186,1,0,0:0:0:0:
320,192,165186,1,0,0:0:0:0:
64,192,165358,1,0,0:0:0:0:
192,192,165358,1,0,0:0:0:0:
448,192,165358,1,0,0:0:0:0:
192,192,165531,1,0,0:0:0:0:
320,192,165531,1,0,0:0:0:0:
320,192,165617,1,0,0:0:0:0:
448,192,165617,1,0,0:0:0:0:
64,192,165617,1,0,0:0:0:0:
64,192,165875,1,0,0:0:0:0:
192,192,165875,1,0,0:0:0:0:
448,192,165875,1,0,0:0:0:0:
320,192,166048,1,0,0:0:0:0:
448,192,166048,1,0,0:0:0:0:
64,192,166134,1,0,0:0:0:0:
192,192,166134,1,0,0:0:0:0:
320,192,166134,1,0,0:0:0:0:
448,192,166393,1,0,0:0:0:0:
320,192,166393,1,0,0:0:0:0:
192,192,166393,1,0,0:0:0:0:
320,192,166565,1,0,0:0:0:0:
320,192,166651,1,0,0:0:0:0:
64,192,166737,1,0,0:0:0:0:
448,192,166737,1,0,0:0:0:0:
