osu file format v128

[General]
AudioFilename: Music_Camellia_-_Racemization.mp3
AudioLeadIn: 0
PreviewTime: 223237
Countdown: 0
SampleSet: Normal
StackLeniency: 0.5
Mode: 0
LetterboxInBreaks: 0
WidescreenStoryboard: 1

[Editor]
Bookmarks: 315242
DistanceSpacing: 0.5
BeatDivisor: 4
GridSize: 4
TimelineZoom: 3.099999

[Metadata]
Title: Racemization
TitleUnicode: Racemization
Artist: Camellia
ArtistUnicode: かめりあ
Creator: Squigly
Version: scanter's Another
Tags: Featured Artist Instrumental Electronic scanter deetz Bonzi Frostings CelsiusLK TKS taiko_maniac1811 Jerry
BeatmapID: 952157
BeatmapSetID: 373363

[Difficulty]
HPDrainRate: 6
CircleSize: 5
OverallDifficulty: 8
ApproachRate: 9.3
SliderMultiplier: 1.7
SliderTickRate: 1

[Events]
0,0,"future_horizon_2560x1440.jpg",0,0
2,129575,138327
2,196111,203673

[TimingPoints]
5812,297.029702970297,4,1,0,100,1,0
43831,-142.857142857143,4,1,0,100,0,0
44722,-100,4,1,0,100,0,0
45019,-142.857142857143,4,1,0,100,0,0
47099,-100,4,1,0,100,0,0
47396,-142.857142857143,4,1,0,100,0,0
49475,-100,4,1,0,100,0,0
49772,-142.857142857143,4,1,0,100,0,0
51851,-100,4,1,0,100,0,0
52148,-142.857142857143,4,1,0,100,0,0
58089,-111.111111111111,4,1,0,100,0,0
61653,-100,4,1,0,100,0,0
62841,-142.857142857143,4,1,0,100,0,0
63435,-100,4,1,0,100,0,0
65217,-142.857142857143,4,1,0,100,0,0
65812,-100,4,1,0,100,0,0
67000,-90.9090909090909,4,1,0,100,0,0
67594,-142.857142857143,4,1,0,100,0,0
68188,-100,4,1,0,100,0,0
69970,-83.3333333333333,4,1,0,45,0,1
70267,-142.857142857143,4,1,0,45,0,0
70564,-90.9090909090909,4,1,0,45,0,1
70861,-142.857142857143,4,1,0,45,0,0
71010,-100,4,1,0,45,0,1
71084,-100,4,1,0,45,0,0
71307,-100,4,1,0,45,0,1
71381,-100,4,1,0,45,0,0
71455,-100,4,1,0,45,0,1
71529,-100,4,1,0,45,0,0
72346,-142.857142857143,4,1,0,45,0,0
72940,-100,4,1,0,45,0,0
74722,-142.857142857143,4,1,0,45,0,0
75316,-100,4,1,0,45,0,0
76505,-90.9090909090909,4,1,0,45,0,0
77099,-142.857142857143,4,1,0,45,0,0
81851,-125,4,1,0,45,0,0
88386,-100,4,1,0,45,0,0
91356,-90.9090909090909,4,1,0,45,0,1
93732,-111.111111111111,4,1,0,45,0,1
94772,-90.9090909090909,4,1,0,45,0,1
96109,-125,4,1,0,45,0,1
98188,-90.9090909090909,4,1,0,45,0,1
98485,-83.3333333333333,4,1,0,45,0,1
98782,-142.857142857143,4,1,0,45,0,0
99079,-90.9090909090909,4,1,0,45,0,1
99376,-142.857142857143,4,1,0,45,0,1
99524,-100,4,1,0,45,0,1
100861,-90.9090909090909,4,1,0,45,0,1
103237,-111.111111111111,4,1,0,45,0,1
104277,-90.9090909090909,4,1,0,45,0,1
105613,-200,4,1,0,45,0,0
106208,-100,4,1,0,45,0,1
109475,-100,4,1,0,45,0,0
119871,-142.857142857143,4,1,0,45,0,0
120168,-100,4,1,0,45,0,0
127148,-90.9090909090909,4,1,0,45,0,0
127445,-83.3333333333333,4,1,0,45,0,0
127742,-76.9230769230769,4,1,0,45,0,0
128039,-71.4285714285714,4,1,0,45,0,0
128336,-66.6666666666667,4,1,0,45,0,0
128633,-62.5,4,1,0,45,0,0
128930,-58.8235294117647,4,1,0,45,0,0
129227,-55.5555555555556,4,1,0,45,0,0
129376,-200,4,1,0,45,0,0
148386,-142.857142857143,4,1,0,45,0,0
167396,-125,4,1,0,45,0,0
167990,-83.3333333333333,4,1,0,45,0,0
168287,-142.857142857143,4,1,0,45,0,0
170069,-125,4,1,0,45,0,0
170366,-83.3333333333333,4,1,0,45,0,0
170663,-142.857142857143,4,1,0,45,0,0
171554,-83.3333333333333,4,1,0,45,0,0
172148,-125,4,1,0,45,0,0
172742,-83.3333333333333,4,1,0,45,0,0
173039,-111.111111111111,4,1,0,45,0,0
173930,-142.857142857143,4,1,0,45,0,0
174821,-111.111111111111,4,1,0,45,0,0
175118,-83.3333333333333,4,1,0,45,0,0
175415,-100,4,1,0,45,0,0
176307,-83.3333333333333,4,1,0,45,0,0
176901,-125,4,1,0,45,0,0
177495,-83.3333333333333,4,1,0,45,0,0
177792,-142.857142857143,4,1,0,45,0,0
178683,-83.3333333333333,4,1,0,45,0,0
179574,-125,4,1,0,45,0,0
179871,-83.3333333333333,4,1,0,45,0,0
180168,-142.857142857143,4,1,0,45,0,0
181059,-83.3333333333333,4,1,0,45,0,0
181653,-142.857142857143,4,1,0,45,0,0
182247,-83.3333333333333,4,1,0,45,0,0
182544,-125,4,1,0,45,0,0
183435,-83.3333333333333,4,1,0,45,0,0
184029,-142.857142857143,4,1,0,45,0,0
186406,-83.3333333333333,4,1,0,45,0,0
186851,-100,4,1,0,70,0,1
187297,-90.9090909090909,4,1,0,70,0,1
187742,-83.3333333333333,4,1,0,70,0,1
188188,-76.9230769230769,4,1,0,70,0,1
188782,-200,4,1,0,70,0,0
189227,-100,4,1,0,70,0,1
189673,-90.9090909090909,4,1,0,70,0,1
190118,-83.3333333333333,4,1,0,70,0,1
190564,-76.9230769230769,4,1,0,70,0,1
191158,-200,4,1,0,70,0,0
191604,-100,4,1,0,70,0,1
192049,-90.9090909090909,4,1,0,70,0,1
192495,-83.3333333333333,4,1,0,70,0,1
192940,-76.9230769230769,4,1,0,70,0,1
193534,-200,4,1,0,70,0,0
193980,-100,4,1,0,70,0,1
194425,-90.9090909090909,4,1,0,70,0,1
194871,-83.3333333333333,4,1,0,70,0,1
195316,-76.9230769230769,4,1,0,70,0,1
195911,-200,4,1,0,70,0,0
205415,-142.857142857143,4,1,0,70,0,0
206307,-100,4,1,0,70,0,0
206604,-142.857142857143,4,1,0,70,0,0
208683,-100,4,1,0,70,0,0
208980,-142.857142857143,4,1,0,70,0,0
211059,-100,4,1,0,70,0,0
211356,-142.857142857143,4,1,0,70,0,0
213435,-100,4,1,0,70,0,0
213732,-142.857142857143,4,1,0,70,0,0
214920,-100,4,1,0,70,0,0
224425,-83.3333333333333,4,1,0,50,0,1
238683,-142.857142857143,4,1,0,30,0,0
238980,-83.3333333333333,4,1,0,50,0,1
242247,-166.666666666667,4,1,0,50,0,0
244029,-100,4,1,0,50,0,0
250267,-142.857142857143,4,1,0,50,0,0
250564,-100,4,1,0,50,0,0

[Colours]
Combo1: 255,210,74,255
Combo2: 116,220,118,255
Combo3: 227,213,193,255
Combo4: 240,155,79,255

[HitObjects]
256,192,42643,12,0,43683,1:0:0:0:
80,288,43831,6,0,P|134:311|202:283,1,118.999996368408,0|0,1:0|1:0,1:0:0:0:
244,227,44277,1,0,1:0:0:0:
425,100,44722,6,0,L|421:190,1,85,0|0,1:0|1:0,1:0:0:0:
403,323,45019,6,0,P|359:348|278:340,1,118.999996368408,0|0,1:0|1:0,1:0:0:0:
225,291,45465,1,0,1:0:0:0:
449,234,45762,1,0,1:0:0:0:
144,230,46208,6,0,L|136:110,1,118.999996368408,0|0,1:0|1:0,1:0:0:0:
128,26,46653,1,0,1:0:0:0:
396,123,47099,6,0,P|354:159|310:168,1,85,0|0,1:0|1:0,1:0:0:0:
199,263,47396,6,0,B|280:288|280:288|339:253|339:253|359:366|359:366|419:325|419:325|514:349,1,416.499987289429,0|0,1:0|1:0,1:0:0:0:
399,183,48584,6,0,P|357:163|275:177,1,118.999996368408,0|0,1:0|1:0,1:0:0:0:
205,139,49029,1,0,1:0:0:0:
429,19,49475,6,0,P|437:62|431:111,1,85,0|0,1:0|1:0,1:0:0:0:
453,274,49772,6,0,B|397:287|397:287|323:263,1,118.999996368408,0|0,1:0|1:0,1:0:0:0:
256,239,50217,1,0,1:0:0:0:
78,362,50514,1,0,1:0:0:0:
36,168,50960,6,0,P|65:124|132:112,1,118.999996368408,0|0,1:0|1:0,1:0:0:0:
210,132,51406,1,0,1:0:0:0:
445,129,51851,6,0,P|464:94|466:32,1,85,0|0,1:0|1:0,1:0:0:0:
359,247,52148,6,0,B|323:252|298:230|298:230|258:262|258:262|218:230|218:230|180:261|180:261|138:229|138:229|95:263|95:263|60:211|0:209,1,416.499987289429,0|0,1:0|1:0,1:0:0:0:
0,324,53336,5,0,1:0:0:0:
0,117,53633,1,0,1:0:0:0:
75,267,53930,1,0,1:0:0:0:
75,60,54227,1,0,1:0:0:0:
142,324,54524,5,0,1:0:0:0:
142,117,54821,1,0,1:0:0:0:
212,267,55118,1,0,1:0:0:0:
212,60,55415,1,0,1:0:0:0:
281,324,55712,5,0,1:0:0:0:
281,117,56009,1,0,1:0:0:0:
353,266,56306,1,0,1:0:0:0:
353,59,56603,1,0,1:0:0:0:
423,324,56900,5,0,1:0:0:0:
423,117,57197,1,0,1:0:0:0:
502,266,57494,1,0,1:0:0:0:
502,59,57791,1,0,1:0:0:0:
423,324,58089,5,0,1:0:0:0:
365,248,58237,1,0,1:0:0:0:
442,192,58386,1,0,1:0:0:0:
502,266,58534,1,0,1:0:0:0:
423,324,58683,1,0,1:0:0:0:
397,339,58757,1,0,1:0:0:0:
369,346,58831,1,0,1:0:0:0:
339,344,58905,1,0,1:0:0:0:
312,333,58980,1,0,1:0:0:0:
365,248,59128,1,0,1:0:0:0:
264,248,59277,6,0,L|185:250,1,76.4999976654053,0|0,1:0|1:0,1:0:0:0:
62,322,59574,2,0,L|150:324,1,76.4999976654053,0|0,1:0|1:0,1:0:0:0:
264,248,59871,1,0,1:0:0:0:
268,218,59945,1,0,1:0:0:0:
272,188,60019,1,0,1:0:0:0:
276,158,60094,1,0,1:0:0:0:
280,128,60168,2,0,P|271:105|253:88,1,38.2499988327027,0|0,1:0|1:0,1:0:0:0:
200,56,60316,2,0,P|179:52|149:59,1,38.2499988327027,0|0,1:0|1:0,1:0:0:0:
100,93,60465,6,0,P|79:126|83:182,1,76.4999976654053,0|0,1:0|1:0,1:0:0:0:
73,301,60762,2,0,L|25:297,3,38.2499988327027,0|0|0|0,1:0|1:0|1:0|1:0,1:0:0:0:
122,351,61059,2,0,L|161:355,3,38.2499988327027,0|0|0|0,1:0|1:0|1:0|1:0,1:0:0:0:
228,326,61356,1,0,1:0:0:0:
246,324,61430,1,0,1:0:0:0:
264,322,61505,1,0,1:0:0:0:
283,321,61579,1,0,1:0:0:0:
302,319,61653,6,0,B|343:316|343:316|352:323|352:323|411:319|411:319|418:310|418:310|468:308,1,170,0|0,1:0|1:0,1:0:0:0:
362,141,62099,2,0,L|371:240,1,85,0|0,1:0|1:0,1:0:0:0:
369,225,62396,1,0,1:0:0:0:
438,100,62544,2,0,L|446:3,1,85,0|0,1:0|1:0,1:0:0:0:
310,74,62841,6,0,B|272:87|272:87|238:75|238:75|204:88|204:88|170:76|170:76|138:88,1,178.499994552612,0|0,1:0|1:0,1:0:0:0:
168,169,63435,5,0,1:0:0:0:
199,249,63584,1,0,1:0:0:0:
207,251,63658,1,0,1:0:0:0:
215,253,63732,1,0,1:0:0:0:
142,314,63881,1,0,1:0:0:0:
116,235,64029,1,0,1:0:0:0:
59,299,64178,1,0,1:0:0:0:
30,218,64326,1,0,1:0:0:0:
84,153,64475,5,0,1:0:0:0:
81,145,64549,1,0,1:0:0:0:
79,137,64623,1,0,1:0:0:0:
199,249,64772,1,0,1:0:0:0:
59,299,64920,1,0,1:0:0:0:
53,304,64994,1,0,1:0:0:0:
47,310,65068,1,0,1:0:0:0:
199,249,65217,6,0,B|262:241|262:241|304:273|304:273|371:261,1,178.499994552612,0|0,1:0|1:0,1:0:0:0:
429,206,65812,5,0,1:0:0:0:
439,120,65960,1,0,1:0:0:0:
507,174,66109,1,0,1:0:0:0:
361,151,66257,6,0,P|304:163|241:94,1,127.5,0|0,1:0|1:0,1:0:0:0:
439,120,66554,2,0,L|497:120,1,42.5,0|0,1:0|1:0,1:0:0:0:
350,178,66703,6,0,P|291:174|248:91,1,127.5,0|0,1:0|1:0,1:0:0:0:
268,14,67000,6,0,B|219:43|219:43|168:28|168:28|120:62|120:62|67:48|67:48|10:91,1,280.500008560181,0|0,1:0|1:0,1:0:0:0:
37,212,67594,6,0,B|83:226|121:191|121:191|156:228|217:211,1,178.499994552612,0|0,1:0|1:0,1:0:0:0:
288,194,68188,5,0,1:0:0:0:
257,114,68337,1,0,1:0:0:0:
249,112,68411,1,0,1:0:0:0:
241,110,68485,1,0,1:0:0:0:
314,49,68634,1,0,1:0:0:0:
340,128,68782,1,0,1:0:0:0:
397,64,68931,1,0,1:0:0:0:
426,145,69079,1,0,1:0:0:0:
372,210,69228,5,0,1:0:0:0:
375,218,69302,1,0,1:0:0:0:
377,226,69376,1,0,1:0:0:0:
257,114,69525,1,0,1:0:0:0:
397,64,69673,1,0,1:0:0:0:
400,56,69747,1,0,1:0:0:0:
403,48,69821,1,0,1:0:0:0:
406,40,69896,1,0,1:0:0:0:
410,30,69970,6,0,B|429:88|429:88|451:105|451:105|473:179,1,152.999995330811,0|0,1:0|1:0,1:0:0:0:
427,230,70267,1,0,1:0:0:0:
422,237,70341,1,0,1:0:0:0:
414,242,70415,1,0,1:0:0:0:
405,246,70490,1,0,1:0:0:0:
395,247,70564,6,0,B|351:231|351:231|372:302|372:302|317:355,1,187.000005706787,0|0,1:0|1:0,1:0:0:0:
145,321,71010,2,0,B|104:341|104:341|11:312,1,127.5,0|0,1:0|1:0,1:0:0:0:
177,258,71307,2,0,L|233:261,1,42.5,0|0,1:0|1:0,1:0:0:0:
145,335,71455,6,0,B|104:355|104:355|11:326,1,127.5,0|0,1:0|1:0,1:0:0:0:
102,261,71752,6,0,L|100:214,1,42.5,0|0,1:0|1:0,1:0:0:0:
20,195,71901,2,0,L|22:242,1,42.5,0|0,1:0|1:0,1:0:0:0:
113,247,72049,6,0,L|111:200,1,42.5,0|0,1:0|1:0,1:0:0:0:
31,181,72198,2,0,L|33:228,1,42.5,0|0,1:0|1:0,1:0:0:0:
124,237,72346,6,0,B|147:185|147:185|118:134|118:134|149:61,1,178.499994552612,0|0,1:0|1:0,1:0:0:0:
271,95,72940,5,0,1:0:0:0:
349,126,73089,1,0,1:0:0:0:
349,126,73163,1,0,1:0:0:0:
349,126,73237,1,0,1:0:0:0:
216,159,73386,1,0,1:0:0:0:
343,210,73535,1,0,1:0:0:0:
271,95,73683,1,0,1:0:0:0:
261,231,73831,1,0,1:0:0:0:
418,174,73980,5,0,1:0:0:0:
418,174,74054,1,0,1:0:0:0:
418,174,74128,1,0,1:0:0:0:
289,166,74277,1,0,1:0:0:0:
330,43,74425,1,0,1:0:0:0:
330,43,74500,1,0,1:0:0:0:
330,43,74574,1,0,1:0:0:0:
466,114,74722,6,0,P|493:159|425:250,1,178.499994552612,0|0,1:0|1:0,1:0:0:0:
340,129,75316,1,0,1:0:0:0:
344,217,75465,1,0,1:0:0:0:
418,174,75613,1,0,1:0:0:0:
265,178,75762,6,0,L|124:193,1,127.5,0|0,1:0|1:0,1:0:0:0:
30,231,76059,2,0,L|89:237,1,42.5,0|0,1:0|1:0,1:0:0:0:
273,191,76208,6,0,L|132:206,1,127.5,0|0,1:0|1:0,1:0:0:0:
16,244,76505,6,0,B|98:251|98:251|61:324|61:324|192:336,1,280.500008560181,0|0,1:0|1:0,1:0:0:0:
278,273,77099,6,0,P|334:267|295:350,1,178.499994552612,0|0,1:0|1:0,1:0:0:0:
176,264,77693,5,0,1:0:0:0:
98,233,77842,1,0,1:0:0:0:
98,233,77916,1,0,1:0:0:0:
98,233,77990,1,0,1:0:0:0:
231,200,78139,1,0,1:0:0:0:
104,149,78288,1,0,1:0:0:0:
176,264,78436,1,0,1:0:0:0:
186,128,78584,1,0,1:0:0:0:
29,185,78733,5,0,1:0:0:0:
29,185,78807,1,0,1:0:0:0:
29,185,78881,1,0,1:0:0:0:
158,193,79030,1,0,1:0:0:0:
117,316,79178,1,0,1:0:0:0:
117,316,79253,1,0,1:0:0:0:
117,316,79327,1,0,1:0:0:0:
67,59,79475,5,0,1:0:0:0:
256,192,79549,8,0,81554,1:0:0:0:
0,64,81851,5,0,1:0:0:0:
64,120,82148,1,0,1:0:0:0:
128,64,82445,1,0,1:0:0:0:
192,120,82742,1,0,1:0:0:0:
256,64,83039,1,0,1:0:0:0:
320,120,83336,1,0,1:0:0:0:
384,64,83633,1,0,1:0:0:0:
448,120,83930,1,0,1:0:0:0:
512,264,84227,5,0,1:0:0:0:
448,320,84524,1,0,1:0:0:0:
384,264,84821,1,0,1:0:0:0:
320,320,85118,1,0,1:0:0:0:
256,264,85415,1,0,1:0:0:0:
192,320,85712,1,0,1:0:0:0:
128,264,86009,1,0,1:0:0:0:
64,320,86306,1,0,1:0:0:0:
5,111,86604,5,0,1:0:0:0:
90,89,86752,1,0,1:0:0:0:
113,174,86901,1,0,1:0:0:0:
28,197,87049,1,0,1:0:0:0:
90,89,87198,5,0,1:0:0:0:
175,67,87346,1,0,1:0:0:0:
198,152,87495,1,0,1:0:0:0:
113,175,87643,1,0,1:0:0:0:
175,67,87792,5,0,1:0:0:0:
260,45,87940,1,0,1:0:0:0:
283,130,88089,1,0,1:0:0:0:
198,153,88237,1,0,1:0:0:0:
260,45,88386,5,0,1:0:0:0:
345,23,88534,1,0,1:0:0:0:
368,108,88683,1,0,1:0:0:0:
283,131,88831,1,0,1:0:0:0:
433,187,88980,5,0,1:0:0:0:
433,187,89054,1,0,1:0:0:0:
433,187,89128,1,0,1:0:0:0:
319,292,89277,2,0,L|271:305,1,42.5,0|0,1:0|1:0,1:0:0:0:
471,273,89500,2,0,L|517:290,1,42.5,0|0,1:0|1:0,1:0:0:0:
332,201,89722,2,0,L|304:159,1,42.5,0|0,1:0|1:0,1:0:0:0:
403,335,89945,2,0,L|400:384,1,42.5,0|0,1:0|1:0,1:0:0:0:
394,255,90168,5,0,1:0:0:0:
366,168,91356,6,0,B|321:179|321:179|277:161|277:161|208:175,1,140.25000428009,0|0,1:0|1:0,1:0:0:0:
164,190,91653,1,0,1:0:0:0:
179,94,91802,1,0,1:0:0:0:
239,249,91950,1,0,1:0:0:0:
91,128,92099,1,0,1:0:0:0:
91,128,92173,1,0,1:0:0:0:
91,128,92247,1,0,1:0:0:0:
164,190,92396,1,0,1:0:0:0:
2,158,92544,5,0,1:0:0:0:
2,158,92618,1,0,1:0:0:0:
2,158,92693,1,0,1:0:0:0:
179,94,92841,2,0,B|165:46|165:46|123:5,1,93.5000028533936,0|0,1:0|1:0,1:0:0:0:
164,190,93138,1,0,1:0:0:0:
164,190,93212,1,0,1:0:0:0:
164,190,93287,1,0,1:0:0:0:
22,66,93435,1,0,1:0:0:0:
22,66,93510,1,0,1:0:0:0:
22,66,93584,1,0,1:0:0:0:
76,219,93732,6,0,P|111:264|176:272,1,114.749996498108,0|0,1:0|1:0,1:0:0:0:
50,148,94029,2,0,L|11:145,1,38.2499988327027,0|0,1:0|1:0,1:0:0:0:
64,244,94178,6,0,P|109:278|174:269,1,114.749996498108,0|0,1:0|1:0,1:0:0:0:
200,207,94475,2,0,L|197:162,1,38.2499988327027,0|0,1:0|1:0,1:0:0:0:
246,110,94623,2,0,L|242:53,1,38.2499988327027,0|0,1:0|1:0,1:0:0:0:
300,17,94772,6,0,B|426:1|426:1|360:59,1,187.000005706787,0|0,1:0|1:0,1:0:0:0:
240,153,95217,2,0,B|177:161|177:161|210:132,1,93.5000028533936,0|0,1:0|1:0,1:0:0:0:
277,89,95440,6,0,P|310:129|311:172,1,93.5000028533936,0|0,1:0|1:0,1:0:0:0:
377,204,95663,2,0,P|344:204|325:193,1,46.7500014266968,0|0,1:0|1:0,1:0:0:0:
260,278,95812,2,0,P|273:213|309:191,1,93.5000028533936,0|0,1:0|1:0,1:0:0:0:
377,363,96109,6,0,L|270:349,1,102,0|0,1:0|1:0,1:0:0:0:
206,337,96406,1,0,1:0:0:0:
265,264,96554,1,0,1:0:0:0:
115,322,96703,1,0,1:0:0:0:
115,322,96777,1,0,1:0:0:0:
115,322,96851,1,0,1:0:0:0:
115,322,96925,1,0,1:0:0:0:
115,322,97000,1,0,1:0:0:0:
172,247,97148,1,0,1:0:0:0:
300,352,97297,5,0,1:0:0:0:
300,352,97371,1,0,1:0:0:0:
300,352,97445,1,0,1:0:0:0:
238,180,97594,1,0,1:0:0:0:
172,247,97742,1,0,1:0:0:0:
57,139,97891,1,0,1:0:0:0:
57,139,97965,1,0,1:0:0:0:
57,139,98039,1,0,1:0:0:0:
217,88,98188,6,0,P|279:91|329:165,1,140.25000428009,0|0,1:0|1:0,1:0:0:0:
333,220,98485,6,0,B|432:227|432:227|488:194,1,152.999995330811,0|0,1:0|1:0,1:0:0:0:
512,265,98782,6,0,P|524:307|507:351,1,89.2499972763062,0|0,1:0|1:0,1:0:0:0:
439,360,99079,6,0,B|401:321|401:321|294:312,1,140.25000428009,0|0,1:0|1:0,1:0:0:0:
256,356,99376,6,0,L|226:352,1,29.7499990921021,0|0,1:0|1:0,1:0:0:0:
162,317,99524,6,0,P|133:263|24:263,1,170,0|0,1:0|1:0,1:0:0:0:
80,328,99970,1,0,1:0:0:0:
168,175,100192,2,0,L|52:149,1,85,0|0,1:0|1:0,1:0:0:0:
195,197,100415,2,0,L|215:259,1,42.5,0|0,1:0|1:0,1:0:0:0:
196,156,100564,2,0,L|257:87,1,85,0|0,1:0|1:0,1:0:0:0:
404,70,100861,6,0,P|449:105|462:190,1,140.25000428009,0|0,1:0|1:0,1:0:0:0:
424,246,101158,1,0,1:0:0:0:
375,161,101307,1,0,1:0:0:0:
341,290,101455,1,0,1:0:0:0:
341,290,101529,1,0,1:0:0:0:
341,290,101604,1,0,1:0:0:0:
341,290,101678,1,0,1:0:0:0:
341,290,101752,1,0,1:0:0:0:
294,210,101901,1,0,1:0:0:0:
260,339,102049,5,0,1:0:0:0:
260,339,102123,1,0,1:0:0:0:
260,339,102198,1,0,1:0:0:0:
294,210,102346,1,0,1:0:0:0:
212,256,102495,1,0,1:0:0:0:
246,127,102643,1,0,1:0:0:0:
246,127,102717,1,0,1:0:0:0:
246,127,102792,1,0,1:0:0:0:
212,256,102940,1,0,1:0:0:0:
212,256,103015,1,0,1:0:0:0:
212,256,103089,1,0,1:0:0:0:
166,174,103237,6,0,B|69:162|69:162|93:190,1,114.749996498108,0|0,1:0|1:0,1:0:0:0:
209,230,103534,2,0,L|258:223,1,38.2499988327027,0|0,1:0|1:0,1:0:0:0:
150,186,103683,6,0,B|57:174|57:174|84:205,1,114.749996498108,0|0,1:0|1:0,1:0:0:0:
36,254,103980,1,0,1:0:0:0:
85,75,104128,1,0,1:0:0:0:
253,100,104277,6,0,B|335:108|335:108|383:79|383:79|334:88,1,187.000005706787,0|0,1:0|1:0,1:0:0:0:
482,150,104722,2,0,B|441:146|441:146|417:160|417:160|441:155,1,93.5000028533936,0|0,1:0|1:0,1:0:0:0:
469,226,104945,6,0,B|445:262|445:262|374:276,1,93.5000028533936,0|0,1:0|1:0,1:0:0:0:
329,225,105168,2,0,B|350:226|350:226|374:253,1,46.7500014266968,0|0,1:0|1:0,1:0:0:0:
365,373,105316,2,0,B|345:334|345:334|369:265,1,93.5000028533936,0|0,1:0|1:0,1:0:0:0:
204,299,105613,6,0,P|148:276|94:328,1,127.5,0|0,1:0|1:0,1:0:0:0:
8,178,106208,6,0,B|58:196|58:196|178:169,1,170,0|0,1:0|1:0,1:0:0:0:
4,154,106653,5,0,1:0:0:0:
4,154,106727,1,0,1:0:0:0:
4,154,106802,2,0,B|54:172|54:172|174:145,1,170,0|0,1:0|1:0,1:0:0:0:
0,123,107247,5,0,1:0:0:0:
0,123,107321,1,0,1:0:0:0:
0,123,107396,2,0,B|50:141|50:141|170:114,1,170,0|0,1:0|1:0,1:0:0:0:
321,59,107841,5,0,1:0:0:0:
321,59,107915,1,0,1:0:0:0:
321,59,107990,2,0,B|285:78|285:78|214:62,1,85,0|0,1:0|1:0,1:0:0:0:
397,118,108287,2,0,B|433:137|433:137|504:121,1,85,0|0,1:0|1:0,1:0:0:0:
327,195,108584,2,0,B|291:214|291:214|220:198,1,85,0|0,1:0|1:0,1:0:0:0:
383,242,108807,2,0,B|419:261|419:261|490:245,1,85,0|0,1:0|1:0,1:0:0:0:
322,275,109029,2,0,B|301:284|301:284|266:277,1,42.5,0|0,1:0|1:0,1:0:0:0:
233,335,109178,5,0,1:0:0:0:
233,335,109326,1,0,1:0:0:0:
233,335,109475,1,0,1:0:0:0:
233,335,109623,1,0,1:0:0:0:
100,136,109920,6,0,L|97:99,2,21.25,0|0|0,1:0|1:0|1:0,1:0:0:0:
75,298,110366,6,0,P|137:300|186:252,1,127.5,0|0,1:0|1:0,1:0:0:0:
207,189,110663,2,0,L|305:180,1,85,0|0,1:0|1:0,1:0:0:0:
384,78,110960,1,0,1:0:0:0:
452,204,111109,2,0,L|466:254,2,42.5,0|0|0,1:0|1:0|1:0,1:0:0:0:
304,116,111406,1,0,1:0:0:0:
457,123,111554,5,0,1:0:0:0:
378,161,111703,1,0,1:0:0:0:
313,32,111851,1,0,1:0:0:0:
302,194,112000,1,0,1:0:0:0:
311,213,112074,1,0,1:0:0:0:
325,228,112148,1,0,1:0:0:0:
343,238,112222,1,0,1:0:0:0:
363,244,112297,1,0,1:0:0:0:
304,116,112445,1,0,1:0:0:0:
282,117,112519,1,0,1:0:0:0:
262,124,112594,1,0,1:0:0:0:
94,185,112742,6,0,B|154:209|154:209|234:192,1,127.5,0|0,1:0|1:0,1:0:0:0:
69,155,113039,2,0,B|66:130|66:130|37:92,1,42.5,0|0,1:0|1:0,1:0:0:0:
55,194,113188,2,0,B|34:208|34:208|16:252,3,42.5,0|0|0|0,1:0|1:0|1:0|1:0,1:0:0:0:
25,297,113485,1,0,1:0:0:0:
179,346,113633,2,0,L|95:349,1,85,0|0,1:0|1:0,1:0:0:0:
244,285,113930,5,0,1:0:0:0:
307,345,114079,1,0,1:0:0:0:
396,221,114227,2,0,L|399:130,1,85,0|0,1:0|1:0,1:0:0:0:
368,245,114524,1,0,1:0:0:0:
427,117,114673,1,0,1:0:0:0:
453,283,114821,1,0,1:0:0:0:
285,208,114970,1,0,1:0:0:0:
285,208,115044,1,0,1:0:0:0:
285,208,115118,6,0,P|222:233|153:206,1,127.5,0|0,1:0|1:0,1:0:0:0:
107,177,115415,2,0,B|64:174|64:174|18:201,1,85,0|0,1:0|1:0,1:0:0:0:
127,269,115712,1,0,1:0:0:0:
195,143,115861,2,0,L|206:91,2,42.5,0|0|0,1:0|1:0|1:0,1:0:0:0:
204,309,116158,1,0,1:0:0:0:
121,186,116306,5,0,1:0:0:0:
200,224,116455,1,0,1:0:0:0:
56,315,116603,1,0,1:0:0:0:
45,153,116752,1,0,1:0:0:0:
54,134,116826,1,0,1:0:0:0:
68,119,116900,1,0,1:0:0:0:
86,109,116974,1,0,1:0:0:0:
106,103,117049,1,0,1:0:0:0:
47,231,117197,1,0,1:0:0:0:
25,230,117271,1,0,1:0:0:0:
5,223,117346,1,0,1:0:0:0:
121,186,117495,6,0,B|161:175|161:175|209:191|209:191|253:179,1,127.5,0|0,1:0|1:0,1:0:0:0:
303,138,117792,2,0,B|309:116|309:116|301:87,1,42.5,0|0,1:0|1:0,1:0:0:0:
311,212,117940,2,0,B|305:234|305:234|313:263,3,42.5,0|0|0|0,1:0|1:0|1:0|1:0,1:0:0:0:
332,323,118237,1,0,1:0:0:0:
403,168,118386,6,0,B|415:129|415:129|382:77|382:77|404:61|422:33|422:33|451:53|464:71,1,212.5,0|0,1:0|1:0,1:0:0:0:
487,132,118831,1,0,1:0:0:0:
353,220,118980,6,0,B|313:229|313:229|284:283|284:283|259:272|226:271|226:271|229:235|238:215,1,212.5,0|0,1:0|1:0,1:0:0:0:
279,165,119425,1,0,1:0:0:0:
435,244,119574,1,0,1:0:0:0:
435,244,119648,1,0,1:0:0:0:
435,244,119722,1,0,1:0:0:0:
310,348,119871,6,0,P|353:361|407:330,1,89.2499972763062,0|0,1:0|1:0,1:0:0:0:
263,293,120168,6,0,L|158:300,1,85,0|0,1:0|1:0,1:0:0:0:
156,300,120391,1,0,1:0:0:0:
134,301,120465,1,0,1:0:0:0:
55,201,120613,1,0,1:0:0:0:
73,360,120762,1,0,1:0:0:0:
73,360,120836,1,0,1:0:0:0:
73,360,120911,1,0,1:0:0:0:
142,169,121059,5,0,1:0:0:0:
64,278,121208,1,0,1:0:0:0:
0,124,121356,1,0,1:0:0:0:
176,91,121505,1,0,1:0:0:0:
195,100,121579,1,0,1:0:0:0:
211,113,121653,1,0,1:0:0:0:
222,130,121727,1,0,1:0:0:0:
229,150,121802,1,0,1:0:0:0:
93,74,121950,1,0,1:0:0:0:
99,53,122024,1,0,1:0:0:0:
111,35,122099,1,0,1:0:0:0:
122,159,122247,6,0,P|69:169|1:96,1,127.5,0|0,1:0|1:0,1:0:0:0:
161,101,122544,2,0,L|212:104,1,42.5,0|0,1:0|1:0,1:0:0:0:
288,160,122693,2,0,L|245:162,1,42.5,0|0,1:0|1:0,1:0:0:0:
252,49,122841,2,0,L|294:51,3,42.5,0|0|0|0,1:0|1:0|1:0|1:0,1:0:0:0:
340,110,123138,6,0,B|380:121|415:100|415:100|407:159|407:159|451:143|488:167,1,212.5,0|0,1:0|1:0,1:0:0:0:
443,225,123584,1,0,1:0:0:0:
293,254,123732,2,0,B|282:213|246:194|246:194|301:171|301:171|266:141|268:97,1,212.5,0|0,1:0|1:0,1:0:0:0:
312,48,124178,1,0,1:0:0:0:
370,265,124326,2,0,P|345:312|300:334,1,85,0|0,1:0|1:0,1:0:0:0:
151,301,124623,6,0,L|236:306,1,85,0|0,1:0|1:0,1:0:0:0:
94,363,124920,1,0,1:0:0:0:
27,225,125069,1,0,1:0:0:0:
151,301,125217,1,0,1:0:0:0:
84,163,125366,1,0,1:0:0:0:
84,163,125440,1,0,1:0:0:0:
84,163,125514,1,0,1:0:0:0:
60,295,125663,1,0,1:0:0:0:
196,237,125812,6,0,L|280:241,1,85,0|0,1:0|1:0,1:0:0:0:
151,301,126109,1,0,1:0:0:0:
84,163,126257,1,0,1:0:0:0:
82,141,126331,1,0,1:0:0:0:
80,119,126406,1,0,1:0:0:0:
78,97,126480,1,0,1:0:0:0:
76,75,126554,1,0,1:0:0:0:
232,165,126703,2,0,L|292:168,2,42.5,0|0|0,1:0|1:0|1:0,1:0:0:0:
76,75,127000,5,0,1:0:0:0:
196,237,127148,2,0,L|200:313,2,46.7500014266968,0|0|0,1:0|1:0|1:0,1:0:0:0:
316,147,127445,2,0,L|311:72,2,50.9999984436036,0|0|0,1:0|1:0|1:0,1:0:0:0:
146,181,127742,6,0,L|118:252,2,55.2499974708558,0|0|0,1:0|1:0|1:0,1:0:0:0:
366,203,128039,2,0,L|395:132,2,59.4999981842042,0|0|0,1:0|1:0|1:0,1:0:0:0:
158,107,128336,6,0,L|93:110,2,63.7500024318696,0|0|0,1:0|1:0|1:0,1:0:0:0:
354,277,128633,2,0,L|427:275,2,68,0|0|0,1:0|1:0|1:0,1:0:0:0:
221,69,128930,6,0,L|183:-10,2,72.2500013780594,0|0|0,1:0|1:0|1:0,1:0:0:0:
291,315,129227,2,0,L|327:383,2,76.4999976654053,0|0|0,1:0|1:0|1:0,1:0:0:0:
68,294,138881,5,0,1:0:0:0:
68,294,139475,1,0,1:0:0:0:
34,208,140069,5,0,1:0:0:0:
34,208,140663,1,0,1:0:0:0:
73,124,141257,5,0,1:0:0:0:
73,124,141851,1,0,1:0:0:0:
146,81,142445,5,0,1:0:0:0:
146,81,143039,1,0,1:0:0:0:
222,115,143336,1,0,1:0:0:0:
287,60,143633,6,0,P|375:38|451:90,1,170,0|0,1:0|1:0,1:0:0:0:
484,292,144821,6,0,P|415:310|358:282,1,127.5,0|0,1:0|1:0,1:0:0:0:
289,250,145415,2,0,P|240:242|205:262,1,85,0|0,1:0|1:0,1:0:0:0:
136,384,146010,6,0,P|167:345|167:305,1,85,0|0,1:0|1:0,1:0:0:0:
96,181,146604,2,0,P|113:227|148:247,1,85,0|0,1:0|1:0,1:0:0:0:
336,170,147198,6,0,L|167:179,1,170,0|0,1:0|1:0,1:0:0:0:
400,100,148386,6,0,P|433:156|420:219,1,118.999996368408,0|0,1:0|1:0,1:0:0:0:
359,258,148980,2,0,P|353:316|389:365,1,118.999996368408,0|0,1:0|1:0,1:0:0:0:
434,294,149574,6,0,L|249:327,1,178.499994552612,0|0,1:0|1:0,1:0:0:0:
175,339,150168,2,0,P|120:327|84:259,1,118.999996368408,0|0,1:0|1:0,1:0:0:0:
144,104,150762,6,0,P|199:159|159:262,1,178.499994552612,0|0,1:0|1:0,1:0:0:0:
119,186,151356,2,0,L|-6:184,1,118.999996368408,0|0,1:0|1:0,1:0:0:0:
188,140,151950,6,0,B|280:157|280:157|376:119,1,178.499994552612,0|0,1:0|1:0,1:0:0:0:
432,85,152544,1,0,1:0:0:0:
357,40,152841,1,0,1:0:0:0:
433,170,153138,6,0,L|435:302,1,118.999996368408,0|0,1:0|1:0,1:0:0:0:
270,333,153732,2,0,L|267:214,1,118.999996368408,0|0,1:0|1:0,1:0:0:0:
351,194,154326,6,0,L|353:312,1,118.999996368408,0|0,1:0|1:0,1:0:0:0:
287,363,154772,1,0,1:0:0:0:
204,373,154920,2,0,P|144:376|88:334,1,118.999996368408,0|0,1:0|1:0,1:0:0:0:
292,258,155514,6,0,L|423:255,1,118.999996368408,0|0,1:0|1:0,1:0:0:0:
286,173,155960,1,0,1:0:0:0:
213,223,156109,2,0,L|82:220,1,118.999996368408,0|0,1:0|1:0,1:0:0:0:
40,61,156703,6,0,P|100:39|164:63,1,118.999996368408,0|0,1:0|1:0,1:0:0:0:
226,89,157148,1,0,1:0:0:0:
301,128,157297,2,0,P|357:142|412:120,1,118.999996368408,0|0,1:0|1:0,1:0:0:0:
457,281,157891,5,0,1:0:0:0:
295,324,158485,1,0,1:0:0:0:
252,162,159079,5,0,1:0:0:0:
412,119,159524,1,0,1:0:0:0:
412,119,159673,1,0,1:0:0:0:
337,165,159970,1,0,1:0:0:0:
252,162,160267,5,0,1:0:0:0:
90,205,160712,1,0,1:0:0:0:
90,205,160861,1,0,1:0:0:0:
135,367,161455,5,0,1:0:0:0:
295,324,161901,1,0,1:0:0:0:
295,324,162049,1,0,1:0:0:0:
246,136,162643,5,0,1:0:0:0:
188,292,162940,1,0,1:0:0:0:
32,234,163237,1,0,1:0:0:0:
88,78,163534,1,0,1:0:0:0:
246,136,163831,5,0,1:0:0:0:
217,214,163980,1,0,1:0:0:0:
139,185,164128,1,0,1:0:0:0:
167,107,164277,1,0,1:0:0:0:
246,136,164425,5,0,1:0:0:0:
217,214,164574,1,0,1:0:0:0:
139,185,164722,1,0,1:0:0:0:
167,107,164871,1,0,1:0:0:0:
246,136,165019,5,0,1:0:0:0:
261,110,165093,1,0,1:0:0:0:
283,91,165167,1,0,1:0:0:0:
311,82,165241,1,0,1:0:0:0:
341,82,165316,1,0,1:0:0:0:
368,93,165390,1,0,1:0:0:0:
390,113,165464,1,0,1:0:0:0:
404,139,165538,1,0,1:0:0:0:
403,169,165613,5,0,1:0:0:0:
430,180,165688,1,0,1:0:0:0:
451,201,165762,1,0,1:0:0:0:
463,228,165836,1,0,1:0:0:0:
466,258,165910,1,0,1:0:0:0:
456,286,165985,1,0,1:0:0:0:
439,310,166059,1,0,1:0:0:0:
414,326,166133,1,0,1:0:0:0:
385,333,166207,5,0,1:0:0:0:
256,192,166282,8,0,167099,1:0:0:0:
75,313,167396,6,0,B|173:274|172:374|289:323,1,204,0|0,1:0|1:0,1:0:0:0:
388,249,167990,6,0,P|430:249|393:323,1,152.999995330811,0|0,1:0|1:0,1:0:0:0:
327,286,168287,6,0,B|313:242|313:242|337:195|337:195|310:121,1,178.499994552612,0|0,1:0|1:0,1:0:0:0:
211,7,168881,2,0,B|218:29|218:29|206:52|206:52|219:89,1,89.2499972763062,0|0,1:0|1:0,1:0:0:0:
245,157,169178,5,0,1:0:0:0:
162,179,169326,1,0,1:0:0:0:
312,218,169475,1,0,1:0:0:0:
226,241,169623,1,0,1:0:0:0:
180,92,169920,5,0,1:0:0:0:
162,179,170069,2,0,P|123:204|63:183,1,102,0|0,1:0|1:0,1:0:0:0:
102,303,170366,6,0,P|110:250|165:295,1,152.999995330811,0|0,1:0|1:0,1:0:0:0:
235,301,170663,6,0,B|332:290|332:290|309:325,1,118.999996368408,0|0,1:0|1:0,1:0:0:0:
473,366,171109,2,0,B|376:376|376:376|399:342,1,118.999996368408,0|0,1:0|1:0,1:0:0:0:
304,225,171554,5,0,1:0:0:0:
327,214,171628,1,0,1:0:0:0:
352,211,171703,1,0,1:0:0:0:
376,216,171777,1,0,1:0:0:0:
399,227,171851,2,0,P|431:231|455:222,3,50.9999984436036,0|0|0|0,1:0|1:0|1:0|1:0,1:0:0:0:
502,178,172148,6,0,B|519:228|519:228|493:333|493:333|466:270,1,204,0|0,1:0|1:0,1:0:0:0:
449,127,172742,6,0,P|453:69|506:119,1,152.999995330811,0|0,1:0|1:0,1:0:0:0:
435,193,173039,6,0,B|356:179|356:179|310:132|310:132|215:114,1,229.499992996216,0|0,1:0|1:0,1:0:0:0:
34,187,173633,2,0,B|73:194|73:194|96:217|96:217|144:226,1,114.749996498108,0|0,1:0|1:0,1:0:0:0:
196,185,173930,5,0,1:0:0:0:
317,224,174079,1,0,1:0:0:0:
196,263,174227,1,0,1:0:0:0:
271,161,174376,1,0,1:0:0:0:
271,288,174524,6,0,B|314:307|314:307|365:288,1,89.2499972763062,0|0,1:0|1:0,1:0:0:0:
471,241,174821,6,0,B|414:208|414:208|366:224,1,114.749996498108,0|0,1:0|1:0,1:0:0:0:
247,252,175118,6,0,P|245:321|312:300,1,152.999995330811,0|0,1:0|1:0,1:0:0:0:
291,193,175415,6,0,B|299:152|262:119|262:119|206:108|155:163,1,170,0|0,1:0|1:0,1:0:0:0:
31,182,175861,2,0,B|23:223|60:256|60:256|116:267|167:212,1,170,0|0,1:0|1:0,1:0:0:0:
189,52,176307,5,0,1:0:0:0:
211,39,176381,1,0,1:0:0:0:
235,32,176455,1,0,1:0:0:0:
260,31,176529,1,0,1:0:0:0:
285,36,176604,2,0,P|312:50|334:67,3,50.9999984436036,0|0|0|0,1:0|1:0|1:0|1:0,1:0:0:0:
384,108,176901,6,0,B|427:123|464:99|464:99|440:156|440:156|461:225,1,204,0|0,1:0|1:0,1:0:0:0:
410,328,177495,6,0,P|455:383|478:327,1,152.999995330811,0|0,1:0|1:0,1:0:0:0:
396,259,177792,6,0,B|332:260|332:260|286:297|286:297|213:301,1,178.499994552612,0|0,1:0|1:0,1:0:0:0:
128,235,178386,2,0,B|160:234|160:234|183:216|183:216|219:214,1,89.2499972763062,0|0,1:0|1:0,1:0:0:0:
258,158,178683,5,0,1:0:0:0:
187,100,178831,1,0,1:0:0:0:
347,124,178980,1,0,1:0:0:0:
273,67,179128,1,0,1:0:0:0:
243,248,179425,5,0,1:0:0:0:
329,213,179574,2,0,P|391:208|425:166,1,102,0|0,1:0|1:0,1:0:0:0:
411,110,179871,6,0,P|467:76|477:141,1,152.999995330811,0|0,1:0|1:0,1:0:0:0:
483,214,180168,6,0,B|496:254|496:254|478:340,1,118.999996368408,0|0,1:0|1:0,1:0:0:0:
378,381,180613,2,0,B|365:341|365:341|383:255,1,118.999996368408,0|0,1:0|1:0,1:0:0:0:
246,352,181059,5,0,1:0:0:0:
222,362,181133,1,0,1:0:0:0:
196,363,181208,1,0,1:0:0:0:
171,355,181282,1,0,1:0:0:0:
152,337,181356,2,0,P|137:309|134:279,3,50.9999984436036,0|0|0|0,1:0|1:0|1:0|1:0,1:0:0:0:
69,262,181653,6,0,B|118:270|118:270|183:225|183:225|252:233,1,178.499994552612,0|0,1:0|1:0,1:0:0:0:
383,278,182247,6,0,P|432:271|374:225,1,152.999995330811,0|0,1:0|1:0,1:0:0:0:
312,270,182544,6,0,B|341:309|341:309|351:140,1,204,0|0,1:0|1:0,1:0:0:0:
295,55,183138,2,0,B|280:35|280:35|277:106,1,68,0|0,1:0|1:0,1:0:0:0:
250,156,183435,5,0,1:0:0:0:
182,201,183584,1,0,1:0:0:0:
102,216,183732,1,0,1:0:0:0:
22,195,183881,1,0,1:0:0:0:
22,195,184178,5,0,1:0:0:0:
90,293,184326,1,0,1:0:0:0:
129,133,184475,1,0,1:0:0:0:
253,234,184623,1,0,1:0:0:0:
239,55,184772,1,0,1:0:0:0:
182,201,184920,1,0,1:0:0:0:
256,192,184995,8,0,186406,1:0:0:0:
70,343,186851,6,0,B|118:360|118:360|235:330,1,170,0|0,1:0|1:0,1:0:0:0:
456,280,187297,6,0,B|408:297|408:297|274:257,1,187.000005706787,0|0,1:0|1:0,1:0:0:0:
30,214,187742,6,0,B|78:231|78:231|228:189,1,203.999993774414,0|0,1:0|1:0,1:0:0:0:
488,146,188188,6,0,B|440:163|440:163|270:115,1,220.999989883423,0|0,1:0|1:0,1:0:0:0:
82,145,188633,5,0,1:0:0:0:
82,145,188708,1,0,1:0:0:0:
82,145,188782,1,0,1:0:0:0:
442,41,189227,6,0,B|394:24|394:24|277:54,1,170,0|0,1:0|1:0,1:0:0:0:
56,104,189673,6,0,B|104:87|104:87|238:127,1,187.000005706787,0|0,1:0|1:0,1:0:0:0:
482,170,190118,6,0,B|434:153|434:153|284:195,1,203.999993774414,0|0,1:0|1:0,1:0:0:0:
24,238,190564,5,0,1:0:0:0:
166,53,190787,1,0,1:0:0:0:
219,283,191010,1,0,1:0:0:0:
139,183,191158,5,0,1:0:0:0:
313,333,191604,6,0,P|386:347|364:271,1,170,0|0,1:0|1:0,1:0:0:0:
200,255,192049,6,0,P|147:290|137:193,1,187.000005706787,0|0,1:0|1:0,1:0:0:0:
350,160,192495,6,0,P|413:173|360:85,1,203.999993774414,0|0,1:0|1:0,1:0:0:0:
165,105,192940,6,0,P|76:99|150:27,1,220.999989883423,0|0,1:0|1:0,1:0:0:0:
256,192,193534,5,0,1:0:0:0:
199,51,193980,6,0,P|126:37|148:113,1,170,0|0,1:0|1:0,1:0:0:0:
312,129,194425,6,0,P|365:94|375:191,1,187.000005706787,0|0,1:0|1:0,1:0:0:0:
162,224,194871,6,0,P|99:211|152:299,1,203.999993774414,0|0,1:0|1:0,1:0:0:0:
347,279,195316,5,0,1:0:0:0:
456,86,195613,1,0,1:0:0:0:
222,45,195911,5,0,1:0:0:0:
256,192,204227,8,0,205267,1:0:0:0:
104,296,205415,6,0,L|241:316,1,118.999996368408,0|0,1:0|1:0,1:0:0:0:
308,325,205861,1,0,1:0:0:0:
365,127,206307,6,0,P|406:130|445:113,1,85,0|0,1:0|1:0,1:0:0:0:
289,85,206604,6,0,P|232:66|172:99,1,118.999996368408,0|0,1:0|1:0,1:0:0:0:
137,163,207049,1,0,1:0:0:0:
0,0,207346,1,0,1:0:0:0:
95,237,207792,6,0,B|130:259|171:241|171:241|220:254,1,118.999996368408,0|0,1:0|1:0,1:0:0:0:
294,277,208237,1,0,1:0:0:0:
447,103,208683,6,0,B|456:59|456:59|442:11,1,85,0|0,1:0|1:0,1:0:0:0:
372,143,208980,6,0,B|364:179|364:179|388:206|388:206|378:250|378:250|445:227|505:317|466:391|358:410|331:324,1,416.499987289429,0|0,1:0|1:0,1:0:0:0:
292,253,210168,6,0,P|251:258|167:246,1,118.999996368408,0|0,1:0|1:0,1:0:0:0:
91,228,210613,1,0,1:0:0:0:
179,19,211059,6,0,L|177:118,1,85,0|0,1:0|1:0,1:0:0:0:
57,167,211356,6,0,L|52:314,1,118.999996368408,0|0,1:0|1:0,1:0:0:0:
91,364,211802,2,0,P|56:374|19:368,1,59.4999981842042,0|0,1:0|1:0,1:0:0:0:
134,297,212099,2,0,L|268:314,1,118.999996368408,0|0,1:0|1:0,1:0:0:0:
383,209,212544,6,0,P|403:266|389:336,1,118.999996368408,0|0,1:0|1:0,1:0:0:0:
330,379,212990,1,0,1:0:0:0:
303,103,213435,6,0,L|298:10,1,85,0|0,1:0|1:0,1:0:0:0:
349,165,213732,6,0,B|309:188|271:171|271:171|250:200|250:200|208:184|208:184|188:213|188:213|148:196|148:196|127:223|127:223|87:206|87:206|62:235|62:235|37:206|-8:209,1,416.499987289429,0|0,1:0|1:0,1:0:0:0:
9,88,214920,5,0,1:0:0:0:
9,295,215217,1,0,1:0:0:0:
84,145,215514,1,0,1:0:0:0:
84,352,215811,1,0,1:0:0:0:
151,88,216108,5,0,1:0:0:0:
151,295,216405,1,0,1:0:0:0:
221,145,216702,1,0,1:0:0:0:
221,352,216999,1,0,1:0:0:0:
290,88,217296,5,0,1:0:0:0:
290,295,217593,1,0,1:0:0:0:
362,146,217890,1,0,1:0:0:0:
362,353,218187,1,0,1:0:0:0:
432,88,218484,5,0,1:0:0:0:
432,295,218781,1,0,1:0:0:0:
511,146,219078,1,0,1:0:0:0:
511,353,219375,1,0,1:0:0:0:
432,88,219673,5,0,1:0:0:0:
374,17,219821,1,0,1:0:0:0:
303,72,219970,1,0,1:0:0:0:
361,145,220118,1,0,1:0:0:0:
303,72,220267,5,0,1:0:0:0:
223,32,220415,1,0,1:0:0:0:
182,114,220564,1,0,1:0:0:0:
262,156,220712,1,0,1:0:0:0:
182,114,220861,5,0,1:0:0:0:
92,111,221009,1,0,1:0:0:0:
90,203,221158,1,0,1:0:0:0:
180,207,221306,1,0,1:0:0:0:
90,203,221455,5,0,1:0:0:0:
7,238,221603,1,0,1:0:0:0:
44,322,221752,1,0,1:0:0:0:
127,288,221900,1,0,1:0:0:0:
44,322,222049,5,0,1:0:0:0:
65,322,222123,1,0,1:0:0:0:
86,322,222198,1,0,1:0:0:0:
107,322,222272,1,0,1:0:0:0:
137,351,222346,5,0,1:0:0:0:
157,344,222420,1,0,1:0:0:0:
177,337,222495,1,0,1:0:0:0:
197,331,222569,1,0,1:0:0:0:
237,345,222643,5,0,1:0:0:0:
255,335,222717,1,0,1:0:0:0:
274,325,222792,1,0,1:0:0:0:
293,315,222866,1,0,1:0:0:0:
331,333,222940,5,0,1:0:0:0:
345,317,223014,1,0,1:0:0:0:
360,301,223089,1,0,1:0:0:0:
374,286,223163,1,0,1:0:0:0:
416,282,223237,6,0,B|407:219|407:219|442:180|442:180|431:91,1,170,0|0,1:0|1:0,1:0:0:0:
492,245,223683,2,0,L|503:340,1,85,0|0,1:0|1:0,1:0:0:0:
501,329,223980,1,0,1:0:0:0:
360,146,224128,2,0,L|349:51,1,85,0|0,1:0|1:0,1:0:0:0:
208,141,224425,5,0,1:0:0:0:
132,23,224574,1,0,1:0:0:0:
129,48,224648,1,0,1:0:0:0:
128,73,224722,1,0,1:0:0:0:
127,98,224797,1,0,1:0:0:0:
126,123,224871,1,0,1:0:0:0:
250,170,225019,1,0,1:0:0:0:
229,154,225093,1,0,1:0:0:0:
208,141,225168,1,0,1:0:0:0:
61,252,225316,2,0,L|168:202,1,101.999996887207,0|0,1:0|1:0,1:0:0:0:
235,259,225613,5,0,1:0:0:0:
171,383,225762,1,0,1:0:0:0:
194,373,225836,1,0,1:0:0:0:
216,362,225911,1,0,1:0:0:0:
238,350,225985,1,0,1:0:0:0:
260,338,226059,1,0,1:0:0:0:
239,208,226207,1,0,1:0:0:0:
236,234,226281,1,0,1:0:0:0:
235,259,226356,1,0,1:0:0:0:
362,306,226505,2,0,L|312:274,2,50.9999984436036,0|0|0,1:0|1:0|1:0,1:0:0:0:
324,175,226802,5,0,1:0:0:0:
464,169,226951,1,0,1:0:0:0:
444,154,227025,1,0,1:0:0:0:
423,140,227099,2,0,L|376:106,2,50.9999984436036,0|0|0,1:0|1:0|1:0,1:0:0:0:
278,197,227396,1,0,1:0:0:0:
302,187,227470,1,0,1:0:0:0:
324,175,227545,1,0,1:0:0:0:
301,0,227693,2,0,L|291:110,1,101.999996887207,0|0,1:0|1:0,1:0:0:0:
204,132,227990,5,0,1:0:0:0:
62,85,228138,1,0,1:0:0:0:
55,60,228212,1,0,1:0:0:0:
48,34,228287,1,0,1:0:0:0:
149,206,228435,1,0,1:0:0:0:
149,58,228584,1,0,1:0:0:0:
171,43,228658,1,0,1:0:0:0:
192,29,228732,1,0,1:0:0:0:
61,178,228881,2,0,B|-21:172|-21:172|20:151,1,101.999996887207,0|0,1:0|1:0,1:0:0:0:
128,129,229178,6,0,P|143:188|122:235,1,101.999996887207,0|0,1:0|1:0,1:0:0:0:
83,287,229401,1,0,1:0:0:0:
83,287,229475,2,0,L|199:302,1,101.999996887207,0|0,1:0|1:0,1:0:0:0:
279,178,229772,1,0,1:0:0:0:
279,178,229846,1,0,1:0:0:0:
279,178,229920,1,0,1:0:0:0:
403,303,230069,2,0,P|417:254|401:199,1,101.999996887207,0|0,1:0|1:0,1:0:0:0:
343,0,230366,6,0,P|310:69|375:144,1,152.999995330811,0|0,1:0|1:0,1:0:0:0:
416,134,230663,2,0,L|516:83,1,101.999996887207,0|0,1:0|1:0,1:0:0:0:
332,205,230960,2,0,L|237:143,1,101.999996887207,0|0,1:0|1:0,1:0:0:0:
429,230,231257,2,0,L|422:342,1,101.999996887207,0|0,1:0|1:0,1:0:0:0:
358,364,231480,1,0,1:0:0:0:
358,364,231554,6,0,B|307:370|307:370|261:339|261:339|199:342,1,152.999995330811,0|0,1:0|1:0,1:0:0:0:
145,344,231851,2,0,B|129:303|129:303|137:242,1,101.999996887207,0|0,1:0|1:0,1:0:0:0:
18,131,232148,2,0,B|69:125|69:125|115:156|115:156|177:153,1,152.999995330811,0|0,1:0|1:0,1:0:0:0:
231,151,232445,2,0,B|247:192|247:192|239:253,1,101.999996887207,0|0,1:0|1:0,1:0:0:0:
48,207,232742,5,0,1:0:0:0:
139,76,232891,2,0,L|136:8,2,50.9999984436036,0|0|0,1:0|1:0|1:0,1:0:0:0:
207,222,233188,1,0,1:0:0:0:
56,115,233336,2,0,L|-4:84,1,50.9999984436036,0|0,1:0|1:0,1:0:0:0:
123,259,233559,2,0,L|126:321,1,50.9999984436036,0|0,1:0|1:0,1:0:0:0:
213,130,233782,2,0,L|260:84,1,50.9999984436036,0|0,1:0|1:0,1:0:0:0:
304,141,233930,5,0,1:0:0:0:
380,23,234079,1,0,1:0:0:0:
383,48,234153,1,0,1:0:0:0:
386,73,234227,1,0,1:0:0:0:
389,98,234302,1,0,1:0:0:0:
393,123,234376,1,0,1:0:0:0:
262,170,234524,1,0,1:0:0:0:
283,154,234598,1,0,1:0:0:0:
304,141,234673,1,0,1:0:0:0:
451,252,234821,2,0,L|344:202,1,101.999996887207,0|0,1:0|1:0,1:0:0:0:
277,259,235118,5,0,1:0:0:0:
340,384,235267,1,0,1:0:0:0:
317,372,235341,1,0,1:0:0:0:
293,361,235415,1,0,1:0:0:0:
269,350,235490,1,0,1:0:0:0:
245,339,235564,1,0,1:0:0:0:
273,208,235712,1,0,1:0:0:0:
276,234,235786,1,0,1:0:0:0:
277,259,235861,1,0,1:0:0:0:
146,299,236010,2,0,L|190:267,2,50.9999984436036,0|0|0,1:0|1:0|1:0,1:0:0:0:
188,175,236307,5,0,1:0:0:0:
48,169,236456,1,0,1:0:0:0:
68,154,236530,1,0,1:0:0:0:
89,140,236604,2,0,L|136:106,2,50.9999984436036,0|0|0,1:0|1:0|1:0,1:0:0:0:
234,197,236901,1,0,1:0:0:0:
210,187,236975,1,0,1:0:0:0:
188,175,237050,1,0,1:0:0:0:
211,0,237198,2,0,L|221:110,1,101.999996887207,0|0,1:0|1:0,1:0:0:0:
308,132,237495,5,0,1:0:0:0:
450,85,237643,1,0,1:0:0:0:
457,60,237717,1,0,1:0:0:0:
464,34,237792,1,0,1:0:0:0:
363,206,237940,1,0,1:0:0:0:
363,58,238089,1,0,1:0:0:0:
341,43,238163,1,0,1:0:0:0:
320,29,238237,1,0,1:0:0:0:
451,178,238386,2,0,B|533:172|533:172|492:151,1,101.999996887207,0|0,1:0|1:0,1:0:0:0:
387,132,238683,5,0,1:0:0:0:
387,132,238831,1,0,1:0:0:0:
435,285,238980,5,0,1:0:0:0:
386,368,239128,1,0,1:0:0:0:
351,235,239277,1,0,1:0:0:0:
302,320,239425,1,0,1:0:0:0:
175,276,239574,5,0,1:0:0:0:
126,359,239722,1,0,1:0:0:0:
91,226,239871,1,0,1:0:0:0:
42,311,240019,1,0,1:0:0:0:
82,144,240168,5,0,1:0:0:0:
131,61,240316,1,0,1:0:0:0:
166,194,240465,1,0,1:0:0:0:
215,109,240613,1,0,1:0:0:0:
342,153,240762,5,0,1:0:0:0:
391,70,240910,1,0,1:0:0:0:
423,213,241059,5,0,1:0:0:0:
403,221,241133,1,0,1:0:0:0:
384,230,241208,1,0,1:0:0:0:
365,239,241282,1,0,1:0:0:0:
350,278,241356,5,0,1:0:0:0:
329,280,241430,1,0,1:0:0:0:
308,282,241505,1,0,1:0:0:0:
288,285,241579,1,0,1:0:0:0:
257,315,241653,5,0,1:0:0:0:
237,313,241727,1,0,1:0:0:0:
215,312,241802,1,0,1:0:0:0:
194,311,241876,1,0,1:0:0:0:
167,344,241950,5,0,1:0:0:0:
148,335,242024,1,0,1:0:0:0:
127,327,242099,1,0,1:0:0:0:
108,319,242173,1,0,1:0:0:0:
70,340,242247,5,0,1:0:0:0:
256,192,242321,8,0,243435,1:0:0:0:
0,96,244029,5,0,1:0:0:0:
56,32,244178,1,0,1:0:0:0:
56,32,244252,1,0,1:0:0:0:
56,32,244326,1,0,1:0:0:0:
112,96,244475,1,0,1:0:0:0:
168,32,244624,1,0,1:0:0:0:
224,96,244772,1,0,1:0:0:0:
280,32,244921,1,0,1:0:0:0:
336,96,245069,1,0,1:0:0:0:
336,96,245143,1,0,1:0:0:0:
336,96,245217,1,0,1:0:0:0:
392,32,245366,1,0,1:0:0:0:
448,96,245514,1,0,1:0:0:0:
504,32,245663,1,0,1:0:0:0:
504,168,245812,6,0,L|420:168,1,85,0|0,1:0|1:0,1:0:0:0:
284,216,246109,2,0,L|369:216,1,85,0|0,1:0|1:0,1:0:0:0:
236,168,246406,2,0,L|152:168,1,85,0|0,1:0|1:0,1:0:0:0:
12,216,246703,2,0,L|97:216,1,85,0|0,1:0|1:0,1:0:0:0:
56,60,247000,6,0,L|56:152,1,85,0|0,1:0|1:0,1:0:0:0:
192,144,247297,2,0,L|192:59,1,85,0|0,1:0|1:0,1:0:0:0:
328,56,247594,2,0,L|328:141,1,85,0|0,1:0|1:0,1:0:0:0:
464,140,247891,2,0,L|464:55,1,85,0|0,1:0|1:0,1:0:0:0:
312,216,248188,6,0,L|397:216,1,85,0|0,1:0|1:0,1:0:0:0:
204,172,248485,2,0,L|119:172,1,85,0|0,1:0|1:0,1:0:0:0:
8,288,248782,5,0,1:0:0:0:
64,352,248930,1,0,1:0:0:0:
64,352,249004,1,0,1:0:0:0:
64,352,249078,1,0,1:0:0:0:
120,288,249227,1,0,1:0:0:0:
176,352,249376,1,0,1:0:0:0:
232,288,249524,1,0,1:0:0:0:
288,352,249673,1,0,1:0:0:0:
344,288,249821,1,0,1:0:0:0:
344,288,249895,1,0,1:0:0:0:
344,288,249969,1,0,1:0:0:0:
400,352,250118,1,0,1:0:0:0:
456,288,250267,6,0,B|456:268|456:268|464:260|464:260|448:248|448:248|456:240|456:240|456:196,1,89.2499972763062,0|0,1:0|1:0,1:0:0:0:
456,140,250564,6,0,P|401:114|339:145,1,127.5,0|0,1:0|1:0,1:0:0:0:
303,201,250861,1,0,1:0:0:0:
234,67,251010,1,0,1:0:0:0:
156,103,251158,1,0,1:0:0:0:
229,148,251307,1,0,1:0:0:0:
162,16,251455,1,0,1:0:0:0:
155,193,251604,1,0,1:0:0:0:
155,193,251678,1,0,1:0:0:0:
155,193,251752,6,0,B|149:228|149:228|157:243|157:243|150:296,1,85,0|0,1:0|1:0,1:0:0:0:
304,266,252049,2,0,B|275:243|275:243|259:242|259:242|217:210,1,85,0|0,1:0|1:0,1:0:0:0:
169,359,252346,2,0,B|202:345|202:345|211:332|211:332|260:311,1,85,0|0,1:0|1:0,1:0:0:0:
382,283,252643,2,0,B|404:279|404:279|426:287,3,42.5,0|0|0|0,1:0|1:0|1:0|1:0,1:0:0:0:
453,305,252940,6,0,L|460:206,1,85,0|0,1:0|1:0,1:0:0:0:
389,62,253237,2,0,L|394:146,1,85,0|0,1:0|1:0,1:0:0:0:
315,180,253534,1,0,1:0:0:0:
175,141,253683,1,0,1:0:0:0:
175,141,253757,1,0,1:0:0:0:
175,141,253831,1,0,1:0:0:0:
213,281,253980,1,0,1:0:0:0:
234,203,254128,5,0,1:0:0:0:
95,161,254277,1,0,1:0:0:0:
193,60,254425,1,0,1:0:0:0:
152,221,254574,2,0,L|121:270,2,42.5,0|0|0,1:0|1:0|1:0,1:0:0:0:
253,117,254871,1,0,1:0:0:0:
113,80,255019,1,0,1:0:0:0:
234,203,255168,1,0,1:0:0:0:
95,161,255316,6,0,B|27:150|27:150|48:184,1,85,0|0,1:0|1:0,1:0:0:0:
105,318,255613,2,0,B|173:329|173:329|152:295,1,85,0|0,1:0|1:0,1:0:0:0:
24,240,255911,2,0,B|13:308|13:308|47:287,1,85,0|0,1:0|1:0,1:0:0:0:
181,230,256208,2,0,B|192:162|192:162|158:183,1,85,0|0,1:0|1:0,1:0:0:0:
104,239,256505,5,0,1:0:0:0:
0,117,256653,1,0,1:0:0:0:
160,75,256802,1,0,1:0:0:0:
50,178,256950,1,0,1:0:0:0:
108,14,257099,1,0,1:0:0:0:
208,137,257247,1,0,1:0:0:0:
79,97,257396,1,0,1:0:0:0:
193,0,257544,1,0,1:0:0:0:
316,89,257693,6,0,P|364:84|409:103,1,85,0|0,1:0|1:0,1:0:0:0:
271,271,257990,2,0,P|223:276|178:257,1,85,0|0,1:0|1:0,1:0:0:0:
369,163,258287,1,0,1:0:0:0:
412,309,258435,1,0,1:0:0:0:
412,309,258510,1,0,1:0:0:0:
412,309,258584,1,0,1:0:0:0:
287,189,258732,1,0,1:0:0:0:
349,249,258881,5,0,1:0:0:0:
451,142,259029,1,0,1:0:0:0:
287,189,259178,1,0,1:0:0:0:
431,225,259326,1,0,1:0:0:0:
431,225,259401,1,0,1:0:0:0:
431,225,259475,1,0,1:0:0:0:
304,107,259623,1,0,1:0:0:0:
271,271,259772,2,0,L|185:249,1,85,0|0,1:0|1:0,1:0:0:0:
127,189,260069,5,0,1:0:0:0:
237,75,260217,2,0,L|243:16,2,42.5,0|0|0,1:0|1:0|1:0,1:0:0:0:
275,309,260514,2,0,L|269:368,2,42.5,0|0|0,1:0|1:0|1:0,1:0:0:0:
373,173,260812,2,0,L|432:179,2,42.5,0|0|0,1:0|1:0|1:0,1:0:0:0:
139,211,261109,1,0,1:0:0:0:
106,207,261183,1,0,1:0:0:0:
73,202,261257,6,0,B|59:163|59:163|71:96,1,85,0|0,1:0|1:0,1:0:0:0:
99,271,261480,2,0,B|72:302|72:302|8:325,1,85,0|0,1:0|1:0,1:0:0:0:
139,211,261703,2,0,L|200:219,1,42.5,0|0,1:0|1:0,1:0:0:0:
253,228,261851,1,0,1:0:0:0:
486,262,262445,5,0,1:0:0:0:
