osu file format v128

[General]
AudioFilename: Music_Camellia_-_Racemization.mp3
AudioLeadIn: 0
PreviewTime: 223237
Countdown: 0
SampleSet: Normal
StackLeniency: 0.4
Mode: 0
LetterboxInBreaks: 0
WidescreenStoryboard: 0

[Editor]
Bookmarks: 81851,88386,129376,157891,167396,186406,195911,221455,258881,262445,315242
DistanceSpacing: 1
BeatDivisor: 2
GridSize: 4
TimelineZoom: 2.899999

[Metadata]
Title: Racemization
TitleUnicode: Racemization
Artist: Camellia
ArtistUnicode: かめりあ
Creator: Squigly
Version: Celsius' Easy
Tags: Featured Artist Instrumental Electronic scanter deetz Bonzi Frostings CelsiusLK TKS taiko_maniac1811 Jerry
BeatmapID: 971809
BeatmapSetID: 373363

[Difficulty]
HPDrainRate: 3
CircleSize: 3
OverallDifficulty: 3
ApproachRate: 3
SliderMultiplier: 0.949999999999999
SliderTickRate: 1

[Events]
0,0,"future_horizon_2560x1440.jpg",0,0
2,134328,146946
2,198487,203975

[TimingPoints]
5812,297.029702970297,4,1,0,100,1,0
91356,-100,4,1,0,100,0,1
109178,-100,4,1,0,100,0,0
224425,-100,4,1,0,100,0,1
242247,-100,4,1,0,100,0,0
244029,-100,4,1,0,100,0,1
244326,-100,4,1,0,100,0,0

[Colours]
Combo1: 255,192,0,255
Combo2: 0,202,0,255
Combo3: 18,124,255,255
Combo4: 242,24,57,255

[HitObjects]
120,160,43831,6,0,B|216:128|216:128|255:138,1,142.5,0|0,1:0|1:0,1:0:0:0:
460,256,45019,2,0,B|384:288|384:288|312:272,1,142.5,0|0,1:0|1:0,1:0:0:0:
240,236,45762,1,0,1:0:0:0:
104,196,46208,6,0,P|63:252|72:321,1,142.5,0|0,1:0|1:0,1:0:0:0:
308,352,47396,2,0,B|356:268|340:172|340:172|304:208|247:194,1,285,0|0,1:0|1:0,1:0:0:0:
160,164,48584,6,0,L|172:308,1,142.5,0|0,1:0|1:0,1:0:0:0:
380,196,49772,2,0,L|376:48,1,142.5,0|0,1:0|1:0,1:0:0:0:
288,16,50514,1,0,1:0:0:0:
172,95,50960,6,0,P|174:163|244:184,1,142.5,0|0,1:0|1:0,1:0:0:0:
444,68,52148,2,0,B|464:120|500:144|500:144|392:184|384:279,1,285,0|0,1:0|1:0,1:0:0:0:
296,316,53336,6,0,P|285:265|264:208,2,94.9999999999999,0|0|0,2:0|2:0|2:0,2:0:0:0:
216,364,54227,1,0,2:0:0:0:
140,308,54524,2,0,L|32:320,1,94.9999999999999,0|0,2:0|2:0,2:0:0:0:
12,228,55118,2,0,L|108:208,1,94.9999999999999,0|0,2:0|2:0,2:0:0:0:
192,172,55712,6,0,P|216:132|224:68,2,94.9999999999999,0|0|0,2:0|2:0|2:0,2:0:0:0:
116,112,56604,1,0,2:0:0:0:
105,208,56901,2,0,P|118:255|148:304,1,94.9999999999999,0|0,2:0|2:0,2:0:0:0:
232,324,57495,2,0,P|264:292|272:244,1,94.9999999999999,0|0,2:0|2:0,2:0:0:0:
232,160,58089,6,0,P|228:112|244:48,1,94.9999999999999,0|0,2:0|2:0,2:0:0:0:
320,20,58683,1,0,2:0:0:0:
408,56,58980,1,0,2:0:0:0:
428,148,59277,2,0,L|320:160,1,94.9999999999999,0|0,2:0|2:0,2:0:0:0:
256,212,59871,2,0,L|152:236,1,94.9999999999999,0|0,2:0|2:0,2:0:0:0:
92,172,60465,6,0,B|48:100|48:100|124:64|176:132|260:76,1,285,0|0,2:0|2:0,2:0:0:0:
335,59,61653,2,0,P|377:116|377:186,2,142.5,0|0|0,2:0|2:0|2:0,2:0:0:0:
244,84,62841,5,0,1:0:0:0:
124,232,63435,2,0,L|108:325,1,94.9999999999999,0|0,1:0|1:0,1:0:0:0:
200,344,64029,2,0,L|244:144,1,190,0|0,1:0|1:0,1:0:0:0:
312,96,64920,1,0,1:0:0:0:
396,136,65217,6,0,B|444:176|444:176|316:208,1,190,0|0,1:0|1:0,1:0:0:0:
184,160,66257,2,0,P|136:136|42:140,1,142.5,0|0,1:0|1:0,1:0:0:0:
0,216,67000,2,0,B|4:256|4:256|16:272|16:272|22:306,1,94.9999999999999,0|0,1:0|1:0,1:0:0:0:
100,360,67594,6,0,B|148:368|148:368|220:352,1,94.9999999999999,0|0,1:0|1:0,1:0:0:0:
260,292,68188,2,0,L|276:198,1,94.9999999999999,0|0,1:0|1:0,1:0:0:0:
332,124,68782,1,0,1:0:0:0:
387,200,69079,2,0,P|431:182|466:150,1,94.9999999999999,0|0,1:0|1:0,1:0:0:0:
480,56,69673,1,0,1:0:0:0:
388,32,69970,6,0,L|276:36,1,94.9999999999999,0|0,1:0|1:0,1:0:0:0:
212,84,70564,2,0,L|44:104,1,142.5,0|0,1:0|1:0,1:0:0:0:
16,232,71455,2,0,P|68:256|92:284,1,94.9999999999999,0|0,1:0|1:0,1:0:0:0:
164,344,72049,1,0,1:0:0:0:
244,292,72346,6,0,P|329:261|402:316,1,190,0|0,1:0|1:0,1:0:0:0:
468,140,73534,2,0,L|500:28,1,94.9999999999999,0|0,1:0|1:0,1:0:0:0:
400,64,74128,2,0,L|304:40,1,94.9999999999999,0|0,1:0|1:0,1:0:0:0:
216,16,74722,6,0,B|196:84|196:84|232:144|236:216,1,190,0|0,1:0|1:0,1:0:0:0:
176,324,75762,2,0,L|340:312,1,142.5,0|0,1:0|1:0,1:0:0:0:
388,248,76505,1,0,1:0:0:0:
432,64,77099,6,0,P|372:72|336:104,1,94.9999999999999,0|0,1:0|1:0,1:0:0:0:
276,156,77693,2,0,P|248:124|220:72,1,94.9999999999999,0|0,1:0|1:0,1:0:0:0:
140,32,78287,2,0,P|128:80|104:140,1,94.9999999999999,0|0,1:0|1:0,1:0:0:0:
84,212,78881,2,0,P|140:204|200:200,1,94.9999999999999,0|0,1:0|1:0,1:0:0:0:
248,264,79475,6,0,B|328:232|376:312|500:280|524:244|524:244|448:224|428:180|436:112|476:84|476:84|392:116|392:116|368:96|308:80,1,664.999999999999,0|0,1:0|1:0,1:0:0:0:
236,120,81851,6,0,L|220:4,2,94.9999999999999,0|0|0,2:0|2:0|2:0,2:0:0:0:
252,212,82742,1,0,2:0:0:0:
196,288,83039,2,0,L|68:280,1,94.9999999999999,0|0,2:0|2:0,2:0:0:0:
28,224,83633,2,0,L|60:112,1,94.9999999999999,0|0,2:0|2:0,2:0:0:0:
148,112,84227,6,0,L|216:192,2,94.9999999999999,0|0|0,2:0|2:0|2:0,2:0:0:0:
84,44,85118,1,0,2:0:0:0:
176,20,85415,2,0,P|240:4|296:12,2,94.9999999999999,0|0|0,2:0|2:0|2:0,2:0:0:0:
148,112,86307,1,0,2:0:0:0:
84,180,86604,6,0,B|84:236|84:236|112:308,1,94.9999999999999,0|0,2:0|2:0,2:0:0:0:
184,316,87198,2,0,B|200:264|200:264|196:204,1,94.9999999999999,0|0,2:0|2:0,2:0:0:0:
172,132,87792,2,0,L|266:141,1,94.9999999999999,0|0,2:0|2:0,2:0:0:0:
348,188,88386,2,0,L|452:168,1,94.9999999999999,0|0,2:0|2:0,2:0:0:0:
472,260,88980,6,0,B|448:304|448:304|388:284|388:284|316:312|316:312|256:288|256:288|180:308,1,332.5,0|0,2:0|1:0,1:0:0:0:
172,320,91356,6,0,P|169:227|232:159,1,190,0|0,1:0|1:0,1:0:0:0:
320,124,92247,1,0,1:0:0:0:
372,204,92544,2,0,L|532:180,2,142.5,0|0|0,1:0|1:0|1:0,1:0:0:0:
288,248,93732,5,0,1:0:0:0:
204,200,94029,2,0,L|212:84,1,94.9999999999999,0|0,1:0|1:0,1:0:0:0:
276,36,94623,1,0,1:0:0:0:
368,64,94920,2,0,B|424:88|448:128|448:128|412:184|412:184|440:236|424:312,1,285,0|0,1:0|1:0,1:0:0:0:
348,348,96109,6,0,P|296:272|204:267,1,190,0|0,1:0|1:0,1:0:0:0:
132,328,97000,1,0,1:0:0:0:
72,252,97297,2,0,L|88:128,1,94.9999999999999,0|0,1:0|1:0,1:0:0:0:
176,136,97891,2,0,L|172:12,1,94.9999999999999,0|0,1:0|1:0,1:0:0:0:
268,36,98485,6,0,P|324:56|376:44,1,94.9999999999999,0|0,1:0|1:0,1:0:0:0:
452,40,99079,2,0,L|476:192,2,142.5,0|0|0,1:0|1:0|1:0,1:0:0:0:
308,176,100564,1,0,1:0:0:0:
256,256,100861,6,0,B|204:276|204:276|48:244,1,190,0|0,1:0|1:0,1:0:0:0:
20,168,101752,1,0,1:0:0:0:
88,104,102049,2,0,B|144:80|144:80|280:112,1,190,0|0,1:0|1:0,1:0:0:0:
332,184,102940,1,0,1:0:0:0:
424,160,103237,6,0,L|412:280,1,94.9999999999999,0|0,1:0|1:0,1:0:0:0:
356,332,103831,2,0,P|308:336|263:355,1,94.9999999999999,0|0,1:0|1:0,1:0:0:0:
171,356,104425,2,0,P|193:263|178:170,1,190,0|0,1:0|1:0,1:0:0:0:
108,108,105316,1,0,1:0:0:0:
184,48,105613,6,0,L|300:40,1,94.9999999999999,0|0,1:0|1:0,1:0:0:0:
372,64,106208,2,0,B|352:108|352:108|351:156,1,94.9999999999999,0|0,1:0|1:0,1:0:0:0:
384,244,106802,2,0,L|184:224,1,190,0|0,1:0|1:0,1:0:0:0:
12,172,107990,6,0,P|68:168|128:160,1,94.9999999999999,0|0,1:0|1:0,1:0:0:0:
192,120,108584,2,0,P|251:120|312:104,1,94.9999999999999,0|0,1:0|1:0,1:0:0:0:
356,52,109178,2,0,P|424:104|500:124,1,142.5,0|0,1:0|1:0,1:0:0:0:
408,250,110366,6,0,B|368:240|368:240|315:246,1,94.9999999999999,0|0,2:0|2:0,2:0:0:0:
232,288,110960,2,0,L|220:176,1,94.9999999999999,0|0,2:0|2:0,2:0:0:0:
136,156,111554,2,0,L|148:356,1,190,0|0,2:0|2:0,2:0:0:0:
236,384,112445,1,0,2:0:0:0:
320,336,112742,6,0,P|360:316|416:304,1,94.9999999999999,0|0,2:0|2:0,2:0:0:0:
484,248,113336,2,0,P|472:208|460:124,1,94.9999999999999,0|0,2:0|2:0,2:0:0:0:
484,64,113930,2,0,B|404:40|376:92|297:78,1,190,0|0,2:0|2:0,2:0:0:0:
212,36,114821,1,0,2:0:0:0:
132,88,115118,6,0,L|152:200,1,94.9999999999999,0|0,2:0|2:0,2:0:0:0:
180,272,115712,2,0,P|228:252|288:240,1,94.9999999999999,0|0,2:0|2:0,2:0:0:0:
352,288,116307,2,0,P|448:288|432:132,1,285,0|0,2:0|2:0,2:0:0:0:
348,116,117495,6,0,B|296:128|296:128|128:112,1,190,0|0,2:0|2:0,2:0:0:0:
80,64,118386,1,0,2:0:0:0:
36,148,118683,2,0,L|52:340,1,190,0|0,2:0|2:0,2:0:0:0:
144,368,119574,1,0,2:0:0:0:
220,312,119871,1,0,2:0:0:0:
307,352,120168,6,0,P|276:232|140:256,1,285,0|0,2:0|2:0,2:0:0:0:
48,260,121356,2,0,P|59:213|70:150,1,94.9999999999999,0|0,2:0|2:0,2:0:0:0:
96,76,121950,1,0,2:0:0:0:
188,104,122247,6,0,P|235:109|292:112,1,94.9999999999999,0|0,2:0|2:0,2:0:0:0:
364,64,122841,1,0,2:0:0:0:
436,124,123138,2,0,P|432:164|420:224,1,94.9999999999999,0|0,2:0|2:0,2:0:0:0:
352,284,123732,2,0,P|332:244|300:196,1,94.9999999999999,0|0,2:0|2:0,2:0:0:0:
212,220,124326,1,0,2:0:0:0:
128,264,124623,6,0,P|88:244|32:208,2,94.9999999999999,0|0|0,2:0|2:0|2:0,2:0:0:0:
208,312,125514,1,0,2:0:0:0:
276,248,125812,2,0,L|376:252,1,94.9999999999999,0|0,2:0|2:0,2:0:0:0:
416,168,126406,2,0,L|320:160,1,94.9999999999999,0|0,2:0|2:0,2:0:0:0:
236,124,127000,5,0,2:0:0:0:
168,192,127297,2,0,P|148:148|143:101,1,94.9999999999999,0|0,2:0|2:0,2:0:0:0:
208,32,127891,1,0,2:0:0:0:
300,48,128188,6,0,B|336:88|392:92|392:92|364:164|364:164|376:228|376:228|352:284|352:284|368:308|368:308|360:368,1,380,0|0,2:0|2:0,2:0:0:0:
256,192,129524,8,0,134128,2:0:0:0:
252,200,148386,6,0,B|264:148|252:128|252:128|220:84|264:60|304:120|364:140|404:132|404:132|432:88|504:76,1,380,0|0,2:0|2:0,2:0:0:0:
488,80,150762,6,0,B|364:192|264:32|120:80,1,380,0|0,2:0|2:0,2:0:0:0:
120,92,153138,6,0,B|160:48|208:32|256:55|294:95|308:158|246:211|246:211|240:292,1,380,0|0,2:0|2:0,2:0:0:0:
240,285,155514,6,0,P|365:209|321:348,1,380,0|0,2:0|2:0,2:0:0:0:
318,348,157891,6,0,P|243:296|255:206,2,190,0|0|0,2:0|2:0|2:0,2:0:0:0:
460,216,159673,1,0,2:0:0:0:
328,80,160267,6,0,B|272:68|272:68|204:96|204:96|132:88,1,190,0|0,2:0|2:0,2:0:0:0:
32,240,161455,1,0,2:0:0:0:
204,324,162049,2,0,P|295:330|393:335,1,190,0|0,2:0|2:0,2:0:0:0:
452,260,162940,5,0,2:0:0:0:
420,172,163237,2,0,P|380:168|325:178,1,94.9999999999999,0|0,2:0|2:0,2:0:0:0:
240,216,163831,2,0,L|244:96,1,94.9999999999999,0|0,2:0|2:0,2:0:0:0:
148,112,164425,2,0,L|132:0,1,94.9999999999999,0|0,2:0|2:0,2:0:0:0:
52,60,165019,6,0,P|36:104|32:180,1,94.9999999999999,0|0,2:0|2:0,2:0:0:0:
44,244,165613,2,0,P|96:252|140:276,1,94.9999999999999,0|0,2:0|2:0,2:0:0:0:
192,346,166208,2,0,B|224:304|224:272|224:272|324:328|415:269,1,285,0|0,2:0|2:0,2:0:0:0:
464,188,167396,6,0,L|476:8,1,142.5,0|0,2:0|2:0,2:0:0:0:
332,24,168287,2,0,B|288:60|288:60|304:220,1,190,0|0,2:0|2:0,2:0:0:0:
324,284,169178,6,0,L|136:254,1,190,0|0,2:0|2:0,2:0:0:0:
88,172,170069,2,0,L|196:160,1,94.9999999999999,0|0,2:0|2:0,2:0:0:0:
276,148,170663,2,0,B|316:108|316:108|336:12,2,142.5,0|0|0,2:0|2:0|2:0,2:0:0:0:
116,48,172148,6,0,B|84:84|84:84|64:204,1,142.5,0|0,2:0|2:0,2:0:0:0:
204,128,173039,2,0,P|300:152|336:248,1,190,0|0,2:0|2:0,2:0:0:0:
284,308,173930,2,0,B|356:324|356:324|408:296|476:292,1,190,0|0,2:0|2:0,2:0:0:0:
492,200,174821,6,0,L|484:96,1,94.9999999999999,0|0,2:0|2:0,2:0:0:0:
396,144,175415,2,0,L|404:-28,2,142.5,0|0|0,2:0|2:0|2:0,2:0:0:0:
252,275,176901,6,0,P|168:312|89:266,1,190,0|0,2:0|2:0,2:0:0:0:
88,172,177792,2,0,B|184:144|184:144|276:188,1,190,0|0,2:0|2:0,2:0:0:0:
340,240,178683,1,0,2:0:0:0:
340,240,179574,6,0,P|368:196|377:152,1,94.9999999999999,0|0,2:0|2:0,2:0:0:0:
328,72,180168,2,0,L|504:52,2,142.5,0|0|0,2:0|2:0|2:0,2:0:0:0:
140,68,181653,6,0,P|68:124|76:220,1,190,0|0,2:0|2:0,2:0:0:0:
148,272,182544,2,0,B|204:264|204:264|276:280|276:280|337:264,1,190,0|0,2:0|2:0,2:0:0:0:
428,284,183435,2,0,L|408:96,1,190,0|0,2:0|2:0,2:0:0:0:
324,144,184326,6,0,P|276:128|244:88,1,94.9999999999999,0|0,2:0|2:0,2:0:0:0:
156,64,184920,2,0,B|120:60|80:36|80:36|20:72|52:128|52:128|36:168|36:168|48:212|48:212|32:252|52:284|52:284|116:256|192:264,1,474.999999999999,0|0,2:0|2:0,2:0:0:0:
308,296,186851,6,0,L|464:292,2,142.5,0|0|0,2:0|2:0|2:0,2:0:0:0:
180,236,188188,2,0,P|148:147|172:57,1,190,0|0,2:0|2:0,2:0:0:0:
288,140,189227,6,0,L|429:159,2,142.5,0|0|0,2:0|2:0|2:0,2:0:0:0:
216,80,190415,2,0,B|161:64|161:64|107:100|107:100|44:92|44:92|-20:128,1,237.5,0|0,2:0|2:0,2:0:0:0:
32,256,191604,6,0,P|92:292|200:284,2,142.5,0|0|0,2:0|2:0|2:0,2:0:0:0:
144,168,192940,2,0,P|220:136|360:132,1,190,0|0,2:0|2:0,2:0:0:0:
440,212,193980,6,0,L|464:68,2,142.5,0|0|0,2:0|2:0|2:0,2:0:0:0:
388,292,195168,2,0,B|348:276|348:276|320:300|320:300|248:296,1,142.5,0|0,2:0|2:0,2:0:0:0:
168,260,195911,1,0,2:0:0:0:
256,192,196059,8,0,198287,2:0:0:0:
223,192,205415,6,0,P|285:158|355:168,1,142.5,0|0,1:0|1:0,1:0:0:0:
500,356,206604,2,0,P|429:348|324:332,1,142.5,0|0,1:0|1:0,1:0:0:0:
268,308,207346,1,0,1:0:0:0:
304,172,207792,6,0,P|240:180|132:200,1,142.5,0|0,1:0|1:0,1:0:0:0:
0,344,208980,2,0,B|-16:268|-16:268|64:184|12:76,1,285,0|0,1:0|1:0,1:0:0:0:
92,28,210168,6,0,P|168:52|231:56,1,142.5,0|0,1:0|1:0,1:0:0:0:
468,36,211356,2,0,P|392:96|352:156,1,142.5,0|0,1:0|1:0,1:0:0:0:
344,224,212099,1,0,1:0:0:0:
232,136,212544,6,0,P|172:104|92:100,1,142.5,0|0,1:0|1:0,1:0:0:0:
8,320,213732,2,0,B|108:336|180:272|180:272|228:364,1,285,0|0,1:0|1:0,1:0:0:0:
320,340,214920,6,0,L|428:360,2,94.9999999999999,0|0|0,2:0|2:0|2:0,2:0:0:0:
280,252,215812,1,0,2:0:0:0:
344,180,216109,2,0,P|360:144|368:80,1,94.9999999999999,0|0,2:0|2:0,2:0:0:0:
284,44,216703,2,0,P|240:60|192:69,1,94.9999999999999,0|0,2:0|2:0,2:0:0:0:
100,84,217297,6,0,P|72:44|36:4,2,94.9999999999999,0|0|0,2:0|2:0|2:0,2:0:0:0:
160,160,218188,1,0,2:0:0:0:
112,244,218485,2,0,L|-24:236,1,94.9999999999999,0|0,2:0|2:0,2:0:0:0:
32,332,219079,2,0,L|128:340,1,94.9999999999999,0|0,2:0|2:0,2:0:0:0:
216,312,219673,6,0,B|216:264|216:264|240:216,1,94.9999999999999,0|0,2:0|2:0,2:0:0:0:
332,204,220267,2,0,B|336:153|336:153|316:96,1,94.9999999999999,0|0,2:0|2:0,2:0:0:0:
244,60,220861,2,0,L|150:78,1,94.9999999999999,0|0,2:0|2:0,2:0:0:0:
60,48,221455,2,0,L|72:160,1,94.9999999999999,0|0,2:0|2:0,2:0:0:0:
60,236,222049,6,0,P|116:232|188:240,1,94.9999999999999,0|0,2:0|2:0,2:0:0:0:
224,300,222643,2,0,P|240:260|240:196,1,94.9999999999999,0|0,2:0|2:0,2:0:0:0:
184,132,223237,2,0,L|32:112,2,142.5,0|0|0,2:0|2:0|2:0,2:0:0:0:
272,100,224425,6,0,B|348:72|348:72|460:104,1,190,0|0,2:0|2:0,2:0:0:0:
476,192,225316,1,0,2:0:0:0:
432,276,225613,2,0,P|354:324|267:293,1,190,0|0,2:0|2:0,2:0:0:0:
256,200,226505,1,0,2:0:0:0:
168,168,226802,6,0,B|132:224|132:224|156:348,1,190,0|0,2:0|2:0,2:0:0:0:
236,296,227693,1,0,2:0:0:0:
316,352,227990,2,0,P|400:332|412:216,1,190,0|0,2:0|2:0,2:0:0:0:
352,180,228881,1,0,2:0:0:0:
404,100,229178,6,0,B|352:84|352:84|214:113,1,190,0|0,2:0|2:0,2:0:0:0:
148,176,230069,1,0,2:0:0:0:
64,132,230366,2,0,L|56:248,1,94.9999999999999,0|0,2:0|2:0,2:0:0:0:
92,316,230960,2,0,P|140:292|204:284,1,94.9999999999999,0|0,2:0|2:0,2:0:0:0:
272,312,231554,5,0,2:0:0:0:
348,252,231851,2,0,L|472:240,1,94.9999999999999,0|0,2:0|2:0,2:0:0:0:
432,148,232445,2,0,L|336:152,1,94.9999999999999,0|0,2:0|2:0,2:0:0:0:
260,100,233039,2,0,B|184:48|184:48|116:92|116:92|64:72|-24:112,1,285,0|0,2:0|2:0,2:0:0:0:
28,192,234227,6,0,L|128:200,1,94.9999999999999,0|0,2:0|2:0,2:0:0:0:
212,232,234821,1,0,2:0:0:0:
280,296,235118,2,0,P|296:256|296:184,1,94.9999999999999,0|0,2:0|2:0,2:0:0:0:
256,120,235712,2,0,L|376:96,1,94.9999999999999,0|0,2:0|2:0,2:0:0:0:
436,68,236307,5,0,2:0:0:0:
476,156,236604,2,0,B|496:196|496:196|500:276,1,94.9999999999999,0|0,2:0|2:0,2:0:0:0:
420,300,237198,2,0,P|373:289|330:270,1,94.9999999999999,0|0,2:0|2:0,2:0:0:0:
248,220,237792,1,0,2:0:0:0:
204,304,238089,2,0,L|109:316,1,94.9999999999999,0|0,2:0|2:0,2:0:0:0:
84,128,238980,6,0,P|168:128|224:220,1,190,0|0,2:0|2:0,2:0:0:0:
204,304,239871,1,0,2:0:0:0:
296,284,240168,2,0,L|392:272,1,94.9999999999999,0|0,2:0|2:0,2:0:0:0:
464,212,240762,2,0,B|464:164|464:164|436:112,1,94.9999999999999,0|0,2:0|2:0,2:0:0:0:
364,68,241356,6,0,P|324:84|270:87,1,94.9999999999999,0|0,2:0|2:0,2:0:0:0:
184,48,241950,1,0,2:0:0:0:
108,104,242247,2,0,B|64:196|144:216|72:296|72:296|136:268|136:268|180:304|248:296,1,380,0|0,2:0|2:0,2:0:0:0:
412,224,244029,6,0,P|424:152|356:48,1,190,0|0,2:0|2:0,2:0:0:0:
272,64,244920,2,0,P|224:40|192:8,2,94.9999999999999,0|0|0,2:0|2:0|2:0,2:0:0:0:
324,144,245812,5,0,2:0:0:0:
248,200,246109,2,0,L|108:192,1,94.9999999999999,0|0,2:0|2:0,2:0:0:0:
76,140,246703,1,0,2:0:0:0:
72,236,247000,2,0,L|60:340,2,94.9999999999999,0|0|0,2:0|2:0|2:0,2:0:0:0:
153,194,247891,1,0,2:0:0:0:
235,243,248188,6,0,P|326:259|393:196,1,190,0|0,2:0|2:0,2:0:0:0:
376,104,249079,1,0,2:0:0:0:
312,36,249376,2,0,B|256:28|256:28|100:72,1,190,0|0,2:0|2:0,2:0:0:0:
60,132,250267,1,0,2:0:0:0:
96,220,250564,6,0,L|200:236,1,94.9999999999999,0|0,2:0|2:0,2:0:0:0:
280,272,251158,2,0,P|308:232|316:172,1,94.9999999999999,0|0,2:0|2:0,2:0:0:0:
252,120,251752,1,0,2:0:0:0:
324,60,252049,2,0,B|375:25|375:25|431:57|432:132,1,190,0|0,2:0|2:0,2:0:0:0:
468,220,252940,6,0,L|377:247,1,94.9999999999999,0|0,2:0|2:0,2:0:0:0:
284,244,253534,2,0,P|280:192|264:136,1,94.9999999999999,0|0,2:0|2:0,2:0:0:0:
200,88,254128,1,0,2:0:0:0:
116,136,254425,2,0,P|100:184|104:232,1,94.9999999999999,0|0,2:0|2:0,2:0:0:0:
116,320,255019,2,0,L|232:312,1,94.9999999999999,0|0,2:0|2:0,2:0:0:0:
296,356,255613,6,0,L|316:260,1,94.9999999999999,0|0,2:0|2:0,2:0:0:0:
372,188,256208,1,0,2:0:0:0:
312,116,256505,2,0,L|196:96,1,94.9999999999999,0|0,2:0|2:0,2:0:0:0:
128,72,257099,2,0,P|116:116|108:196,1,94.9999999999999,0|0,2:0|2:0,2:0:0:0:
100,260,257693,5,0,2:0:0:0:
188,224,257990,2,0,B|232:200|232:200|304:200,1,94.9999999999999,0|0,2:0|2:0,2:0:0:0:
356,252,258584,2,0,B|376:200|376:200|360:120,1,94.9999999999999,0|0,2:0|2:0,2:0:0:0:
292,104,259178,2,0,P|268:72|256:8,1,94.9999999999999,0|0,2:0|2:0,2:0:0:0:
348,32,259772,1,0,2:0:0:0:
432,72,260069,6,0,L|416:172,1,94.9999999999999,0|0,2:0|2:0,2:0:0:0:
464,248,260663,2,0,L|371:270,1,94.9999999999999,0|0,2:0|2:0,2:0:0:0:
296,212,261257,2,0,B|244:176|244:176|176:200|176:200|136:176|136:176|108:208|108:208|92:200|92:200|56:192|4:192|-16:228|20:248|60:232,1,380,0|0,2:0|2:0,2:0:0:0:
