osu file format v128

[General]
AudioFilename: Music_Camellia_-_Racemization.mp3
AudioLeadIn: 0
PreviewTime: 223237
Countdown: 0
SampleSet: Normal
StackLeniency: 0.5
Mode: 1
LetterboxInBreaks: 0
WidescreenStoryboard: 0

[Editor]
Bookmarks: 262445
DistanceSpacing: 0.8
BeatDivisor: 4
GridSize: 32
TimelineZoom: 1.8

[Metadata]
Title: Racemization
TitleUnicode: Racemization
Artist: Camellia
ArtistUnicode: かめりあ
Creator: Squigly
Version: 1811's Oni
Tags: Featured Artist Instrumental Electronic scanter deetz Bonzi Frostings CelsiusLK TKS taiko_maniac1811 Jerry
BeatmapID: 892242
BeatmapSetID: 373363

[Difficulty]
HPDrainRate: 6
CircleSize: 2
OverallDifficulty: 5.5
ApproachRate: 5
SliderMultiplier: 1.4
SliderTickRate: 1

[Events]
0,0,"future_horizon_2560x1440.jpg",0,0
2,129576,137681
2,196111,203027

[TimingPoints]
0,-100,4,0,0,70,0,0
5812,297.029702970297,4,1,0,70,1,0
91356,-100,4,1,0,80,0,1
105613,-100,4,1,0,80,0,0
106208,-100,4,1,0,80,0,1
110366,-100,4,1,0,70,0,0
130267,-100,4,1,0,30,0,0
134128,-100,4,1,0,35,0,0
138881,-100,4,1,0,40,0,0
143633,-100,4,1,0,45,0,0
148386,-100,4,1,0,50,0,0
153138,-100,4,1,0,55,0,0
157891,-100,4,1,0,60,0,0
162643,-100,4,1,0,65,0,0
163831,-100,4,1,0,70,0,0
167396,-100,4,1,0,80,0,1
184920,-100,4,1,0,70,0,0
224425,-100,4,1,0,80,0,1
238534,-100,4,1,0,80,0,0
238980,-100,4,1,0,80,0,1
243435,-100,4,1,0,70,0,0

[Colours]
Combo1: 255,192,0,255
Combo2: 0,202,0,255
Combo3: 18,124,255,255
Combo4: 242,24,57,255

[HitObjects]
256,192,42643,8,0,43534,1:0:0:0:
256,192,43831,1,4,1:1:0:0:
256,192,44277,1,4,1:1:0:0:
256,192,44722,1,0,1:0:0:0:
256,192,44797,1,8,1:1:0:0:
256,192,44871,1,8,1:1:0:0:
256,192,45019,1,4,1:1:0:0:
256,192,45465,1,4,1:1:0:0:
256,192,45762,1,4,1:1:0:0:
256,192,45911,1,8,1:1:0:0:
256,192,46208,1,4,1:1:0:0:
256,192,46653,1,4,1:1:0:0:
256,192,47099,1,0,1:0:0:0:
256,192,47173,1,8,1:1:0:0:
256,192,47247,1,8,1:1:0:0:
256,192,47396,1,4,1:1:0:0:
256,192,47693,8,0,48287,1:0:0:0:
256,192,48584,1,4,1:1:0:0:
256,192,49029,1,4,1:1:0:0:
256,192,49475,1,0,1:0:0:0:
256,192,49549,1,8,1:1:0:0:
256,192,49623,1,8,1:1:0:0:
256,192,49772,1,4,1:1:0:0:
256,192,50217,1,4,1:1:0:0:
256,192,50514,1,4,1:1:0:0:
256,192,50663,1,8,1:1:0:0:
256,192,50960,1,4,1:1:0:0:
256,192,51406,1,4,1:1:0:0:
256,192,51851,1,0,1:0:0:0:
256,192,51925,1,8,1:1:0:0:
256,192,52000,1,8,1:1:0:0:
256,192,52148,1,4,1:1:0:0:
256,192,52445,8,0,53039,1:0:0:0:
256,192,53336,1,4,1:1:0:0:
256,192,53633,1,8,1:1:0:0:
256,192,53930,1,0,1:0:0:0:
256,192,54227,1,0,1:0:0:0:
256,192,54376,1,8,1:1:0:0:
256,192,54524,1,0,1:0:0:0:
256,192,54821,1,8,1:1:0:0:
256,192,55118,1,0,1:0:0:0:
256,192,55415,1,8,1:1:0:0:
256,192,55712,1,0,1:0:0:0:
256,192,56010,1,8,1:1:0:0:
256,192,56307,1,0,1:0:0:0:
256,192,56604,1,0,1:0:0:0:
256,192,56752,1,8,1:1:0:0:
256,192,56901,1,0,1:0:0:0:
256,192,57198,1,8,1:1:0:0:
256,192,57495,1,0,1:0:0:0:
256,192,57792,1,8,1:1:0:0:
256,192,58089,1,0,1:0:0:0:
256,192,58237,1,8,1:1:0:0:
256,192,58386,1,0,1:0:0:0:
256,192,58534,1,8,1:1:0:0:
256,192,58683,1,0,1:0:0:0:
256,192,58831,1,8,1:1:0:0:
256,192,58980,1,0,1:0:0:0:
256,192,59128,1,8,1:1:0:0:
256,192,59277,1,0,1:0:0:0:
256,192,59351,1,0,1:0:0:0:
256,192,59425,1,8,1:1:0:0:
256,192,59574,1,0,1:0:0:0:
256,192,59648,1,0,1:0:0:0:
256,192,59722,1,8,1:1:0:0:
256,192,59871,1,0,1:0:0:0:
256,192,59945,1,0,1:0:0:0:
256,192,60019,1,8,1:1:0:0:
256,192,60094,1,8,1:1:0:0:
256,192,60168,1,0,1:0:0:0:
256,192,60242,1,0,1:0:0:0:
256,192,60316,1,8,1:1:0:0:
256,192,60391,1,8,1:1:0:0:
256,192,60465,1,0,1:0:0:0:
256,192,61653,1,4,1:1:0:0:
256,192,62099,1,12,1:1:0:0:
256,192,62396,1,12,1:1:0:0:
256,192,62544,1,4,1:1:0:0:
256,192,62841,1,0,1:0:0:0:
256,192,62915,1,0,1:0:0:0:
256,192,62990,1,0,1:0:0:0:
256,192,63064,1,0,1:0:0:0:
256,192,63138,1,0,1:0:0:0:
256,192,63435,1,8,1:1:0:0:
256,192,63584,1,8,1:1:0:0:
256,192,63658,1,8,1:1:0:0:
256,192,63732,1,8,1:1:0:0:
256,192,63881,1,8,1:1:0:0:
256,192,64029,1,0,1:0:0:0:
256,192,64178,1,8,1:1:0:0:
256,192,64326,1,8,1:1:0:0:
256,192,64475,1,0,1:0:0:0:
256,192,64549,1,8,1:1:0:0:
256,192,64623,1,8,1:1:0:0:
256,192,64772,1,8,1:1:0:0:
256,192,64920,1,8,1:1:0:0:
256,192,64995,1,8,1:1:0:0:
256,192,65069,1,8,1:1:0:0:
256,192,65217,1,0,1:0:0:0:
256,192,65292,1,0,1:0:0:0:
256,192,65366,1,0,1:0:0:0:
256,192,65440,1,0,1:0:0:0:
256,192,65514,1,0,1:0:0:0:
256,192,65663,1,8,1:1:0:0:
256,192,65960,1,8,1:1:0:0:
256,192,66109,1,0,1:0:0:0:
256,192,66257,1,8,1:1:0:0:
256,192,66331,1,8,1:1:0:0:
256,192,66406,1,0,1:0:0:0:
256,192,66554,1,0,1:0:0:0:
256,192,66703,1,8,1:1:0:0:
256,192,66777,1,8,1:1:0:0:
256,192,66851,1,0,1:0:0:0:
256,192,67000,1,8,1:1:0:0:
256,192,67148,1,0,1:0:0:0:
256,192,67222,1,8,1:1:0:0:
256,192,67297,1,0,1:0:0:0:
256,192,67445,1,8,1:1:0:0:
256,192,67594,1,0,1:0:0:0:
256,192,67668,1,0,1:0:0:0:
256,192,67742,1,0,1:0:0:0:
256,192,67816,1,0,1:0:0:0:
256,192,67891,1,0,1:0:0:0:
256,192,68188,1,8,1:1:0:0:
256,192,68336,1,8,1:1:0:0:
256,192,68411,1,8,1:1:0:0:
256,192,68485,1,8,1:1:0:0:
256,192,68633,1,8,1:1:0:0:
256,192,68782,1,0,1:0:0:0:
256,192,68930,1,8,1:1:0:0:
256,192,69079,1,8,1:1:0:0:
256,192,69227,1,0,1:0:0:0:
256,192,69302,1,8,1:1:0:0:
256,192,69376,1,8,1:1:0:0:
256,192,69524,1,0,1:0:0:0:
256,192,69599,1,0,1:0:0:0:
256,192,69673,1,8,1:1:0:0:
256,192,69970,1,4,1:1:0:0:
256,192,70267,1,8,1:1:0:0:
256,192,70564,1,4,1:1:0:0:
256,192,70861,1,8,1:1:0:0:
256,192,71010,1,4,1:1:0:0:
256,192,71307,1,4,1:1:0:0:
256,192,71455,1,4,1:1:0:0:
256,192,71752,1,8,1:1:0:0:
256,192,71901,1,8,1:1:0:0:
256,192,72049,1,8,1:1:0:0:
256,192,72198,1,8,1:1:0:0:
256,192,72346,1,0,1:0:0:0:
256,192,72420,1,0,1:0:0:0:
256,192,72495,1,0,1:0:0:0:
256,192,72569,1,0,1:0:0:0:
256,192,72643,1,0,1:0:0:0:
256,192,72940,1,8,1:1:0:0:
256,192,73089,1,8,1:1:0:0:
256,192,73163,1,8,1:1:0:0:
256,192,73237,1,8,1:1:0:0:
256,192,73386,1,8,1:1:0:0:
256,192,73534,1,0,1:0:0:0:
256,192,73683,1,8,1:1:0:0:
256,192,73831,1,8,1:1:0:0:
256,192,73980,1,0,1:0:0:0:
256,192,74054,1,8,1:1:0:0:
256,192,74128,1,8,1:1:0:0:
256,192,74277,1,8,1:1:0:0:
256,192,74425,1,8,1:1:0:0:
256,192,74500,1,8,1:1:0:0:
256,192,74574,1,8,1:1:0:0:
256,192,74722,1,0,1:0:0:0:
256,192,74797,1,0,1:0:0:0:
256,192,74871,1,0,1:0:0:0:
256,192,74945,1,0,1:0:0:0:
256,192,75019,1,0,1:0:0:0:
256,192,75168,1,8,1:1:0:0:
256,192,75465,1,8,1:1:0:0:
256,192,75613,1,0,1:0:0:0:
256,192,75762,1,8,1:1:0:0:
256,192,75836,1,8,1:1:0:0:
256,192,75911,1,0,1:0:0:0:
256,192,76059,1,0,1:0:0:0:
256,192,76208,1,8,1:1:0:0:
256,192,76282,1,8,1:1:0:0:
256,192,76356,1,0,1:0:0:0:
256,192,76505,1,8,1:1:0:0:
256,192,76653,1,0,1:0:0:0:
256,192,76727,1,8,1:1:0:0:
256,192,76802,1,0,1:0:0:0:
256,192,76950,1,8,1:1:0:0:
256,192,77099,1,0,1:0:0:0:
256,192,77173,1,0,1:0:0:0:
256,192,77247,1,0,1:0:0:0:
256,192,77321,1,0,1:0:0:0:
256,192,77396,1,0,1:0:0:0:
256,192,77693,1,8,1:1:0:0:
256,192,77841,1,8,1:1:0:0:
256,192,77915,1,8,1:1:0:0:
256,192,77990,1,8,1:1:0:0:
256,192,78138,1,8,1:1:0:0:
256,192,78287,1,0,1:0:0:0:
256,192,78435,1,8,1:1:0:0:
256,192,78584,1,8,1:1:0:0:
256,192,78732,1,0,1:0:0:0:
256,192,78807,1,8,1:1:0:0:
256,192,78881,1,8,1:1:0:0:
256,192,79029,1,0,1:0:0:0:
256,192,79104,1,8,1:1:0:0:
256,192,79178,1,0,1:0:0:0:
256,192,79475,1,4,1:1:0:0:
256,192,79772,1,8,1:1:0:0:
256,192,79920,1,8,1:1:0:0:
256,192,80217,1,8,1:1:0:0:
256,192,80514,1,8,1:1:0:0:
256,192,80663,1,8,1:1:0:0:
256,192,80960,1,8,1:1:0:0:
256,192,81109,1,8,1:1:0:0:
256,192,81406,1,8,1:1:0:0:
256,192,81554,8,0,81703,1:0:0:0:
256,192,81851,1,4,1:1:0:0:
256,192,82000,1,8,1:1:0:0:
256,192,82074,1,8,1:1:0:0:
256,192,82148,1,8,1:1:0:0:
256,192,82297,1,8,1:1:0:0:
256,192,82445,1,8,1:1:0:0:
256,192,82594,1,8,1:1:0:0:
256,192,82668,1,8,1:1:0:0:
256,192,82742,1,8,1:1:0:0:
256,192,82891,1,8,1:1:0:0:
256,192,83039,1,8,1:1:0:0:
256,192,83188,1,8,1:1:0:0:
256,192,83262,1,8,1:1:0:0:
256,192,83336,1,8,1:1:0:0:
256,192,83485,1,8,1:1:0:0:
256,192,83633,1,8,1:1:0:0:
256,192,83782,1,8,1:1:0:0:
256,192,83856,1,8,1:1:0:0:
256,192,83930,1,0,1:0:0:0:
256,192,84079,1,8,1:1:0:0:
256,192,84227,1,0,1:0:0:0:
256,192,84376,1,8,1:1:0:0:
256,192,84450,1,8,1:1:0:0:
256,192,84524,1,8,1:1:0:0:
256,192,84673,1,8,1:1:0:0:
256,192,84821,1,8,1:1:0:0:
256,192,84970,1,8,1:1:0:0:
256,192,85044,1,8,1:1:0:0:
256,192,85118,1,8,1:1:0:0:
256,192,85267,1,8,1:1:0:0:
256,192,85415,1,8,1:1:0:0:
256,192,85564,1,8,1:1:0:0:
256,192,85638,1,8,1:1:0:0:
256,192,85712,1,8,1:1:0:0:
256,192,85861,1,8,1:1:0:0:
256,192,86010,1,8,1:1:0:0:
256,192,86158,1,8,1:1:0:0:
256,192,86232,1,8,1:1:0:0:
256,192,86307,1,0,1:0:0:0:
256,192,86455,1,8,1:1:0:0:
256,192,86604,1,0,1:0:0:0:
256,192,86752,1,8,1:1:0:0:
256,192,86826,1,8,1:1:0:0:
256,192,86901,1,8,1:1:0:0:
256,192,87049,1,8,1:1:0:0:
256,192,87198,1,8,1:1:0:0:
256,192,87346,1,8,1:1:0:0:
256,192,87420,1,8,1:1:0:0:
256,192,87495,1,0,1:0:0:0:
256,192,87643,1,8,1:1:0:0:
256,192,87792,1,0,1:0:0:0:
256,192,87940,1,8,1:1:0:0:
256,192,88014,1,8,1:1:0:0:
256,192,88089,1,8,1:1:0:0:
256,192,88237,1,8,1:1:0:0:
256,192,88386,1,8,1:1:0:0:
256,192,88534,1,8,1:1:0:0:
256,192,88609,1,8,1:1:0:0:
256,192,88683,1,0,1:0:0:0:
256,192,88831,1,8,1:1:0:0:
256,192,88980,2,0,L|257:193,1,489.7153333333332,1:0:0:0:
256,192,90168,8,0,91059,1:0:0:0:
256,192,91356,1,4,1:1:0:0:
256,192,91653,1,8,1:1:0:0:
256,192,91802,1,0,1:0:0:0:
256,192,91950,1,8,1:1:0:0:
256,192,92024,1,0,1:0:0:0:
256,192,92099,1,8,1:1:0:0:
256,192,92247,1,8,1:1:0:0:
256,192,92396,1,0,1:0:0:0:
256,192,92470,1,8,1:1:0:0:
256,192,92544,1,0,1:0:0:0:
256,192,92693,1,8,1:1:0:0:
256,192,92841,1,0,1:0:0:0:
256,192,92990,1,0,1:0:0:0:
256,192,93064,1,8,1:1:0:0:
256,192,93138,1,8,1:1:0:0:
256,192,93287,1,8,1:1:0:0:
256,192,93435,1,8,1:1:0:0:
256,192,93510,1,8,1:1:0:0:
256,192,93584,1,8,1:1:0:0:
256,192,93732,1,0,1:0:0:0:
256,192,94029,1,8,1:1:0:0:
256,192,94178,1,0,1:0:0:0:
256,192,94326,1,0,1:0:0:0:
256,192,94401,1,8,1:1:0:0:
256,192,94475,1,8,1:1:0:0:
256,192,94623,1,8,1:1:0:0:
256,192,94772,1,0,1:0:0:0:
256,192,94846,1,0,1:0:0:0:
256,192,94920,1,8,1:1:0:0:
256,192,95069,1,0,1:0:0:0:
256,192,95143,1,8,1:1:0:0:
256,192,95217,1,0,1:0:0:0:
256,192,95366,1,0,1:0:0:0:
256,192,95440,1,8,1:1:0:0:
256,192,95663,1,0,1:0:0:0:
256,192,95812,1,8,1:1:0:0:
256,192,95960,1,8,1:1:0:0:
256,192,96109,1,0,1:0:0:0:
256,192,96257,1,8,1:1:0:0:
256,192,96331,1,8,1:1:0:0:
256,192,96406,1,8,1:1:0:0:
256,192,96554,1,0,1:0:0:0:
256,192,96703,1,8,1:1:0:0:
256,192,96777,1,0,1:0:0:0:
256,192,96851,1,8,1:1:0:0:
256,192,97000,1,8,1:1:0:0:
256,192,97148,1,0,1:0:0:0:
256,192,97222,1,8,1:1:0:0:
256,192,97297,1,0,1:0:0:0:
256,192,97445,1,8,1:1:0:0:
256,192,97594,1,0,1:0:0:0:
256,192,97742,1,0,1:0:0:0:
256,192,97816,1,8,1:1:0:0:
256,192,97891,1,8,1:1:0:0:
256,192,98039,1,8,1:1:0:0:
256,192,98188,1,8,1:1:0:0:
256,192,98262,1,8,1:1:0:0:
256,192,98336,1,8,1:1:0:0:
256,192,98485,1,4,1:1:0:0:
256,192,98782,1,8,1:1:0:0:
256,192,99079,1,4,1:1:0:0:
256,192,99376,1,8,1:1:0:0:
256,192,99524,1,4,1:1:0:0:
256,192,99970,1,8,1:1:0:0:
256,192,100193,1,0,1:0:0:0:
256,192,100267,1,0,1:0:0:0:
256,192,100415,1,0,1:0:0:0:
256,192,100564,1,8,1:1:0:0:
256,192,100861,1,4,1:1:0:0:
256,192,101158,1,8,1:1:0:0:
256,192,101307,1,0,1:0:0:0:
256,192,101455,1,8,1:1:0:0:
256,192,101529,1,0,1:0:0:0:
256,192,101604,1,8,1:1:0:0:
256,192,101752,1,8,1:1:0:0:
256,192,101901,1,0,1:0:0:0:
256,192,101975,1,8,1:1:0:0:
256,192,102049,1,0,1:0:0:0:
256,192,102198,1,8,1:1:0:0:
256,192,102346,1,0,1:0:0:0:
256,192,102495,1,0,1:0:0:0:
256,192,102569,1,8,1:1:0:0:
256,192,102643,1,8,1:1:0:0:
256,192,102792,1,8,1:1:0:0:
256,192,102940,1,8,1:1:0:0:
256,192,103014,1,8,1:1:0:0:
256,192,103089,1,8,1:1:0:0:
256,192,103237,1,0,1:0:0:0:
256,192,103534,1,8,1:1:0:0:
256,192,103683,1,0,1:0:0:0:
256,192,103831,1,0,1:0:0:0:
256,192,103906,1,8,1:1:0:0:
256,192,103980,1,8,1:1:0:0:
256,192,104128,1,8,1:1:0:0:
256,192,104277,1,0,1:0:0:0:
256,192,104351,1,0,1:0:0:0:
256,192,104425,1,8,1:1:0:0:
256,192,104574,1,0,1:0:0:0:
256,192,104648,1,8,1:1:0:0:
256,192,104722,1,0,1:0:0:0:
256,192,104871,1,0,1:0:0:0:
256,192,104945,1,8,1:1:0:0:
256,192,105168,1,0,1:0:0:0:
256,192,105316,1,8,1:1:0:0:
256,192,105465,1,8,1:1:0:0:
256,192,105613,1,4,1:1:0:0:
256,192,106208,1,8,1:1:0:0:
256,192,106356,1,0,1:0:0:0:
256,192,106430,1,8,1:1:0:0:
256,192,106505,1,8,1:1:0:0:
256,192,106653,1,0,1:0:0:0:
256,192,106802,1,8,1:1:0:0:
256,192,106950,1,0,1:0:0:0:
256,192,107024,1,0,1:0:0:0:
256,192,107099,1,8,1:1:0:0:
256,192,107247,1,0,1:0:0:0:
256,192,107396,1,8,1:1:0:0:
256,192,107544,1,0,1:0:0:0:
256,192,107618,1,8,1:1:0:0:
256,192,107693,1,8,1:1:0:0:
256,192,107841,1,0,1:0:0:0:
256,192,107990,1,8,1:1:0:0:
256,192,108138,1,0,1:0:0:0:
256,192,108287,1,8,1:1:0:0:
256,192,108435,1,0,1:0:0:0:
256,192,108584,1,8,1:1:0:0:
256,192,108732,1,0,1:0:0:0:
256,192,108807,1,8,1:1:0:0:
256,192,108955,1,0,1:0:0:0:
256,192,109029,1,8,1:1:0:0:
256,192,109178,8,0,109772,1:0:0:0:
256,192,110366,1,4,1:1:0:0:
256,192,110663,1,8,1:1:0:0:
256,192,110812,1,0,1:0:0:0:
256,192,110960,1,0,1:0:0:0:
256,192,111034,1,0,1:0:0:0:
256,192,111109,1,0,1:0:0:0:
256,192,111257,1,8,1:1:0:0:
256,192,111406,1,0,1:0:0:0:
256,192,111703,1,0,1:0:0:0:
256,192,111851,1,8,1:1:0:0:
256,192,112000,1,0,1:0:0:0:
256,192,112074,1,8,1:1:0:0:
256,192,112148,1,0,1:0:0:0:
256,192,112222,1,8,1:1:0:0:
256,192,112297,1,0,1:0:0:0:
256,192,112445,1,8,1:1:0:0:
256,192,112594,1,0,1:0:0:0:
256,192,112668,1,8,1:1:0:0:
256,192,112742,1,0,1:0:0:0:
256,192,112891,1,0,1:0:0:0:
256,192,113039,1,8,1:1:0:0:
256,192,113188,1,0,1:0:0:0:
256,192,113336,1,0,1:0:0:0:
256,192,113411,1,0,1:0:0:0:
256,192,113485,1,0,1:0:0:0:
256,192,113633,1,8,1:1:0:0:
256,192,113782,1,0,1:0:0:0:
256,192,113857,1,0,1:0:0:0:
256,192,113931,1,8,1:1:0:0:
256,192,114005,1,8,1:1:0:0:
256,192,114079,1,0,1:0:0:0:
256,192,114228,1,8,1:1:0:0:
256,192,114376,1,0,1:0:0:0:
256,192,114450,1,0,1:0:0:0:
256,192,114525,1,8,1:1:0:0:
256,192,114599,1,8,1:1:0:0:
256,192,114673,1,8,1:1:0:0:
256,192,114821,1,0,1:0:0:0:
256,192,114970,1,8,1:1:0:0:
256,192,115118,1,0,1:0:0:0:
256,192,115415,1,8,1:1:0:0:
256,192,115564,1,0,1:0:0:0:
256,192,115712,1,0,1:0:0:0:
256,192,115787,1,0,1:0:0:0:
256,192,115861,1,0,1:0:0:0:
256,192,116010,1,8,1:1:0:0:
256,192,116158,1,0,1:0:0:0:
256,192,116455,1,0,1:0:0:0:
256,192,116604,1,8,1:1:0:0:
256,192,116752,1,0,1:0:0:0:
256,192,116826,1,8,1:1:0:0:
256,192,116901,1,0,1:0:0:0:
256,192,116975,1,8,1:1:0:0:
256,192,117049,1,0,1:0:0:0:
256,192,117198,1,8,1:1:0:0:
256,192,117346,1,0,1:0:0:0:
256,192,117420,1,8,1:1:0:0:
256,192,117495,1,0,1:0:0:0:
256,192,117643,1,0,1:0:0:0:
256,192,117792,1,8,1:1:0:0:
256,192,117940,1,0,1:0:0:0:
256,192,118089,1,0,1:0:0:0:
256,192,118163,1,0,1:0:0:0:
256,192,118237,1,0,1:0:0:0:
256,192,118386,1,8,1:1:0:0:
256,192,118534,1,0,1:0:0:0:
256,192,118609,1,0,1:0:0:0:
256,192,118683,1,8,1:1:0:0:
256,192,118757,1,8,1:1:0:0:
256,192,118831,1,0,1:0:0:0:
256,192,118980,1,8,1:1:0:0:
256,192,119128,1,0,1:0:0:0:
256,192,119203,1,0,1:0:0:0:
256,192,119277,1,8,1:1:0:0:
256,192,119351,1,8,1:1:0:0:
256,192,119425,1,8,1:1:0:0:
256,192,119574,1,0,1:0:0:0:
256,192,119648,1,8,1:1:0:0:
256,192,119722,1,8,1:1:0:0:
256,192,119871,1,0,1:0:0:0:
256,192,120168,1,12,1:1:0:0:
256,192,120316,1,0,1:0:0:0:
256,192,120465,1,0,1:0:0:0:
256,192,120539,1,0,1:0:0:0:
256,192,120613,1,0,1:0:0:0:
256,192,120762,1,8,1:1:0:0:
256,192,120911,1,0,1:0:0:0:
256,192,121208,1,0,1:0:0:0:
256,192,121356,1,8,1:1:0:0:
256,192,121505,1,0,1:0:0:0:
256,192,121579,1,8,1:1:0:0:
256,192,121653,1,0,1:0:0:0:
256,192,121727,1,8,1:1:0:0:
256,192,121802,1,0,1:0:0:0:
256,192,121950,1,8,1:1:0:0:
256,192,122099,1,0,1:0:0:0:
256,192,122173,1,8,1:1:0:0:
256,192,122247,1,0,1:0:0:0:
256,192,122396,1,0,1:0:0:0:
256,192,122470,1,0,1:0:0:0:
256,192,122544,1,8,1:1:0:0:
256,192,122693,1,0,1:0:0:0:
256,192,122841,1,0,1:0:0:0:
256,192,122915,1,0,1:0:0:0:
256,192,122990,1,0,1:0:0:0:
256,192,123138,1,8,1:1:0:0:
256,192,123287,1,0,1:0:0:0:
256,192,123361,1,0,1:0:0:0:
256,192,123435,1,8,1:1:0:0:
256,192,123510,1,8,1:1:0:0:
256,192,123584,1,0,1:0:0:0:
256,192,123732,1,8,1:1:0:0:
256,192,123881,1,0,1:0:0:0:
256,192,123955,1,0,1:0:0:0:
256,192,124029,1,8,1:1:0:0:
256,192,124104,1,8,1:1:0:0:
256,192,124178,1,8,1:1:0:0:
256,192,124326,1,0,1:0:0:0:
256,192,124475,1,8,1:1:0:0:
256,192,124623,1,0,1:0:0:0:
256,192,124920,1,8,1:1:0:0:
256,192,125217,1,0,1:0:0:0:
256,192,125366,1,0,1:0:0:0:
256,192,125514,1,8,1:1:0:0:
256,192,125812,1,0,1:0:0:0:
256,192,125960,1,0,1:0:0:0:
256,192,126109,1,8,1:1:0:0:
256,192,126257,1,0,1:0:0:0:
256,192,126554,1,0,1:0:0:0:
256,192,126703,1,8,1:1:0:0:
256,192,127000,1,0,1:0:0:0:
256,192,127148,1,0,1:0:0:0:
256,192,127297,1,8,1:1:0:0:
256,192,127594,1,0,1:0:0:0:
256,192,127742,1,0,1:0:0:0:
256,192,127891,1,8,1:1:0:0:
256,192,128188,1,0,1:0:0:0:
256,192,128262,1,0,1:0:0:0:
256,192,128336,1,0,1:0:0:0:
256,192,128485,1,8,1:1:0:0:
256,192,128633,1,0,1:0:0:0:
256,192,128708,1,8,1:1:0:0:
256,192,128856,1,0,1:0:0:0:
256,192,128930,1,8,1:1:0:0:
256,192,129079,1,0,1:0:0:0:
256,192,129153,1,8,1:1:0:0:
256,192,129227,1,8,1:1:0:0:
256,192,129376,1,4,1:1:0:0:
256,192,138881,1,0,2:0:0:0:
256,192,139475,1,8,2:2:0:0:
256,192,140069,1,8,2:2:0:0:
256,192,140514,1,8,2:2:0:0:
256,192,140663,1,8,2:2:0:0:
256,192,141257,1,8,2:2:0:0:
256,192,141703,1,8,2:2:0:0:
256,192,141851,1,8,2:2:0:0:
256,192,142445,1,8,2:2:0:0:
256,192,142891,1,8,2:2:0:0:
256,192,143039,1,8,2:2:0:0:
256,192,143633,1,0,2:0:0:0:
256,192,144227,1,8,2:2:0:0:
256,192,144821,1,8,2:2:0:0:
256,192,145267,1,8,2:2:0:0:
256,192,145415,1,8,2:2:0:0:
256,192,145712,1,8,2:2:0:0:
256,192,146307,1,8,2:2:0:0:
256,192,146604,1,8,2:2:0:0:
256,192,146901,1,8,2:2:0:0:
256,192,147198,8,8,148089,2:2:0:0:
256,192,148386,1,0,2:0:0:0:
256,192,148980,1,8,2:2:0:0:
256,192,149574,1,8,2:2:0:0:
256,192,150019,1,8,2:2:0:0:
256,192,150168,1,8,2:2:0:0:
256,192,150762,1,8,2:2:0:0:
256,192,151208,1,8,2:2:0:0:
256,192,151356,1,8,2:2:0:0:
256,192,151950,1,8,2:2:0:0:
256,192,152396,1,8,2:2:0:0:
256,192,152544,1,8,2:2:0:0:
256,192,153138,1,0,2:0:0:0:
256,192,153732,1,8,2:2:0:0:
256,192,154326,1,8,2:2:0:0:
256,192,154772,1,8,2:2:0:0:
256,192,154920,1,8,2:2:0:0:
256,192,155514,1,8,2:2:0:0:
256,192,155960,1,8,2:2:0:0:
256,192,156109,1,8,2:2:0:0:
256,192,156703,1,8,2:2:0:0:
256,192,157148,1,8,2:2:0:0:
256,192,157297,1,8,2:2:0:0:
256,192,157891,1,0,2:0:0:0:
256,192,158485,1,8,2:2:0:0:
256,192,159079,1,0,2:0:0:0:
256,192,159524,1,8,2:2:0:0:
256,192,159673,1,8,2:2:0:0:
256,192,160267,1,0,2:0:0:0:
256,192,160712,1,8,2:2:0:0:
256,192,160861,1,8,2:2:0:0:
256,192,161455,1,0,2:0:0:0:
256,192,162049,1,8,2:2:0:0:
256,192,162643,1,0,1:0:0:0:
256,192,162940,1,8,1:1:0:0:
256,192,163237,1,0,1:0:0:0:
256,192,163534,1,8,1:1:0:0:
256,192,163831,1,0,1:0:0:0:
256,192,163980,1,8,1:1:0:0:
256,192,164128,1,0,1:0:0:0:
256,192,164277,1,8,1:1:0:0:
256,192,164425,1,0,1:0:0:0:
256,192,164574,1,8,1:1:0:0:
256,192,164722,1,0,1:0:0:0:
256,192,164871,1,8,1:1:0:0:
256,192,165019,1,0,1:0:0:0:
256,192,165094,1,0,1:0:0:0:
256,192,165168,1,0,1:0:0:0:
256,192,165242,1,0,1:0:0:0:
256,192,165316,1,0,1:0:0:0:
256,192,165391,1,0,1:0:0:0:
256,192,165465,1,0,1:0:0:0:
256,192,165539,1,0,1:0:0:0:
256,192,165613,1,0,1:0:0:0:
256,192,165688,1,0,1:0:0:0:
256,192,165762,1,0,1:0:0:0:
256,192,165836,1,0,1:0:0:0:
256,192,165911,1,0,1:0:0:0:
256,192,165985,1,0,1:0:0:0:
256,192,166059,1,0,1:0:0:0:
256,192,166133,1,0,1:0:0:0:
256,192,166208,1,0,1:0:0:0:
256,192,167396,1,4,1:1:0:0:
256,192,167990,1,8,1:1:0:0:
256,192,168287,1,4,1:1:0:0:
256,192,168881,1,0,1:0:0:0:
256,192,169178,1,8,1:1:0:0:
256,192,169326,1,0,1:0:0:0:
256,192,169475,1,0,1:0:0:0:
256,192,169623,1,8,1:1:0:0:
256,192,170069,1,4,1:1:0:0:
256,192,170366,1,8,1:1:0:0:
256,192,170440,1,8,1:1:0:0:
256,192,170514,1,0,1:0:0:0:
256,192,170663,1,12,1:1:0:0:
256,192,170960,1,0,1:0:0:0:
256,192,171109,1,12,1:1:0:0:
256,192,171406,1,0,1:0:0:0:
256,192,171554,1,8,1:1:0:0:
256,192,171628,1,8,1:1:0:0:
256,192,171703,1,8,1:1:0:0:
256,192,171777,1,8,1:1:0:0:
256,192,171851,1,0,1:0:0:0:
256,192,171925,1,0,1:0:0:0:
256,192,172000,1,0,1:0:0:0:
256,192,172148,1,4,1:1:0:0:
256,192,172742,1,8,1:1:0:0:
256,192,173039,1,4,1:1:0:0:
256,192,173485,1,0,1:0:0:0:
256,192,173633,1,8,1:1:0:0:
256,192,173930,1,0,1:0:0:0:
256,192,174079,1,0,1:0:0:0:
256,192,174227,1,8,1:1:0:0:
256,192,174376,1,0,1:0:0:0:
256,192,174821,1,12,1:1:0:0:
256,192,175118,1,0,1:0:0:0:
256,192,175267,1,8,1:1:0:0:
256,192,175341,1,8,1:1:0:0:
256,192,175415,1,0,1:0:0:0:
256,192,175564,1,12,1:1:0:0:
256,192,175861,1,0,1:0:0:0:
256,192,176010,1,12,1:1:0:0:
256,192,176307,1,0,1:0:0:0:
256,192,176381,1,0,1:0:0:0:
256,192,176455,1,0,1:0:0:0:
256,192,176529,1,0,1:0:0:0:
256,192,176604,1,8,1:1:0:0:
256,192,176678,1,8,1:1:0:0:
256,192,176752,1,8,1:1:0:0:
256,192,176901,1,4,1:1:0:0:
256,192,177495,1,8,1:1:0:0:
256,192,177792,1,4,1:1:0:0:
256,192,178386,1,0,1:0:0:0:
256,192,178683,1,8,1:1:0:0:
256,192,178831,1,0,1:0:0:0:
256,192,178980,1,0,1:0:0:0:
256,192,179128,1,8,1:1:0:0:
256,192,179574,1,4,1:1:0:0:
256,192,179870,1,8,1:1:0:0:
256,192,179945,1,8,1:1:0:0:
256,192,180019,1,0,1:0:0:0:
256,192,180168,1,12,1:1:0:0:
256,192,180465,1,0,1:0:0:0:
256,192,180613,1,12,1:1:0:0:
256,192,180911,1,0,1:0:0:0:
256,192,181059,1,8,1:1:0:0:
256,192,181133,1,8,1:1:0:0:
256,192,181208,1,8,1:1:0:0:
256,192,181282,1,8,1:1:0:0:
256,192,181356,1,0,1:0:0:0:
256,192,181430,1,0,1:0:0:0:
256,192,181505,1,0,1:0:0:0:
256,192,181653,1,4,1:1:0:0:
256,192,182247,1,12,1:1:0:0:
256,192,182544,1,12,1:1:0:0:
256,192,183138,1,0,1:0:0:0:
256,192,183435,1,8,1:1:0:0:
256,192,183584,1,0,1:0:0:0:
256,192,183658,1,8,1:1:0:0:
256,192,183732,1,0,1:0:0:0:
256,192,183881,1,0,1:0:0:0:
256,192,184178,1,8,1:1:0:0:
256,192,184326,1,0,1:0:0:0:
256,192,184475,1,8,1:1:0:0:
256,192,184623,1,8,1:1:0:0:
256,192,184772,1,8,1:1:0:0:
256,192,184920,1,4,1:1:0:0:
256,192,185217,8,0,186109,1:0:0:0:
256,192,186406,1,0,1:0:0:0:
256,192,186851,1,12,1:1:0:0:
256,192,187297,1,12,1:1:0:0:
256,192,187742,1,12,1:1:0:0:
256,192,188188,1,12,1:1:0:0:
256,192,188782,1,0,1:0:0:0:
256,192,189227,1,12,1:1:0:0:
256,192,189673,1,12,1:1:0:0:
256,192,190118,1,12,1:1:0:0:
256,192,190415,1,0,1:0:0:0:
256,192,190564,1,12,1:1:0:0:
256,192,190787,1,12,1:1:0:0:
256,192,191010,1,12,1:1:0:0:
256,192,191158,1,0,1:0:0:0:
256,192,191604,1,12,1:1:0:0:
256,192,192049,1,12,1:1:0:0:
256,192,192495,1,12,1:1:0:0:
256,192,192940,1,12,1:1:0:0:
256,192,193534,1,0,1:0:0:0:
256,192,193980,1,12,1:1:0:0:
256,192,194425,1,12,1:1:0:0:
256,192,194871,1,12,1:1:0:0:
256,192,195168,1,0,1:0:0:0:
256,192,195316,1,12,1:1:0:0:
256,192,195613,1,12,1:1:0:0:
256,192,195911,1,4,1:1:0:0:
256,192,204227,8,0,205118,1:0:0:0:
256,192,205415,1,4,1:1:0:0:
256,192,205712,1,8,1:1:0:0:
256,192,205861,1,4,1:1:0:0:
256,192,206307,1,0,1:0:0:0:
256,192,206381,1,8,1:1:0:0:
256,192,206455,1,8,1:1:0:0:
256,192,206604,1,4,1:1:0:0:
256,192,206901,1,8,1:1:0:0:
256,192,207049,1,4,1:1:0:0:
256,192,207346,1,4,1:1:0:0:
256,192,207495,1,8,1:1:0:0:
256,192,207569,1,8,1:1:0:0:
256,192,207643,1,8,1:1:0:0:
256,192,207792,1,4,1:1:0:0:
256,192,208089,1,8,1:1:0:0:
256,192,208237,1,4,1:1:0:0:
256,192,208683,1,0,1:0:0:0:
256,192,208757,1,8,1:1:0:0:
256,192,208831,1,8,1:1:0:0:
256,192,208980,1,4,1:1:0:0:
256,192,209277,8,0,209871,1:0:0:0:
256,192,210168,1,4,1:1:0:0:
256,192,210465,1,8,1:1:0:0:
256,192,210613,1,4,1:1:0:0:
256,192,211059,1,0,1:0:0:0:
256,192,211133,1,8,1:1:0:0:
256,192,211208,1,8,1:1:0:0:
256,192,211356,1,4,1:1:0:0:
256,192,211653,1,8,1:1:0:0:
256,192,211802,1,4,1:1:0:0:
256,192,212099,1,4,1:1:0:0:
256,192,212247,1,8,1:1:0:0:
256,192,212321,1,8,1:1:0:0:
256,192,212396,1,8,1:1:0:0:
256,192,212544,1,4,1:1:0:0:
256,192,212841,1,8,1:1:0:0:
256,192,212990,1,4,1:1:0:0:
256,192,213435,1,0,1:0:0:0:
256,192,213510,1,8,1:1:0:0:
256,192,213584,1,8,1:1:0:0:
256,192,213732,1,4,1:1:0:0:
256,192,214029,8,0,214623,1:0:0:0:
256,192,214920,1,4,1:1:0:0:
256,192,215217,1,8,1:1:0:0:
256,192,215514,1,0,1:0:0:0:
256,192,215812,1,0,1:0:0:0:
256,192,215960,1,8,1:1:0:0:
256,192,216109,1,0,1:0:0:0:
256,192,216406,1,8,1:1:0:0:
256,192,216703,1,0,1:0:0:0:
256,192,217000,1,8,1:1:0:0:
256,192,217297,1,0,1:0:0:0:
256,192,217594,1,8,1:1:0:0:
256,192,217891,1,0,1:0:0:0:
256,192,218188,1,0,1:0:0:0:
256,192,218336,1,8,1:1:0:0:
256,192,218485,1,0,1:0:0:0:
256,192,218782,1,8,1:1:0:0:
256,192,219079,1,0,1:0:0:0:
256,192,219376,1,8,1:1:0:0:
256,192,219673,1,0,1:0:0:0:
256,192,219821,1,8,1:1:0:0:
256,192,219970,1,0,1:0:0:0:
256,192,220118,1,8,1:1:0:0:
256,192,220267,1,0,1:0:0:0:
256,192,220415,1,8,1:1:0:0:
256,192,220564,1,0,1:0:0:0:
256,192,220712,1,8,1:1:0:0:
256,192,220861,1,0,1:0:0:0:
256,192,221010,1,8,1:1:0:0:
256,192,221158,1,0,1:0:0:0:
256,192,221307,1,8,1:1:0:0:
256,192,221455,1,0,1:0:0:0:
256,192,221604,1,8,1:1:0:0:
256,192,221752,1,0,1:0:0:0:
256,192,221901,1,8,1:1:0:0:
256,192,222049,1,0,1:0:0:0:
256,192,222123,1,0,1:0:0:0:
256,192,222198,1,8,1:1:0:0:
256,192,222272,1,8,1:1:0:0:
256,192,222346,1,0,1:0:0:0:
256,192,222420,1,0,1:0:0:0:
256,192,222495,1,8,1:1:0:0:
256,192,222569,1,8,1:1:0:0:
256,192,222643,1,0,1:0:0:0:
256,192,222717,1,0,1:0:0:0:
256,192,222792,1,8,1:1:0:0:
256,192,222866,1,8,1:1:0:0:
256,192,222940,1,0,1:0:0:0:
256,192,223014,1,0,1:0:0:0:
256,192,223089,1,8,1:1:0:0:
256,192,223237,1,4,1:1:0:0:
256,192,223683,1,12,1:1:0:0:
256,192,223980,1,12,1:1:0:0:
256,192,224128,1,4,1:1:0:0:
256,192,224425,1,4,1:1:0:0:
256,192,224648,1,8,1:1:0:0:
256,192,224722,1,8,1:1:0:0:
256,192,224871,1,8,1:1:0:0:
256,192,225019,1,0,1:0:0:0:
256,192,225094,1,8,1:1:0:0:
256,192,225168,1,0,1:0:0:0:
256,192,225316,1,8,1:1:0:0:
256,192,225465,1,8,1:1:0:0:
256,192,225539,1,8,1:1:0:0:
256,192,225613,1,0,1:0:0:0:
256,192,225762,1,0,1:0:0:0:
256,192,225911,1,8,1:1:0:0:
256,192,226059,1,8,1:1:0:0:
256,192,226208,1,0,1:0:0:0:
256,192,226282,1,8,1:1:0:0:
256,192,226356,1,0,1:0:0:0:
256,192,226505,1,8,1:1:0:0:
256,192,226653,1,8,1:1:0:0:
256,192,226727,1,8,1:1:0:0:
256,192,226802,1,0,1:0:0:0:
256,192,226950,1,0,1:0:0:0:
256,192,227024,1,0,1:0:0:0:
256,192,227099,1,8,1:1:0:0:
256,192,227247,1,8,1:1:0:0:
256,192,227396,1,0,1:0:0:0:
256,192,227470,1,8,1:1:0:0:
256,192,227544,1,0,1:0:0:0:
256,192,227693,1,8,1:1:0:0:
256,192,227841,1,8,1:1:0:0:
256,192,227915,1,8,1:1:0:0:
256,192,227990,1,0,1:0:0:0:
256,192,228138,1,0,1:0:0:0:
256,192,228287,1,8,1:1:0:0:
256,192,228435,1,8,1:1:0:0:
256,192,228584,1,8,1:1:0:0:
256,192,228658,1,8,1:1:0:0:
256,192,228732,1,8,1:1:0:0:
256,192,228881,1,0,1:0:0:0:
256,192,229029,1,8,1:1:0:0:
256,192,229104,1,8,1:1:0:0:
256,192,229178,1,0,1:0:0:0:
256,192,229326,1,0,1:0:0:0:
256,192,229401,1,0,1:0:0:0:
256,192,229475,1,8,1:1:0:0:
256,192,229623,1,8,1:1:0:0:
256,192,229772,1,0,1:0:0:0:
256,192,229846,1,8,1:1:0:0:
256,192,229920,1,0,1:0:0:0:
256,192,230069,1,8,1:1:0:0:
256,192,230217,1,8,1:1:0:0:
256,192,230292,1,8,1:1:0:0:
256,192,230366,1,0,1:0:0:0:
256,192,230514,1,0,1:0:0:0:
256,192,230589,1,0,1:0:0:0:
256,192,230663,1,8,1:1:0:0:
256,192,230812,1,8,1:1:0:0:
256,192,230961,1,0,1:0:0:0:
256,192,231035,1,8,1:1:0:0:
256,192,231109,1,8,1:1:0:0:
256,192,231258,1,8,1:1:0:0:
256,192,231406,1,0,1:0:0:0:
256,192,231480,1,0,1:0:0:0:
256,192,231554,1,8,1:1:0:0:
256,192,231628,1,8,1:1:0:0:
256,192,231777,1,8,1:1:0:0:
256,192,231851,1,8,1:1:0:0:
256,192,231999,1,0,1:0:0:0:
256,192,232074,1,0,1:0:0:0:
256,192,232148,1,8,1:1:0:0:
256,192,232222,1,8,1:1:0:0:
256,192,232371,1,0,1:0:0:0:
256,192,232445,1,8,1:1:0:0:
256,192,232594,1,0,1:0:0:0:
256,192,232668,1,0,1:0:0:0:
256,192,232743,1,0,1:0:0:0:
256,192,232817,1,8,1:1:0:0:
256,192,232965,1,0,1:0:0:0:
256,192,233039,1,8,1:1:0:0:
256,192,233188,1,0,1:0:0:0:
256,192,233336,2,0,L|257:193,1,209.7433333333333,1:0:0:0:
256,192,233930,1,4,1:1:0:0:
256,192,234153,1,8,1:1:0:0:
256,192,234227,1,8,1:1:0:0:
256,192,234376,1,8,1:1:0:0:
256,192,234524,1,0,1:0:0:0:
256,192,234599,1,8,1:1:0:0:
256,192,234673,1,0,1:0:0:0:
256,192,234821,1,8,1:1:0:0:
256,192,234970,1,8,1:1:0:0:
256,192,235044,1,8,1:1:0:0:
256,192,235118,1,0,1:0:0:0:
256,192,235267,1,0,1:0:0:0:
256,192,235415,1,8,1:1:0:0:
256,192,235564,1,8,1:1:0:0:
256,192,235712,1,0,1:0:0:0:
256,192,235787,1,8,1:1:0:0:
256,192,235861,1,0,1:0:0:0:
256,192,236010,1,8,1:1:0:0:
256,192,236158,1,8,1:1:0:0:
256,192,236232,1,8,1:1:0:0:
256,192,236307,1,0,1:0:0:0:
256,192,236455,1,0,1:0:0:0:
256,192,236529,1,0,1:0:0:0:
256,192,236604,1,8,1:1:0:0:
256,192,236752,1,8,1:1:0:0:
256,192,236901,1,0,1:0:0:0:
256,192,236975,1,8,1:1:0:0:
256,192,237049,1,0,1:0:0:0:
256,192,237198,1,8,1:1:0:0:
256,192,237346,1,8,1:1:0:0:
256,192,237420,1,8,1:1:0:0:
256,192,237495,1,0,1:0:0:0:
256,192,237643,1,0,1:0:0:0:
256,192,237792,1,8,1:1:0:0:
256,192,237940,1,8,1:1:0:0:
256,192,238089,1,8,1:1:0:0:
256,192,238163,1,8,1:1:0:0:
256,192,238237,1,8,1:1:0:0:
256,192,238386,8,0,238535,1:0:0:0:
256,192,238980,1,8,1:1:0:0:
256,192,239128,1,0,1:0:0:0:
256,192,239203,1,8,1:1:0:0:
256,192,239277,1,0,1:0:0:0:
256,192,239425,1,0,1:0:0:0:
256,192,239574,1,8,1:1:0:0:
256,192,239722,1,0,1:0:0:0:
256,192,239797,1,0,1:0:0:0:
256,192,239871,1,8,1:1:0:0:
256,192,240019,1,0,1:0:0:0:
256,192,240168,1,8,1:1:0:0:
256,192,240316,1,0,1:0:0:0:
256,192,240391,1,0,1:0:0:0:
256,192,240465,1,8,1:1:0:0:
256,192,240539,1,8,1:1:0:0:
256,192,240613,1,0,1:0:0:0:
256,192,240762,1,8,1:1:0:0:
256,192,240911,1,0,1:0:0:0:
256,192,241059,1,8,1:1:0:0:
256,192,241133,1,8,1:1:0:0:
256,192,241208,1,0,1:0:0:0:
256,192,241282,1,0,1:0:0:0:
256,192,241356,1,8,1:1:0:0:
256,192,241430,1,8,1:1:0:0:
256,192,241505,1,0,1:0:0:0:
256,192,241579,1,0,1:0:0:0:
256,192,241653,1,8,1:1:0:0:
256,192,241727,1,8,1:1:0:0:
256,192,241802,1,0,1:0:0:0:
256,192,241876,1,0,1:0:0:0:
256,192,241950,1,8,1:1:0:0:
256,192,242024,1,8,1:1:0:0:
256,192,242099,1,0,1:0:0:0:
256,192,242173,1,0,1:0:0:0:
256,192,242247,1,8,1:1:0:0:
256,192,243435,8,0,243732,1:0:0:0:
256,192,244029,1,4,1:1:0:0:
256,192,244178,1,8,1:1:0:0:
256,192,244252,1,8,1:1:0:0:
256,192,244326,1,0,1:0:0:0:
256,192,244475,1,8,1:1:0:0:
256,192,244623,1,0,1:0:0:0:
256,192,244698,1,0,1:0:0:0:
256,192,244772,1,8,1:1:0:0:
256,192,244920,1,0,1:0:0:0:
256,192,245069,1,8,1:1:0:0:
256,192,245143,1,8,1:1:0:0:
256,192,245217,1,0,1:0:0:0:
256,192,245366,1,8,1:1:0:0:
256,192,245514,1,0,1:0:0:0:
256,192,245663,1,8,1:1:0:0:
256,192,245737,1,0,1:0:0:0:
256,192,245812,1,0,1:0:0:0:
256,192,246109,1,8,1:1:0:0:
256,192,246257,1,0,1:0:0:0:
256,192,246554,1,0,1:0:0:0:
256,192,246703,1,8,1:1:0:0:
256,192,246851,1,0,1:0:0:0:
256,192,246925,1,0,1:0:0:0:
256,192,247000,1,8,1:1:0:0:
256,192,247148,1,0,1:0:0:0:
256,192,247222,1,8,1:1:0:0:
256,192,247297,1,0,1:0:0:0:
256,192,247445,1,0,1:0:0:0:
256,192,247519,1,8,1:1:0:0:
256,192,247742,1,0,1:0:0:0:
256,192,247891,1,8,1:1:0:0:
256,192,247965,1,8,1:1:0:0:
256,192,248039,1,8,1:1:0:0:
256,192,248188,1,4,1:1:0:0:
256,192,248485,1,8,1:1:0:0:
256,192,248633,1,0,1:0:0:0:
256,192,248930,1,8,1:1:0:0:
256,192,249005,1,8,1:1:0:0:
256,192,249079,1,0,1:0:0:0:
256,192,249227,1,8,1:1:0:0:
256,192,249376,1,0,1:0:0:0:
256,192,249450,1,0,1:0:0:0:
256,192,249524,1,8,1:1:0:0:
256,192,249673,1,0,1:0:0:0:
256,192,249821,1,8,1:1:0:0:
256,192,249896,1,8,1:1:0:0:
256,192,249970,1,0,1:0:0:0:
256,192,250118,1,8,1:1:0:0:
256,192,250267,1,0,1:0:0:0:
256,192,250341,1,8,1:1:0:0:
256,192,250415,1,8,1:1:0:0:
256,192,250564,1,4,1:1:0:0:
256,192,250861,1,8,1:1:0:0:
256,192,251010,1,0,1:0:0:0:
256,192,251158,1,0,1:0:0:0:
256,192,251232,1,8,1:1:0:0:
256,192,251307,1,0,1:0:0:0:
256,192,251455,1,8,1:1:0:0:
256,192,251604,1,0,1:0:0:0:
256,192,251752,1,0,1:0:0:0:
256,192,251826,1,0,1:0:0:0:
256,192,251901,1,8,1:1:0:0:
256,192,251975,1,8,1:1:0:0:
256,192,252049,1,0,1:0:0:0:
256,192,252198,1,8,1:1:0:0:
256,192,252346,1,0,1:0:0:0:
256,192,252420,1,8,1:1:0:0:
256,192,252495,1,8,1:1:0:0:
256,192,252569,1,8,1:1:0:0:
256,192,252643,1,0,1:0:0:0:
256,192,252792,1,8,1:1:0:0:
256,192,252940,1,4,1:1:0:0:
256,192,253237,1,8,1:1:0:0:
256,192,253386,1,0,1:0:0:0:
256,192,253683,1,8,1:1:0:0:
256,192,253757,1,8,1:1:0:0:
256,192,253831,1,0,1:0:0:0:
256,192,253980,1,8,1:1:0:0:
256,192,254128,1,0,1:0:0:0:
256,192,254203,1,0,1:0:0:0:
256,192,254277,1,8,1:1:0:0:
256,192,254425,1,0,1:0:0:0:
256,192,254574,1,8,1:1:0:0:
256,192,254648,1,8,1:1:0:0:
256,192,254722,1,0,1:0:0:0:
256,192,254871,1,8,1:1:0:0:
256,192,255019,1,0,1:0:0:0:
256,192,255168,1,8,1:1:0:0:
256,192,255242,1,0,1:0:0:0:
256,192,255316,1,0,1:0:0:0:
256,192,255613,1,8,1:1:0:0:
256,192,255762,1,0,1:0:0:0:
256,192,256059,1,0,1:0:0:0:
256,192,256208,1,8,1:1:0:0:
256,192,256356,1,0,1:0:0:0:
256,192,256430,1,0,1:0:0:0:
256,192,256505,1,8,1:1:0:0:
256,192,256653,1,0,1:0:0:0:
256,192,256727,1,8,1:1:0:0:
256,192,256802,1,0,1:0:0:0:
256,192,256950,1,0,1:0:0:0:
256,192,257024,1,8,1:1:0:0:
256,192,257247,1,0,1:0:0:0:
256,192,257396,1,8,1:1:0:0:
256,192,257470,1,8,1:1:0:0:
256,192,257544,1,8,1:1:0:0:
256,192,257693,1,4,1:1:0:0:
256,192,257990,1,8,1:1:0:0:
256,192,258138,1,0,1:0:0:0:
256,192,258287,1,0,1:0:0:0:
256,192,258361,1,8,1:1:0:0:
256,192,258435,1,0,1:0:0:0:
256,192,258584,1,8,1:1:0:0:
256,192,258732,1,0,1:0:0:0:
256,192,259029,1,0,1:0:0:0:
256,192,259178,1,8,1:1:0:0:
256,192,259326,1,0,1:0:0:0:
256,192,259401,1,8,1:1:0:0:
256,192,259475,1,0,1:0:0:0:
256,192,259623,1,0,1:0:0:0:
256,192,259772,1,8,1:1:0:0:
256,192,259920,1,0,1:0:0:0:
256,192,260069,1,8,1:1:0:0:
256,192,260217,1,0,1:0:0:0:
256,192,260292,1,0,1:0:0:0:
256,192,260366,1,8,1:1:0:0:
256,192,260514,1,0,1:0:0:0:
256,192,260663,1,8,1:1:0:0:
256,192,260812,1,0,1:0:0:0:
256,192,260886,1,0,1:0:0:0:
256,192,260960,1,8,1:1:0:0:
256,192,261109,1,0,1:0:0:0:
256,192,261257,2,0,L|257:193,1,279.972,1:0:0:0:
256,192,262445,1,4,1:1:0:0:
