osu file format v14

[General]
AudioFilename: overcomplexification.mp3
AudioLeadIn: 0
PreviewTime: 22191
Countdown: 0
SampleSet: Soft
StackLeniency: 0.7
Mode: 3
LetterboxInBreaks: 0
SpecialStyle: 0
WidescreenStoryboard: 0

[Editor]
DistanceSpacing: 1.2
BeatDivisor: 4
GridSize: 8
TimelineZoom: 1.299999

[Metadata]
Title:overcomplexification
TitleUnicode:overcomplexification
Artist:Camellia
ArtistUnicode:かめりあ
Creator:Starry-
Version:Lv.06
Source:jubeat prop
Tags:step plus
BeatmapID:756694
BeatmapSetID:323493

[Difficulty]
HPDrainRate:7.5
CircleSize:4
OverallDifficulty:7.6
ApproachRate:5
SliderMultiplier:2.33
SliderTickRate:1

[Events]
//Background and Video events
0,0,"overcomplexification bg.jpg",0,0
//Break Periods
//Storyboard Layer 0 (Background)
//Storyboard Layer 1 (Fail)
//Storyboard Layer 2 (Pass)
//Storyboard Layer 3 (Foreground)
//Storyboard Sound Samples

[TimingPoints]
1981,315.789473684211,4,2,1,40,1,0

[HitObjects]
192,192,1981,5,0,1:0:0:0:
320,192,2928,1,0,1:0:0:0:
192,192,3559,1,0,1:0:0:0:
448,192,3717,1,0,1:0:0:0:
64,192,3875,1,0,1:0:0:0:
320,192,4033,1,0,1:0:0:0:
64,192,4191,128,0,4507:0:0:0:0:
192,192,4191,1,0,1:0:0:0:
448,192,4507,1,0,1:0:0:0:
320,192,5454,1,0,1:0:0:0:
448,192,5770,128,0,5928:0:0:0:0:
320,192,5770,1,0,0:0:0:0:
64,192,5928,128,0,6086:0:0:0:0:
192,192,5928,1,0,0:0:0:0:
320,192,6086,128,0,6244:0:0:0:0:
448,192,6086,1,0,0:0:0:0:
192,192,6244,128,0,6402:0:0:0:0:
448,192,6402,128,0,6559:0:0:0:0:
64,192,6559,128,0,6717:0:0:0:0:
320,192,6717,128,0,6875:0:0:0:0:
192,192,6875,128,0,7033:0:0:0:0:
64,192,7033,1,0,1:0:0:0:
320,192,7981,1,0,1:0:0:0:
192,192,8612,1,0,1:0:0:0:
320,192,8770,1,0,1:0:0:0:
448,192,8928,1,0,1:0:0:0:
320,192,9086,1,0,1:0:0:0:
192,192,9244,1,0,1:0:0:0:
448,192,9244,128,0,9559:0:0:0:0:
320,192,9402,1,0,1:0:0:0:
64,192,9559,1,0,1:0:0:0:
448,192,10033,1,0,1:0:0:0:
192,192,10507,1,0,1:0:0:0:
64,192,10981,1,0,1:0:0:0:
320,192,11375,1,0,1:0:0:0:
192,192,11770,128,0,12086:0:0:0:0:
64,192,12086,1,6,0:0:0:0:
320,192,12086,1,0,1:0:0:0:
64,192,12402,1,2,0:0:0:0:
64,192,12717,1,2,0:0:0:0:
64,192,13033,1,2,0:0:0:0:
448,192,13033,1,0,1:0:0:0:
64,192,13349,1,2,0:0:0:0:
64,192,13665,1,2,0:0:0:0:
192,192,13665,1,0,1:0:0:0:
320,192,13823,1,0,1:0:0:0:
64,192,13981,1,2,0:0:0:0:
448,192,13981,1,0,1:0:0:0:
320,192,14138,1,0,1:0:0:0:
64,192,14296,128,2,14612:0:0:0:0:
192,192,14296,1,0,1:0:0:0:
448,192,14612,1,2,0:0:0:0:
320,192,14612,1,0,1:0:0:0:
448,192,14928,1,2,0:0:0:0:
448,192,15244,1,2,0:0:0:0:
192,192,15559,1,0,1:0:0:0:
448,192,15559,1,2,0:0:0:0:
448,192,15875,128,2,16033:0:0:0:0:
320,192,15875,1,0,0:0:0:0:
64,192,16033,128,0,16191:0:0:0:0:
192,192,16033,1,0,0:0:0:0:
448,192,16191,128,2,16349:0:0:0:0:
320,192,16191,1,0,0:0:0:0:
192,192,16349,1,0,1:0:0:0:
448,192,16507,1,2,0:0:0:0:
64,192,16507,1,0,1:0:0:0:
320,192,16665,1,0,1:0:0:0:
448,192,16823,1,0,0:0:0:0:
64,192,16823,1,0,0:0:0:0:
192,192,16981,1,0,0:0:0:0:
448,192,17138,1,2,0:0:0:0:
320,192,17217,1,0,0:0:0:0:
192,192,17296,1,2,0:0:0:0:
64,192,17375,1,0,0:0:0:0:
320,192,17454,1,2,0:0:0:0:
192,192,17533,1,0,0:0:0:0:
320,192,17612,1,2,0:0:0:0:
448,192,17691,1,0,0:0:0:0:
64,192,17770,1,2,0:0:0:0:
192,192,17849,1,0,0:0:0:0:
320,192,17928,1,2,0:0:0:0:
448,192,18007,1,0,0:0:0:0:
192,192,18086,1,2,0:0:0:0:
320,192,18165,1,0,0:0:0:0:
192,192,18244,1,2,0:0:0:0:
64,192,18323,1,0,0:0:0:0:
448,192,18402,1,2,0:0:0:0:
320,192,18481,1,2,0:0:0:0:
64,192,18559,1,2,0:0:0:0:
192,192,18638,1,2,0:0:0:0:
320,192,18717,1,2,0:0:0:0:
448,192,18796,1,2,0:0:0:0:
192,192,18875,1,2,0:0:0:0:
320,192,18954,1,2,0:0:0:0:
64,192,19033,1,2,0:0:0:0:
192,192,19112,1,2,0:0:0:0:
448,192,19191,1,2,0:0:0:0:
320,192,19270,1,2,0:0:0:0:
64,192,19349,1,2,0:0:0:0:
192,192,19428,1,2,0:0:0:0:
448,192,19507,1,2,0:0:0:0:
320,192,19586,1,2,0:0:0:0:
64,192,19665,128,0,21875:0:0:0:0:
192,192,19665,1,2,0:0:0:0:
192,192,20928,1,0,0:0:0:0:
320,192,21007,1,0,0:0:0:0:
448,192,21086,1,0,0:0:0:0:
320,192,21165,1,0,0:0:0:0:
192,192,21244,1,0,0:0:0:0:
448,192,21402,1,0,0:0:0:0:
320,192,21481,1,0,0:0:0:0:
192,192,21559,1,0,0:0:0:0:
320,192,21717,1,2,0:0:0:0:
320,192,21875,1,8,0:0:0:0:
448,192,21875,1,0,0:0:0:0:
192,192,22033,1,0,0:0:0:0:
448,192,22191,128,4,22665:0:0:0:0:
64,192,22191,1,2,0:0:0:0:
192,192,22665,1,2,0:0:0:0:
448,192,22823,1,0,0:0:0:0:
320,192,22823,1,8,0:0:0:0:
64,192,22981,1,0,0:0:0:0:
192,192,23059,1,0,0:0:0:0:
320,192,23138,1,2,0:0:0:0:
448,192,23217,1,0,0:0:0:0:
192,192,23296,1,8,0:0:0:0:
64,192,23296,1,0,0:0:0:0:
320,192,23454,1,2,0:0:0:0:
320,192,23612,1,8,0:0:0:0:
448,192,23612,1,0,0:0:0:0:
192,192,23770,1,2,0:0:0:0:
192,192,23928,1,2,0:0:0:0:
448,192,24086,1,8,0:0:0:0:
64,192,24086,1,0,0:0:0:0:
320,192,24165,1,0,0:0:0:0:
192,192,24244,1,0,0:0:0:0:
64,192,24323,1,0,0:0:0:0:
448,192,24402,1,0,0:0:0:0:
320,192,24481,1,0,0:0:0:0:
64,192,24559,1,0,0:0:0:0:
192,192,24638,1,0,0:0:0:0:
320,192,24717,1,2,0:0:0:0:
64,192,24875,1,0,0:0:0:0:
448,192,25033,128,0,25191:0:0:0:0:
192,192,25191,1,2,0:0:0:0:
320,192,25270,1,2,0:0:0:0:
448,192,25349,1,8,0:0:0:0:
64,192,25349,1,0,0:0:0:0:
192,192,25428,1,0,0:0:0:0:
320,192,25507,1,0,0:0:0:0:
448,192,25586,1,0,0:0:0:0:
64,192,25665,1,2,0:0:0:0:
448,192,25823,1,0,0:0:0:0:
320,192,25823,1,8,0:0:0:0:
192,192,25902,1,0,0:0:0:0:
64,192,25981,1,0,0:0:0:0:
320,192,26059,1,0,0:0:0:0:
448,192,26138,1,2,0:0:0:0:
192,192,26296,1,8,0:0:0:0:
64,192,26296,1,0,0:0:0:0:
448,192,26375,1,0,0:0:0:0:
320,192,26454,1,0,0:0:0:0:
192,192,26533,1,0,0:0:0:0:
64,192,26612,1,2,0:0:0:0:
320,192,26770,128,0,27244:0:0:0:0:
192,192,26770,1,8,0:0:0:0:
448,192,27244,1,4,0:0:0:0:
64,192,27244,128,2,27717:0:0:0:0:
320,192,27717,1,2,0:0:0:0:
192,192,27875,1,8,0:0:0:0:
64,192,27875,1,0,0:0:0:0:
448,192,28033,1,0,0:0:0:0:
320,192,28112,1,0,0:0:0:0:
192,192,28191,1,2,0:0:0:0:
64,192,28270,1,0,0:0:0:0:
320,192,28349,1,8,0:0:0:0:
448,192,28349,1,0,0:0:0:0:
192,192,28507,1,2,0:0:0:0:
192,192,28665,1,8,0:0:0:0:
64,192,28665,1,0,0:0:0:0:
320,192,28823,1,2,0:0:0:0:
320,192,28981,1,2,0:0:0:0:
64,192,29138,1,8,0:0:0:0:
448,192,29138,1,0,0:0:0:0:
192,192,29217,1,0,0:0:0:0:
320,192,29296,1,0,0:0:0:0:
448,192,29375,1,0,0:0:0:0:
64,192,29454,1,0,0:0:0:0:
192,192,29533,1,0,0:0:0:0:
448,192,29612,1,0,0:0:0:0:
320,192,29691,1,0,0:0:0:0:
64,192,29770,1,2,0:0:0:0:
192,192,29770,128,0,29928:0:0:0:0:
320,192,29928,1,2,0:0:0:0:
448,192,30086,1,2,0:0:0:0:
64,192,30086,128,0,30244:0:0:0:0:
192,192,30244,1,0,0:0:0:0:
448,192,30402,1,2,0:0:0:0:
320,192,30402,128,0,30559:0:0:0:0:
192,192,30559,1,0,0:0:0:0:
64,192,30717,1,2,0:0:0:0:
448,192,30717,128,0,30875:0:0:0:0:
320,192,30875,1,0,0:0:0:0:
192,192,30875,1,2,0:0:0:0:
448,192,31033,1,2,0:0:0:0:
64,192,31033,128,0,31191:0:0:0:0:
320,192,31191,1,0,0:0:0:0:
64,192,31349,1,2,0:0:0:0:
192,192,31349,128,0,31507:0:0:0:0:
320,192,31507,1,0,0:0:0:0:
64,192,31665,1,2,0:0:0:0:
448,192,31665,128,0,31981:0:0:0:0:
192,192,31981,128,0,32296:0:0:0:0:
448,192,32296,1,2,0:0:0:0:
64,192,32296,128,4,32770:0:0:0:0:
320,192,32770,1,2,0:0:0:0:
448,192,32928,1,0,0:0:0:0:
320,192,32928,1,8,0:0:0:0:
64,192,33086,1,0,0:0:0:0:
192,192,33165,1,0,0:0:0:0:
320,192,33244,1,2,0:0:0:0:
448,192,33323,1,0,0:0:0:0:
64,192,33402,1,0,0:0:0:0:
192,192,33402,1,8,0:0:0:0:
320,192,33559,1,2,0:0:0:0:
320,192,33717,1,8,0:0:0:0:
448,192,33717,1,0,0:0:0:0:
64,192,33875,1,2,0:0:0:0:
64,192,34033,1,2,0:0:0:0:
448,192,34191,1,0,0:0:0:0:
320,192,34191,1,8,0:0:0:0:
192,192,34270,1,0,0:0:0:0:
320,192,34349,1,0,0:0:0:0:
448,192,34428,1,0,0:0:0:0:
192,192,34507,1,0,0:0:0:0:
64,192,34586,1,0,0:0:0:0:
448,192,34665,1,0,0:0:0:0:
320,192,34744,1,0,0:0:0:0:
192,192,34823,128,2,35454:0:0:0:0:
64,192,35454,1,4,0:0:0:0:
448,192,35454,1,8,0:0:0:0:
320,192,35533,1,0,0:0:0:0:
192,192,35612,1,0,0:0:0:0:
64,192,35691,1,0,0:0:0:0:
448,192,35770,1,2,0:0:0:0:
64,192,35928,1,0,0:0:0:0:
192,192,35928,1,8,0:0:0:0:
320,192,36007,1,0,0:0:0:0:
448,192,36086,1,0,0:0:0:0:
192,192,36165,1,0,0:0:0:0:
64,192,36244,1,2,0:0:0:0:
320,192,36402,1,8,0:0:0:0:
448,192,36402,1,0,0:0:0:0:
64,192,36481,1,0,0:0:0:0:
192,192,36559,1,0,0:0:0:0:
320,192,36638,1,0,0:0:0:0:
448,192,36717,1,2,0:0:0:0:
192,192,36875,1,8,0:0:0:0:
64,192,36875,128,0,37349:0:0:0:0:
320,192,37349,128,2,37507:0:0:0:0:
448,192,37507,128,0,37665:0:0:0:0:
192,192,37665,1,2,0:0:0:0:
64,192,37665,128,4,37981:0:0:0:0:
448,192,37981,128,2,38138:0:0:0:0:
320,192,38138,128,0,38296:0:0:0:0:
64,192,38296,1,2,0:0:0:0:
192,192,38296,128,4,38454:0:0:0:0:
448,192,38454,128,0,38612:0:0:0:0:
320,192,38612,128,0,38928:0:0:0:0:
64,192,38612,1,2,0:0:0:0:
192,192,38928,1,4,0:0:0:0:
64,192,38928,1,2,0:0:0:0:
320,192,39244,1,2,0:0:0:0:
64,192,39244,1,4,0:0:0:0:
448,192,39454,1,2,0:0:0:0:
192,192,39454,1,4,0:0:0:0:
64,192,39665,1,4,0:0:0:0:
320,192,39665,1,2,0:0:0:0:
192,192,39875,1,4,0:0:0:0:
320,192,39875,1,2,0:0:0:0:
64,192,41770,128,0,41928:0:0:0:0:
192,192,41928,128,0,42086:0:0:0:0:
448,192,42086,128,0,42244:0:0:0:0:
320,192,42244,128,0,42402:0:0:0:0:
64,192,42402,1,2,0:0:0:0:
192,192,42402,128,4,43033:0:0:0:0:
320,192,42875,1,2,0:0:0:0:
448,192,43033,128,0,43191:0:0:0:0:
64,192,43033,1,8,0:0:0:0:
320,192,43191,128,0,43349:0:0:0:0:
192,192,43349,128,0,43507:0:0:0:0:
64,192,43349,1,2,0:0:0:0:
448,192,43507,128,0,43665:0:0:0:0:
320,192,43507,1,2,0:0:0:0:
64,192,43823,1,0,0:0:0:0:
320,192,43981,128,0,44296:0:0:0:0:
192,192,44296,1,0,0:0:0:0:
448,192,44454,1,0,0:0:0:0:
64,192,44612,1,0,0:0:0:0:
192,192,44691,1,0,0:0:0:0:
320,192,44770,1,0,0:0:0:0:
448,192,44849,1,0,0:0:0:0:
192,192,44928,1,2,0:0:0:0:
64,192,44928,128,4,45086:0:0:0:0:
320,192,45086,128,0,45244:0:0:0:0:
192,192,45244,128,0,45402:0:0:0:0:
448,192,45402,1,2,0:0:0:0:
64,192,45402,128,0,45559:0:0:0:0:
320,192,45481,1,2,0:0:0:0:
192,192,45559,1,0,0:0:0:0:
448,192,45559,1,8,0:0:0:0:
320,192,45717,128,0,45875:0:0:0:0:
192,192,45875,1,2,0:0:0:0:
64,192,46033,128,0,47454:0:0:0:0:
448,192,46033,1,2,0:0:0:0:
192,192,47454,128,4,48086:0:0:0:0:
320,192,47454,1,2,0:0:0:0:
320,192,47928,1,2,0:0:0:0:
448,192,48086,128,0,48244:0:0:0:0:
64,192,48086,1,8,0:0:0:0:
320,192,48244,128,0,48402:0:0:0:0:
64,192,48402,128,0,48559:0:0:0:0:
192,192,48402,1,2,0:0:0:0:
448,192,48559,128,0,49033:0:0:0:0:
320,192,48559,1,2,0:0:0:0:
64,192,49033,1,0,0:0:0:0:
192,192,49191,1,0,0:0:0:0:
320,192,49270,1,0,0:0:0:0:
64,192,49349,1,0,0:0:0:0:
448,192,49507,128,0,49665:0:0:0:0:
192,192,49665,128,0,49823:0:0:0:0:
320,192,49823,128,0,49981:0:0:0:0:
64,192,49981,1,2,0:0:0:0:
448,192,49981,128,4,50138:0:0:0:0:
192,192,50138,128,0,50296:0:0:0:0:
320,192,50296,128,0,50454:0:0:0:0:
448,192,50454,128,0,50928:0:0:0:0:
64,192,50454,1,2,0:0:0:0:
192,192,50533,1,2,0:0:0:0:
320,192,50612,1,8,0:0:0:0:
64,192,50612,1,0,0:0:0:0:
192,192,50928,1,2,0:0:0:0:
64,192,51086,1,0,0:0:0:0:
448,192,51086,1,8,0:0:0:0:
320,192,51165,1,0,0:0:0:0:
192,192,51244,1,0,0:0:0:0:
448,192,51349,1,0,0:0:0:0:
320,192,51402,128,2,51559:0:0:0:0:
192,192,51559,1,8,0:0:0:0:
64,192,51559,128,0,51717:0:0:0:0:
448,192,51717,128,0,52112:0:0:0:0:
192,192,51875,1,2,0:0:0:0:
64,192,52033,1,0,0:0:0:0:
192,192,52033,1,8,0:0:0:0:
320,192,52112,1,0,0:0:0:0:
448,192,52191,1,0,0:0:0:0:
64,192,52270,1,0,0:0:0:0:
192,192,52349,1,0,0:0:0:0:
320,192,52428,1,0,0:0:0:0:
448,192,52507,1,2,0:0:0:0:
64,192,52507,128,4,53138:0:0:0:0:
320,192,52981,1,2,0:0:0:0:
192,192,53138,1,8,0:0:0:0:
448,192,53138,128,0,53296:0:0:0:0:
320,192,53296,128,0,53454:0:0:0:0:
192,192,53454,128,0,53612:0:0:0:0:
64,192,53454,1,2,0:0:0:0:
320,192,53612,128,0,53770:0:0:0:0:
448,192,53612,1,8,0:0:0:0:
64,192,53770,1,2,0:0:0:0:
320,192,53928,1,8,0:0:0:0:
448,192,53928,1,0,0:0:0:0:
192,192,54086,1,2,0:0:0:0:
192,192,54244,1,2,0:0:0:0:
192,192,54402,1,0,0:0:0:0:
448,192,54402,1,8,0:0:0:0:
192,192,54559,1,0,0:0:0:0:
64,192,54717,1,0,0:0:0:0:
192,192,54796,1,0,0:0:0:0:
448,192,54875,1,0,0:0:0:0:
320,192,54954,1,0,0:0:0:0:
192,192,55033,1,2,0:0:0:0:
64,192,55033,128,4,55191:0:0:0:0:
320,192,55191,128,0,55349:0:0:0:0:
192,192,55349,128,0,55507:0:0:0:0:
448,192,55507,1,2,0:0:0:0:
64,192,55507,128,0,55665:0:0:0:0:
320,192,55586,1,2,0:0:0:0:
448,192,55665,1,8,0:0:0:0:
192,192,55665,1,0,0:0:0:0:
320,192,55823,128,0,55981:0:0:0:0:
192,192,55981,1,2,0:0:0:0:
64,192,56138,128,0,56454:0:0:0:0:
448,192,56138,1,8,0:0:0:0:
320,192,56296,1,0,0:0:0:0:
192,192,56454,1,2,0:0:0:0:
448,192,56612,1,8,0:0:0:0:
64,192,56612,1,0,0:0:0:0:
320,192,56691,1,0,0:0:0:0:
192,192,56770,1,0,0:0:0:0:
64,192,56849,1,2,0:0:0:0:
448,192,56928,1,0,0:0:0:0:
320,192,57007,1,0,0:0:0:0:
192,192,57086,1,2,0:0:0:0:
320,192,57165,1,0,0:0:0:0:
64,192,57244,1,0,0:0:0:0:
448,192,57244,1,8,0:0:0:0:
192,192,57323,1,0,0:0:0:0:
320,192,57402,1,0,0:0:0:0:
448,192,57481,1,0,0:0:0:0:
64,192,57559,128,4,58191:0:0:0:0:
192,192,57559,1,2,0:0:0:0:
320,192,58033,1,2,0:0:0:0:
448,192,58191,128,0,58349:0:0:0:0:
192,192,58191,1,8,0:0:0:0:
320,192,58349,128,0,58507:0:0:0:0:
64,192,58507,128,0,58665:0:0:0:0:
192,192,58507,1,2,0:0:0:0:
448,192,58665,128,0,58823:0:0:0:0:
320,192,58665,1,8,0:0:0:0:
192,192,58823,1,2,0:0:0:0:
448,192,58981,1,8,0:0:0:0:
320,192,58981,1,0,0:0:0:0:
64,192,59138,1,2,0:0:0:0:
64,192,59296,1,2,0:0:0:0:
64,192,59454,1,0,0:0:0:0:
448,192,59454,1,8,0:0:0:0:
64,192,59612,1,0,0:0:0:0:
192,192,59770,128,0,59928:0:0:0:0:
320,192,59928,128,0,60086:0:0:0:0:
448,192,60086,128,4,60244:0:0:0:0:
64,192,60086,1,2,0:0:0:0:
192,192,60244,128,0,60402:0:0:0:0:
64,192,60402,128,0,60559:0:0:0:0:
320,192,60402,1,8,0:0:0:0:
192,192,60559,1,2,0:0:0:0:
448,192,60559,128,0,60875:0:0:0:0:
64,192,60875,1,0,0:0:0:0:
192,192,60875,1,8,0:0:0:0:
320,192,61033,1,0,0:0:0:0:
192,192,61112,1,0,0:0:0:0:
448,192,61191,1,0,0:0:0:0:
320,192,61191,1,8,0:0:0:0:
64,192,61270,1,0,0:0:0:0:
192,192,61270,1,8,0:0:0:0:
448,192,61349,1,6,0:0:0:0:
320,192,61454,128,0,61665:0:0:0:0:
192,192,61665,128,0,61823:0:0:0:0:
64,192,61665,1,8,0:0:0:0:
448,192,61823,128,0,62454:0:0:0:0:
320,192,61823,1,2,0:0:0:0:
64,192,62138,1,0,0:0:0:0:
192,192,62138,1,8,0:0:0:0:
320,192,62454,1,0,0:0:0:0:
192,192,62533,1,0,0:0:0:0:
448,192,62612,1,6,0:0:0:0:
320,192,62691,1,0,0:0:0:0:
192,192,62770,1,0,0:0:0:0:
64,192,62849,1,0,0:0:0:0:
448,192,62928,128,0,63086:0:0:0:0:
192,192,63086,1,0,0:0:0:0:
320,192,63165,1,0,0:0:0:0:
448,192,63244,1,8,0:0:0:0:
64,192,63244,1,0,0:0:0:0:
192,192,63323,1,0,0:0:0:0:
320,192,63402,1,0,0:0:0:0:
448,192,63481,1,0,0:0:0:0:
192,192,63559,1,2,0:0:0:0:
64,192,63638,1,0,0:0:0:0:
448,192,63717,1,0,0:0:0:0:
320,192,63796,1,0,0:0:0:0:
192,192,63875,1,0,0:0:0:0:
64,192,63954,1,0,0:0:0:0:
320,192,64033,1,2,0:0:0:0:
448,192,64112,1,0,0:0:0:0:
64,192,64191,1,2,0:0:0:0:
192,192,64270,1,0,0:0:0:0:
320,192,64349,1,0,0:0:0:0:
192,192,64428,1,0,0:0:0:0:
64,192,64507,1,0,0:0:0:0:
448,192,64507,1,8,0:0:0:0:
320,192,64586,1,0,0:0:0:0:
192,192,64665,1,0,0:0:0:0:
64,192,64744,1,0,0:0:0:0:
448,192,64823,128,0,65138:0:0:0:0:
64,192,65217,1,0,0:0:0:0:
192,192,65296,1,0,0:0:0:0:
320,192,65375,1,0,0:0:0:0:
192,192,65533,1,0,0:0:0:0:
320,192,65612,1,0,0:0:0:0:
448,192,65691,1,0,0:0:0:0:
192,192,65849,1,0,0:0:0:0:
64,192,66007,1,0,0:0:0:0:
192,192,66086,1,0,0:0:0:0:
320,192,66165,1,0,0:0:0:0:
448,192,66323,1,0,0:0:0:0:
192,192,66481,1,0,0:0:0:0:
320,192,66559,1,0,0:0:0:0:
64,192,66717,1,0,0:0:0:0:
192,192,66796,1,0,0:0:0:0:
448,192,66954,1,0,0:0:0:0:
320,192,67112,1,0,0:0:0:0:
192,192,67191,1,0,0:0:0:0:
64,192,67349,128,0,67454:0:0:0:0:
192,192,67454,128,0,67559:0:0:0:0:
320,192,67559,128,0,67665:0:0:0:0:
448,192,67665,128,6,67981:0:0:0:0:
64,192,67981,128,0,68138:0:0:0:0:
192,192,68138,1,0,0:0:0:0:
320,192,68217,1,0,0:0:0:0:
448,192,68296,1,8,0:0:0:0:
64,192,68296,1,0,0:0:0:0:
192,192,68375,1,0,0:0:0:0:
320,192,68454,1,0,0:0:0:0:
448,192,68533,1,0,0:0:0:0:
192,192,68612,1,2,0:0:0:0:
64,192,68691,1,0,0:0:0:0:
448,192,68770,1,0,0:0:0:0:
320,192,68849,1,0,0:0:0:0:
192,192,68928,1,0,0:0:0:0:
320,192,69007,1,0,0:0:0:0:
64,192,69086,1,2,0:0:0:0:
192,192,69165,1,0,0:0:0:0:
448,192,69244,1,2,0:0:0:0:
320,192,69323,1,0,0:0:0:0:
192,192,69402,1,0,0:0:0:0:
64,192,69481,1,0,0:0:0:0:
320,192,69559,1,8,0:0:0:0:
448,192,69559,1,0,0:0:0:0:
192,192,69638,1,0,0:0:0:0:
320,192,69717,1,2,0:0:0:0:
448,192,69796,1,0,0:0:0:0:
64,192,69875,128,0,70191:0:0:0:0:
192,192,70270,1,0,0:0:0:0:
320,192,70349,1,0,0:0:0:0:
448,192,70428,1,0,0:0:0:0:
64,192,70586,1,0,0:0:0:0:
192,192,70665,1,0,0:0:0:0:
320,192,70744,1,0,0:0:0:0:
192,192,70902,1,0,0:0:0:0:
64,192,71059,1,0,0:0:0:0:
192,192,71138,1,0,0:0:0:0:
320,192,71217,1,0,0:0:0:0:
448,192,71375,1,0,0:0:0:0:
192,192,71533,1,0,0:0:0:0:
320,192,71612,1,0,0:0:0:0:
64,192,71770,1,0,0:0:0:0:
192,192,71849,1,0,0:0:0:0:
320,192,72007,1,0,0:0:0:0:
448,192,72086,128,2,72717:0:0:0:0:
64,192,72086,1,0,0:0:0:0:
64,192,72717,1,6,0:0:0:0:
192,192,72717,1,0,1:0:0:0:
320,192,73665,1,0,1:0:0:0:
192,192,74296,1,0,1:0:0:0:
448,192,74454,1,0,1:0:0:0:
64,192,74612,1,0,1:0:0:0:
320,192,74770,1,0,1:0:0:0:
64,192,74928,128,0,75244:0:0:0:0:
192,192,74928,1,0,1:0:0:0:
448,192,75244,1,0,1:0:0:0:
320,192,76191,1,0,1:0:0:0:
64,192,76507,128,0,76665:0:0:0:0:
192,192,76507,1,0,0:0:0:0:
448,192,76665,128,0,76823:0:0:0:0:
320,192,76665,1,0,0:0:0:0:
64,192,76823,128,0,76981:0:0:0:0:
192,192,76823,1,0,0:0:0:0:
320,192,76981,128,0,77138:0:0:0:0:
448,192,77138,128,0,77296:0:0:0:0:
192,192,77296,128,0,77454:0:0:0:0:
64,192,77454,128,0,77612:0:0:0:0:
448,192,77612,128,0,77770:0:0:0:0:
64,192,77770,1,4,0:0:0:0:
192,192,77770,1,2,0:0:0:0:
320,192,77928,1,0,0:0:0:0:
448,192,78086,1,2,0:0:0:0:
192,192,78244,1,0,0:0:0:0:
320,192,78323,1,0,0:0:0:0:
448,192,78402,1,2,0:0:0:0:
64,192,78559,1,0,0:0:0:0:
448,192,78717,1,2,0:0:0:0:
320,192,78875,1,0,0:0:0:0:
192,192,78954,1,0,0:0:0:0:
64,192,79033,1,2,0:0:0:0:
320,192,79191,1,0,0:0:0:0:
64,192,79349,1,2,0:0:0:0:
192,192,79507,1,0,0:0:0:0:
320,192,79586,1,0,0:0:0:0:
448,192,79665,1,2,0:0:0:0:
64,192,79823,1,0,0:0:0:0:
448,192,79981,1,2,0:0:0:0:
192,192,80138,1,0,0:0:0:0:
320,192,80217,1,0,0:0:0:0:
448,192,80296,1,8,0:0:0:0:
64,192,80296,1,0,0:0:0:0:
320,192,80454,1,2,0:0:0:0:
192,192,80533,1,2,0:0:0:0:
64,192,80612,1,8,0:0:0:0:
448,192,80612,1,0,0:0:0:0:
64,192,80770,1,2,0:0:0:0:
192,192,80849,1,2,0:0:0:0:
320,192,80928,1,8,0:0:0:0:
448,192,80928,1,0,0:0:0:0:
448,192,81086,1,2,0:0:0:0:
320,192,81165,1,2,0:0:0:0:
192,192,81244,1,8,0:0:0:0:
64,192,81244,1,0,0:0:0:0:
192,192,81402,1,2,0:0:0:0:
320,192,81481,1,2,0:0:0:0:
64,192,81559,1,0,0:0:0:0:
448,192,81559,1,8,0:0:0:0:
64,192,81796,1,0,0:0:0:0:
320,192,81796,1,8,0:0:0:0:
192,192,82033,1,0,0:0:0:0:
448,192,82033,1,8,0:0:0:0:
320,192,82270,1,8,0:0:0:0:
448,192,82270,1,0,0:0:0:0:
64,192,82507,1,0,0:0:0:0:
192,192,82507,1,8,0:0:0:0:
320,192,82665,1,8,0:0:0:0:
448,192,82665,1,0,0:0:0:0:
192,192,82823,1,2,0:0:0:0:
64,192,82823,128,4,85349:0:0:0:0:
448,192,85349,1,2,0:0:0:0:
448,192,86454,1,0,0:0:0:0:
320,192,86533,1,0,0:0:0:0:
192,192,86612,1,0,0:0:0:0:
64,192,86770,1,0,0:0:0:0:
192,192,86849,1,0,0:0:0:0:
320,192,86928,1,0,0:0:0:0:
448,192,87086,1,0,0:0:0:0:
320,192,87165,1,0,0:0:0:0:
192,192,87244,1,0,0:0:0:0:
64,192,87323,1,0,0:0:0:0:
448,192,87402,1,2,0:0:0:0:
64,192,87559,1,0,0:0:0:0:
192,192,87559,1,8,0:0:0:0:
448,192,87875,1,2,0:0:0:0:
64,192,87875,1,4,0:0:0:0:
320,192,88033,1,0,0:0:0:0:
192,192,88191,1,2,0:0:0:0:
320,192,88349,1,0,0:0:0:0:
448,192,88507,1,2,0:0:0:0:
64,192,88665,1,0,0:0:0:0:
192,192,88744,1,0,0:0:0:0:
320,192,88823,1,2,0:0:0:0:
192,192,88981,1,0,0:0:0:0:
320,192,89059,1,0,0:0:0:0:
448,192,89138,1,2,0:0:0:0:
64,192,89296,1,0,0:0:0:0:
320,192,89454,1,2,0:0:0:0:
192,192,89612,1,0,0:0:0:0:
448,192,89770,1,2,0:0:0:0:
320,192,89928,1,0,0:0:0:0:
192,192,90007,1,0,0:0:0:0:
64,192,90086,1,2,0:0:0:0:
448,192,90244,1,0,0:0:0:0:
320,192,90323,1,0,0:0:0:0:
192,192,90402,1,2,0:0:0:0:
448,192,90559,1,0,0:0:0:0:
64,192,90717,1,2,0:0:0:0:
320,192,90875,1,0,0:0:0:0:
192,192,91033,1,2,0:0:0:0:
448,192,91191,1,0,0:0:0:0:
320,192,91270,1,0,0:0:0:0:
192,192,91349,1,2,0:0:0:0:
320,192,91507,1,0,0:0:0:0:
192,192,91586,1,0,0:0:0:0:
64,192,91665,1,2,0:0:0:0:
448,192,91823,1,0,0:0:0:0:
192,192,91981,1,2,0:0:0:0:
320,192,92138,1,0,0:0:0:0:
192,192,92296,1,2,0:0:0:0:
64,192,92454,1,0,0:0:0:0:
448,192,92612,1,2,0:0:0:0:
320,192,92691,1,0,0:0:0:0:
192,192,92770,1,0,0:0:0:0:
64,192,92849,1,0,0:0:0:0:
320,192,92928,1,2,0:0:0:0:
448,192,92928,1,4,0:0:0:0:
192,192,93086,1,0,0:0:0:0:
448,192,93244,1,2,0:0:0:0:
64,192,93402,1,0,0:0:0:0:
320,192,93559,1,2,0:0:0:0:
192,192,93717,1,0,0:0:0:0:
320,192,93796,1,0,0:0:0:0:
448,192,93875,1,2,0:0:0:0:
64,192,94033,1,0,0:0:0:0:
192,192,94112,1,0,0:0:0:0:
320,192,94191,1,2,0:0:0:0:
64,192,94349,1,0,0:0:0:0:
448,192,94507,1,2,0:0:0:0:
192,192,94665,1,0,0:0:0:0:
320,192,94823,1,2,0:0:0:0:
448,192,94981,1,0,0:0:0:0:
320,192,95059,1,0,0:0:0:0:
192,192,95138,1,2,0:0:0:0:
320,192,95296,1,0,0:0:0:0:
192,192,95375,1,0,0:0:0:0:
64,192,95454,1,2,0:0:0:0:
448,192,95612,1,0,0:0:0:0:
192,192,95770,1,2,0:0:0:0:
320,192,95928,1,0,0:0:0:0:
192,192,96086,1,2,0:0:0:0:
64,192,96244,1,0,0:0:0:0:
192,192,96323,1,0,0:0:0:0:
320,192,96402,1,2,0:0:0:0:
192,192,96559,1,0,0:0:0:0:
320,192,96638,1,0,0:0:0:0:
448,192,96717,1,2,0:0:0:0:
320,192,96796,1,0,0:0:0:0:
192,192,96875,1,0,0:0:0:0:
64,192,96954,1,2,0:0:0:0:
192,192,97033,1,0,0:0:0:0:
320,192,97112,1,0,0:0:0:0:
448,192,97191,1,2,0:0:0:0:
320,192,97270,1,0,0:0:0:0:
192,192,97349,1,0,0:0:0:0:
64,192,97428,1,0,0:0:0:0:
448,192,97507,1,0,0:0:0:0:
320,192,97586,1,0,0:0:0:0:
192,192,97665,1,2,0:0:0:0:
448,192,97744,1,2,0:0:0:0:
64,192,97823,1,2,0:0:0:0:
320,192,97902,1,2,0:0:0:0:
192,192,97981,1,2,0:0:0:0:
64,192,97981,1,4,0:0:0:0:
448,192,98138,1,0,0:0:0:0:
192,192,98296,1,2,0:0:0:0:
320,192,98454,1,0,0:0:0:0:
64,192,98612,1,2,0:0:0:0:
448,192,98770,1,0,0:0:0:0:
320,192,98849,1,0,0:0:0:0:
192,192,98928,1,2,0:0:0:0:
320,192,99086,1,0,0:0:0:0:
192,192,99165,1,0,0:0:0:0:
64,192,99244,1,2,0:0:0:0:
320,192,99402,1,0,0:0:0:0:
192,192,99559,1,2,0:0:0:0:
448,192,99717,1,0,0:0:0:0:
64,192,99875,1,2,0:0:0:0:
192,192,100033,1,0,0:0:0:0:
320,192,100112,1,0,0:0:0:0:
448,192,100191,1,2,0:0:0:0:
64,192,100349,1,0,0:0:0:0:
192,192,100428,1,0,0:0:0:0:
320,192,100507,128,0,100665:0:0:0:0:
64,192,100665,1,0,0:0:0:0:
448,192,100823,1,2,0:0:0:0:
192,192,100981,1,0,0:0:0:0:
320,192,101138,1,2,0:0:0:0:
448,192,101296,1,0,0:0:0:0:
320,192,101375,1,0,0:0:0:0:
192,192,101454,1,2,0:0:0:0:
320,192,101612,1,0,0:0:0:0:
192,192,101691,1,0,0:0:0:0:
64,192,101770,1,2,0:0:0:0:
320,192,101928,1,0,0:0:0:0:
192,192,102086,1,2,0:0:0:0:
448,192,102244,1,0,0:0:0:0:
64,192,102402,1,2,0:0:0:0:
192,192,102481,1,0,0:0:0:0:
320,192,102559,1,0,0:0:0:0:
448,192,102638,1,0,0:0:0:0:
64,192,102717,1,2,0:0:0:0:
192,192,102796,1,0,0:0:0:0:
448,192,102875,1,0,0:0:0:0:
320,192,102954,1,0,0:0:0:0:
192,192,103033,1,2,0:0:0:0:
64,192,103033,1,4,0:0:0:0:
192,192,103270,1,0,0:0:0:0:
320,192,103270,1,2,0:0:0:0:
320,192,103507,1,0,0:0:0:0:
448,192,103507,1,2,0:0:0:0:
64,192,103665,1,0,0:0:0:0:
448,192,103665,1,2,0:0:0:0:
64,192,103902,1,0,0:0:0:0:
320,192,103902,1,2,0:0:0:0:
192,192,104138,1,2,0:0:0:0:
448,192,104138,1,0,0:0:0:0:
320,192,104296,1,2,0:0:0:0:
448,192,104296,1,0,0:0:0:0:
192,192,104375,1,2,0:0:0:0:
64,192,104375,1,0,0:0:0:0:
320,192,104533,1,2,0:0:0:0:
448,192,104533,1,0,0:0:0:0:
64,192,104691,1,0,0:0:0:0:
192,192,104691,1,2,0:0:0:0:
320,192,104770,1,2,0:0:0:0:
448,192,104770,1,0,0:0:0:0:
64,192,104928,1,0,0:0:0:0:
448,192,104928,128,8,105559:0:0:0:0:
64,192,105559,1,4,0:0:0:0:
192,192,105559,1,8,0:0:0:0:
320,192,105717,1,0,0:0:0:0:
192,192,105796,1,0,0:0:0:0:
64,192,105875,1,0,0:0:0:0:
448,192,105875,1,8,0:0:0:0:
320,192,105954,1,0,0:0:0:0:
192,192,106033,1,0,0:0:0:0:
320,192,106191,1,0,0:0:0:0:
448,192,106191,1,8,0:0:0:0:
192,192,106349,1,0,0:0:0:0:
320,192,106428,1,0,0:0:0:0:
448,192,106507,1,8,0:0:0:0:
64,192,106507,1,0,0:0:0:0:
192,192,106586,1,0,0:0:0:0:
320,192,106665,1,0,0:0:0:0:
448,192,106744,1,0,0:0:0:0:
64,192,106823,1,0,0:0:0:0:
192,192,106823,1,8,0:0:0:0:
192,192,107059,1,0,0:0:0:0:
320,192,107059,1,8,0:0:0:0:
320,192,107296,1,8,0:0:0:0:
448,192,107296,1,0,0:0:0:0:
448,192,107533,1,8,0:0:0:0:
64,192,107533,1,0,0:0:0:0:
192,192,107770,128,0,108086:0:0:0:0:
320,192,108086,1,6,0:0:0:0:
448,192,108086,1,0,1:0:0:0:
320,192,109033,1,0,1:0:0:0:
192,192,109665,1,0,1:0:0:0:
448,192,109823,1,0,1:0:0:0:
64,192,109981,1,0,1:0:0:0:
320,192,110138,1,0,1:0:0:0:
192,192,110296,1,0,1:0:0:0:
448,192,110612,1,0,1:0:0:0:
64,192,111559,1,0,1:0:0:0:
320,192,112349,1,0,1:0:0:0:
448,192,112507,1,0,1:0:0:0:
320,192,112559,1,0,1:0:0:0:
192,192,112612,1,0,1:0:0:0:
64,192,112665,1,0,1:0:0:0:
