osu file format v14

[General]
AudioFilename: overcomplexification.mp3
AudioLeadIn: 0
PreviewTime: 22191
Countdown: 0
SampleSet: Soft
StackLeniency: 0.7
Mode: 3
LetterboxInBreaks: 0
SpecialStyle: 0
WidescreenStoryboard: 0

[Editor]
DistanceSpacing: 1.2
BeatDivisor: 4
GridSize: 8
TimelineZoom: 1.699999

[Metadata]
Title:overcomplexification
TitleUnicode:overcomplexification
Artist:Camellia
ArtistUnicode:かめりあ
Creator:Starry-
Version:Lv.02
Source:jubeat prop
Tags:step plus
BeatmapID:756710
BeatmapSetID:323493

[Difficulty]
HPDrainRate:6.5
CircleSize:4
OverallDifficulty:7
ApproachRate:5
SliderMultiplier:2.33
SliderTickRate:1

[Events]
//Background and Video events
0,0,"overcomplexification bg.jpg",0,0
//Break Periods
//Storyboard Layer 0 (Background)
//Storyboard Layer 1 (Fail)
//Storyboard Layer 2 (Pass)
//Storyboard Layer 3 (Foreground)
//Storyboard Sound Samples

[TimingPoints]
1981,315.789473684211,4,2,1,40,1,0

[HitObjects]
192,192,1981,5,0,1:0:0:0:
320,192,2928,1,0,1:0:0:0:
64,192,3559,1,0,1:0:0:0:
448,192,3875,1,0,1:0:0:0:
192,192,4191,128,0,4507:0:0:0:0:
320,192,4507,1,0,1:0:0:0:
192,192,5454,1,0,1:0:0:0:
64,192,5770,128,0,6402:0:0:0:0:
448,192,6402,128,0,7033:0:0:0:0:
192,192,7033,1,0,1:0:0:0:
320,192,7981,1,0,1:0:0:0:
64,192,8612,1,0,1:0:0:0:
448,192,8928,1,0,1:0:0:0:
192,192,9244,128,0,9559:0:0:0:0:
320,192,9559,1,0,1:0:0:0:
448,192,10033,1,0,1:0:0:0:
320,192,10507,1,0,1:0:0:0:
64,192,10981,1,0,1:0:0:0:
192,192,11375,1,0,1:0:0:0:
448,192,11770,128,0,12086:0:0:0:0:
64,192,12086,1,6,0:0:0:0:
192,192,12402,1,2,0:0:0:0:
320,192,12717,1,2,0:0:0:0:
448,192,13033,1,2,0:0:0:0:
64,192,13349,1,2,0:0:0:0:
320,192,13665,1,2,0:0:0:0:
192,192,13981,1,2,0:0:0:0:
448,192,14296,128,2,14612:0:0:0:0:
64,192,14612,1,2,0:0:0:0:
192,192,14928,1,2,0:0:0:0:
320,192,15244,1,2,0:0:0:0:
448,192,15559,1,2,0:0:0:0:
192,192,15875,1,2,0:0:0:0:
64,192,16191,1,2,0:0:0:0:
448,192,16507,1,2,0:0:0:0:
192,192,16823,1,2,0:0:0:0:
320,192,17138,1,2,0:0:0:0:
64,192,17454,1,0,0:0:0:0:
192,192,18086,1,0,0:0:0:0:
320,192,18559,1,0,0:0:0:0:
448,192,18875,1,0,0:0:0:0:
192,192,19033,128,0,19349:0:0:0:0:
320,192,19349,128,0,19665:0:0:0:0:
64,192,19665,128,0,21875:0:0:0:0:
192,192,19665,1,2,0:0:0:0:
320,192,21717,1,2,0:0:0:0:
448,192,21875,1,2,0:0:0:0:
192,192,22191,1,4,0:0:0:0:
320,192,22191,1,2,0:0:0:0:
64,192,22665,1,2,0:0:0:0:
192,192,22823,1,8,0:0:0:0:
448,192,23138,1,2,0:0:0:0:
320,192,23296,1,8,0:0:0:0:
192,192,23454,1,2,0:0:0:0:
64,192,23612,1,8,0:0:0:0:
320,192,23770,1,2,0:0:0:0:
448,192,23928,1,2,0:0:0:0:
192,192,24086,1,8,0:0:0:0:
320,192,24402,128,0,24717:0:0:0:0:
64,192,24717,1,2,0:0:0:0:
448,192,25033,1,0,0:0:0:0:
192,192,25349,128,8,25665:0:0:0:0:
320,192,25665,1,2,0:0:0:0:
64,192,25823,128,8,26138:0:0:0:0:
448,192,26138,1,2,0:0:0:0:
192,192,26296,128,8,26612:0:0:0:0:
320,192,26612,1,2,0:0:0:0:
64,192,26770,128,8,27244:0:0:0:0:
320,192,27244,1,2,0:0:0:0:
448,192,27244,1,4,0:0:0:0:
64,192,27717,1,2,0:0:0:0:
192,192,27875,1,8,0:0:0:0:
448,192,28191,1,2,0:0:0:0:
320,192,28349,1,8,0:0:0:0:
192,192,28507,1,2,0:0:0:0:
64,192,28665,1,8,0:0:0:0:
320,192,28823,1,2,0:0:0:0:
448,192,28981,1,2,0:0:0:0:
192,192,29138,1,8,0:0:0:0:
320,192,29454,128,0,29770:0:0:0:0:
64,192,29770,1,2,0:0:0:0:
192,192,29928,1,2,0:0:0:0:
320,192,30086,1,2,0:0:0:0:
64,192,30402,1,2,0:0:0:0:
448,192,30717,1,2,0:0:0:0:
320,192,30875,1,2,0:0:0:0:
192,192,31033,1,2,0:0:0:0:
448,192,31349,1,2,0:0:0:0:
64,192,31665,1,2,0:0:0:0:
320,192,31981,128,0,32296:0:0:0:0:
64,192,32296,1,4,0:0:0:0:
192,192,32296,1,2,0:0:0:0:
320,192,32770,1,2,0:0:0:0:
192,192,32928,1,8,0:0:0:0:
448,192,33244,1,2,0:0:0:0:
320,192,33402,1,8,0:0:0:0:
64,192,33559,1,2,0:0:0:0:
192,192,33717,1,8,0:0:0:0:
320,192,33875,1,2,0:0:0:0:
448,192,34033,1,2,0:0:0:0:
64,192,34191,1,8,0:0:0:0:
320,192,34507,128,0,34823:0:0:0:0:
192,192,34823,128,2,35454:0:0:0:0:
448,192,35454,128,12,35770:0:0:0:0:
64,192,35770,1,2,0:0:0:0:
320,192,35928,128,8,36244:0:0:0:0:
192,192,36244,1,2,0:0:0:0:
448,192,36402,128,8,36717:0:0:0:0:
64,192,36717,1,2,0:0:0:0:
320,192,36875,128,8,37349:0:0:0:0:
192,192,37349,128,2,37665:0:0:0:0:
448,192,37665,1,6,0:0:0:0:
320,192,37981,128,2,38296:0:0:0:0:
64,192,38296,1,6,0:0:0:0:
448,192,38612,128,2,38928:0:0:0:0:
64,192,38928,1,6,0:0:0:0:
192,192,39244,1,6,0:0:0:0:
448,192,39454,1,6,0:0:0:0:
64,192,39665,1,6,0:0:0:0:
320,192,39875,1,6,0:0:0:0:
448,192,42402,1,2,0:0:0:0:
64,192,42402,1,4,0:0:0:0:
192,192,42875,1,2,0:0:0:0:
320,192,43033,1,8,0:0:0:0:
448,192,43349,1,2,0:0:0:0:
64,192,43507,1,2,0:0:0:0:
320,192,43981,128,0,44296:0:0:0:0:
192,192,44296,1,0,0:0:0:0:
448,192,44454,128,0,44928:0:0:0:0:
64,192,44928,1,4,0:0:0:0:
192,192,44928,1,2,0:0:0:0:
320,192,45402,128,2,45559:0:0:0:0:
192,192,45559,1,8,0:0:0:0:
448,192,45875,1,2,0:0:0:0:
192,192,46033,128,2,47454:0:0:0:0:
320,192,47454,1,2,0:0:0:0:
448,192,47454,1,4,0:0:0:0:
64,192,47928,1,2,0:0:0:0:
448,192,48086,1,8,0:0:0:0:
192,192,48402,1,2,0:0:0:0:
320,192,48559,1,2,0:0:0:0:
192,192,49033,128,0,49349:0:0:0:0:
448,192,49349,1,0,0:0:0:0:
64,192,49507,128,0,49981:0:0:0:0:
320,192,49981,1,2,0:0:0:0:
448,192,49981,1,4,0:0:0:0:
192,192,50454,128,2,50612:0:0:0:0:
320,192,50612,1,8,0:0:0:0:
64,192,50928,1,2,0:0:0:0:
448,192,51086,1,8,0:0:0:0:
192,192,51402,1,2,0:0:0:0:
448,192,51559,1,8,0:0:0:0:
64,192,51875,1,2,0:0:0:0:
320,192,52033,1,8,0:0:0:0:
448,192,52507,1,2,0:0:0:0:
64,192,52507,1,4,0:0:0:0:
192,192,52981,1,2,0:0:0:0:
320,192,53138,1,8,0:0:0:0:
64,192,53454,1,2,0:0:0:0:
192,192,53612,1,8,0:0:0:0:
448,192,53770,1,2,0:0:0:0:
320,192,53928,1,8,0:0:0:0:
192,192,54086,1,2,0:0:0:0:
64,192,54244,1,2,0:0:0:0:
448,192,54402,1,8,0:0:0:0:
64,192,55033,1,4,0:0:0:0:
192,192,55033,1,2,0:0:0:0:
320,192,55507,128,2,55665:0:0:0:0:
192,192,55665,1,8,0:0:0:0:
448,192,55981,1,2,0:0:0:0:
64,192,56138,1,8,0:0:0:0:
192,192,56454,1,2,0:0:0:0:
320,192,56612,1,8,0:0:0:0:
64,192,56849,1,2,0:0:0:0:
448,192,57086,1,2,0:0:0:0:
64,192,57244,1,8,0:0:0:0:
448,192,57559,1,4,0:0:0:0:
320,192,57559,1,2,0:0:0:0:
192,192,58033,1,2,0:0:0:0:
320,192,58191,1,8,0:0:0:0:
64,192,58507,1,2,0:0:0:0:
448,192,58665,1,8,0:0:0:0:
192,192,58823,1,2,0:0:0:0:
320,192,58981,1,8,0:0:0:0:
192,192,59138,1,2,0:0:0:0:
64,192,59296,1,2,0:0:0:0:
448,192,59454,1,8,0:0:0:0:
64,192,60086,1,4,0:0:0:0:
192,192,60086,1,2,0:0:0:0:
448,192,60402,1,8,0:0:0:0:
64,192,60559,1,2,0:0:0:0:
320,192,60875,1,8,0:0:0:0:
192,192,61191,128,8,61349:0:0:0:0:
320,192,61349,1,2,0:0:0:0:
448,192,61349,1,4,0:0:0:0:
64,192,61665,1,8,0:0:0:0:
448,192,61823,1,2,0:0:0:0:
192,192,62138,1,8,0:0:0:0:
64,192,62612,1,6,0:0:0:0:
448,192,63244,1,8,0:0:0:0:
64,192,63559,1,2,0:0:0:0:
64,192,64033,1,2,0:0:0:0:
64,192,64191,1,2,0:0:0:0:
448,192,64507,1,8,0:0:0:0:
64,192,64665,1,2,0:0:0:0:
320,192,64902,1,2,0:0:0:0:
192,192,65138,1,2,0:0:0:0:
448,192,65770,1,8,0:0:0:0:
64,192,66086,1,2,0:0:0:0:
64,192,66559,1,2,0:0:0:0:
64,192,66717,1,2,0:0:0:0:
320,192,67191,1,2,0:0:0:0:
192,192,67349,1,2,0:0:0:0:
64,192,67507,1,2,0:0:0:0:
448,192,67665,1,6,0:0:0:0:
64,192,68296,1,8,0:0:0:0:
448,192,68612,1,2,0:0:0:0:
448,192,69086,1,2,0:0:0:0:
448,192,69244,1,2,0:0:0:0:
64,192,69559,1,8,0:0:0:0:
448,192,69717,1,2,0:0:0:0:
192,192,69954,1,2,0:0:0:0:
320,192,70191,1,2,0:0:0:0:
64,192,70823,1,8,0:0:0:0:
448,192,71138,1,2,0:0:0:0:
64,192,71296,1,8,0:0:0:0:
448,192,71454,128,0,71770:0:0:0:0:
192,192,71770,128,0,72086:0:0:0:0:
320,192,72086,128,0,72717:0:0:0:0:
64,192,72717,1,2,0:0:0:0:
448,192,72717,1,0,1:0:0:0:
320,192,73665,1,0,1:0:0:0:
64,192,74296,1,0,1:0:0:0:
448,192,74612,1,0,1:0:0:0:
192,192,74928,128,0,75244:0:0:0:0:
320,192,75244,1,0,1:0:0:0:
192,192,76191,1,0,1:0:0:0:
64,192,76507,128,0,77138:0:0:0:0:
448,192,77138,128,0,77770:0:0:0:0:
192,192,77770,1,6,0:0:0:0:
448,192,78086,1,2,0:0:0:0:
64,192,78402,1,2,0:0:0:0:
320,192,78717,1,2,0:0:0:0:
64,192,79033,1,2,0:0:0:0:
192,192,79349,1,2,0:0:0:0:
448,192,79665,1,2,0:0:0:0:
320,192,79981,1,2,0:0:0:0:
64,192,80296,1,8,0:0:0:0:
192,192,80612,1,8,0:0:0:0:
320,192,80928,1,8,0:0:0:0:
448,192,81244,1,8,0:0:0:0:
192,192,81559,1,8,0:0:0:0:
320,192,81796,1,8,0:0:0:0:
64,192,82033,1,8,0:0:0:0:
448,192,82270,1,8,0:0:0:0:
192,192,82507,1,8,0:0:0:0:
320,192,82665,1,8,0:0:0:0:
192,192,82823,128,4,85349:0:0:0:0:
64,192,82823,1,2,0:0:0:0:
448,192,85349,1,2,0:0:0:0:
64,192,87402,1,2,0:0:0:0:
448,192,87559,1,8,0:0:0:0:
64,192,87875,1,4,0:0:0:0:
192,192,87875,1,2,0:0:0:0:
448,192,88191,1,2,0:0:0:0:
192,192,88349,1,0,0:0:0:0:
320,192,88507,1,2,0:0:0:0:
320,192,88823,1,2,0:0:0:0:
64,192,88981,1,0,0:0:0:0:
192,192,89138,1,2,0:0:0:0:
192,192,89454,1,2,0:0:0:0:
320,192,89612,1,0,0:0:0:0:
448,192,89770,1,2,0:0:0:0:
192,192,90086,1,2,0:0:0:0:
64,192,90402,1,2,0:0:0:0:
64,192,90717,1,2,0:0:0:0:
192,192,90875,1,0,0:0:0:0:
320,192,91033,1,2,0:0:0:0:
448,192,91349,1,2,0:0:0:0:
192,192,91665,1,2,0:0:0:0:
192,192,91981,1,2,0:0:0:0:
320,192,92138,1,0,0:0:0:0:
64,192,92296,128,2,92612:0:0:0:0:
448,192,92612,128,2,92928:0:0:0:0:
64,192,92928,1,4,0:0:0:0:
192,192,92928,1,2,0:0:0:0:
448,192,93244,1,2,0:0:0:0:
192,192,93402,1,0,0:0:0:0:
320,192,93559,1,2,0:0:0:0:
320,192,93875,1,2,0:0:0:0:
64,192,94033,1,0,0:0:0:0:
192,192,94191,1,2,0:0:0:0:
192,192,94507,1,2,0:0:0:0:
320,192,94665,1,0,0:0:0:0:
448,192,94823,1,2,0:0:0:0:
64,192,95138,1,2,0:0:0:0:
320,192,95454,1,2,0:0:0:0:
64,192,95770,1,2,0:0:0:0:
192,192,95928,1,0,0:0:0:0:
320,192,96086,1,2,0:0:0:0:
192,192,96402,1,0,0:0:0:0:
320,192,96559,1,0,0:0:0:0:
448,192,96717,1,2,0:0:0:0:
64,192,96954,1,2,0:0:0:0:
448,192,97191,1,2,0:0:0:0:
192,192,97349,128,0,97665:0:0:0:0:
320,192,97665,128,2,97981:0:0:0:0:
192,192,97981,1,2,0:0:0:0:
64,192,97981,1,4,0:0:0:0:
448,192,98296,1,2,0:0:0:0:
192,192,98454,1,0,0:0:0:0:
320,192,98612,1,2,0:0:0:0:
320,192,98928,1,2,0:0:0:0:
64,192,99086,1,0,0:0:0:0:
192,192,99244,1,2,0:0:0:0:
192,192,99559,1,2,0:0:0:0:
320,192,99717,1,0,0:0:0:0:
448,192,99875,1,2,0:0:0:0:
64,192,100191,1,2,0:0:0:0:
320,192,100507,128,0,100823:0:0:0:0:
64,192,100823,1,2,0:0:0:0:
192,192,100981,1,0,0:0:0:0:
320,192,101138,1,2,0:0:0:0:
448,192,101454,1,2,0:0:0:0:
192,192,101770,1,2,0:0:0:0:
192,192,102086,1,2,0:0:0:0:
320,192,102244,1,0,0:0:0:0:
448,192,102402,128,2,102717:0:0:0:0:
64,192,102717,128,2,103033:0:0:0:0:
448,192,103033,1,6,0:0:0:0:
448,192,103270,1,2,0:0:0:0:
192,192,103507,1,2,0:0:0:0:
320,192,103665,1,2,0:0:0:0:
320,192,103902,1,2,0:0:0:0:
64,192,104138,1,2,0:0:0:0:
192,192,104296,1,2,0:0:0:0:
192,192,104533,1,2,0:0:0:0:
320,192,104770,1,2,0:0:0:0:
448,192,104928,128,8,105559:0:0:0:0:
64,192,105559,1,12,0:0:0:0:
192,192,105875,1,8,0:0:0:0:
320,192,106191,1,8,0:0:0:0:
448,192,106507,1,8,0:0:0:0:
64,192,106823,1,8,0:0:0:0:
448,192,107059,1,8,0:0:0:0:
64,192,107296,1,8,0:0:0:0:
448,192,107533,1,8,0:0:0:0:
64,192,107770,128,0,108086:0:0:0:0:
320,192,108086,1,6,0:0:0:0:
448,192,108086,1,0,1:0:0:0:
320,192,109033,1,0,1:0:0:0:
64,192,109665,1,0,1:0:0:0:
448,192,109981,1,0,1:0:0:0:
192,192,110296,1,0,1:0:0:0:
320,192,110612,1,0,1:0:0:0:
64,192,111559,1,0,1:0:0:0:
448,192,112349,1,0,1:0:0:0:
320,192,112507,1,0,1:0:0:0:
192,192,112665,1,0,1:0:0:0:
