osu file format v14

[General]
AudioFilename: audio.mp3
AudioLeadIn: 0
PreviewTime: 113583
Countdown: 0
SampleSet: Normal
StackLeniency: 0.7
Mode: 3
LetterboxInBreaks: 0
SpecialStyle: 0
WidescreenStoryboard: 0

[Editor]
DistanceSpacing: 0.4
BeatDivisor: 3
GridSize: 32
TimelineZoom: 2.799999

[Metadata]
Title:overcomplexification ("Quaternion" Long ver.)
TitleUnicode:overcomplexification ("Quaternion" Long ver.)
Artist:Camellia
ArtistUnicode:かめりあ
Creator:Wonki
Version:Complexity of the Galaxy
Source:
Tags:
BeatmapID:1705027
BeatmapSetID:812947

[Difficulty]
HPDrainRate:8.5
CircleSize:7
OverallDifficulty:8.5
ApproachRate:5
SliderMultiplier:1.4
SliderTickRate:1

[Events]
//Background and Video events
0,0,"BG.jpg",0,0
//Break Periods
2,23466,27119
//Storyboard Layer 0 (Background)
//Storyboard Layer 1 (Fail)
//Storyboard Layer 2 (Pass)
//Storyboard Layer 3 (Foreground)
//Storyboard Sound Samples

[TimingPoints]
530,315.789473684211,4,1,1,45,1,0
2740,-38.4615384615385,4,1,1,45,0,0
2780,-100,4,1,1,45,0,0
4319,-66.6666666666667,4,1,1,45,0,0
4437,-200,4,1,1,45,0,0
4556,-66.6666666666667,4,1,1,45,0,0
4674,-200,4,1,1,45,0,0
4793,-66.6666666666667,4,1,1,45,0,0
4911,-200,4,1,1,45,0,0
5030,-66.6666666666667,4,1,1,45,0,0
5148,-200,4,1,1,45,0,0
5266,-71.4285714285714,4,1,1,45,0,0
5424,-166.666666666667,4,1,1,45,0,0
5582,-100,4,1,1,45,0,0
6845,-66.6666666666667,4,1,1,45,0,0
6963,-200,4,1,1,45,0,0
7082,-66.6666666666667,4,1,1,45,0,0
7200,-200,4,1,1,45,0,0
7319,-66.6666666666667,4,1,1,45,0,0
7437,-200,4,1,1,45,0,0
7556,-66.6666666666667,4,1,1,45,0,0
7674,-200,4,1,1,45,0,0
7792,-71.4285714285714,4,1,1,45,0,0
7950,-166.666666666667,4,1,1,45,0,0
8108,-100,4,1,1,45,0,0
9372,-66.6666666666667,4,1,1,45,0,0
9490,-200,4,1,1,45,0,0
9609,-66.6666666666667,4,1,1,45,0,0
9727,-200,4,1,1,45,0,0
9846,-66.6666666666667,4,1,1,45,0,0
9964,-200,4,1,1,45,0,0
10083,-66.6666666666667,4,1,1,45,0,0
10201,-200,4,1,1,45,0,0
10319,-71.4285714285714,4,1,1,45,0,0
10477,-166.666666666667,4,1,1,45,0,0
10635,-100,4,1,1,45,0,0
14424,-66.6666666666667,4,1,1,45,0,0
14542,-200,4,1,1,45,0,0
14661,-66.6666666666667,4,1,1,45,0,0
14779,-200,4,1,1,45,0,0
14898,-66.6666666666667,4,1,1,45,0,0
15016,-200,4,1,1,45,0,0
15135,-66.6666666666667,4,1,1,45,0,0
15253,-200,4,1,1,45,0,0
15371,-71.4285714285714,4,1,1,45,0,0
15529,-166.666666666667,4,1,1,45,0,0
15687,-100,4,1,1,45,0,0
16951,-66.6666666666667,4,1,1,45,0,0
17069,-200,4,1,1,45,0,0
17188,-66.6666666666667,4,1,1,45,0,0
17306,-200,4,1,1,45,0,0
17425,-66.6666666666667,4,1,1,45,0,0
17543,-200,4,1,1,45,0,0
17662,-66.6666666666667,4,1,1,45,0,0
17780,-200,4,1,1,45,0,0
17898,-71.4285714285714,4,1,1,45,0,0
18056,-166.666666666667,4,1,1,45,0,0
18214,-100,4,1,1,45,0,0
19477,-66.6666666666667,4,1,1,45,0,0
19595,-200,4,1,1,45,0,0
19714,-66.6666666666667,4,1,1,45,0,0
19832,-200,4,1,1,45,0,0
19951,-66.6666666666667,4,1,1,45,0,0
20069,-200,4,1,1,45,0,0
20188,-66.6666666666667,4,1,1,45,0,0
20306,-200,4,1,1,45,0,0
20424,-71.4285714285714,4,1,1,45,0,0
20582,-166.666666666667,4,1,1,45,0,0
20740,-100,4,1,1,45,0,0
48214,-38.4615384615385,4,1,1,45,0,0
48254,-100,4,1,1,45,0,0
113582,-62.5,4,1,1,45,0,0
113661,-250,4,1,1,45,0,0
113740,-100,4,1,1,45,0,0
113898,-62.5,4,1,1,45,0,0
113977,-250,4,1,1,45,0,0
114056,-100,4,1,1,45,0,0
114214,-333.333333333333,4,1,1,45,0,0
114273,-39.6825396825397,4,1,1,45,0,0
114293,-333.333333333333,4,1,1,45,0,0
114352,-39.6825396825397,4,1,1,45,0,0
114372,-333.333333333333,4,1,1,45,0,0
114431,-39.6825396825397,4,1,1,45,0,0
114451,-333.333333333333,4,1,1,45,0,0
114510,-39.6825396825397,4,1,1,45,0,0
114530,-333.333333333333,4,1,1,45,0,0
114589,-39.6825396825397,4,1,1,45,0,0
114608,-333.333333333333,4,1,1,45,0,0
114667,-39.6825396825397,4,1,1,45,0,0
114687,-333.333333333333,4,1,1,45,0,0
114746,-39.6825396825397,4,1,1,45,0,0
114766,-333.333333333333,4,1,1,45,0,0
114825,-39.6825396825397,4,1,1,45,0,0
114845,-333.333333333333,4,1,1,45,0,0
114904,-39.6825396825397,4,1,1,45,0,0
114924,-333.333333333333,4,1,1,45,0,0
114983,-39.6825396825397,4,1,1,45,0,0
115003,-333.333333333333,4,1,1,45,0,0
115062,-39.6825396825397,4,1,1,45,0,0
115082,-333.333333333333,4,1,1,45,0,0
115141,-39.6825396825397,4,1,1,45,0,0
115161,-333.333333333333,4,1,1,45,0,0
115220,-39.6825396825397,4,1,1,45,0,0
115240,-333.333333333333,4,1,1,45,0,0
115299,-39.6825396825397,4,1,1,45,0,0
115319,-333.333333333333,4,1,1,45,0,0
115378,-39.6825396825397,4,1,1,45,0,0
115398,-333.333333333333,4,1,1,45,0,0
115457,-39.6825396825397,4,1,1,45,0,0
115477,-333.333333333333,4,1,1,45,0,0
115507,-45.045045045045,4,1,1,45,0,0
115516,-100,4,1,1,45,0,0
115556,-333.333333333333,4,1,1,45,0,0
115586,-45.045045045045,4,1,1,45,0,0
115595,-100,4,1,1,45,0,0
115635,-333.333333333333,4,1,1,45,0,0
115694,-39.6825396825397,4,1,1,45,0,0
115714,-333.333333333333,4,1,1,45,0,0
115773,-39.6825396825397,4,1,1,45,0,0
115793,-333.333333333333,4,1,1,45,0,0
115852,-39.6825396825397,4,1,1,45,0,0
115872,-333.333333333333,4,1,1,45,0,0
115931,-39.6825396825397,4,1,1,45,0,0
115951,-333.333333333333,4,1,1,45,0,0
116010,-39.6825396825397,4,1,1,45,0,0
116030,-333.333333333333,4,1,1,45,0,0
116089,-39.6825396825397,4,1,1,45,0,0
116108,-333.333333333333,4,1,1,45,0,0
116167,-39.6825396825397,4,1,1,45,0,0
116187,-333.333333333333,4,1,1,45,0,0
116246,-39.6825396825397,4,1,1,45,0,0
116266,-333.333333333333,4,1,1,45,0,0
116325,-39.6825396825397,4,1,1,45,0,0
116345,-333.333333333333,4,1,1,45,0,0
116404,-39.6825396825397,4,1,1,45,0,0
116424,-333.333333333333,4,1,1,45,0,0
116454,-45.045045045045,4,1,1,45,0,0
116463,-100,4,1,1,45,0,0
116503,-333.333333333333,4,1,1,45,0,0
116562,-39.6825396825397,4,1,1,45,0,0
116582,-333.333333333333,4,1,1,45,0,0
116641,-39.6825396825397,4,1,1,45,0,0
116661,-333.333333333333,4,1,1,45,0,0
116720,-45.045045045045,4,1,1,45,0,0
116740,-100,4,1,1,45,0,0
119266,-333.333333333333,4,1,1,45,0,0
119325,-39.6825396825397,4,1,1,45,0,0
119345,-333.333333333333,4,1,1,45,0,0
119404,-39.6825396825397,4,1,1,45,0,0
119424,-333.333333333333,4,1,1,45,0,0
119483,-39.6825396825397,4,1,1,45,0,0
119503,-333.333333333333,4,1,1,45,0,0
119562,-39.6825396825397,4,1,1,45,0,0
119582,-333.333333333333,4,1,1,45,0,0
119641,-39.6825396825397,4,1,1,45,0,0
119661,-333.333333333333,4,1,1,45,0,0
119720,-39.6825396825397,4,1,1,45,0,0
119740,-333.333333333333,4,1,1,45,0,0
119799,-39.6825396825397,4,1,1,45,0,0
119819,-333.333333333333,4,1,1,45,0,0
119878,-39.6825396825397,4,1,1,45,0,0
119898,-333.333333333333,4,1,1,45,0,0
119957,-39.6825396825397,4,1,1,45,0,0
119977,-333.333333333333,4,1,1,45,0,0
120036,-39.6825396825397,4,1,1,45,0,0
120056,-333.333333333333,4,1,1,45,0,0
120115,-39.6825396825397,4,1,1,45,0,0
120135,-333.333333333333,4,1,1,45,0,0
120194,-39.6825396825397,4,1,1,45,0,0
120214,-333.333333333333,4,1,1,45,0,0
120273,-39.6825396825397,4,1,1,45,0,0
120293,-333.333333333333,4,1,1,45,0,0
120352,-39.6825396825397,4,1,1,45,0,0
120372,-333.333333333333,4,1,1,45,0,0
120431,-39.6825396825397,4,1,1,45,0,0
120451,-333.333333333333,4,1,1,45,0,0
120510,-39.6825396825397,4,1,1,45,0,0
120530,-333.333333333333,4,1,1,45,0,0
120560,-45.045045045045,4,1,1,45,0,0
120569,-100,4,1,1,45,0,0
120608,-333.333333333333,4,1,1,45,0,0
120638,-45.045045045045,4,1,1,45,0,0
120647,-100,4,1,1,45,0,0
120687,-333.333333333333,4,1,1,45,0,0
120746,-39.6825396825397,4,1,1,45,0,0
120766,-333.333333333333,4,1,1,45,0,0
120796,-45.045045045045,4,1,1,45,0,0
120805,-100,4,1,1,45,0,0
120845,-333.333333333333,4,1,1,45,0,0
120904,-39.6825396825397,4,1,1,45,0,0
120924,-333.333333333333,4,1,1,45,0,0
120983,-39.6825396825397,4,1,1,45,0,0
121003,-333.333333333333,4,1,1,45,0,0
121062,-39.6825396825397,4,1,1,45,0,0
121082,-333.333333333333,4,1,1,45,0,0
121141,-39.6825396825397,4,1,1,45,0,0
121161,-333.333333333333,4,1,1,45,0,0
121220,-39.6825396825397,4,1,1,45,0,0
121240,-333.333333333333,4,1,1,45,0,0
121299,-39.6825396825397,4,1,1,45,0,0
121319,-333.333333333333,4,1,1,45,0,0
121378,-39.6825396825397,4,1,1,45,0,0
121398,-333.333333333333,4,1,1,45,0,0
121457,-39.6825396825397,4,1,1,45,0,0
121477,-333.333333333333,4,1,1,45,0,0
121507,-45.045045045045,4,1,1,45,0,0
121516,-100,4,1,1,45,0,0
121556,-333.333333333333,4,1,1,45,0,0
121586,-45.045045045045,4,1,1,45,0,0
121595,-100,4,1,1,45,0,0
121635,-333.333333333333,4,1,1,45,0,0
121694,-39.6825396825397,4,1,1,45,0,0
121714,-333.333333333333,4,1,1,45,0,0
121773,-45.045045045045,4,1,1,45,0,0
121793,-100,4,1,1,45,0,0
124003,-66.6666666666667,4,1,1,45,0,0
124043,-200,4,1,1,45,0,0
124082,-100,4,1,1,45,0,0
124161,-66.6666666666667,4,1,1,45,0,0
124201,-200,4,1,1,45,0,0
124240,-100,4,1,1,45,0,0
124319,-333.333333333333,4,1,1,45,0,0
124378,-39.6825396825397,4,1,1,45,0,0
124398,-333.333333333333,4,1,1,45,0,0
124457,-39.6825396825397,4,1,1,45,0,0
124477,-333.333333333333,4,1,1,45,0,0
124536,-39.6825396825397,4,1,1,45,0,0
124556,-333.333333333333,4,1,1,45,0,0
124615,-39.6825396825397,4,1,1,45,0,0
124635,-333.333333333333,4,1,1,45,0,0
124665,-45.045045045045,4,1,1,45,0,0
124674,-100,4,1,1,45,0,0
124714,-333.333333333333,4,1,1,45,0,0
124773,-39.6825396825397,4,1,1,45,0,0
124793,-333.333333333333,4,1,1,45,0,0
124852,-39.6825396825397,4,1,1,45,0,0
124872,-333.333333333333,4,1,1,45,0,0
124931,-39.6825396825397,4,1,1,45,0,0
124951,-333.333333333333,4,1,1,45,0,0
125010,-39.6825396825397,4,1,1,45,0,0
125030,-333.333333333333,4,1,1,45,0,0
125089,-39.6825396825397,4,1,1,45,0,0
125108,-333.333333333333,4,1,1,45,0,0
125167,-39.6825396825397,4,1,1,45,0,0
125187,-333.333333333333,4,1,1,45,0,0
125246,-39.6825396825397,4,1,1,45,0,0
125266,-333.333333333333,4,1,1,45,0,0
125325,-39.6825396825397,4,1,1,45,0,0
125345,-333.333333333333,4,1,1,45,0,0
125404,-39.6825396825397,4,1,1,45,0,0
125424,-333.333333333333,4,1,1,45,0,0
125483,-39.6825396825397,4,1,1,45,0,0
125503,-333.333333333333,4,1,1,45,0,0
125562,-39.6825396825397,4,1,1,45,0,0
125582,-333.333333333333,4,1,1,45,0,0
125612,-45.045045045045,4,1,1,45,0,0
125621,-100,4,1,1,45,0,0
125661,-333.333333333333,4,1,1,45,0,0
125691,-45.045045045045,4,1,1,45,0,0
125700,-100,4,1,1,45,0,0
125740,-333.333333333333,4,1,1,45,0,0
125799,-39.6825396825397,4,1,1,45,0,0
125819,-333.333333333333,4,1,1,45,0,0
125878,-39.6825396825397,4,1,1,45,0,0
125898,-333.333333333333,4,1,1,45,0,0
125957,-39.6825396825397,4,1,1,45,0,0
125977,-333.333333333333,4,1,1,45,0,0
126036,-39.6825396825397,4,1,1,45,0,0
126056,-333.333333333333,4,1,1,45,0,0
126086,-45.045045045045,4,1,1,45,0,0
126095,-100,4,1,1,45,0,0
126135,-333.333333333333,4,1,1,45,0,0
126194,-39.6825396825397,4,1,1,45,0,0
126214,-333.333333333333,4,1,1,45,0,0
126273,-39.6825396825397,4,1,1,45,0,0
126293,-333.333333333333,4,1,1,45,0,0
126352,-39.6825396825397,4,1,1,45,0,0
126372,-333.333333333333,4,1,1,45,0,0
126431,-39.6825396825397,4,1,1,45,0,0
126451,-333.333333333333,4,1,1,45,0,0
126510,-39.6825396825397,4,1,1,45,0,0
126530,-333.333333333333,4,1,1,45,0,0
126560,-45.045045045045,4,1,1,45,0,0
126569,-100,4,1,1,45,0,0
126608,-333.333333333333,4,1,1,45,0,0
126667,-39.6825396825397,4,1,1,45,0,0
126687,-333.333333333333,4,1,1,45,0,0
126746,-39.6825396825397,4,1,1,45,0,0
126766,-333.333333333333,4,1,1,45,0,0
126825,-45.045045045045,4,1,1,45,0,0
126845,-100,4,1,1,45,0,0
129056,-142.857142857143,4,1,1,45,0,0
129108,-71.4285714285714,4,1,1,45,0,0
129161,-142.857142857143,4,1,1,45,0,0
129213,-71.4285714285714,4,1,1,45,0,0
129266,-142.857142857143,4,1,1,45,0,0
129318,-71.4285714285714,4,1,1,45,0,0
129372,-333.333333333333,4,1,1,45,0,0
129431,-39.6825396825397,4,1,1,45,0,0
129451,-333.333333333333,4,1,1,45,0,0
129510,-39.6825396825397,4,1,1,45,0,0
129530,-333.333333333333,4,1,1,45,0,0
129589,-39.6825396825397,4,1,1,45,0,0
129608,-333.333333333333,4,1,1,45,0,0
129667,-39.6825396825397,4,1,1,45,0,0
129687,-333.333333333333,4,1,1,45,0,0
129746,-39.6825396825397,4,1,1,45,0,0
129766,-333.333333333333,4,1,1,45,0,0
129825,-39.6825396825397,4,1,1,45,0,0
129845,-333.333333333333,4,1,1,45,0,0
129904,-39.6825396825397,4,1,1,45,0,0
129924,-333.333333333333,4,1,1,45,0,0
129983,-39.6825396825397,4,1,1,45,0,0
130003,-333.333333333333,4,1,1,45,0,0
130062,-39.6825396825397,4,1,1,45,0,0
130082,-333.333333333333,4,1,1,45,0,0
130141,-39.6825396825397,4,1,1,45,0,0
130161,-333.333333333333,4,1,1,45,0,0
130220,-39.6825396825397,4,1,1,45,0,0
130240,-333.333333333333,4,1,1,45,0,0
130299,-39.6825396825397,4,1,1,45,0,0
130319,-333.333333333333,4,1,1,45,0,0
130378,-39.6825396825397,4,1,1,45,0,0
130398,-333.333333333333,4,1,1,45,0,0
130457,-39.6825396825397,4,1,1,45,0,0
130477,-333.333333333333,4,1,1,45,0,0
130536,-39.6825396825397,4,1,1,45,0,0
130556,-333.333333333333,4,1,1,45,0,0
130615,-39.6825396825397,4,1,1,45,0,0
130635,-333.333333333333,4,1,1,45,0,0
130665,-45.045045045045,4,1,1,45,0,0
130674,-100,4,1,1,45,0,0
130714,-333.333333333333,4,1,1,45,0,0
130744,-45.045045045045,4,1,1,45,0,0
130753,-100,4,1,1,45,0,0
130793,-333.333333333333,4,1,1,45,0,0
130852,-39.6825396825397,4,1,1,45,0,0
130872,-333.333333333333,4,1,1,45,0,0
130902,-45.045045045045,4,1,1,45,0,0
130911,-100,4,1,1,45,0,0
130951,-333.333333333333,4,1,1,45,0,0
131010,-39.6825396825397,4,1,1,45,0,0
131030,-333.333333333333,4,1,1,45,0,0
131089,-39.6825396825397,4,1,1,45,0,0
131108,-333.333333333333,4,1,1,45,0,0
131167,-39.6825396825397,4,1,1,45,0,0
131187,-333.333333333333,4,1,1,45,0,0
131246,-39.6825396825397,4,1,1,45,0,0
131266,-333.333333333333,4,1,1,45,0,0
131325,-39.6825396825397,4,1,1,45,0,0
131345,-333.333333333333,4,1,1,45,0,0
131404,-39.6825396825397,4,1,1,45,0,0
131424,-333.333333333333,4,1,1,45,0,0
131483,-39.6825396825397,4,1,1,45,0,0
131503,-333.333333333333,4,1,1,45,0,0
131562,-39.6825396825397,4,1,1,45,0,0
131582,-333.333333333333,4,1,1,45,0,0
131612,-45.045045045045,4,1,1,45,0,0
131621,-100,4,1,1,45,0,0
131661,-333.333333333333,4,1,1,45,0,0
131720,-39.6825396825397,4,1,1,45,0,0
131740,-333.333333333333,4,1,1,45,0,0
131799,-39.6825396825397,4,1,1,45,0,0
131819,-333.333333333333,4,1,1,45,0,0
131878,-45.045045045045,4,1,1,45,0,0
131898,-100,4,1,1,45,0,0
133793,-10,4,1,1,45,0,0
133872,-142.857142857143,4,1,1,45,0,0
134424,-100,4,1,1,45,0,0
184635,-12.5,4,1,1,45,0,0
184655,-125,4,1,1,45,0,0
184951,-100,4,1,1,45,0,0
206424,-66.6666666666667,4,1,1,45,0,0
206542,-200,4,1,1,45,0,0
206661,-66.6666666666667,4,1,1,45,0,0
206779,-200,4,1,1,45,0,0
206898,-66.6666666666667,4,1,1,45,0,0
207016,-200,4,1,1,45,0,0
207135,-66.6666666666667,4,1,1,45,0,0
207253,-200,4,1,1,45,0,0
207371,-71.4285714285714,4,1,1,45,0,0
207529,-166.666666666667,4,1,1,45,0,0
207687,-100,4,1,1,45,0,0
208951,-66.6666666666667,4,1,1,45,0,0
209069,-200,4,1,1,45,0,0
209188,-66.6666666666667,4,1,1,45,0,0
209306,-200,4,1,1,45,0,0
209425,-66.6666666666667,4,1,1,45,0,0
209543,-200,4,1,1,45,0,0
209662,-66.6666666666667,4,1,1,45,0,0
209780,-200,4,1,1,45,0,0
209898,-71.4285714285714,4,1,1,45,0,0
210056,-166.666666666667,4,1,1,45,0,0
210214,-100,4,1,1,45,0,0
211477,-66.6666666666667,4,1,1,45,0,0
211595,-200,4,1,1,45,0,0
211714,-66.6666666666667,4,1,1,45,0,0
211832,-200,4,1,1,45,0,0
211951,-66.6666666666667,4,1,1,45,0,0
212069,-200,4,1,1,45,0,0
212188,-66.6666666666667,4,1,1,45,0,0
212306,-200,4,1,1,45,0,0
212424,-71.4285714285714,4,1,1,45,0,0
212582,-166.666666666667,4,1,1,45,0,0
212740,-100,4,1,1,45,0,0
216530,-66.6666666666667,4,1,1,45,0,0
216648,-200,4,1,1,45,0,0
216767,-66.6666666666667,4,1,1,45,0,0
216885,-200,4,1,1,45,0,0
217004,-66.6666666666667,4,1,1,45,0,0
217122,-200,4,1,1,45,0,0
217241,-66.6666666666667,4,1,1,45,0,0
217359,-200,4,1,1,45,0,0
217477,-71.4285714285714,4,1,1,45,0,0
217635,-166.666666666667,4,1,1,45,0,0
217793,-100,4,1,1,45,0,0
219056,-66.6666666666667,4,1,1,45,0,0
219174,-200,4,1,1,45,0,0
219293,-66.6666666666667,4,1,1,45,0,0
219411,-200,4,1,1,45,0,0
219530,-66.6666666666667,4,1,1,45,0,0
219648,-200,4,1,1,45,0,0
219767,-66.6666666666667,4,1,1,45,0,0
219885,-200,4,1,1,45,0,0
220003,-71.4285714285714,4,1,1,45,0,0
220161,-166.666666666667,4,1,1,45,0,0
220319,-100,4,1,1,45,0,0
221582,-66.6666666666667,4,1,1,45,0,0
221700,-200,4,1,1,45,0,0
221819,-66.6666666666667,4,1,1,45,0,0
221937,-200,4,1,1,45,0,0
222056,-66.6666666666667,4,1,1,45,0,0
222174,-200,4,1,1,45,0,0
222293,-66.6666666666667,4,1,1,45,0,0
222411,-200,4,1,1,45,0,0
222529,-71.4285714285714,4,1,1,45,0,0
222687,-166.666666666667,4,1,1,45,0,0
222845,-100,4,1,1,45,0,0
245266,-38.4615384615385,4,1,1,45,0,0
245306,-100,4,1,1,45,0,0
245582,-250,4,1,1,45,0,0
245592,-21.7391304347826,4,1,1,45,0,0
245602,-117.647058823529,4,1,1,45,0,0
245740,-100,4,1,1,45,0,0
246845,-250,4,1,1,45,0,0
246855,-21.7391304347826,4,1,1,45,0,0
246865,-117.647058823529,4,1,1,45,0,0
247003,-100,4,1,1,45,0,0
248108,-250,4,1,1,45,0,0
248118,-21.7391304347826,4,1,1,45,0,0
248128,-117.647058823529,4,1,1,45,0,0
248266,-100,4,1,1,45,0,0
249372,-250,4,1,1,45,0,0
249382,-21.7391304347826,4,1,1,45,0,0
249392,-117.647058823529,4,1,1,45,0,0
249530,-100,4,1,1,45,0,0
250635,-250,4,1,1,45,0,0
250645,-21.7391304347826,4,1,1,45,0,0
250655,-117.647058823529,4,1,1,45,0,0
250793,-100,4,1,1,45,0,0
251898,-250,4,1,1,45,0,0
251908,-21.7391304347826,4,1,1,45,0,0
251918,-117.647058823529,4,1,1,45,0,0
252056,-100,4,1,1,45,0,0
255056,-66.6666666666667,4,1,1,45,0,0
255095,-200,4,1,1,45,0,0
255135,-66.6666666666667,4,1,1,45,0,0
255174,-200,4,1,1,45,0,0
255214,-66.6666666666667,4,1,1,45,0,0
255253,-200,4,1,1,45,0,0
255293,-66.6666666666667,4,1,1,45,0,0
255332,-200,4,1,1,45,0,0
255372,-66.6666666666667,4,1,1,45,0,0
255411,-200,4,1,1,45,0,0
255451,-66.6666666666667,4,1,1,45,0,0
255490,-200,4,1,1,45,0,0
255530,-66.6666666666667,4,1,1,45,0,0
255569,-200,4,1,1,45,0,0
255608,-66.6666666666667,4,1,1,45,0,0
255647,-200,4,1,1,45,0,0
255687,-250,4,1,1,45,0,0
255697,-21.7391304347826,4,1,1,45,0,0
255707,-117.647058823529,4,1,1,45,0,0
255845,-100,4,1,1,45,0,0
256951,-250,4,1,1,45,0,0
256961,-21.7391304347826,4,1,1,45,0,0
256971,-117.647058823529,4,1,1,45,0,0
257109,-100,4,1,1,45,0,0

[HitObjects]
36,192,1793,5,0,0:0:0:0:
109,192,1793,1,0,0:0:0:0:
182,192,1872,1,0,0:0:0:0:
256,192,1872,1,0,0:0:0:0:
329,192,1951,1,0,0:0:0:0:
475,192,1951,1,0,0:0:0:0:
182,192,2030,1,0,0:0:0:0:
36,192,2030,1,0,0:0:0:0:
329,192,2108,1,0,0:0:0:0:
475,192,2108,1,0,0:0:0:0:
36,192,2266,1,0,0:0:0:0:
182,192,2266,1,0,0:0:0:0:
109,192,2345,1,0,0:0:0:0:
256,192,2345,1,0,0:0:0:0:
402,192,2424,1,0,0:0:0:0:
475,192,2424,1,0,0:0:0:0:
182,192,2503,1,0,0:0:0:0:
109,192,2503,1,0,0:0:0:0:
402,192,2582,1,0,0:0:0:0:
475,192,2582,1,0,0:0:0:0:
109,192,2740,1,0,0:0:0:0:
36,192,2740,1,0,0:0:0:0:
182,192,2740,1,0,0:0:0:0:
329,192,2740,1,0,0:0:0:0:
36,192,3056,128,0,4240:0:0:0:0:
475,192,3056,128,0,4240:0:0:0:0:
256,192,3056,128,0,3845:0:0:0:0:
109,192,3056,1,0,0:0:0:0:
402,192,3056,1,0,0:0:0:0:
329,192,3845,1,0,0:0:0:0:
402,192,3885,128,0,4122:0:0:0:0:
329,192,4122,1,0,0:0:0:0:
256,192,4161,128,0,4240:0:0:0:0:
36,192,4319,1,0,0:0:0:0:
109,192,4319,1,0,0:0:0:0:
402,192,4319,1,0,0:0:0:0:
475,192,4319,1,0,0:0:0:0:
36,192,4556,1,0,0:0:0:0:
109,192,4556,1,0,0:0:0:0:
402,192,4556,1,0,0:0:0:0:
475,192,4556,1,0,0:0:0:0:
109,192,4793,1,0,0:0:0:0:
182,192,4793,1,0,0:0:0:0:
402,192,4793,1,0,0:0:0:0:
475,192,4793,1,0,0:0:0:0:
109,192,5030,1,0,0:0:0:0:
182,192,5030,1,0,0:0:0:0:
402,192,5030,1,0,0:0:0:0:
475,192,5030,1,0,0:0:0:0:
36,192,5266,1,0,0:0:0:0:
256,192,5266,1,0,0:0:0:0:
402,192,5266,1,0,0:0:0:0:
475,192,5266,1,0,0:0:0:0:
256,192,5582,128,0,6214:0:0:0:0:
402,192,5582,128,0,6766:0:0:0:0:
109,192,5582,128,0,6766:0:0:0:0:
182,192,6214,1,0,0:0:0:0:
329,192,6214,1,0,0:0:0:0:
36,192,6253,128,0,6766:0:0:0:0:
475,192,6253,128,0,6766:0:0:0:0:
36,192,6845,1,0,0:0:0:0:
109,192,6845,1,0,0:0:0:0:
402,192,6845,1,0,0:0:0:0:
475,192,6845,1,0,0:0:0:0:
36,192,7082,1,0,0:0:0:0:
109,192,7082,1,0,0:0:0:0:
402,192,7082,1,0,0:0:0:0:
475,192,7082,1,0,0:0:0:0:
36,192,7319,1,0,0:0:0:0:
109,192,7319,1,0,0:0:0:0:
402,192,7319,1,0,0:0:0:0:
329,192,7319,1,0,0:0:0:0:
36,192,7556,1,0,0:0:0:0:
109,192,7556,1,0,0:0:0:0:
329,192,7556,1,0,0:0:0:0:
402,192,7556,1,0,0:0:0:0:
36,192,7793,1,0,0:0:0:0:
109,192,7793,1,0,0:0:0:0:
402,192,7793,1,0,0:0:0:0:
329,192,7793,1,0,0:0:0:0:
36,192,8108,128,0,9293:0:0:0:0:
475,192,8108,128,0,9293:0:0:0:0:
256,192,8108,128,0,8898:0:0:0:0:
109,192,8108,1,0,0:0:0:0:
402,192,8108,1,0,0:0:0:0:
329,192,8898,1,0,0:0:0:0:
402,192,8937,128,0,9174:0:0:0:0:
329,192,9174,1,0,0:0:0:0:
256,192,9214,128,0,9293:0:0:0:0:
36,192,9372,1,0,0:0:0:0:
109,192,9372,1,0,0:0:0:0:
402,192,9372,1,0,0:0:0:0:
475,192,9372,1,0,0:0:0:0:
36,192,9608,1,0,0:0:0:0:
109,192,9608,1,0,0:0:0:0:
402,192,9608,1,0,0:0:0:0:
475,192,9608,1,0,0:0:0:0:
109,192,9845,1,0,0:0:0:0:
182,192,9845,1,0,0:0:0:0:
402,192,9845,1,0,0:0:0:0:
475,192,9845,1,0,0:0:0:0:
109,192,10082,1,0,0:0:0:0:
182,192,10082,1,0,0:0:0:0:
402,192,10082,1,0,0:0:0:0:
475,192,10082,1,0,0:0:0:0:
36,192,10319,1,0,0:0:0:0:
256,192,10319,1,0,0:0:0:0:
402,192,10319,1,0,0:0:0:0:
475,192,10319,1,0,0:0:0:0:
109,192,10635,128,0,11582:0:0:0:0:
475,192,10635,128,0,10872:0:0:0:0:
36,192,10635,128,0,11582:0:0:0:0:
329,192,10872,1,0,0:0:0:0:
402,192,10911,128,0,11069:0:0:0:0:
256,192,11069,1,0,0:0:0:0:
182,192,11108,128,0,11582:0:0:0:0:
402,192,11266,128,0,11345:0:0:0:0:
475,192,11266,128,0,11345:0:0:0:0:
329,192,11424,128,0,11503:0:0:0:0:
402,192,11424,128,0,11503:0:0:0:0:
475,192,11582,128,0,12095:0:0:0:0:
256,192,11582,128,0,11701:0:0:0:0:
329,192,11701,1,0,0:0:0:0:
402,192,11740,128,0,12095:0:0:0:0:
402,192,12174,128,0,12253:0:0:0:0:
475,192,12174,128,0,12372:0:0:0:0:
329,192,12253,1,0,0:0:0:0:
256,192,12293,128,0,12845:0:0:0:0:
475,192,12451,128,0,12530:0:0:0:0:
402,192,12530,1,0,0:0:0:0:
329,192,12569,128,0,12845:0:0:0:0:
109,192,12845,1,0,0:0:0:0:
182,192,12845,1,0,0:0:0:0:
329,192,12924,1,0,0:0:0:0:
402,192,12924,1,0,0:0:0:0:
109,192,13003,1,0,0:0:0:0:
182,192,13003,1,0,0:0:0:0:
402,192,13082,1,0,0:0:0:0:
329,192,13082,1,0,0:0:0:0:
109,192,13161,1,0,0:0:0:0:
182,192,13161,1,0,0:0:0:0:
36,192,13161,128,0,14345:0:0:0:0:
475,192,13161,128,0,14345:0:0:0:0:
256,192,13161,128,0,13793:0:0:0:0:
182,192,13832,1,0,0:0:0:0:
329,192,13832,1,0,0:0:0:0:
402,192,13872,128,0,14345:0:0:0:0:
109,192,13872,128,0,14345:0:0:0:0:
36,192,14424,1,0,0:0:0:0:
109,192,14424,1,0,0:0:0:0:
402,192,14424,1,0,0:0:0:0:
475,192,14424,1,0,0:0:0:0:
36,192,14661,1,0,0:0:0:0:
109,192,14661,1,0,0:0:0:0:
402,192,14661,1,0,0:0:0:0:
475,192,14661,1,0,0:0:0:0:
36,192,14898,1,0,0:0:0:0:
182,192,14898,1,0,0:0:0:0:
402,192,14898,1,0,0:0:0:0:
475,192,14898,1,0,0:0:0:0:
36,192,15135,1,0,0:0:0:0:
182,192,15135,1,0,0:0:0:0:
402,192,15135,1,0,0:0:0:0:
475,192,15135,1,0,0:0:0:0:
109,192,15372,1,0,0:0:0:0:
36,192,15372,1,0,0:0:0:0:
329,192,15372,1,0,0:0:0:0:
475,192,15372,1,0,0:0:0:0:
36,192,15687,128,0,16872:0:0:0:0:
475,192,15687,128,0,16872:0:0:0:0:
109,192,15687,128,0,16319:0:0:0:0:
182,192,16319,1,0,0:0:0:0:
256,192,16358,128,0,16556:0:0:0:0:
182,192,16556,128,0,16635:0:0:0:0:
256,192,16635,1,0,0:0:0:0:
329,192,16674,128,0,16793:0:0:0:0:
402,192,16793,128,0,16872:0:0:0:0:
36,192,16951,1,0,0:0:0:0:
182,192,16951,1,0,0:0:0:0:
402,192,16951,1,0,0:0:0:0:
475,192,16951,1,0,0:0:0:0:
36,192,17187,1,0,0:0:0:0:
182,192,17187,1,0,0:0:0:0:
402,192,17187,1,0,0:0:0:0:
475,192,17187,1,0,0:0:0:0:
109,192,17424,1,0,0:0:0:0:
256,192,17424,1,0,0:0:0:0:
402,192,17424,1,0,0:0:0:0:
475,192,17424,1,0,0:0:0:0:
109,192,17661,1,0,0:0:0:0:
256,192,17661,1,0,0:0:0:0:
402,192,17661,1,0,0:0:0:0:
475,192,17661,1,0,0:0:0:0:
109,192,17898,1,0,0:0:0:0:
256,192,17898,1,0,0:0:0:0:
475,192,17898,1,0,0:0:0:0:
402,192,17898,1,0,0:0:0:0:
475,192,18214,128,0,19398:0:0:0:0:
36,192,18214,128,0,19398:0:0:0:0:
256,192,18214,128,0,18451:0:0:0:0:
329,192,18451,1,0,0:0:0:0:
402,192,18490,128,0,18608:0:0:0:0:
329,192,18608,128,0,18687:0:0:0:0:
256,192,18687,1,0,0:0:0:0:
402,192,18727,128,0,19398:0:0:0:0:
182,192,18727,128,0,18806:0:0:0:0:
182,192,18885,1,0,0:0:0:0:
109,192,18924,128,0,19398:0:0:0:0:
329,192,19003,1,0,0:0:0:0:
256,192,19043,1,0,0:0:0:0:
182,192,19082,128,0,19240:0:0:0:0:
256,192,19280,128,0,19398:0:0:0:0:
109,192,19477,1,0,0:0:0:0:
36,192,19477,1,0,0:0:0:0:
402,192,19477,1,0,0:0:0:0:
256,192,19477,1,0,0:0:0:0:
109,192,19714,1,0,0:0:0:0:
36,192,19714,1,0,0:0:0:0:
256,192,19714,1,0,0:0:0:0:
402,192,19714,1,0,0:0:0:0:
36,192,19951,1,0,0:0:0:0:
109,192,19951,1,0,0:0:0:0:
329,192,19951,1,0,0:0:0:0:
475,192,19951,1,0,0:0:0:0:
36,192,20187,1,0,0:0:0:0:
109,192,20187,1,0,0:0:0:0:
329,192,20187,1,0,0:0:0:0:
475,192,20187,1,0,0:0:0:0:
109,192,20424,1,0,0:0:0:0:
36,192,20424,1,0,0:0:0:0:
256,192,20424,1,0,0:0:0:0:
402,192,20424,1,0,0:0:0:0:
36,192,20740,1,0,0:0:0:0:
329,192,20740,1,0,0:0:0:0:
109,192,20740,1,0,0:0:0:0:
182,192,20977,1,0,0:0:0:0:
329,192,20977,1,0,0:0:0:0:
402,192,20977,1,0,0:0:0:0:
475,192,20977,1,0,0:0:0:0:
182,192,21214,1,0,0:0:0:0:
36,192,21214,1,0,0:0:0:0:
475,192,21214,1,0,0:0:0:0:
329,192,21214,1,0,0:0:0:0:
109,192,21293,1,0,0:0:0:0:
402,192,21293,1,0,0:0:0:0:
36,192,21372,1,0,0:0:0:0:
182,192,21372,1,0,0:0:0:0:
329,192,21372,1,0,0:0:0:0:
475,192,21372,1,0,0:0:0:0:
182,192,21608,1,0,0:0:0:0:
329,192,21608,1,0,0:0:0:0:
402,192,21608,1,0,0:0:0:0:
475,192,21608,1,0,0:0:0:0:
36,192,21845,1,0,0:0:0:0:
402,192,21845,1,0,0:0:0:0:
475,192,21845,1,0,0:0:0:0:
182,192,21924,1,0,0:0:0:0:
329,192,21924,1,0,0:0:0:0:
109,192,21924,1,0,0:0:0:0:
402,192,22003,1,0,0:0:0:0:
475,192,22003,1,0,0:0:0:0:
36,192,22003,1,0,0:0:0:0:
182,192,22161,1,0,0:0:0:0:
109,192,22161,1,0,0:0:0:0:
329,192,22161,1,0,0:0:0:0:
182,192,22319,1,0,0:0:0:0:
256,192,22319,1,0,0:0:0:0:
402,192,22319,1,0,0:0:0:0:
475,192,22319,1,0,0:0:0:0:
36,192,22477,1,0,0:0:0:0:
329,192,22477,1,0,0:0:0:0:
109,192,22477,1,0,0:0:0:0:
182,192,22635,1,0,0:0:0:0:
256,192,22635,1,0,0:0:0:0:
402,192,22635,1,0,0:0:0:0:
475,192,22635,1,0,0:0:0:0:
109,192,22793,1,0,0:0:0:0:
36,192,22793,1,0,0:0:0:0:
256,192,22793,1,0,0:0:0:0:
329,192,22951,1,0,0:0:0:0:
36,192,22951,1,0,0:0:0:0:
109,192,22951,1,0,0:0:0:0:
402,192,23030,1,0,0:0:0:0:
475,192,23030,1,0,0:0:0:0:
182,192,23030,1,0,0:0:0:0:
109,192,23108,1,0,0:0:0:0:
36,192,23108,1,0,0:0:0:0:
329,192,23108,1,0,0:0:0:0:
402,192,23187,1,0,0:0:0:0:
475,192,23187,1,0,0:0:0:0:
182,192,23187,1,0,0:0:0:0:
329,192,23266,1,0,0:0:0:0:
109,192,23266,1,0,0:0:0:0:
36,192,23266,1,0,0:0:0:0:
36,192,28319,5,0,0:0:0:0:
256,192,28319,1,0,0:0:0:0:
36,192,29266,1,0,0:0:0:0:
402,192,29266,1,0,0:0:0:0:
329,192,29898,1,0,0:0:0:0:
402,192,30056,1,0,0:0:0:0:
475,192,30214,1,0,0:0:0:0:
329,192,30372,1,0,0:0:0:0:
109,192,30372,128,0,30451:0:0:0:0:
36,192,30530,128,0,30766:0:0:0:0:
256,192,30530,1,0,0:0:0:0:
36,192,30845,1,0,0:0:0:0:
329,192,30845,1,0,0:0:0:0:
256,192,31793,1,0,0:0:0:0:
36,192,31793,1,0,0:0:0:0:
256,192,32108,128,0,32187:0:0:0:0:
475,192,32108,128,0,32187:0:0:0:0:
256,192,32266,128,0,32345:0:0:0:0:
475,192,32266,128,0,32345:0:0:0:0:
475,192,32424,128,0,32740:0:0:0:0:
256,192,32424,128,0,32582:0:0:0:0:
329,192,32582,1,0,0:0:0:0:
256,192,32740,1,0,0:0:0:0:
182,192,32793,1,0,0:0:0:0:
109,192,32845,1,0,0:0:0:0:
36,192,32898,1,0,0:0:0:0:
475,192,32898,128,0,33056:0:0:0:0:
182,192,33056,128,0,33214:0:0:0:0:
475,192,33214,128,0,33372:0:0:0:0:
256,192,33372,1,0,0:0:0:0:
36,192,33372,1,0,0:0:0:0:
36,192,34319,1,0,0:0:0:0:
402,192,34319,1,0,0:0:0:0:
256,192,34951,1,0,0:0:0:0:
329,192,35108,1,0,0:0:0:0:
475,192,35266,1,0,0:0:0:0:
402,192,35424,1,0,0:0:0:0:
256,192,35582,1,0,0:0:0:0:
36,192,35582,128,0,35819:0:0:0:0:
475,192,35740,1,0,0:0:0:0:
36,192,35898,1,0,0:0:0:0:
329,192,35898,1,0,0:0:0:0:
36,192,36372,1,0,0:0:0:0:
256,192,36372,1,0,0:0:0:0:
182,192,36845,1,0,0:0:0:0:
36,192,36845,1,0,0:0:0:0:
109,192,37319,1,0,0:0:0:0:
36,192,37319,1,0,0:0:0:0:
256,192,37635,1,0,0:0:0:0:
329,192,37714,1,0,0:0:0:0:
402,192,37793,128,0,38108:0:0:0:0:
329,192,37951,128,0,38108:0:0:0:0:
36,192,38108,128,0,38187:0:0:0:0:
109,192,38108,128,0,38187:0:0:0:0:
256,192,38108,128,0,38187:0:0:0:0:
109,192,38266,128,0,38345:0:0:0:0:
182,192,38266,128,0,38345:0:0:0:0:
329,192,38266,128,0,38345:0:0:0:0:
182,192,38424,1,0,0:0:0:0:
256,192,38424,1,0,0:0:0:0:
475,192,38424,1,0,0:0:0:0:
402,192,38424,1,0,0:0:0:0:
256,192,38740,1,0,0:0:0:0:
402,192,38740,1,0,0:0:0:0:
475,192,38740,1,0,0:0:0:0:
402,192,39056,1,0,0:0:0:0:
475,192,39056,1,0,0:0:0:0:
256,192,39056,1,0,0:0:0:0:
109,192,39372,1,0,0:0:0:0:
256,192,39372,1,0,0:0:0:0:
402,192,39372,1,0,0:0:0:0:
475,192,39372,1,0,0:0:0:0:
256,192,39687,1,0,0:0:0:0:
402,192,39687,1,0,0:0:0:0:
475,192,39687,1,0,0:0:0:0:
256,192,40003,1,0,0:0:0:0:
402,192,40003,1,0,0:0:0:0:
475,192,40003,1,0,0:0:0:0:
36,192,40003,1,0,0:0:0:0:
109,192,40161,1,0,0:0:0:0:
256,192,40319,1,0,0:0:0:0:
402,192,40319,1,0,0:0:0:0:
475,192,40319,1,0,0:0:0:0:
182,192,40319,1,0,0:0:0:0:
109,192,40477,1,0,0:0:0:0:
36,192,40635,1,0,0:0:0:0:
256,192,40635,1,0,0:0:0:0:
402,192,40635,1,0,0:0:0:0:
475,192,40635,1,0,0:0:0:0:
256,192,40793,1,0,0:0:0:0:
402,192,40793,1,0,0:0:0:0:
475,192,40793,1,0,0:0:0:0:
256,192,40951,1,0,0:0:0:0:
475,192,40951,1,0,0:0:0:0:
402,192,40951,1,0,0:0:0:0:
109,192,40951,1,0,0:0:0:0:
256,192,41266,1,0,0:0:0:0:
402,192,41266,1,0,0:0:0:0:
475,192,41266,1,0,0:0:0:0:
256,192,41582,1,0,0:0:0:0:
402,192,41582,1,0,0:0:0:0:
475,192,41582,1,0,0:0:0:0:
256,192,41898,1,0,0:0:0:0:
402,192,41898,1,0,0:0:0:0:
475,192,41898,1,0,0:0:0:0:
36,192,41898,1,0,0:0:0:0:
402,192,42214,128,0,42293:0:0:0:0:
329,192,42214,128,0,42293:0:0:0:0:
36,192,42214,1,0,0:0:0:0:
329,192,42372,128,0,42451:0:0:0:0:
402,192,42372,128,0,42451:0:0:0:0:
329,192,42530,128,0,42687:0:0:0:0:
402,192,42530,128,0,42687:0:0:0:0:
36,192,42530,1,0,0:0:0:0:
475,192,42687,1,0,0:0:0:0:
402,192,42845,1,0,0:0:0:0:
36,192,42845,1,0,0:0:0:0:
329,192,42898,1,0,0:0:0:0:
256,192,42951,1,0,0:0:0:0:
182,192,43003,1,0,0:0:0:0:
36,192,43082,1,0,0:0:0:0:
36,192,43319,1,0,0:0:0:0:
182,192,43477,1,0,0:0:0:0:
329,192,43477,1,0,0:0:0:0:
475,192,43477,1,0,0:0:0:0:
329,192,43635,1,0,0:0:0:0:
475,192,43635,1,0,0:0:0:0:
182,192,43635,1,0,0:0:0:0:
109,192,43793,1,0,0:0:0:0:
36,192,43793,1,0,0:0:0:0:
402,192,43793,1,0,0:0:0:0:
36,192,43951,1,0,0:0:0:0:
109,192,43951,1,0,0:0:0:0:
402,192,43951,1,0,0:0:0:0:
329,192,44108,1,0,0:0:0:0:
475,192,44108,1,0,0:0:0:0:
256,192,44108,1,0,0:0:0:0:
256,192,44266,1,0,0:0:0:0:
329,192,44266,1,0,0:0:0:0:
475,192,44266,1,0,0:0:0:0:
36,192,44424,1,0,0:0:0:0:
402,192,44424,1,0,0:0:0:0:
182,192,44424,1,0,0:0:0:0:
182,192,44582,1,0,0:0:0:0:
36,192,44582,1,0,0:0:0:0:
402,192,44582,1,0,0:0:0:0:
256,192,44740,1,0,0:0:0:0:
475,192,44740,1,0,0:0:0:0:
36,192,44740,1,0,0:0:0:0:
329,192,44819,1,0,0:0:0:0:
109,192,44819,1,0,0:0:0:0:
182,192,44898,1,0,0:0:0:0:
475,192,44898,1,0,0:0:0:0:
256,192,44977,1,0,0:0:0:0:
402,192,44977,1,0,0:0:0:0:
329,192,45056,1,0,0:0:0:0:
109,192,45056,1,0,0:0:0:0:
36,192,45135,1,0,0:0:0:0:
256,192,45135,1,0,0:0:0:0:
182,192,45214,1,0,0:0:0:0:
402,192,45214,1,0,0:0:0:0:
109,192,45293,1,0,0:0:0:0:
329,192,45293,1,0,0:0:0:0:
256,192,45372,1,0,0:0:0:0:
36,192,45372,1,0,0:0:0:0:
109,192,45411,1,0,0:0:0:0:
182,192,45451,1,0,0:0:0:0:
329,192,45451,1,0,0:0:0:0:
402,192,45490,1,0,0:0:0:0:
475,192,45530,1,0,0:0:0:0:
36,192,45530,1,0,0:0:0:0:
109,192,45569,1,0,0:0:0:0:
182,192,45608,1,0,0:0:0:0:
329,192,45608,1,0,0:0:0:0:
402,192,45648,1,0,0:0:0:0:
475,192,45687,1,0,0:0:0:0:
36,192,45687,1,0,0:0:0:0:
256,192,45687,1,0,0:0:0:0:
109,192,45727,1,0,0:0:0:0:
182,192,45766,1,0,0:0:0:0:
329,192,45766,1,0,0:0:0:0:
402,192,45806,1,0,0:0:0:0:
475,192,45845,1,0,0:0:0:0:
36,192,45845,1,0,0:0:0:0:
256,192,45845,1,0,0:0:0:0:
109,192,45885,1,0,0:0:0:0:
182,192,45924,1,0,0:0:0:0:
329,192,45924,1,0,0:0:0:0:
402,192,45964,1,0,0:0:0:0:
475,192,46003,1,0,0:0:0:0:
256,192,46003,1,0,0:0:0:0:
36,192,46003,1,0,0:0:0:0:
109,192,47266,1,0,0:0:0:0:
36,192,47266,1,0,0:0:0:0:
182,192,47345,1,0,0:0:0:0:
256,192,47345,1,0,0:0:0:0:
329,192,47424,1,0,0:0:0:0:
475,192,47424,1,0,0:0:0:0:
256,192,47503,1,0,0:0:0:0:
402,192,47503,1,0,0:0:0:0:
475,192,47582,1,0,0:0:0:0:
329,192,47582,1,0,0:0:0:0:
256,192,47740,1,0,0:0:0:0:
36,192,47740,1,0,0:0:0:0:
109,192,47819,1,0,0:0:0:0:
329,192,47819,1,0,0:0:0:0:
402,192,47898,1,0,0:0:0:0:
475,192,47898,1,0,0:0:0:0:
329,192,47977,1,0,0:0:0:0:
256,192,47977,1,0,0:0:0:0:
182,192,48056,1,0,0:0:0:0:
109,192,48056,1,0,0:0:0:0:
36,192,48056,1,0,0:0:0:0:
36,192,48214,1,0,0:0:0:0:
256,192,48214,1,0,0:0:0:0:
402,192,48214,1,0,0:0:0:0:
475,192,48214,1,0,0:0:0:0:
329,192,48214,1,0,0:0:0:0:
36,192,48530,128,0,48924:0:0:0:0:
475,192,48530,128,0,48924:0:0:0:0:
256,192,48530,128,0,48687:0:0:0:0:
402,192,48530,128,0,48766:0:0:0:0:
182,192,48687,1,0,0:0:0:0:
109,192,48727,128,0,48924:0:0:0:0:
329,192,48766,1,0,0:0:0:0:
256,192,48806,128,0,48924:0:0:0:0:
109,192,49003,1,0,0:0:0:0:
36,192,49003,1,0,0:0:0:0:
256,192,49003,1,0,0:0:0:0:
475,192,49003,1,0,0:0:0:0:
182,192,49161,1,0,0:0:0:0:
329,192,49161,1,0,0:0:0:0:
475,192,49161,1,0,0:0:0:0:
402,192,49161,1,0,0:0:0:0:
36,192,49319,1,0,0:0:0:0:
256,192,49319,1,0,0:0:0:0:
109,192,49398,1,0,0:0:0:0:
329,192,49398,1,0,0:0:0:0:
36,192,49477,1,0,0:0:0:0:
256,192,49477,1,0,0:0:0:0:
475,192,49477,1,0,0:0:0:0:
402,192,49556,1,0,0:0:0:0:
329,192,49635,1,0,0:0:0:0:
182,192,49635,1,0,0:0:0:0:
109,192,49635,1,0,0:0:0:0:
36,192,49635,1,0,0:0:0:0:
182,192,49793,1,0,0:0:0:0:
329,192,49793,1,0,0:0:0:0:
475,192,49793,1,0,0:0:0:0:
109,192,49951,1,0,0:0:0:0:
36,192,49951,1,0,0:0:0:0:
256,192,49951,1,0,0:0:0:0:
475,192,49951,1,0,0:0:0:0:
182,192,50108,1,0,0:0:0:0:
329,192,50108,1,0,0:0:0:0:
402,192,50108,1,0,0:0:0:0:
402,192,50266,1,0,0:0:0:0:
329,192,50266,1,0,0:0:0:0:
182,192,50266,1,0,0:0:0:0:
36,192,50424,1,0,0:0:0:0:
256,192,50424,1,0,0:0:0:0:
475,192,50424,1,0,0:0:0:0:
402,192,50424,1,0,0:0:0:0:
182,192,50503,1,0,0:0:0:0:
329,192,50503,1,0,0:0:0:0:
256,192,50582,1,0,0:0:0:0:
109,192,50582,1,0,0:0:0:0:
36,192,50661,1,0,0:0:0:0:
182,192,50661,1,0,0:0:0:0:
402,192,50740,1,0,0:0:0:0:
475,192,50740,1,0,0:0:0:0:
329,192,50819,1,0,0:0:0:0:
256,192,50819,1,0,0:0:0:0:
182,192,50898,1,0,0:0:0:0:
109,192,50898,1,0,0:0:0:0:
329,192,50977,1,0,0:0:0:0:
402,192,50977,1,0,0:0:0:0:
256,192,51056,1,0,0:0:0:0:
109,192,51056,1,0,0:0:0:0:
36,192,51056,128,0,51214:0:0:0:0:
475,192,51056,128,0,51214:0:0:0:0:
182,192,51214,1,0,0:0:0:0:
329,192,51214,1,0,0:0:0:0:
475,192,51372,128,0,51451:0:0:0:0:
256,192,51372,1,0,0:0:0:0:
402,192,51372,1,0,0:0:0:0:
109,192,51372,128,0,51451:0:0:0:0:
475,192,51530,1,0,0:0:0:0:
36,192,51530,1,0,0:0:0:0:
109,192,51608,1,0,0:0:0:0:
402,192,51608,1,0,0:0:0:0:
182,192,51687,1,0,0:0:0:0:
329,192,51687,1,0,0:0:0:0:
109,192,51766,1,0,0:0:0:0:
402,192,51766,1,0,0:0:0:0:
182,192,51845,1,0,0:0:0:0:
329,192,51845,1,0,0:0:0:0:
109,192,51924,1,0,0:0:0:0:
402,192,51924,1,0,0:0:0:0:
182,192,52003,128,0,52082:0:0:0:0:
329,192,52003,128,0,52082:0:0:0:0:
475,192,52003,128,0,52082:0:0:0:0:
475,192,52161,1,0,0:0:0:0:
182,192,52161,1,0,0:0:0:0:
329,192,52161,1,0,0:0:0:0:
109,192,52240,1,0,0:0:0:0:
36,192,52240,1,0,0:0:0:0:
256,192,52319,1,0,0:0:0:0:
402,192,52319,1,0,0:0:0:0:
475,192,52319,1,0,0:0:0:0:
109,192,52398,1,0,0:0:0:0:
36,192,52398,1,0,0:0:0:0:
182,192,52477,128,0,52556:0:0:0:0:
329,192,52477,128,0,52556:0:0:0:0:
475,192,52477,128,0,52556:0:0:0:0:
256,192,52635,1,0,0:0:0:0:
109,192,52635,1,0,0:0:0:0:
36,192,52635,1,0,0:0:0:0:
402,192,52714,1,0,0:0:0:0:
475,192,52714,1,0,0:0:0:0:
329,192,52793,1,0,0:0:0:0:
182,192,52793,1,0,0:0:0:0:
36,192,52793,1,0,0:0:0:0:
109,192,52872,1,0,0:0:0:0:
256,192,52872,1,0,0:0:0:0:
402,192,52872,1,0,0:0:0:0:
182,192,52951,128,0,53266:0:0:0:0:
329,192,52951,128,0,53108:0:0:0:0:
475,192,52951,128,0,53266:0:0:0:0:
256,192,53108,128,0,53266:0:0:0:0:
36,192,53266,1,0,0:0:0:0:
109,192,53345,1,0,0:0:0:0:
36,192,53424,1,0,0:0:0:0:
109,192,53503,1,0,0:0:0:0:
36,192,53582,128,0,53977:0:0:0:0:
256,192,53582,128,0,53740:0:0:0:0:
475,192,53582,128,0,53977:0:0:0:0:
402,192,53582,128,0,53819:0:0:0:0:
182,192,53740,1,0,0:0:0:0:
109,192,53780,128,0,53977:0:0:0:0:
329,192,53819,1,0,0:0:0:0:
256,192,53858,128,0,53977:0:0:0:0:
109,192,54056,1,0,0:0:0:0:
36,192,54056,1,0,0:0:0:0:
256,192,54056,1,0,0:0:0:0:
475,192,54056,1,0,0:0:0:0:
182,192,54214,1,0,0:0:0:0:
329,192,54214,1,0,0:0:0:0:
475,192,54214,1,0,0:0:0:0:
402,192,54214,1,0,0:0:0:0:
36,192,54372,1,0,0:0:0:0:
256,192,54372,1,0,0:0:0:0:
109,192,54451,1,0,0:0:0:0:
329,192,54451,1,0,0:0:0:0:
36,192,54530,1,0,0:0:0:0:
256,192,54530,1,0,0:0:0:0:
475,192,54530,1,0,0:0:0:0:
402,192,54608,1,0,0:0:0:0:
329,192,54687,1,0,0:0:0:0:
182,192,54687,1,0,0:0:0:0:
109,192,54687,1,0,0:0:0:0:
36,192,54687,1,0,0:0:0:0:
182,192,54845,1,0,0:0:0:0:
329,192,54845,1,0,0:0:0:0:
475,192,54845,1,0,0:0:0:0:
109,192,55003,1,0,0:0:0:0:
36,192,55003,1,0,0:0:0:0:
256,192,55003,1,0,0:0:0:0:
475,192,55003,1,0,0:0:0:0:
182,192,55161,1,0,0:0:0:0:
329,192,55161,1,0,0:0:0:0:
402,192,55161,1,0,0:0:0:0:
402,192,55319,1,0,0:0:0:0:
329,192,55319,1,0,0:0:0:0:
182,192,55319,1,0,0:0:0:0:
36,192,55477,1,0,0:0:0:0:
475,192,55477,1,0,0:0:0:0:
256,192,55477,1,0,0:0:0:0:
109,192,55477,1,0,0:0:0:0:
329,192,55556,1,0,0:0:0:0:
182,192,55556,1,0,0:0:0:0:
256,192,55635,1,0,0:0:0:0:
402,192,55635,1,0,0:0:0:0:
329,192,55714,1,0,0:0:0:0:
475,192,55714,1,0,0:0:0:0:
109,192,55793,1,0,0:0:0:0:
36,192,55793,1,0,0:0:0:0:
256,192,55872,1,0,0:0:0:0:
182,192,55872,1,0,0:0:0:0:
402,192,55951,1,0,0:0:0:0:
329,192,55951,1,0,0:0:0:0:
109,192,56030,1,0,0:0:0:0:
182,192,56030,1,0,0:0:0:0:
402,192,56108,128,0,56345:0:0:0:0:
475,192,56108,128,0,56345:0:0:0:0:
36,192,56108,1,0,0:0:0:0:
329,192,56108,1,0,0:0:0:0:
182,192,56266,128,0,56345:0:0:0:0:
402,192,56424,128,0,56661:0:0:0:0:
475,192,56424,128,0,56661:0:0:0:0:
36,192,56424,1,0,0:0:0:0:
109,192,56424,1,0,0:0:0:0:
182,192,56582,128,0,56661:0:0:0:0:
402,192,56740,128,0,56977:0:0:0:0:
329,192,56740,128,0,56977:0:0:0:0:
109,192,56740,1,0,0:0:0:0:
36,192,56740,1,0,0:0:0:0:
109,192,56898,128,0,56977:0:0:0:0:
329,192,57056,128,0,57293:0:0:0:0:
402,192,57056,128,0,57293:0:0:0:0:
182,192,57056,1,0,0:0:0:0:
36,192,57056,1,0,0:0:0:0:
182,192,57214,128,0,57293:0:0:0:0:
36,192,57372,1,0,0:0:0:0:
256,192,57372,1,0,0:0:0:0:
402,192,57372,128,0,57608:0:0:0:0:
475,192,57372,128,0,57608:0:0:0:0:
182,192,57530,128,0,57608:0:0:0:0:
36,192,57687,1,0,0:0:0:0:
402,192,57687,128,0,57924:0:0:0:0:
475,192,57687,128,0,57924:0:0:0:0:
182,192,57845,128,0,57924:0:0:0:0:
402,192,58003,1,0,0:0:0:0:
475,192,58003,1,0,0:0:0:0:
329,192,58082,1,0,0:0:0:0:
256,192,58082,1,0,0:0:0:0:
402,192,58161,1,0,0:0:0:0:
475,192,58161,1,0,0:0:0:0:
329,192,58240,1,0,0:0:0:0:
256,192,58240,1,0,0:0:0:0:
36,192,58319,1,0,0:0:0:0:
109,192,58319,1,0,0:0:0:0:
182,192,58398,1,0,0:0:0:0:
109,192,58477,1,0,0:0:0:0:
36,192,58477,1,0,0:0:0:0:
182,192,58556,1,0,0:0:0:0:
36,192,58635,128,0,59030:0:0:0:0:
475,192,58635,128,0,59030:0:0:0:0:
256,192,58635,128,0,58793:0:0:0:0:
109,192,58635,128,0,58872:0:0:0:0:
329,192,58793,1,0,0:0:0:0:
402,192,58832,128,0,59030:0:0:0:0:
182,192,58872,1,0,0:0:0:0:
256,192,58911,128,0,59030:0:0:0:0:
256,192,59108,1,0,0:0:0:0:
402,192,59108,1,0,0:0:0:0:
475,192,59108,1,0,0:0:0:0:
36,192,59108,1,0,0:0:0:0:
182,192,59266,1,0,0:0:0:0:
329,192,59266,1,0,0:0:0:0:
475,192,59266,1,0,0:0:0:0:
402,192,59266,1,0,0:0:0:0:
36,192,59424,1,0,0:0:0:0:
109,192,59424,1,0,0:0:0:0:
182,192,59503,1,0,0:0:0:0:
329,192,59503,1,0,0:0:0:0:
36,192,59582,1,0,0:0:0:0:
109,192,59582,1,0,0:0:0:0:
475,192,59582,1,0,0:0:0:0:
402,192,59661,1,0,0:0:0:0:
329,192,59740,1,0,0:0:0:0:
109,192,59740,1,0,0:0:0:0:
256,192,59740,1,0,0:0:0:0:
36,192,59740,1,0,0:0:0:0:
182,192,59898,1,0,0:0:0:0:
329,192,59898,1,0,0:0:0:0:
475,192,59898,1,0,0:0:0:0:
109,192,60056,1,0,0:0:0:0:
36,192,60056,1,0,0:0:0:0:
256,192,60056,1,0,0:0:0:0:
475,192,60056,1,0,0:0:0:0:
182,192,60214,1,0,0:0:0:0:
329,192,60214,1,0,0:0:0:0:
402,192,60214,1,0,0:0:0:0:
402,192,60372,1,0,0:0:0:0:
329,192,60372,1,0,0:0:0:0:
182,192,60372,1,0,0:0:0:0:
36,192,60530,1,0,0:0:0:0:
256,192,60530,1,0,0:0:0:0:
475,192,60530,1,0,0:0:0:0:
402,192,60530,1,0,0:0:0:0:
109,192,60608,1,0,0:0:0:0:
329,192,60608,1,0,0:0:0:0:
402,192,60687,1,0,0:0:0:0:
182,192,60687,1,0,0:0:0:0:
256,192,60766,1,0,0:0:0:0:
475,192,60766,1,0,0:0:0:0:
109,192,60845,1,0,0:0:0:0:
36,192,60845,1,0,0:0:0:0:
182,192,60924,1,0,0:0:0:0:
256,192,60924,1,0,0:0:0:0:
329,192,61003,1,0,0:0:0:0:
402,192,61003,1,0,0:0:0:0:
182,192,61082,1,0,0:0:0:0:
109,192,61082,1,0,0:0:0:0:
36,192,61161,128,0,61319:0:0:0:0:
256,192,61161,128,0,61635:0:0:0:0:
475,192,61161,128,0,61477:0:0:0:0:
109,192,61319,1,0,0:0:0:0:
182,192,61358,128,0,61635:0:0:0:0:
329,192,61398,1,0,0:0:0:0:
402,192,61477,1,0,0:0:0:0:
329,192,61516,128,0,61635:0:0:0:0:
109,192,61556,1,0,0:0:0:0:
36,192,61635,1,0,0:0:0:0:
475,192,61635,1,0,0:0:0:0:
182,192,61714,1,0,0:0:0:0:
329,192,61714,1,0,0:0:0:0:
36,192,61793,1,0,0:0:0:0:
475,192,61793,1,0,0:0:0:0:
402,192,61872,1,0,0:0:0:0:
109,192,61872,1,0,0:0:0:0:
329,192,61951,1,0,0:0:0:0:
182,192,61951,1,0,0:0:0:0:
402,192,62030,1,0,0:0:0:0:
109,192,62030,1,0,0:0:0:0:
475,192,62108,128,0,62187:0:0:0:0:
36,192,62108,128,0,62187:0:0:0:0:
329,192,62108,128,0,62187:0:0:0:0:
475,192,62266,1,0,0:0:0:0:
256,192,62266,1,0,0:0:0:0:
329,192,62266,1,0,0:0:0:0:
182,192,62345,1,0,0:0:0:0:
109,192,62345,1,0,0:0:0:0:
256,192,62424,1,0,0:0:0:0:
402,192,62424,1,0,0:0:0:0:
475,192,62424,1,0,0:0:0:0:
182,192,62503,1,0,0:0:0:0:
109,192,62503,1,0,0:0:0:0:
475,192,62582,128,0,62661:0:0:0:0:
36,192,62582,128,0,62661:0:0:0:0:
256,192,62582,128,0,62661:0:0:0:0:
402,192,62740,1,0,0:0:0:0:
109,192,62740,1,0,0:0:0:0:
36,192,62740,1,0,0:0:0:0:
182,192,62819,1,0,0:0:0:0:
329,192,62819,1,0,0:0:0:0:
36,192,62898,1,0,0:0:0:0:
256,192,62898,1,0,0:0:0:0:
475,192,62898,1,0,0:0:0:0:
402,192,62977,1,0,0:0:0:0:
329,192,62977,1,0,0:0:0:0:
109,192,62977,1,0,0:0:0:0:
36,192,63056,128,0,63372:0:0:0:0:
475,192,63056,128,0,63372:0:0:0:0:
182,192,63056,128,0,63372:0:0:0:0:
329,192,63214,128,0,63372:0:0:0:0:
256,192,63214,128,0,63372:0:0:0:0:
402,192,63214,128,0,63372:0:0:0:0:
36,192,63687,128,0,64082:0:0:0:0:
475,192,63687,128,0,64082:0:0:0:0:
256,192,63687,128,0,63845:0:0:0:0:
109,192,63687,128,0,63924:0:0:0:0:
329,192,63845,1,0,0:0:0:0:
402,192,63885,128,0,64082:0:0:0:0:
182,192,63924,1,0,0:0:0:0:
256,192,63964,128,0,64082:0:0:0:0:
256,192,64161,1,0,0:0:0:0:
402,192,64161,1,0,0:0:0:0:
475,192,64161,1,0,0:0:0:0:
36,192,64161,1,0,0:0:0:0:
182,192,64319,1,0,0:0:0:0:
329,192,64319,1,0,0:0:0:0:
475,192,64319,1,0,0:0:0:0:
402,192,64319,1,0,0:0:0:0:
36,192,64477,1,0,0:0:0:0:
109,192,64477,1,0,0:0:0:0:
182,192,64556,1,0,0:0:0:0:
329,192,64556,1,0,0:0:0:0:
36,192,64635,1,0,0:0:0:0:
109,192,64635,1,0,0:0:0:0:
475,192,64635,1,0,0:0:0:0:
402,192,64714,1,0,0:0:0:0:
329,192,64793,1,0,0:0:0:0:
109,192,64793,1,0,0:0:0:0:
256,192,64793,1,0,0:0:0:0:
36,192,64793,1,0,0:0:0:0:
182,192,64951,1,0,0:0:0:0:
329,192,64951,1,0,0:0:0:0:
475,192,64951,1,0,0:0:0:0:
109,192,65108,1,0,0:0:0:0:
36,192,65108,1,0,0:0:0:0:
256,192,65108,1,0,0:0:0:0:
475,192,65108,1,0,0:0:0:0:
182,192,65266,1,0,0:0:0:0:
329,192,65266,1,0,0:0:0:0:
402,192,65266,1,0,0:0:0:0:
402,192,65424,1,0,0:0:0:0:
329,192,65424,1,0,0:0:0:0:
182,192,65424,1,0,0:0:0:0:
36,192,65582,1,0,0:0:0:0:
475,192,65582,1,0,0:0:0:0:
182,192,65661,1,0,0:0:0:0:
329,192,65661,1,0,0:0:0:0:
36,192,65740,1,0,0:0:0:0:
475,192,65740,1,0,0:0:0:0:
182,192,65819,1,0,0:0:0:0:
329,192,65819,1,0,0:0:0:0:
36,192,65898,1,0,0:0:0:0:
475,192,65898,128,0,66135:0:0:0:0:
329,192,65977,128,0,66135:0:0:0:0:
182,192,66056,128,0,66135:0:0:0:0:
36,192,66135,1,0,0:0:0:0:
109,192,66214,1,0,0:0:0:0:
256,192,66214,1,0,0:0:0:0:
402,192,66214,1,0,0:0:0:0:
475,192,66214,1,0,0:0:0:0:
182,192,66293,1,0,0:0:0:0:
109,192,66372,1,0,0:0:0:0:
256,192,66451,1,0,0:0:0:0:
402,192,66451,1,0,0:0:0:0:
475,192,66451,1,0,0:0:0:0:
36,192,66530,1,0,0:0:0:0:
182,192,66608,1,0,0:0:0:0:
329,192,66608,1,0,0:0:0:0:
402,192,66608,1,0,0:0:0:0:
475,192,66608,1,0,0:0:0:0:
256,192,66687,1,0,0:0:0:0:
109,192,66687,1,0,0:0:0:0:
36,192,66687,1,0,0:0:0:0:
182,192,66766,1,0,0:0:0:0:
475,192,66845,1,0,0:0:0:0:
329,192,66924,1,0,0:0:0:0:
36,192,66924,1,0,0:0:0:0:
109,192,66924,1,0,0:0:0:0:
182,192,67003,1,0,0:0:0:0:
402,192,67003,1,0,0:0:0:0:
475,192,67003,1,0,0:0:0:0:
109,192,67082,1,0,0:0:0:0:
36,192,67161,1,0,0:0:0:0:
256,192,67161,1,0,0:0:0:0:
402,192,67161,1,0,0:0:0:0:
475,192,67161,1,0,0:0:0:0:
329,192,67240,1,0,0:0:0:0:
402,192,67319,1,0,0:0:0:0:
109,192,67319,1,0,0:0:0:0:
182,192,67319,1,0,0:0:0:0:
256,192,67398,1,0,0:0:0:0:
329,192,67477,1,0,0:0:0:0:
475,192,67477,1,0,0:0:0:0:
36,192,67477,1,0,0:0:0:0:
109,192,67477,1,0,0:0:0:0:
182,192,67556,1,0,0:0:0:0:
36,192,67635,1,0,0:0:0:0:
475,192,67714,1,0,0:0:0:0:
256,192,67714,1,0,0:0:0:0:
109,192,67714,1,0,0:0:0:0:
329,192,67793,1,0,0:0:0:0:
475,192,67872,1,0,0:0:0:0:
182,192,67872,1,0,0:0:0:0:
36,192,67872,1,0,0:0:0:0:
402,192,67872,1,0,0:0:0:0:
109,192,67951,1,0,0:0:0:0:
256,192,67951,1,0,0:0:0:0:
329,192,67951,1,0,0:0:0:0:
402,192,68030,128,0,68266:0:0:0:0:
475,192,68030,128,0,68266:0:0:0:0:
182,192,68108,1,0,0:0:0:0:
109,192,68108,1,0,0:0:0:0:
36,192,68108,1,0,0:0:0:0:
329,192,68108,1,0,0:0:0:0:
109,192,68266,128,0,68424:0:0:0:0:
182,192,68266,128,0,68424:0:0:0:0:
402,192,68424,128,0,68582:0:0:0:0:
475,192,68424,128,0,68582:0:0:0:0:
182,192,68582,128,0,68740:0:0:0:0:
109,192,68582,128,0,68740:0:0:0:0:
36,192,68740,128,0,69135:0:0:0:0:
329,192,68740,128,0,68898:0:0:0:0:
475,192,68740,128,0,69135:0:0:0:0:
402,192,68740,128,0,68977:0:0:0:0:
256,192,68898,1,0,0:0:0:0:
182,192,68937,128,0,69135:0:0:0:0:
329,192,68977,1,0,0:0:0:0:
256,192,69016,128,0,69135:0:0:0:0:
36,192,69214,1,0,0:0:0:0:
182,192,69214,1,0,0:0:0:0:
402,192,69214,1,0,0:0:0:0:
475,192,69214,1,0,0:0:0:0:
109,192,69372,1,0,0:0:0:0:
36,192,69372,1,0,0:0:0:0:
329,192,69372,1,0,0:0:0:0:
402,192,69372,1,0,0:0:0:0:
182,192,69530,1,0,0:0:0:0:
475,192,69530,1,0,0:0:0:0:
256,192,69608,1,0,0:0:0:0:
402,192,69608,1,0,0:0:0:0:
182,192,69687,1,0,0:0:0:0:
475,192,69687,1,0,0:0:0:0:
36,192,69687,1,0,0:0:0:0:
329,192,69766,1,0,0:0:0:0:
402,192,69845,1,0,0:0:0:0:
256,192,69845,1,0,0:0:0:0:
109,192,69845,1,0,0:0:0:0:
36,192,69845,1,0,0:0:0:0:
182,192,70003,1,0,0:0:0:0:
329,192,70003,1,0,0:0:0:0:
475,192,70003,1,0,0:0:0:0:
402,192,70161,1,0,0:0:0:0:
256,192,70161,1,0,0:0:0:0:
109,192,70161,1,0,0:0:0:0:
36,192,70161,1,0,0:0:0:0:
329,192,70319,1,0,0:0:0:0:
109,192,70319,1,0,0:0:0:0:
182,192,70319,1,0,0:0:0:0:
109,192,70477,1,0,0:0:0:0:
182,192,70477,1,0,0:0:0:0:
329,192,70477,1,0,0:0:0:0:
36,192,70635,1,0,0:0:0:0:
256,192,70635,1,0,0:0:0:0:
402,192,70635,1,0,0:0:0:0:
475,192,70635,1,0,0:0:0:0:
109,192,70714,1,0,0:0:0:0:
329,192,70714,1,0,0:0:0:0:
182,192,70793,1,0,0:0:0:0:
475,192,70793,1,0,0:0:0:0:
109,192,70872,1,0,0:0:0:0:
329,192,70872,1,0,0:0:0:0:
36,192,70951,1,0,0:0:0:0:
475,192,70951,1,0,0:0:0:0:
402,192,71030,1,0,0:0:0:0:
182,192,71030,1,0,0:0:0:0:
36,192,71108,1,0,0:0:0:0:
329,192,71108,1,0,0:0:0:0:
182,192,71187,1,0,0:0:0:0:
402,192,71187,1,0,0:0:0:0:
256,192,71266,1,0,0:0:0:0:
36,192,71266,128,0,71424:0:0:0:0:
109,192,71266,1,0,0:0:0:0:
475,192,71266,128,0,71424:0:0:0:0:
182,192,71424,1,0,0:0:0:0:
329,192,71424,1,0,0:0:0:0:
109,192,71582,128,0,71661:0:0:0:0:
475,192,71582,128,0,71661:0:0:0:0:
256,192,71582,1,0,0:0:0:0:
402,192,71582,1,0,0:0:0:0:
182,192,71740,1,0,0:0:0:0:
329,192,71740,1,0,0:0:0:0:
109,192,71819,1,0,0:0:0:0:
402,192,71819,1,0,0:0:0:0:
36,192,71898,1,0,0:0:0:0:
475,192,71898,1,0,0:0:0:0:
182,192,71977,1,0,0:0:0:0:
329,192,71977,1,0,0:0:0:0:
36,192,72056,1,0,0:0:0:0:
475,192,72056,1,0,0:0:0:0:
182,192,72135,1,0,0:0:0:0:
329,192,72135,1,0,0:0:0:0:
402,192,72214,128,0,72293:0:0:0:0:
475,192,72214,128,0,72293:0:0:0:0:
36,192,72214,128,0,72293:0:0:0:0:
109,192,72372,1,0,0:0:0:0:
36,192,72372,1,0,0:0:0:0:
256,192,72372,1,0,0:0:0:0:
475,192,72372,1,0,0:0:0:0:
182,192,72451,1,0,0:0:0:0:
329,192,72451,1,0,0:0:0:0:
109,192,72530,1,0,0:0:0:0:
402,192,72530,1,0,0:0:0:0:
329,192,72608,1,0,0:0:0:0:
182,192,72608,1,0,0:0:0:0:
109,192,72687,128,0,72766:0:0:0:0:
36,192,72687,128,0,72766:0:0:0:0:
475,192,72687,128,0,72766:0:0:0:0:
182,192,72845,1,0,0:0:0:0:
402,192,72845,1,0,0:0:0:0:
36,192,72845,1,0,0:0:0:0:
475,192,72845,1,0,0:0:0:0:
109,192,72924,1,0,0:0:0:0:
329,192,72924,1,0,0:0:0:0:
182,192,73003,1,0,0:0:0:0:
402,192,73003,1,0,0:0:0:0:
109,192,73082,1,0,0:0:0:0:
329,192,73082,1,0,0:0:0:0:
36,192,73161,128,0,73240:0:0:0:0:
402,192,73161,128,0,73240:0:0:0:0:
475,192,73161,128,0,73240:0:0:0:0:
36,192,73319,1,0,0:0:0:0:
182,192,73319,1,0,0:0:0:0:
256,192,73319,1,0,0:0:0:0:
475,192,73319,1,0,0:0:0:0:
182,192,73477,1,0,0:0:0:0:
329,192,73556,1,0,0:0:0:0:
182,192,73635,1,0,0:0:0:0:
329,192,73714,1,0,0:0:0:0:
475,192,73793,128,0,74187:0:0:0:0:
182,192,73793,128,0,73951:0:0:0:0:
109,192,73793,128,0,74030:0:0:0:0:
36,192,73793,128,0,74187:0:0:0:0:
256,192,73951,1,0,0:0:0:0:
329,192,73990,128,0,74187:0:0:0:0:
182,192,74030,1,0,0:0:0:0:
256,192,74069,128,0,74187:0:0:0:0:
329,192,74266,1,0,0:0:0:0:
475,192,74266,1,0,0:0:0:0:
109,192,74266,1,0,0:0:0:0:
36,192,74266,1,0,0:0:0:0:
109,192,74424,1,0,0:0:0:0:
182,192,74424,1,0,0:0:0:0:
402,192,74424,1,0,0:0:0:0:
475,192,74424,1,0,0:0:0:0:
36,192,74582,1,0,0:0:0:0:
329,192,74582,1,0,0:0:0:0:
109,192,74661,1,0,0:0:0:0:
256,192,74661,1,0,0:0:0:0:
36,192,74740,1,0,0:0:0:0:
329,192,74740,1,0,0:0:0:0:
475,192,74740,1,0,0:0:0:0:
182,192,74819,1,0,0:0:0:0:
109,192,74898,1,0,0:0:0:0:
256,192,74898,1,0,0:0:0:0:
402,192,74898,1,0,0:0:0:0:
475,192,74898,1,0,0:0:0:0:
36,192,75056,1,0,0:0:0:0:
182,192,75056,1,0,0:0:0:0:
329,192,75056,1,0,0:0:0:0:
109,192,75214,1,0,0:0:0:0:
256,192,75214,1,0,0:0:0:0:
402,192,75214,1,0,0:0:0:0:
475,192,75214,1,0,0:0:0:0:
182,192,75372,1,0,0:0:0:0:
329,192,75372,1,0,0:0:0:0:
402,192,75372,1,0,0:0:0:0:
329,192,75530,1,0,0:0:0:0:
402,192,75530,1,0,0:0:0:0:
182,192,75530,1,0,0:0:0:0:
109,192,75687,1,0,0:0:0:0:
36,192,75687,1,0,0:0:0:0:
256,192,75687,1,0,0:0:0:0:
475,192,75687,1,0,0:0:0:0:
402,192,75766,1,0,0:0:0:0:
182,192,75766,1,0,0:0:0:0:
36,192,75845,1,0,0:0:0:0:
329,192,75845,1,0,0:0:0:0:
402,192,75924,1,0,0:0:0:0:
182,192,75924,1,0,0:0:0:0:
475,192,76003,1,0,0:0:0:0:
36,192,76003,1,0,0:0:0:0:
109,192,76082,1,0,0:0:0:0:
329,192,76082,1,0,0:0:0:0:
182,192,76161,1,0,0:0:0:0:
475,192,76161,1,0,0:0:0:0:
109,192,76240,1,0,0:0:0:0:
329,192,76240,1,0,0:0:0:0:
402,192,76319,128,0,76556:0:0:0:0:
475,192,76319,128,0,76556:0:0:0:0:
36,192,76319,1,0,0:0:0:0:
256,192,76319,1,0,0:0:0:0:
109,192,76477,1,0,0:0:0:0:
182,192,76477,1,0,0:0:0:0:
402,192,76635,128,0,76872:0:0:0:0:
475,192,76635,128,0,76872:0:0:0:0:
36,192,76635,1,0,0:0:0:0:
256,192,76635,1,0,0:0:0:0:
182,192,76793,128,0,76872:0:0:0:0:
402,192,76951,128,0,77187:0:0:0:0:
329,192,76951,128,0,77187:0:0:0:0:
109,192,76951,1,0,0:0:0:0:
36,192,76951,1,0,0:0:0:0:
109,192,77108,128,0,77187:0:0:0:0:
329,192,77266,128,0,77503:0:0:0:0:
402,192,77266,128,0,77503:0:0:0:0:
182,192,77266,1,0,0:0:0:0:
36,192,77266,1,0,0:0:0:0:
109,192,77424,1,0,0:0:0:0:
256,192,77424,1,0,0:0:0:0:
36,192,77582,1,0,0:0:0:0:
402,192,77582,128,0,77819:0:0:0:0:
475,192,77582,128,0,77819:0:0:0:0:
182,192,77582,1,0,0:0:0:0:
329,192,77740,128,0,77819:0:0:0:0:
36,192,77898,1,0,0:0:0:0:
402,192,77898,128,0,78135:0:0:0:0:
475,192,77898,128,0,78135:0:0:0:0:
182,192,78056,128,0,78135:0:0:0:0:
402,192,78214,1,0,0:0:0:0:
475,192,78214,1,0,0:0:0:0:
329,192,78293,1,0,0:0:0:0:
256,192,78293,1,0,0:0:0:0:
402,192,78372,1,0,0:0:0:0:
475,192,78372,1,0,0:0:0:0:
329,192,78451,1,0,0:0:0:0:
256,192,78451,1,0,0:0:0:0:
36,192,78530,1,0,0:0:0:0:
109,192,78530,1,0,0:0:0:0:
182,192,78608,1,0,0:0:0:0:
109,192,78687,1,0,0:0:0:0:
36,192,78687,1,0,0:0:0:0:
182,192,78766,1,0,0:0:0:0:
36,192,78845,128,0,79240:0:0:0:0:
475,192,78845,128,0,79240:0:0:0:0:
256,192,78845,128,0,79003:0:0:0:0:
109,192,78845,128,0,79082:0:0:0:0:
329,192,79003,1,0,0:0:0:0:
402,192,79043,128,0,79240:0:0:0:0:
182,192,79082,1,0,0:0:0:0:
256,192,79122,128,0,79240:0:0:0:0:
256,192,79319,1,0,0:0:0:0:
402,192,79319,1,0,0:0:0:0:
475,192,79319,1,0,0:0:0:0:
36,192,79319,1,0,0:0:0:0:
182,192,79477,1,0,0:0:0:0:
329,192,79477,1,0,0:0:0:0:
475,192,79477,1,0,0:0:0:0:
402,192,79477,1,0,0:0:0:0:
36,192,79635,1,0,0:0:0:0:
109,192,79635,1,0,0:0:0:0:
182,192,79714,1,0,0:0:0:0:
329,192,79714,1,0,0:0:0:0:
36,192,79793,1,0,0:0:0:0:
109,192,79793,1,0,0:0:0:0:
475,192,79793,1,0,0:0:0:0:
402,192,79872,1,0,0:0:0:0:
329,192,79951,1,0,0:0:0:0:
109,192,79951,1,0,0:0:0:0:
256,192,79951,1,0,0:0:0:0:
36,192,79951,1,0,0:0:0:0:
182,192,80108,1,0,0:0:0:0:
329,192,80108,1,0,0:0:0:0:
475,192,80108,1,0,0:0:0:0:
109,192,80266,1,0,0:0:0:0:
36,192,80266,1,0,0:0:0:0:
256,192,80266,1,0,0:0:0:0:
475,192,80266,1,0,0:0:0:0:
182,192,80424,1,0,0:0:0:0:
329,192,80424,1,0,0:0:0:0:
402,192,80424,1,0,0:0:0:0:
402,192,80582,1,0,0:0:0:0:
329,192,80582,1,0,0:0:0:0:
182,192,80582,1,0,0:0:0:0:
36,192,80740,1,0,0:0:0:0:
256,192,80740,1,0,0:0:0:0:
475,192,80740,1,0,0:0:0:0:
402,192,80740,1,0,0:0:0:0:
109,192,80819,1,0,0:0:0:0:
329,192,80819,1,0,0:0:0:0:
402,192,80898,1,0,0:0:0:0:
182,192,80898,1,0,0:0:0:0:
256,192,80977,1,0,0:0:0:0:
475,192,80977,1,0,0:0:0:0:
109,192,81056,1,0,0:0:0:0:
36,192,81056,1,0,0:0:0:0:
182,192,81135,1,0,0:0:0:0:
256,192,81135,1,0,0:0:0:0:
329,192,81214,1,0,0:0:0:0:
402,192,81214,1,0,0:0:0:0:
182,192,81293,1,0,0:0:0:0:
109,192,81293,1,0,0:0:0:0:
475,192,81372,1,0,0:0:0:0:
36,192,81372,1,0,0:0:0:0:
402,192,81424,1,0,0:0:0:0:
329,192,81477,1,0,0:0:0:0:
256,192,81530,1,0,0:0:0:0:
182,192,81582,1,0,0:0:0:0:
109,192,81635,1,0,0:0:0:0:
36,192,81687,1,0,0:0:0:0:
475,192,81740,1,0,0:0:0:0:
402,192,81793,1,0,0:0:0:0:
329,192,81845,1,0,0:0:0:0:
256,192,81898,1,0,0:0:0:0:
182,192,81951,1,0,0:0:0:0:
402,192,82003,1,0,0:0:0:0:
475,192,82003,1,0,0:0:0:0:
109,192,82003,1,0,0:0:0:0:
36,192,82003,1,0,0:0:0:0:
256,192,82082,1,0,0:0:0:0:
182,192,82082,1,0,0:0:0:0:
402,192,82161,1,0,0:0:0:0:
329,192,82161,1,0,0:0:0:0:
256,192,82240,1,0,0:0:0:0:
182,192,82240,1,0,0:0:0:0:
475,192,82319,128,0,82398:0:0:0:0:
402,192,82319,128,0,82398:0:0:0:0:
329,192,82319,128,0,82398:0:0:0:0:
109,192,82477,1,0,0:0:0:0:
36,192,82477,1,0,0:0:0:0:
402,192,82477,1,0,0:0:0:0:
475,192,82477,1,0,0:0:0:0:
329,192,82556,1,0,0:0:0:0:
256,192,82556,1,0,0:0:0:0:
182,192,82635,1,0,0:0:0:0:
109,192,82635,1,0,0:0:0:0:
475,192,82714,1,0,0:0:0:0:
402,192,82714,1,0,0:0:0:0:
329,192,82793,128,0,82872:0:0:0:0:
256,192,82793,128,0,82872:0:0:0:0:
182,192,82793,128,0,82872:0:0:0:0:
402,192,82951,1,0,0:0:0:0:
475,192,82951,1,0,0:0:0:0:
109,192,82951,1,0,0:0:0:0:
36,192,82951,1,0,0:0:0:0:
256,192,83030,1,0,0:0:0:0:
182,192,83030,1,0,0:0:0:0:
402,192,83108,1,0,0:0:0:0:
475,192,83108,1,0,0:0:0:0:
256,192,83187,1,0,0:0:0:0:
329,192,83187,1,0,0:0:0:0:
182,192,83266,128,0,83345:0:0:0:0:
109,192,83266,128,0,83345:0:0:0:0:
36,192,83266,128,0,83345:0:0:0:0:
36,192,83424,1,0,0:0:0:0:
109,192,83424,1,0,0:0:0:0:
475,192,83424,1,0,0:0:0:0:
402,192,83424,1,0,0:0:0:0:
182,192,83582,1,0,0:0:0:0:
256,192,83661,1,0,0:0:0:0:
182,192,83740,1,0,0:0:0:0:
256,192,83819,1,0,0:0:0:0:
182,192,83898,128,0,84135:0:0:0:0:
475,192,83898,128,0,84135:0:0:0:0:
109,192,84056,128,0,84135:0:0:0:0:
36,192,84056,128,0,84135:0:0:0:0:
36,192,84214,128,0,84530:0:0:0:0:
475,192,84214,128,0,84530:0:0:0:0:
182,192,84214,128,0,84293:0:0:0:0:
109,192,84214,128,0,84372:0:0:0:0:
256,192,84293,1,0,0:0:0:0:
329,192,84332,128,0,84530:0:0:0:0:
182,192,84411,1,0,0:0:0:0:
256,192,84451,128,0,84530:0:0:0:0:
109,192,84530,128,0,84845:0:0:0:0:
402,192,84530,128,0,84845:0:0:0:0:
329,192,84687,128,0,84845:0:0:0:0:
182,192,84687,128,0,84845:0:0:0:0:
256,192,84845,1,0,0:0:0:0:
36,192,84845,128,0,85161:0:0:0:0:
475,192,84845,128,0,85161:0:0:0:0:
109,192,85003,128,0,85161:0:0:0:0:
402,192,85003,128,0,85161:0:0:0:0:
256,192,85161,128,0,85398:0:0:0:0:
182,192,85161,128,0,85398:0:0:0:0:
329,192,85161,128,0,85398:0:0:0:0:
36,192,85477,128,0,85714:0:0:0:0:
182,192,85477,128,0,85714:0:0:0:0:
256,192,85477,128,0,85714:0:0:0:0:
329,192,85477,128,0,85714:0:0:0:0:
475,192,85477,128,0,85714:0:0:0:0:
109,192,85793,128,0,85951:0:0:0:0:
182,192,85793,128,0,85951:0:0:0:0:
329,192,85793,128,0,85951:0:0:0:0:
402,192,85793,128,0,85951:0:0:0:0:
109,192,86003,128,0,86161:0:0:0:0:
402,192,86003,128,0,86161:0:0:0:0:
475,192,86003,128,0,86161:0:0:0:0:
36,192,86003,128,0,86161:0:0:0:0:
402,192,86214,128,0,86372:0:0:0:0:
329,192,86214,128,0,86372:0:0:0:0:
182,192,86214,128,0,86372:0:0:0:0:
109,192,86214,128,0,86372:0:0:0:0:
36,192,86424,1,0,0:0:0:0:
109,192,86424,1,0,0:0:0:0:
402,192,86424,1,0,0:0:0:0:
475,192,86424,1,0,0:0:0:0:
182,192,86424,1,0,0:0:0:0:
329,192,86424,1,0,0:0:0:0:
182,192,88319,128,0,88398:0:0:0:0:
329,192,88319,128,0,88398:0:0:0:0:
109,192,88477,128,0,88556:0:0:0:0:
256,192,88477,128,0,88556:0:0:0:0:
329,192,88635,128,0,88714:0:0:0:0:
475,192,88635,128,0,88714:0:0:0:0:
256,192,88793,128,0,88872:0:0:0:0:
402,192,88793,128,0,88872:0:0:0:0:
475,192,88951,128,0,89424:0:0:0:0:
36,192,88951,1,0,0:0:0:0:
109,192,89003,1,0,0:0:0:0:
182,192,89056,1,0,0:0:0:0:
256,192,89108,1,0,0:0:0:0:
329,192,89161,1,0,0:0:0:0:
402,192,89214,1,0,0:0:0:0:
36,192,89266,1,0,0:0:0:0:
109,192,89319,1,0,0:0:0:0:
182,192,89372,1,0,0:0:0:0:
256,192,89424,1,0,0:0:0:0:
402,192,89424,1,0,0:0:0:0:
36,192,89424,1,0,0:0:0:0:
109,192,89582,1,0,0:0:0:0:
182,192,89582,1,0,0:0:0:0:
329,192,89582,128,0,89661:0:0:0:0:
475,192,89582,128,0,89661:0:0:0:0:
402,192,89740,128,0,89819:0:0:0:0:
475,192,89740,128,0,89819:0:0:0:0:
36,192,89898,128,0,89977:0:0:0:0:
109,192,89898,128,0,89977:0:0:0:0:
256,192,89898,128,0,89977:0:0:0:0:
329,192,89898,128,0,89977:0:0:0:0:
36,192,90056,128,0,90214:0:0:0:0:
109,192,90056,128,0,90214:0:0:0:0:
256,192,90056,128,0,90214:0:0:0:0:
329,192,90056,128,0,90214:0:0:0:0:
36,192,90530,1,0,0:0:0:0:
256,192,90530,1,0,0:0:0:0:
109,192,90582,1,0,0:0:0:0:
329,192,90582,1,0,0:0:0:0:
182,192,90635,1,0,0:0:0:0:
402,192,90635,1,0,0:0:0:0:
256,192,90687,1,0,0:0:0:0:
475,192,90687,1,0,0:0:0:0:
36,192,90766,1,0,0:0:0:0:
329,192,90766,1,0,0:0:0:0:
256,192,90845,1,0,0:0:0:0:
475,192,90845,1,0,0:0:0:0:
36,192,91003,1,0,0:0:0:0:
109,192,91003,1,0,0:0:0:0:
329,192,91003,1,0,0:0:0:0:
182,192,91161,1,0,0:0:0:0:
402,192,91161,1,0,0:0:0:0:
329,192,91240,1,0,0:0:0:0:
109,192,91240,1,0,0:0:0:0:
182,192,91319,1,0,0:0:0:0:
402,192,91319,1,0,0:0:0:0:
256,192,91398,1,0,0:0:0:0:
475,192,91398,1,0,0:0:0:0:
36,192,91477,128,0,91635:0:0:0:0:
329,192,91477,1,0,0:0:0:0:
256,192,91530,1,0,0:0:0:0:
182,192,91582,1,0,0:0:0:0:
109,192,91635,1,0,0:0:0:0:
475,192,91635,128,0,91793:0:0:0:0:
402,192,91635,1,0,0:0:0:0:
329,192,91687,1,0,0:0:0:0:
256,192,91740,1,0,0:0:0:0:
182,192,91793,128,0,91951:0:0:0:0:
36,192,91951,1,0,0:0:0:0:
109,192,91951,1,0,0:0:0:0:
402,192,91951,1,0,0:0:0:0:
475,192,91951,1,0,0:0:0:0:
329,192,92030,1,0,0:0:0:0:
182,192,92030,1,0,0:0:0:0:
402,192,92108,1,0,0:0:0:0:
475,192,92108,1,0,0:0:0:0:
109,192,92108,1,0,0:0:0:0:
36,192,92108,1,0,0:0:0:0:
256,192,92266,128,0,92345:0:0:0:0:
475,192,92266,128,0,92345:0:0:0:0:
36,192,92424,128,0,92503:0:0:0:0:
109,192,92424,128,0,92503:0:0:0:0:
329,192,92424,128,0,92503:0:0:0:0:
402,192,92424,128,0,92503:0:0:0:0:
36,192,92582,128,0,92740:0:0:0:0:
109,192,92582,128,0,92740:0:0:0:0:
329,192,92582,128,0,92740:0:0:0:0:
402,192,92582,128,0,92740:0:0:0:0:
256,192,92898,1,0,0:0:0:0:
256,192,93056,1,0,0:0:0:0:
182,192,93135,1,0,0:0:0:0:
329,192,93135,1,0,0:0:0:0:
109,192,93214,1,0,0:0:0:0:
402,192,93214,1,0,0:0:0:0:
329,192,93266,1,0,0:0:0:0:
182,192,93319,1,0,0:0:0:0:
256,192,93372,1,0,0:0:0:0:
475,192,93424,1,0,0:0:0:0:
329,192,93477,1,0,0:0:0:0:
109,192,93530,1,0,0:0:0:0:
182,192,93582,1,0,0:0:0:0:
402,192,93635,1,0,0:0:0:0:
36,192,93687,1,0,0:0:0:0:
256,192,93687,1,0,0:0:0:0:
109,192,93766,1,0,0:0:0:0:
329,192,93766,1,0,0:0:0:0:
182,192,93845,1,0,0:0:0:0:
402,192,93845,1,0,0:0:0:0:
475,192,93924,1,0,0:0:0:0:
256,192,93924,1,0,0:0:0:0:
402,192,94003,1,0,0:0:0:0:
36,192,94003,128,0,94477:0:0:0:0:
329,192,94056,1,0,0:0:0:0:
256,192,94108,1,0,0:0:0:0:
182,192,94161,1,0,0:0:0:0:
109,192,94214,1,0,0:0:0:0:
475,192,94266,1,0,0:0:0:0:
402,192,94319,1,0,0:0:0:0:
329,192,94372,1,0,0:0:0:0:
256,192,94424,1,0,0:0:0:0:
182,192,94477,1,0,0:0:0:0:
109,192,94477,1,0,0:0:0:0:
475,192,94477,1,0,0:0:0:0:
36,192,94635,1,0,0:0:0:0:
256,192,94635,1,0,0:0:0:0:
329,192,94635,128,0,94714:0:0:0:0:
402,192,94635,128,0,94714:0:0:0:0:
402,192,94793,128,0,94872:0:0:0:0:
475,192,94793,128,0,94872:0:0:0:0:
36,192,94951,128,0,95030:0:0:0:0:
109,192,94951,128,0,95030:0:0:0:0:
182,192,94951,128,0,95030:0:0:0:0:
329,192,94951,128,0,95030:0:0:0:0:
36,192,95108,128,0,95266:0:0:0:0:
109,192,95108,128,0,95266:0:0:0:0:
182,192,95108,128,0,95266:0:0:0:0:
329,192,95108,128,0,95266:0:0:0:0:
36,192,95582,1,0,0:0:0:0:
182,192,95582,1,0,0:0:0:0:
402,192,95582,1,0,0:0:0:0:
475,192,95582,1,0,0:0:0:0:
329,192,95740,1,0,0:0:0:0:
256,192,95819,1,0,0:0:0:0:
329,192,95898,1,0,0:0:0:0:
182,192,95898,1,0,0:0:0:0:
36,192,95898,1,0,0:0:0:0:
109,192,96056,1,0,0:0:0:0:
256,192,96056,1,0,0:0:0:0:
402,192,96056,1,0,0:0:0:0:
475,192,96214,1,0,0:0:0:0:
182,192,96214,128,0,96293:0:0:0:0:
329,192,96214,128,0,96293:0:0:0:0:
256,192,96372,1,0,0:0:0:0:
109,192,96372,128,0,96451:0:0:0:0:
402,192,96372,128,0,96451:0:0:0:0:
182,192,96530,1,0,0:0:0:0:
36,192,96530,1,0,0:0:0:0:
329,192,96530,128,0,96608:0:0:0:0:
475,192,96530,128,0,96608:0:0:0:0:
256,192,96687,128,0,96766:0:0:0:0:
402,192,96687,128,0,96766:0:0:0:0:
329,192,96845,128,0,96924:0:0:0:0:
182,192,96845,128,0,96924:0:0:0:0:
402,192,97003,128,0,97319:0:0:0:0:
475,192,97003,128,0,97319:0:0:0:0:
109,192,97003,1,0,0:0:0:0:
36,192,97003,1,0,0:0:0:0:
182,192,97082,1,0,0:0:0:0:
329,192,97082,1,0,0:0:0:0:
109,192,97161,1,0,0:0:0:0:
36,192,97161,1,0,0:0:0:0:
256,192,97319,1,0,0:0:0:0:
182,192,97477,1,0,0:0:0:0:
109,192,97477,1,0,0:0:0:0:
329,192,97477,1,0,0:0:0:0:
402,192,97477,1,0,0:0:0:0:
36,192,97635,128,0,97714:0:0:0:0:
256,192,97714,128,0,97793:0:0:0:0:
36,192,97793,128,0,97872:0:0:0:0:
109,192,97793,128,0,97872:0:0:0:0:
109,192,97951,128,0,98030:0:0:0:0:
182,192,97951,128,0,98030:0:0:0:0:
329,192,97951,1,0,0:0:0:0:
475,192,97951,1,0,0:0:0:0:
182,192,98108,128,0,98187:0:0:0:0:
256,192,98108,128,0,98187:0:0:0:0:
329,192,98108,1,0,0:0:0:0:
475,192,98108,1,0,0:0:0:0:
36,192,98266,128,0,98582:0:0:0:0:
109,192,98266,128,0,98582:0:0:0:0:
402,192,98424,1,0,0:0:0:0:
475,192,98424,1,0,0:0:0:0:
256,192,98582,1,0,0:0:0:0:
329,192,98582,1,0,0:0:0:0:
475,192,98582,1,0,0:0:0:0:
182,192,98740,128,0,98898:0:0:0:0:
329,192,98898,128,0,99056:0:0:0:0:
475,192,99056,128,0,99530:0:0:0:0:
36,192,99056,128,0,99266:0:0:0:0:
109,192,99108,128,0,99319:0:0:0:0:
182,192,99161,128,0,99372:0:0:0:0:
256,192,99214,128,0,99424:0:0:0:0:
329,192,99266,128,0,99477:0:0:0:0:
402,192,99319,128,0,99530:0:0:0:0:
36,192,99372,1,0,0:0:0:0:
109,192,99424,1,0,0:0:0:0:
182,192,99477,1,0,0:0:0:0:
256,192,99530,1,0,0:0:0:0:
36,192,99530,1,0,0:0:0:0:
109,192,99687,1,0,0:0:0:0:
182,192,99687,1,0,0:0:0:0:
329,192,99687,128,0,99766:0:0:0:0:
475,192,99687,128,0,99766:0:0:0:0:
402,192,99845,128,0,99924:0:0:0:0:
475,192,99845,128,0,99924:0:0:0:0:
36,192,100003,128,0,100082:0:0:0:0:
109,192,100003,128,0,100082:0:0:0:0:
256,192,100003,128,0,100082:0:0:0:0:
329,192,100003,128,0,100082:0:0:0:0:
109,192,100161,128,0,100240:0:0:0:0:
36,192,100161,128,0,100240:0:0:0:0:
402,192,100161,128,0,100240:0:0:0:0:
475,192,100161,128,0,100240:0:0:0:0:
36,192,100319,1,0,0:0:0:0:
109,192,100319,1,0,0:0:0:0:
256,192,100319,1,0,0:0:0:0:
329,192,100319,1,0,0:0:0:0:
109,192,100477,1,0,0:0:0:0:
36,192,100477,1,0,0:0:0:0:
402,192,100477,1,0,0:0:0:0:
475,192,100477,1,0,0:0:0:0:
109,192,100635,128,0,100714:0:0:0:0:
36,192,100635,128,0,100714:0:0:0:0:
256,192,100635,128,0,100714:0:0:0:0:
329,192,100635,128,0,100714:0:0:0:0:
36,192,100793,128,0,100872:0:0:0:0:
329,192,100793,128,0,100872:0:0:0:0:
256,192,100793,128,0,100872:0:0:0:0:
182,192,100793,128,0,100872:0:0:0:0:
109,192,100951,128,0,101030:0:0:0:0:
36,192,100951,128,0,101030:0:0:0:0:
256,192,100951,128,0,101030:0:0:0:0:
329,192,100951,128,0,101030:0:0:0:0:
182,192,101108,128,0,101187:0:0:0:0:
36,192,101108,128,0,101187:0:0:0:0:
256,192,101108,128,0,101187:0:0:0:0:
329,192,101108,128,0,101187:0:0:0:0:
109,192,101266,1,0,0:0:0:0:
402,192,101266,1,0,0:0:0:0:
182,192,101345,1,0,0:0:0:0:
475,192,101345,1,0,0:0:0:0:
329,192,101424,1,0,0:0:0:0:
109,192,101424,1,0,0:0:0:0:
36,192,101503,1,0,0:0:0:0:
256,192,101503,1,0,0:0:0:0:
182,192,101582,128,0,101661:0:0:0:0:
402,192,101582,128,0,101661:0:0:0:0:
475,192,101582,128,0,101661:0:0:0:0:
109,192,101740,128,0,101819:0:0:0:0:
329,192,101740,128,0,101819:0:0:0:0:
402,192,101740,128,0,101819:0:0:0:0:
182,192,101898,128,0,101977:0:0:0:0:
402,192,101898,128,0,101977:0:0:0:0:
475,192,101898,128,0,101977:0:0:0:0:
329,192,102056,128,0,102372:0:0:0:0:
402,192,102056,128,0,102372:0:0:0:0:
36,192,102056,1,0,0:0:0:0:
109,192,102056,1,0,0:0:0:0:
182,192,102135,1,0,0:0:0:0:
256,192,102135,1,0,0:0:0:0:
109,192,102214,1,0,0:0:0:0:
36,192,102214,1,0,0:0:0:0:
475,192,102372,128,0,102530:0:0:0:0:
329,192,102530,1,0,0:0:0:0:
182,192,102530,1,0,0:0:0:0:
36,192,102530,1,0,0:0:0:0:
109,192,102687,128,0,103003:0:0:0:0:
256,192,102687,128,0,103003:0:0:0:0:
402,192,102687,128,0,103003:0:0:0:0:
475,192,102687,128,0,103003:0:0:0:0:
329,192,103003,1,0,0:0:0:0:
182,192,103003,1,0,0:0:0:0:
36,192,103003,1,0,0:0:0:0:
109,192,103161,128,0,103398:0:0:0:0:
256,192,103161,128,0,103398:0:0:0:0:
402,192,103161,128,0,103398:0:0:0:0:
475,192,103161,128,0,103398:0:0:0:0:
329,192,103398,1,0,0:0:0:0:
182,192,103398,1,0,0:0:0:0:
36,192,103398,1,0,0:0:0:0:
36,192,103635,1,0,0:0:0:0:
182,192,103635,1,0,0:0:0:0:
329,192,103635,1,0,0:0:0:0:
109,192,103793,1,0,0:0:0:0:
256,192,103793,1,0,0:0:0:0:
475,192,103793,1,0,0:0:0:0:
402,192,103793,1,0,0:0:0:0:
36,192,103872,1,0,0:0:0:0:
182,192,103872,1,0,0:0:0:0:
109,192,103951,1,0,0:0:0:0:
256,192,103951,1,0,0:0:0:0:
182,192,104030,1,0,0:0:0:0:
329,192,104030,1,0,0:0:0:0:
36,192,104108,128,0,104582:0:0:0:0:
475,192,104108,128,0,104319:0:0:0:0:
402,192,104161,128,0,104372:0:0:0:0:
329,192,104214,128,0,104424:0:0:0:0:
256,192,104266,128,0,104477:0:0:0:0:
182,192,104319,128,0,104530:0:0:0:0:
109,192,104372,128,0,104582:0:0:0:0:
475,192,104424,1,0,0:0:0:0:
402,192,104477,1,0,0:0:0:0:
329,192,104530,1,0,0:0:0:0:
475,192,104582,1,0,0:0:0:0:
256,192,104582,1,0,0:0:0:0:
402,192,104740,128,0,104819:0:0:0:0:
329,192,104740,128,0,104819:0:0:0:0:
182,192,104740,1,0,0:0:0:0:
109,192,104740,1,0,0:0:0:0:
402,192,104898,128,0,104977:0:0:0:0:
475,192,104898,128,0,104977:0:0:0:0:
256,192,105056,128,0,105135:0:0:0:0:
109,192,105056,128,0,105135:0:0:0:0:
402,192,105056,128,0,105135:0:0:0:0:
36,192,105056,128,0,105135:0:0:0:0:
329,192,105214,128,0,105293:0:0:0:0:
475,192,105214,128,0,105293:0:0:0:0:
36,192,105214,128,0,105293:0:0:0:0:
109,192,105214,128,0,105293:0:0:0:0:
109,192,105372,1,0,0:0:0:0:
36,192,105372,1,0,0:0:0:0:
329,192,105372,1,0,0:0:0:0:
256,192,105372,1,0,0:0:0:0:
36,192,105530,1,0,0:0:0:0:
475,192,105530,1,0,0:0:0:0:
109,192,105530,1,0,0:0:0:0:
402,192,105530,1,0,0:0:0:0:
329,192,105687,128,0,105766:0:0:0:0:
256,192,105687,128,0,105766:0:0:0:0:
36,192,105687,128,0,105766:0:0:0:0:
182,192,105687,128,0,105766:0:0:0:0:
36,192,105845,128,0,105924:0:0:0:0:
109,192,105845,128,0,105924:0:0:0:0:
329,192,105845,128,0,105924:0:0:0:0:
256,192,105845,128,0,105924:0:0:0:0:
36,192,106003,128,0,106082:0:0:0:0:
182,192,106003,128,0,106082:0:0:0:0:
329,192,106003,128,0,106082:0:0:0:0:
256,192,106003,128,0,106082:0:0:0:0:
329,192,106161,128,0,106240:0:0:0:0:
36,192,106161,128,0,106240:0:0:0:0:
109,192,106161,128,0,106240:0:0:0:0:
256,192,106161,128,0,106240:0:0:0:0:
182,192,106319,128,0,106477:0:0:0:0:
402,192,106319,128,0,106477:0:0:0:0:
256,192,106477,128,0,106635:0:0:0:0:
475,192,106477,128,0,106635:0:0:0:0:
329,192,106635,128,0,106793:0:0:0:0:
36,192,106635,128,0,106793:0:0:0:0:
109,192,106635,128,0,106793:0:0:0:0:
402,192,106635,128,0,106793:0:0:0:0:
256,192,106793,128,0,106951:0:0:0:0:
182,192,106951,128,0,107108:0:0:0:0:
36,192,106951,128,0,107108:0:0:0:0:
402,192,106951,128,0,107108:0:0:0:0:
329,192,107108,128,0,107345:0:0:0:0:
256,192,107108,128,0,107345:0:0:0:0:
109,192,107108,128,0,107345:0:0:0:0:
475,192,107108,128,0,107345:0:0:0:0:
475,192,107424,1,0,0:0:0:0:
329,192,107424,1,0,0:0:0:0:
256,192,107424,1,0,0:0:0:0:
109,192,107424,1,0,0:0:0:0:
36,192,107740,1,0,0:0:0:0:
109,192,107740,1,0,0:0:0:0:
402,192,107740,1,0,0:0:0:0:
475,192,107740,1,0,0:0:0:0:
182,192,107819,1,0,0:0:0:0:
329,192,107819,1,0,0:0:0:0:
36,192,107898,128,0,108056:0:0:0:0:
109,192,107898,128,0,108056:0:0:0:0:
475,192,107898,128,0,108056:0:0:0:0:
402,192,107898,128,0,108056:0:0:0:0:
182,192,108056,128,0,108214:0:0:0:0:
36,192,108214,128,0,108372:0:0:0:0:
256,192,108214,128,0,108372:0:0:0:0:
402,192,108214,128,0,108372:0:0:0:0:
475,192,108372,128,0,108608:0:0:0:0:
329,192,108372,128,0,108608:0:0:0:0:
109,192,108372,128,0,108608:0:0:0:0:
182,192,108372,128,0,108608:0:0:0:0:
109,192,108687,1,0,0:0:0:0:
182,192,108687,1,0,0:0:0:0:
329,192,108687,1,0,0:0:0:0:
475,192,108687,1,0,0:0:0:0:
256,192,109003,1,0,0:0:0:0:
182,192,109082,1,0,0:0:0:0:
109,192,109161,1,0,0:0:0:0:
36,192,109161,1,0,0:0:0:0:
329,192,109161,1,0,0:0:0:0:
402,192,109161,1,0,0:0:0:0:
475,192,109161,1,0,0:0:0:0:
109,192,109319,1,0,0:0:0:0:
36,192,109319,1,0,0:0:0:0:
36,192,109477,1,0,0:0:0:0:
109,192,109477,1,0,0:0:0:0:
256,192,109477,1,0,0:0:0:0:
402,192,109477,1,0,0:0:0:0:
402,192,109793,128,0,110266:0:0:0:0:
36,192,109793,1,0,0:0:0:0:
109,192,109793,1,0,0:0:0:0:
182,192,109793,1,0,0:0:0:0:
36,192,110108,1,0,0:0:0:0:
109,192,110108,1,0,0:0:0:0:
182,192,110108,1,0,0:0:0:0:
402,192,110424,128,0,110898:0:0:0:0:
182,192,110424,1,0,0:0:0:0:
109,192,110424,1,0,0:0:0:0:
36,192,110424,1,0,0:0:0:0:
36,192,110740,1,0,0:0:0:0:
109,192,110740,1,0,0:0:0:0:
182,192,110740,1,0,0:0:0:0:
402,192,111056,128,0,111530:0:0:0:0:
109,192,111056,1,0,0:0:0:0:
36,192,111056,1,0,0:0:0:0:
182,192,111056,1,0,0:0:0:0:
36,192,111293,1,0,0:0:0:0:
109,192,111293,1,0,0:0:0:0:
182,192,111293,1,0,0:0:0:0:
36,192,111530,1,0,0:0:0:0:
109,192,111530,1,0,0:0:0:0:
182,192,111530,1,0,0:0:0:0:
182,192,111687,1,0,0:0:0:0:
109,192,111687,1,0,0:0:0:0:
36,192,111687,1,0,0:0:0:0:
182,192,111845,1,0,0:0:0:0:
109,192,111845,1,0,0:0:0:0:
36,192,111845,1,0,0:0:0:0:
256,192,112003,1,0,0:0:0:0:
402,192,112003,1,0,0:0:0:0:
475,192,112003,1,0,0:0:0:0:
475,192,112161,1,0,0:0:0:0:
402,192,112161,1,0,0:0:0:0:
256,192,112161,1,0,0:0:0:0:
182,192,112319,1,0,0:0:0:0:
109,192,112319,1,0,0:0:0:0:
36,192,112319,1,0,0:0:0:0:
256,192,112398,1,0,0:0:0:0:
402,192,112398,1,0,0:0:0:0:
475,192,112398,1,0,0:0:0:0:
182,192,112477,1,0,0:0:0:0:
109,192,112477,1,0,0:0:0:0:
36,192,112477,1,0,0:0:0:0:
256,192,112556,1,0,0:0:0:0:
402,192,112556,1,0,0:0:0:0:
475,192,112556,1,0,0:0:0:0:
182,192,112635,1,0,0:0:0:0:
109,192,112635,1,0,0:0:0:0:
36,192,112635,1,0,0:0:0:0:
256,192,112714,1,0,0:0:0:0:
402,192,112714,1,0,0:0:0:0:
475,192,112714,1,0,0:0:0:0:
109,192,112793,1,0,0:0:0:0:
182,192,112793,1,0,0:0:0:0:
36,192,112793,1,0,0:0:0:0:
256,192,112872,1,0,0:0:0:0:
402,192,112872,1,0,0:0:0:0:
475,192,112872,1,0,0:0:0:0:
329,192,112951,1,0,0:0:0:0:
109,192,112951,1,0,0:0:0:0:
36,192,112951,1,0,0:0:0:0:
182,192,112990,1,0,0:0:0:0:
256,192,113030,1,0,0:0:0:0:
329,192,113069,1,0,0:0:0:0:
475,192,113108,1,0,0:0:0:0:
402,192,113108,1,0,0:0:0:0:
36,192,113148,1,0,0:0:0:0:
109,192,113187,1,0,0:0:0:0:
182,192,113227,1,0,0:0:0:0:
329,192,113266,1,0,0:0:0:0:
256,192,113266,1,0,0:0:0:0:
402,192,113306,1,0,0:0:0:0:
475,192,113345,1,0,0:0:0:0:
36,192,113385,1,0,0:0:0:0:
182,192,113424,1,0,0:0:0:0:
109,192,113424,1,0,0:0:0:0:
256,192,113464,1,0,0:0:0:0:
329,192,113503,1,0,0:0:0:0:
402,192,113543,1,0,0:0:0:0:
475,192,113582,1,0,0:0:0:0:
109,192,113582,1,0,0:0:0:0:
36,192,113582,1,0,0:0:0:0:
36,192,113898,1,0,0:0:0:0:
402,192,113898,1,0,0:0:0:0:
475,192,113898,1,0,0:0:0:0:
36,192,114214,1,0,0:0:0:0:
256,192,114214,1,0,0:0:0:0:
329,192,114214,1,0,0:0:0:0:
402,192,114214,1,0,0:0:0:0:
475,192,114214,1,0,0:0:0:0:
182,192,114293,1,0,0:0:0:0:
109,192,114293,1,0,0:0:0:0:
329,192,114372,1,0,0:0:0:0:
402,192,114372,1,0,0:0:0:0:
256,192,114451,1,0,0:0:0:0:
182,192,114451,1,0,0:0:0:0:
402,192,114530,1,0,0:0:0:0:
475,192,114530,1,0,0:0:0:0:
329,192,114608,1,0,0:0:0:0:
256,192,114608,1,0,0:0:0:0:
402,192,114687,1,0,0:0:0:0:
475,192,114687,1,0,0:0:0:0:
329,192,114766,1,0,0:0:0:0:
256,192,114766,1,0,0:0:0:0:
402,192,114845,1,0,0:0:0:0:
475,192,114845,1,0,0:0:0:0:
36,192,114845,1,0,0:0:0:0:
182,192,114924,1,0,0:0:0:0:
256,192,114924,1,0,0:0:0:0:
36,192,115003,1,0,0:0:0:0:
109,192,115003,1,0,0:0:0:0:
182,192,115082,1,0,0:0:0:0:
329,192,115082,1,0,0:0:0:0:
402,192,115161,1,0,0:0:0:0:
475,192,115161,1,0,0:0:0:0:
36,192,115161,1,0,0:0:0:0:
182,192,115240,1,0,0:0:0:0:
256,192,115240,1,0,0:0:0:0:
402,192,115319,1,0,0:0:0:0:
475,192,115319,1,0,0:0:0:0:
109,192,115398,1,0,0:0:0:0:
182,192,115398,1,0,0:0:0:0:
402,192,115477,1,0,0:0:0:0:
475,192,115477,1,0,0:0:0:0:
182,192,115516,1,0,0:0:0:0:
109,192,115556,1,0,0:0:0:0:
36,192,115556,1,0,0:0:0:0:
329,192,115595,1,0,0:0:0:0:
402,192,115635,1,0,0:0:0:0:
475,192,115635,1,0,0:0:0:0:
182,192,115635,1,0,0:0:0:0:
109,192,115714,1,0,0:0:0:0:
36,192,115714,1,0,0:0:0:0:
329,192,115793,1,0,0:0:0:0:
402,192,115793,1,0,0:0:0:0:
475,192,115793,1,0,0:0:0:0:
109,192,115872,1,0,0:0:0:0:
256,192,115872,1,0,0:0:0:0:
402,192,115951,1,0,0:0:0:0:
475,192,115951,1,0,0:0:0:0:
109,192,116030,1,0,0:0:0:0:
256,192,116030,1,0,0:0:0:0:
182,192,116108,1,0,0:0:0:0:
36,192,116108,1,0,0:0:0:0:
475,192,116108,1,0,0:0:0:0:
402,192,116187,1,0,0:0:0:0:
329,192,116187,1,0,0:0:0:0:
109,192,116266,1,0,0:0:0:0:
182,192,116266,1,0,0:0:0:0:
256,192,116345,1,0,0:0:0:0:
329,192,116345,1,0,0:0:0:0:
36,192,116424,1,0,0:0:0:0:
109,192,116424,1,0,0:0:0:0:
182,192,116464,1,0,0:0:0:0:
402,192,116503,1,0,0:0:0:0:
475,192,116503,1,0,0:0:0:0:
36,192,116582,1,0,0:0:0:0:
109,192,116582,1,0,0:0:0:0:
329,192,116661,1,0,0:0:0:0:
182,192,116661,1,0,0:0:0:0:
402,192,116740,128,0,116898:0:0:0:0:
109,192,116740,128,0,116898:0:0:0:0:
36,192,116740,128,0,116898:0:0:0:0:
182,192,116898,128,0,117056:0:0:0:0:
329,192,116898,128,0,117056:0:0:0:0:
475,192,116898,128,0,117056:0:0:0:0:
402,192,117056,128,0,117214:0:0:0:0:
109,192,117056,128,0,117214:0:0:0:0:
36,192,117056,128,0,117214:0:0:0:0:
329,192,117372,128,0,117608:0:0:0:0:
182,192,117372,1,0,0:0:0:0:
109,192,117372,1,0,0:0:0:0:
36,192,117372,1,0,0:0:0:0:
402,192,117530,128,0,117608:0:0:0:0:
475,192,117530,128,0,117608:0:0:0:0:
329,192,117687,1,0,0:0:0:0:
402,192,117687,1,0,0:0:0:0:
475,192,117687,1,0,0:0:0:0:
182,192,117687,128,0,117924:0:0:0:0:
36,192,117845,128,0,117924:0:0:0:0:
109,192,117845,128,0,117924:0:0:0:0:
329,192,118003,128,0,118240:0:0:0:0:
402,192,118161,128,0,118240:0:0:0:0:
475,192,118161,128,0,118240:0:0:0:0:
182,192,118161,1,0,0:0:0:0:
109,192,118161,1,0,0:0:0:0:
36,192,118161,1,0,0:0:0:0:
182,192,118319,128,0,118556:0:0:0:0:
329,192,118319,1,0,0:0:0:0:
402,192,118319,1,0,0:0:0:0:
475,192,118319,1,0,0:0:0:0:
109,192,118477,128,0,118556:0:0:0:0:
36,192,118477,128,0,118556:0:0:0:0:
182,192,118635,1,0,0:0:0:0:
109,192,118635,1,0,0:0:0:0:
36,192,118635,1,0,0:0:0:0:
329,192,118635,128,0,118872:0:0:0:0:
36,192,118793,1,0,0:0:0:0:
109,192,118793,1,0,0:0:0:0:
256,192,118793,1,0,0:0:0:0:
402,192,118793,128,0,118872:0:0:0:0:
475,192,118793,128,0,118872:0:0:0:0:
182,192,118951,1,0,0:0:0:0:
109,192,118951,1,0,0:0:0:0:
36,192,118951,1,0,0:0:0:0:
475,192,118951,128,0,119187:0:0:0:0:
36,192,119108,1,0,0:0:0:0:
109,192,119108,1,0,0:0:0:0:
182,192,119108,1,0,0:0:0:0:
402,192,119108,128,0,119187:0:0:0:0:
329,192,119108,128,0,119187:0:0:0:0:
36,192,119266,1,0,0:0:0:0:
256,192,119266,1,0,0:0:0:0:
402,192,119266,1,0,0:0:0:0:
329,192,119266,1,0,0:0:0:0:
475,192,119266,1,0,0:0:0:0:
109,192,119345,1,0,0:0:0:0:
182,192,119345,1,0,0:0:0:0:
329,192,119424,1,0,0:0:0:0:
402,192,119424,1,0,0:0:0:0:
109,192,119503,1,0,0:0:0:0:
36,192,119503,1,0,0:0:0:0:
402,192,119582,1,0,0:0:0:0:
475,192,119582,1,0,0:0:0:0:
256,192,119661,1,0,0:0:0:0:
182,192,119661,1,0,0:0:0:0:
36,192,119740,1,0,0:0:0:0:
109,192,119740,1,0,0:0:0:0:
402,192,119819,1,0,0:0:0:0:
329,192,119819,1,0,0:0:0:0:
256,192,119898,1,0,0:0:0:0:
182,192,119898,1,0,0:0:0:0:
109,192,119898,1,0,0:0:0:0:
402,192,119977,1,0,0:0:0:0:
475,192,119977,1,0,0:0:0:0:
182,192,120056,1,0,0:0:0:0:
256,192,120056,1,0,0:0:0:0:
402,192,120135,1,0,0:0:0:0:
475,192,120135,1,0,0:0:0:0:
182,192,120214,1,0,0:0:0:0:
256,192,120214,1,0,0:0:0:0:
109,192,120214,1,0,0:0:0:0:
402,192,120293,1,0,0:0:0:0:
475,192,120293,1,0,0:0:0:0:
182,192,120372,1,0,0:0:0:0:
256,192,120372,1,0,0:0:0:0:
402,192,120451,1,0,0:0:0:0:
475,192,120451,1,0,0:0:0:0:
182,192,120530,1,0,0:0:0:0:
256,192,120530,1,0,0:0:0:0:
329,192,120569,1,0,0:0:0:0:
402,192,120608,1,0,0:0:0:0:
475,192,120608,1,0,0:0:0:0:
36,192,120648,1,0,0:0:0:0:
182,192,120687,1,0,0:0:0:0:
256,192,120687,1,0,0:0:0:0:
109,192,120687,1,0,0:0:0:0:
402,192,120766,1,0,0:0:0:0:
475,192,120766,1,0,0:0:0:0:
36,192,120806,1,0,0:0:0:0:
182,192,120845,1,0,0:0:0:0:
256,192,120845,1,0,0:0:0:0:
109,192,120845,1,0,0:0:0:0:
329,192,120924,1,0,0:0:0:0:
402,192,120924,1,0,0:0:0:0:
109,192,121003,1,0,0:0:0:0:
182,192,121003,1,0,0:0:0:0:
256,192,121082,1,0,0:0:0:0:
329,192,121082,1,0,0:0:0:0:
402,192,121161,1,0,0:0:0:0:
475,192,121161,1,0,0:0:0:0:
182,192,121161,1,0,0:0:0:0:
36,192,121240,1,0,0:0:0:0:
109,192,121240,1,0,0:0:0:0:
402,192,121319,1,0,0:0:0:0:
475,192,121319,1,0,0:0:0:0:
256,192,121319,1,0,0:0:0:0:
109,192,121398,1,0,0:0:0:0:
36,192,121398,1,0,0:0:0:0:
402,192,121477,1,0,0:0:0:0:
475,192,121477,1,0,0:0:0:0:
329,192,121516,1,0,0:0:0:0:
109,192,121556,1,0,0:0:0:0:
36,192,121556,1,0,0:0:0:0:
182,192,121595,1,0,0:0:0:0:
402,192,121635,1,0,0:0:0:0:
475,192,121635,1,0,0:0:0:0:
256,192,121714,1,0,0:0:0:0:
329,192,121714,1,0,0:0:0:0:
36,192,121793,128,0,121951:0:0:0:0:
109,192,121793,128,0,121951:0:0:0:0:
182,192,121793,128,0,121951:0:0:0:0:
256,192,121951,128,0,122108:0:0:0:0:
402,192,121951,128,0,122108:0:0:0:0:
475,192,121951,128,0,122108:0:0:0:0:
329,192,122108,128,0,122266:0:0:0:0:
109,192,122108,128,0,122266:0:0:0:0:
36,192,122108,128,0,122266:0:0:0:0:
182,192,122266,1,0,0:0:0:0:
402,192,122266,1,0,0:0:0:0:
475,192,122266,1,0,0:0:0:0:
329,192,122424,128,0,122661:0:0:0:0:
182,192,122424,1,0,0:0:0:0:
109,192,122424,1,0,0:0:0:0:
36,192,122424,1,0,0:0:0:0:
402,192,122582,128,0,122661:0:0:0:0:
475,192,122582,128,0,122661:0:0:0:0:
329,192,122740,1,0,0:0:0:0:
402,192,122740,1,0,0:0:0:0:
475,192,122740,1,0,0:0:0:0:
182,192,122740,128,0,122977:0:0:0:0:
36,192,122898,128,0,122977:0:0:0:0:
109,192,122898,128,0,122977:0:0:0:0:
402,192,122898,1,0,0:0:0:0:
475,192,122898,1,0,0:0:0:0:
329,192,122898,1,0,0:0:0:0:
256,192,122977,1,0,0:0:0:0:
329,192,123056,128,0,123293:0:0:0:0:
109,192,123056,1,0,0:0:0:0:
36,192,123056,1,0,0:0:0:0:
182,192,123056,1,0,0:0:0:0:
402,192,123214,128,0,123293:0:0:0:0:
475,192,123214,128,0,123293:0:0:0:0:
109,192,123214,1,0,0:0:0:0:
36,192,123214,1,0,0:0:0:0:
182,192,123214,1,0,0:0:0:0:
256,192,123293,1,0,0:0:0:0:
182,192,123372,128,0,123608:0:0:0:0:
402,192,123372,1,0,0:0:0:0:
475,192,123372,1,0,0:0:0:0:
329,192,123451,1,0,0:0:0:0:
109,192,123530,128,0,123608:0:0:0:0:
36,192,123530,128,0,123608:0:0:0:0:
402,192,123530,1,0,0:0:0:0:
475,192,123530,1,0,0:0:0:0:
182,192,123687,128,0,123766:0:0:0:0:
329,192,123687,128,0,123766:0:0:0:0:
256,192,124003,128,0,124082:0:0:0:0:
256,192,124161,128,0,124240:0:0:0:0:
36,192,124319,1,0,0:0:0:0:
256,192,124319,1,0,0:0:0:0:
402,192,124319,1,0,0:0:0:0:
329,192,124319,1,0,0:0:0:0:
475,192,124319,1,0,0:0:0:0:
109,192,124398,1,0,0:0:0:0:
182,192,124398,1,0,0:0:0:0:
329,192,124477,1,0,0:0:0:0:
402,192,124477,1,0,0:0:0:0:
182,192,124556,1,0,0:0:0:0:
109,192,124556,1,0,0:0:0:0:
329,192,124635,1,0,0:0:0:0:
402,192,124635,1,0,0:0:0:0:
256,192,124674,1,0,0:0:0:0:
182,192,124714,1,0,0:0:0:0:
109,192,124714,1,0,0:0:0:0:
329,192,124793,1,0,0:0:0:0:
402,192,124793,1,0,0:0:0:0:
182,192,124872,1,0,0:0:0:0:
109,192,124872,1,0,0:0:0:0:
329,192,124951,1,0,0:0:0:0:
402,192,124951,1,0,0:0:0:0:
475,192,124951,1,0,0:0:0:0:
182,192,125030,1,0,0:0:0:0:
109,192,125030,1,0,0:0:0:0:
329,192,125108,1,0,0:0:0:0:
402,192,125108,1,0,0:0:0:0:
182,192,125187,1,0,0:0:0:0:
109,192,125187,1,0,0:0:0:0:
256,192,125266,1,0,0:0:0:0:
402,192,125266,1,0,0:0:0:0:
475,192,125266,1,0,0:0:0:0:
182,192,125345,1,0,0:0:0:0:
109,192,125345,1,0,0:0:0:0:
402,192,125424,1,0,0:0:0:0:
475,192,125424,1,0,0:0:0:0:
182,192,125503,1,0,0:0:0:0:
109,192,125503,1,0,0:0:0:0:
402,192,125582,1,0,0:0:0:0:
475,192,125582,1,0,0:0:0:0:
329,192,125622,1,0,0:0:0:0:
182,192,125661,1,0,0:0:0:0:
109,192,125661,1,0,0:0:0:0:
256,192,125701,1,0,0:0:0:0:
402,192,125740,1,0,0:0:0:0:
475,192,125740,1,0,0:0:0:0:
329,192,125740,1,0,0:0:0:0:
109,192,125819,1,0,0:0:0:0:
182,192,125819,1,0,0:0:0:0:
402,192,125898,1,0,0:0:0:0:
475,192,125898,1,0,0:0:0:0:
329,192,125898,1,0,0:0:0:0:
109,192,125977,1,0,0:0:0:0:
36,192,125977,1,0,0:0:0:0:
329,192,126056,1,0,0:0:0:0:
402,192,126056,1,0,0:0:0:0:
182,192,126095,1,0,0:0:0:0:
109,192,126135,1,0,0:0:0:0:
36,192,126135,1,0,0:0:0:0:
475,192,126214,1,0,0:0:0:0:
256,192,126214,1,0,0:0:0:0:
402,192,126214,1,0,0:0:0:0:
109,192,126293,1,0,0:0:0:0:
36,192,126293,1,0,0:0:0:0:
182,192,126372,1,0,0:0:0:0:
329,192,126372,1,0,0:0:0:0:
109,192,126451,1,0,0:0:0:0:
36,192,126451,1,0,0:0:0:0:
256,192,126530,1,0,0:0:0:0:
402,192,126530,1,0,0:0:0:0:
182,192,126569,1,0,0:0:0:0:
109,192,126608,1,0,0:0:0:0:
36,192,126608,1,0,0:0:0:0:
329,192,126687,1,0,0:0:0:0:
475,192,126687,1,0,0:0:0:0:
109,192,126766,1,0,0:0:0:0:
256,192,126766,1,0,0:0:0:0:
402,192,126845,1,0,0:0:0:0:
475,192,126845,1,0,0:0:0:0:
36,192,126845,1,0,0:0:0:0:
109,192,126924,1,0,0:0:0:0:
182,192,126924,1,0,0:0:0:0:
329,192,126924,1,0,0:0:0:0:
109,192,127003,1,0,0:0:0:0:
182,192,127003,1,0,0:0:0:0:
329,192,127003,1,0,0:0:0:0:
36,192,127161,1,0,0:0:0:0:
475,192,127161,1,0,0:0:0:0:
402,192,127161,1,0,0:0:0:0:
109,192,127240,1,0,0:0:0:0:
182,192,127240,1,0,0:0:0:0:
329,192,127240,1,0,0:0:0:0:
109,192,127319,1,0,0:0:0:0:
182,192,127319,1,0,0:0:0:0:
329,192,127319,1,0,0:0:0:0:
256,192,127477,1,0,0:0:0:0:
475,192,127477,1,0,0:0:0:0:
402,192,127477,1,0,0:0:0:0:
109,192,127556,128,0,127714:0:0:0:0:
329,192,127556,128,0,127714:0:0:0:0:
36,192,127556,128,0,127714:0:0:0:0:
182,192,127714,1,0,0:0:0:0:
402,192,127714,1,0,0:0:0:0:
475,192,127714,1,0,0:0:0:0:
36,192,127793,1,0,0:0:0:0:
109,192,127793,1,0,0:0:0:0:
329,192,127793,1,0,0:0:0:0:
182,192,127872,1,0,0:0:0:0:
402,192,127872,1,0,0:0:0:0:
475,192,127872,1,0,0:0:0:0:
36,192,128030,128,0,128187:0:0:0:0:
109,192,128030,128,0,128187:0:0:0:0:
329,192,128030,128,0,128187:0:0:0:0:
182,192,128187,1,0,0:0:0:0:
475,192,128187,1,0,0:0:0:0:
402,192,128187,1,0,0:0:0:0:
402,192,128266,1,0,0:0:0:0:
475,192,128266,1,0,0:0:0:0:
182,192,128266,1,0,0:0:0:0:
109,192,128424,1,0,0:0:0:0:
256,192,128424,1,0,0:0:0:0:
402,192,128424,1,0,0:0:0:0:
182,192,128503,1,0,0:0:0:0:
329,192,128503,1,0,0:0:0:0:
475,192,128503,1,0,0:0:0:0:
109,192,128661,1,0,0:0:0:0:
256,192,128661,1,0,0:0:0:0:
402,192,128661,1,0,0:0:0:0:
36,192,128819,1,0,0:0:0:0:
182,192,128819,1,0,0:0:0:0:
329,192,128819,1,0,0:0:0:0:
36,192,128898,1,0,0:0:0:0:
182,192,128898,1,0,0:0:0:0:
329,192,128898,1,0,0:0:0:0:
402,192,129056,1,0,0:0:0:0:
475,192,129056,1,0,0:0:0:0:
402,192,129161,1,0,0:0:0:0:
475,192,129161,1,0,0:0:0:0:
402,192,129266,1,0,0:0:0:0:
475,192,129266,1,0,0:0:0:0:
329,192,129372,1,0,0:0:0:0:
256,192,129372,1,0,0:0:0:0:
182,192,129372,1,0,0:0:0:0:
109,192,129372,1,0,0:0:0:0:
36,192,129372,1,0,0:0:0:0:
36,192,129451,1,0,0:0:0:0:
109,192,129451,1,0,0:0:0:0:
256,192,129530,1,0,0:0:0:0:
182,192,129530,1,0,0:0:0:0:
36,192,129608,1,0,0:0:0:0:
109,192,129608,1,0,0:0:0:0:
329,192,129687,1,0,0:0:0:0:
256,192,129687,1,0,0:0:0:0:
109,192,129766,1,0,0:0:0:0:
36,192,129766,1,0,0:0:0:0:
329,192,129845,1,0,0:0:0:0:
402,192,129845,1,0,0:0:0:0:
109,192,129924,1,0,0:0:0:0:
36,192,129924,1,0,0:0:0:0:
329,192,130003,1,0,0:0:0:0:
402,192,130003,1,0,0:0:0:0:
182,192,130003,1,0,0:0:0:0:
109,192,130082,1,0,0:0:0:0:
36,192,130082,1,0,0:0:0:0:
329,192,130161,1,0,0:0:0:0:
402,192,130161,1,0,0:0:0:0:
109,192,130240,1,0,0:0:0:0:
36,192,130240,1,0,0:0:0:0:
329,192,130319,1,0,0:0:0:0:
402,192,130319,1,0,0:0:0:0:
256,192,130319,1,0,0:0:0:0:
109,192,130398,1,0,0:0:0:0:
36,192,130398,1,0,0:0:0:0:
329,192,130477,1,0,0:0:0:0:
402,192,130477,1,0,0:0:0:0:
109,192,130556,1,0,0:0:0:0:
182,192,130556,1,0,0:0:0:0:
402,192,130635,1,0,0:0:0:0:
329,192,130635,1,0,0:0:0:0:
182,192,130674,1,0,0:0:0:0:
109,192,130714,1,0,0:0:0:0:
36,192,130714,1,0,0:0:0:0:
329,192,130753,1,0,0:0:0:0:
402,192,130793,1,0,0:0:0:0:
475,192,130793,1,0,0:0:0:0:
182,192,130872,1,0,0:0:0:0:
109,192,130872,1,0,0:0:0:0:
329,192,130911,1,0,0:0:0:0:
402,192,130951,1,0,0:0:0:0:
475,192,130951,1,0,0:0:0:0:
182,192,131030,1,0,0:0:0:0:
109,192,131030,1,0,0:0:0:0:
256,192,131108,1,0,0:0:0:0:
329,192,131108,1,0,0:0:0:0:
402,192,131187,1,0,0:0:0:0:
475,192,131187,1,0,0:0:0:0:
109,192,131266,1,0,0:0:0:0:
36,192,131266,1,0,0:0:0:0:
402,192,131345,1,0,0:0:0:0:
475,192,131345,1,0,0:0:0:0:
109,192,131424,1,0,0:0:0:0:
36,192,131424,1,0,0:0:0:0:
402,192,131503,1,0,0:0:0:0:
475,192,131503,1,0,0:0:0:0:
109,192,131582,1,0,0:0:0:0:
36,192,131582,1,0,0:0:0:0:
329,192,131622,1,0,0:0:0:0:
402,192,131661,1,0,0:0:0:0:
475,192,131661,1,0,0:0:0:0:
109,192,131740,1,0,0:0:0:0:
36,192,131740,1,0,0:0:0:0:
329,192,131819,1,0,0:0:0:0:
402,192,131819,1,0,0:0:0:0:
36,192,131898,1,0,0:0:0:0:
109,192,131898,1,0,0:0:0:0:
256,192,131898,1,0,0:0:0:0:
182,192,131977,1,0,0:0:0:0:
475,192,131977,1,0,0:0:0:0:
329,192,131977,1,0,0:0:0:0:
329,192,132056,1,0,0:0:0:0:
475,192,132056,1,0,0:0:0:0:
182,192,132056,1,0,0:0:0:0:
36,192,132214,1,0,0:0:0:0:
109,192,132214,1,0,0:0:0:0:
256,192,132214,1,0,0:0:0:0:
182,192,132293,1,0,0:0:0:0:
329,192,132293,1,0,0:0:0:0:
475,192,132293,1,0,0:0:0:0:
475,192,132372,1,0,0:0:0:0:
329,192,132372,1,0,0:0:0:0:
182,192,132372,1,0,0:0:0:0:
256,192,132530,1,0,0:0:0:0:
36,192,132530,1,0,0:0:0:0:
109,192,132530,1,0,0:0:0:0:
402,192,132608,128,0,132766:0:0:0:0:
182,192,132608,128,0,132766:0:0:0:0:
475,192,132608,128,0,132766:0:0:0:0:
329,192,132766,1,0,0:0:0:0:
109,192,132766,1,0,0:0:0:0:
36,192,132766,1,0,0:0:0:0:
475,192,132845,1,0,0:0:0:0:
402,192,132845,1,0,0:0:0:0:
182,192,132845,1,0,0:0:0:0:
329,192,132924,1,0,0:0:0:0:
109,192,132924,1,0,0:0:0:0:
36,192,132924,1,0,0:0:0:0:
475,192,133082,128,0,133240:0:0:0:0:
402,192,133082,128,0,133240:0:0:0:0:
182,192,133082,128,0,133240:0:0:0:0:
329,192,133240,1,0,0:0:0:0:
36,192,133240,1,0,0:0:0:0:
109,192,133240,1,0,0:0:0:0:
109,192,133319,1,0,0:0:0:0:
36,192,133319,1,0,0:0:0:0:
329,192,133319,1,0,0:0:0:0:
36,192,133477,1,0,0:0:0:0:
256,192,133477,1,0,0:0:0:0:
329,192,133477,1,0,0:0:0:0:
109,192,133556,1,0,0:0:0:0:
402,192,133556,1,0,0:0:0:0:
475,192,133556,1,0,0:0:0:0:
182,192,133635,1,0,0:0:0:0:
329,192,133635,1,0,0:0:0:0:
109,192,133714,1,0,0:0:0:0:
256,192,133714,1,0,0:0:0:0:
402,192,133714,1,0,0:0:0:0:
329,192,133793,128,0,134345:0:0:0:0:
182,192,133793,128,0,134345:0:0:0:0:
36,192,133793,128,0,134345:0:0:0:0:
36,192,134424,1,0,0:0:0:0:
109,192,134424,1,0,0:0:0:0:
402,192,134424,1,0,0:0:0:0:
475,192,134424,1,0,0:0:0:0:
182,192,134424,1,0,0:0:0:0:
329,192,134424,1,0,0:0:0:0:
182,192,135372,1,0,0:0:0:0:
475,192,135372,1,0,0:0:0:0:
36,192,136319,1,0,0:0:0:0:
256,192,136319,1,0,0:0:0:0:
109,192,136951,1,0,0:0:0:0:
475,192,136951,1,0,0:0:0:0:
36,192,137898,1,0,0:0:0:0:
402,192,137898,1,0,0:0:0:0:
36,192,138845,1,0,0:0:0:0:
256,192,138845,1,0,0:0:0:0:
182,192,139477,1,0,0:0:0:0:
329,192,139477,1,0,0:0:0:0:
182,192,140424,1,0,0:0:0:0:
475,192,140424,1,0,0:0:0:0:
109,192,141372,1,0,0:0:0:0:
329,192,141372,1,0,0:0:0:0:
36,192,142003,1,0,0:0:0:0:
475,192,142003,1,0,0:0:0:0:
36,192,142951,1,0,0:0:0:0:
402,192,142951,1,0,0:0:0:0:
36,192,143898,1,0,0:0:0:0:
256,192,143898,1,0,0:0:0:0:
109,192,144530,1,0,0:0:0:0:
475,192,144530,1,0,0:0:0:0:
402,192,145161,1,0,0:0:0:0:
475,192,145161,1,0,0:0:0:0:
329,192,145319,1,0,0:0:0:0:
402,192,145319,1,0,0:0:0:0:
256,192,145477,1,0,0:0:0:0:
329,192,145477,1,0,0:0:0:0:
36,192,145477,1,0,0:0:0:0:
182,192,146740,1,0,0:0:0:0:
256,192,146898,1,0,0:0:0:0:
329,192,147056,1,0,0:0:0:0:
36,192,147056,1,0,0:0:0:0:
182,192,147530,1,0,0:0:0:0:
402,192,147530,1,0,0:0:0:0:
402,192,147845,1,0,0:0:0:0:
475,192,147845,1,0,0:0:0:0:
182,192,148003,1,0,0:0:0:0:
256,192,148003,1,0,0:0:0:0:
36,192,148003,1,0,0:0:0:0:
109,192,149108,1,0,0:0:0:0:
182,192,149266,1,0,0:0:0:0:
256,192,149424,1,0,0:0:0:0:
329,192,149582,1,0,0:0:0:0:
475,192,149582,1,0,0:0:0:0:
109,192,149582,1,0,0:0:0:0:
329,192,150214,1,0,0:0:0:0:
475,192,150214,1,0,0:0:0:0:
256,192,150372,1,0,0:0:0:0:
402,192,150372,1,0,0:0:0:0:
329,192,150530,1,0,0:0:0:0:
182,192,150530,1,0,0:0:0:0:
36,192,150530,1,0,0:0:0:0:
182,192,151793,1,0,0:0:0:0:
475,192,151951,1,0,0:0:0:0:
109,192,152108,1,0,0:0:0:0:
402,192,152108,1,0,0:0:0:0:
36,192,152108,128,0,153372:0:0:0:0:
329,192,152266,1,0,0:0:0:0:
256,192,152424,1,0,0:0:0:0:
109,192,152582,128,0,153372:0:0:0:0:
475,192,152582,128,0,153214:0:0:0:0:
182,192,153056,1,0,0:0:0:0:
402,192,153214,1,0,0:0:0:0:
475,192,153372,128,0,154635:0:0:0:0:
256,192,153372,1,0,0:0:0:0:
402,192,153530,1,0,0:0:0:0:
109,192,153687,1,0,0:0:0:0:
402,192,153845,128,0,154635:0:0:0:0:
182,192,153845,128,0,154319:0:0:0:0:
36,192,154319,128,0,154635:0:0:0:0:
109,192,154635,1,0,0:0:0:0:
256,192,154635,1,0,0:0:0:0:
329,192,154635,1,0,0:0:0:0:
109,192,155108,1,0,0:0:0:0:
402,192,155266,128,0,155345:0:0:0:0:
475,192,155266,128,0,155345:0:0:0:0:
402,192,155424,128,0,155503:0:0:0:0:
329,192,155424,128,0,155503:0:0:0:0:
256,192,155582,128,0,155661:0:0:0:0:
329,192,155582,128,0,155661:0:0:0:0:
109,192,155582,1,0,0:0:0:0:
109,192,156056,1,0,0:0:0:0:
109,192,156530,1,0,0:0:0:0:
256,192,156845,128,0,156924:0:0:0:0:
329,192,157003,128,0,157082:0:0:0:0:
402,192,157161,128,0,157240:0:0:0:0:
475,192,157161,128,0,157240:0:0:0:0:
109,192,157161,1,0,0:0:0:0:
182,192,157635,1,0,0:0:0:0:
329,192,157635,128,0,157714:0:0:0:0:
402,192,157635,128,0,157714:0:0:0:0:
182,192,157951,128,0,158030:0:0:0:0:
475,192,157951,128,0,158030:0:0:0:0:
256,192,158108,1,0,0:0:0:0:
109,192,158108,128,0,158187:0:0:0:0:
402,192,158108,128,0,158187:0:0:0:0:
256,192,158582,1,0,0:0:0:0:
256,192,159056,1,0,0:0:0:0:
182,192,159214,128,0,159293:0:0:0:0:
329,192,159372,128,0,159451:0:0:0:0:
475,192,159530,128,0,159608:0:0:0:0:
329,192,159687,128,0,159766:0:0:0:0:
475,192,159687,128,0,159766:0:0:0:0:
36,192,159687,1,0,0:0:0:0:
36,192,160161,1,0,0:0:0:0:
329,192,160319,128,0,160398:0:0:0:0:
475,192,160319,128,0,160398:0:0:0:0:
256,192,160477,128,0,160556:0:0:0:0:
402,192,160477,128,0,160556:0:0:0:0:
182,192,160635,128,0,160714:0:0:0:0:
329,192,160635,128,0,160714:0:0:0:0:
109,192,160635,1,0,0:0:0:0:
109,192,161108,1,0,0:0:0:0:
109,192,161582,1,0,0:0:0:0:
256,192,161898,128,0,161977:0:0:0:0:
475,192,162056,128,0,162135:0:0:0:0:
182,192,162214,1,0,0:0:0:0:
402,192,162214,128,0,162293:0:0:0:0:
329,192,162372,128,0,162451:0:0:0:0:
256,192,162530,128,0,162608:0:0:0:0:
475,192,162687,128,0,162766:0:0:0:0:
402,192,162687,128,0,162766:0:0:0:0:
182,192,162687,1,0,0:0:0:0:
256,192,163161,128,0,163240:0:0:0:0:
475,192,163319,128,0,163398:0:0:0:0:
182,192,163477,1,0,0:0:0:0:
329,192,163477,128,0,163556:0:0:0:0:
402,192,163635,128,0,163714:0:0:0:0:
256,192,163793,128,0,163872:0:0:0:0:
36,192,163951,1,0,0:0:0:0:
475,192,163951,128,0,164030:0:0:0:0:
329,192,163951,128,0,164030:0:0:0:0:
256,192,164424,128,0,164503:0:0:0:0:
109,192,164740,128,0,164819:0:0:0:0:
256,192,164740,128,0,164819:0:0:0:0:
182,192,165687,128,0,165766:0:0:0:0:
402,192,165687,128,0,165766:0:0:0:0:
109,192,166635,128,0,166714:0:0:0:0:
256,192,166635,128,0,166714:0:0:0:0:
36,192,167266,128,0,167345:0:0:0:0:
402,192,167266,128,0,167345:0:0:0:0:
36,192,168214,128,0,168293:0:0:0:0:
329,192,168214,128,0,168293:0:0:0:0:
36,192,169161,128,0,169240:0:0:0:0:
256,192,169161,128,0,169793:0:0:0:0:
36,192,169793,1,0,0:0:0:0:
109,192,169793,1,0,0:0:0:0:
182,192,169793,1,0,0:0:0:0:
329,192,169793,1,0,0:0:0:0:
402,192,169793,1,0,0:0:0:0:
475,192,169793,1,0,0:0:0:0:
182,192,170740,1,0,0:0:0:0:
475,192,170740,1,0,0:0:0:0:
36,192,171372,1,0,0:0:0:0:
256,192,171372,1,0,0:0:0:0:
329,192,171530,1,0,0:0:0:0:
475,192,171687,1,0,0:0:0:0:
329,192,171845,1,0,0:0:0:0:
182,192,171845,128,0,171924:0:0:0:0:
36,192,172003,128,0,172240:0:0:0:0:
182,192,172003,1,0,0:0:0:0:
36,192,172319,1,0,0:0:0:0:
329,192,172319,1,0,0:0:0:0:
329,192,172477,1,0,0:0:0:0:
109,192,172635,1,0,0:0:0:0:
402,192,172635,1,0,0:0:0:0:
256,192,172793,1,0,0:0:0:0:
182,192,172872,1,0,0:0:0:0:
36,192,172951,1,0,0:0:0:0:
109,192,173108,1,0,0:0:0:0:
402,192,173108,1,0,0:0:0:0:
329,192,173266,1,0,0:0:0:0:
256,192,173345,1,0,0:0:0:0:
329,192,173424,1,0,0:0:0:0:
256,192,173503,1,0,0:0:0:0:
109,192,173582,128,0,173661:0:0:0:0:
329,192,173582,128,0,173661:0:0:0:0:
475,192,173582,128,0,173661:0:0:0:0:
329,192,173740,128,0,173819:0:0:0:0:
475,192,173740,128,0,173819:0:0:0:0:
109,192,173740,128,0,173819:0:0:0:0:
109,192,173898,128,0,174056:0:0:0:0:
329,192,173898,128,0,174056:0:0:0:0:
475,192,173898,128,0,174056:0:0:0:0:
36,192,174056,128,0,174214:0:0:0:0:
182,192,174214,1,0,0:0:0:0:
256,192,174214,1,0,0:0:0:0:
329,192,174214,1,0,0:0:0:0:
402,192,174214,1,0,0:0:0:0:
475,192,174214,1,0,0:0:0:0:
256,192,174530,128,0,174845:0:0:0:0:
36,192,174845,1,0,0:0:0:0:
109,192,174845,1,0,0:0:0:0:
182,192,174845,1,0,0:0:0:0:
329,192,174845,1,0,0:0:0:0:
402,192,174845,1,0,0:0:0:0:
475,192,174845,1,0,0:0:0:0:
36,192,175003,1,0,0:0:0:0:
109,192,175003,1,0,0:0:0:0:
182,192,175003,1,0,0:0:0:0:
329,192,175003,1,0,0:0:0:0:
402,192,175003,1,0,0:0:0:0:
475,192,175003,1,0,0:0:0:0:
36,192,175161,1,0,0:0:0:0:
109,192,175161,1,0,0:0:0:0:
256,192,175161,1,0,0:0:0:0:
475,192,175161,1,0,0:0:0:0:
402,192,175161,1,0,0:0:0:0:
36,192,175319,1,0,0:0:0:0:
109,192,175319,1,0,0:0:0:0:
329,192,175319,1,0,0:0:0:0:
402,192,175319,1,0,0:0:0:0:
182,192,175398,1,0,0:0:0:0:
475,192,175398,1,0,0:0:0:0:
402,192,175477,1,0,0:0:0:0:
329,192,175477,1,0,0:0:0:0:
109,192,175477,1,0,0:0:0:0:
36,192,175477,1,0,0:0:0:0:
109,192,175635,1,0,0:0:0:0:
182,192,175635,1,0,0:0:0:0:
402,192,175635,1,0,0:0:0:0:
475,192,175635,1,0,0:0:0:0:
109,192,175793,1,0,0:0:0:0:
36,192,175793,1,0,0:0:0:0:
402,192,175793,1,0,0:0:0:0:
475,192,175793,1,0,0:0:0:0:
402,192,175951,1,0,0:0:0:0:
475,192,175951,1,0,0:0:0:0:
109,192,175951,1,0,0:0:0:0:
36,192,175951,1,0,0:0:0:0:
182,192,176030,1,0,0:0:0:0:
329,192,176030,1,0,0:0:0:0:
402,192,176108,1,0,0:0:0:0:
475,192,176108,1,0,0:0:0:0:
109,192,176108,1,0,0:0:0:0:
36,192,176108,1,0,0:0:0:0:
109,192,176266,1,0,0:0:0:0:
182,192,176266,1,0,0:0:0:0:
256,192,176266,1,0,0:0:0:0:
329,192,176266,1,0,0:0:0:0:
256,192,176424,1,0,0:0:0:0:
329,192,176424,1,0,0:0:0:0:
402,192,176424,1,0,0:0:0:0:
475,192,176424,1,0,0:0:0:0:
36,192,176582,1,0,0:0:0:0:
109,192,176582,1,0,0:0:0:0:
182,192,176582,1,0,0:0:0:0:
256,192,176582,1,0,0:0:0:0:
329,192,176661,1,0,0:0:0:0:
402,192,176661,1,0,0:0:0:0:
256,192,176740,1,0,0:0:0:0:
182,192,176740,1,0,0:0:0:0:
109,192,176740,1,0,0:0:0:0:
36,192,176740,1,0,0:0:0:0:
256,192,176898,1,0,0:0:0:0:
329,192,176898,1,0,0:0:0:0:
402,192,176898,1,0,0:0:0:0:
475,192,176898,1,0,0:0:0:0:
109,192,176977,1,0,0:0:0:0:
36,192,176977,1,0,0:0:0:0:
256,192,177056,1,0,0:0:0:0:
329,192,177056,1,0,0:0:0:0:
402,192,177056,1,0,0:0:0:0:
475,192,177056,1,0,0:0:0:0:
36,192,177214,1,0,0:0:0:0:
109,192,177214,1,0,0:0:0:0:
402,192,177214,1,0,0:0:0:0:
475,192,177214,1,0,0:0:0:0:
182,192,177293,1,0,0:0:0:0:
329,192,177293,1,0,0:0:0:0:
109,192,177372,1,0,0:0:0:0:
36,192,177372,1,0,0:0:0:0:
402,192,177372,1,0,0:0:0:0:
475,192,177372,1,0,0:0:0:0:
182,192,177411,1,0,0:0:0:0:
329,192,177451,1,0,0:0:0:0:
256,192,177490,1,0,0:0:0:0:
36,192,177530,1,0,0:0:0:0:
182,192,177569,1,0,0:0:0:0:
329,192,177608,1,0,0:0:0:0:
256,192,177648,1,0,0:0:0:0:
402,192,177687,1,0,0:0:0:0:
475,192,177687,1,0,0:0:0:0:
109,192,177687,1,0,0:0:0:0:
36,192,177687,1,0,0:0:0:0:
182,192,177727,1,0,0:0:0:0:
329,192,177766,1,0,0:0:0:0:
402,192,177806,1,0,0:0:0:0:
36,192,177845,1,0,0:0:0:0:
182,192,177885,1,0,0:0:0:0:
256,192,177924,1,0,0:0:0:0:
329,192,177964,1,0,0:0:0:0:
36,192,178003,1,0,0:0:0:0:
109,192,178003,1,0,0:0:0:0:
402,192,178003,1,0,0:0:0:0:
475,192,178003,1,0,0:0:0:0:
182,192,178043,1,0,0:0:0:0:
329,192,178082,1,0,0:0:0:0:
256,192,178122,1,0,0:0:0:0:
109,192,178201,1,0,0:0:0:0:
182,192,178240,1,0,0:0:0:0:
256,192,178280,1,0,0:0:0:0:
109,192,178319,1,0,0:0:0:0:
36,192,178319,1,0,0:0:0:0:
402,192,178319,1,0,0:0:0:0:
475,192,178319,1,0,0:0:0:0:
329,192,178358,1,0,0:0:0:0:
256,192,178398,1,0,0:0:0:0:
182,192,178437,1,0,0:0:0:0:
402,192,178477,1,0,0:0:0:0:
36,192,178477,1,0,0:0:0:0:
329,192,178516,1,0,0:0:0:0:
256,192,178556,1,0,0:0:0:0:
182,192,178595,1,0,0:0:0:0:
36,192,178635,1,0,0:0:0:0:
475,192,178635,1,0,0:0:0:0:
402,192,178635,1,0,0:0:0:0:
109,192,178661,1,0,0:0:0:0:
182,192,178687,1,0,0:0:0:0:
256,192,178714,1,0,0:0:0:0:
329,192,178740,1,0,0:0:0:0:
402,192,178766,1,0,0:0:0:0:
475,192,178793,1,0,0:0:0:0:
36,192,178872,1,0,0:0:0:0:
109,192,178898,1,0,0:0:0:0:
182,192,178924,1,0,0:0:0:0:
256,192,178951,1,0,0:0:0:0:
329,192,178977,1,0,0:0:0:0:
402,192,179003,1,0,0:0:0:0:
475,192,179030,1,0,0:0:0:0:
36,192,179108,1,0,0:0:0:0:
109,192,179135,1,0,0:0:0:0:
182,192,179161,1,0,0:0:0:0:
256,192,179187,1,0,0:0:0:0:
329,192,179214,1,0,0:0:0:0:
402,192,179240,1,0,0:0:0:0:
475,192,179266,1,0,0:0:0:0:
36,192,179345,1,0,0:0:0:0:
109,192,179372,1,0,0:0:0:0:
182,192,179398,1,0,0:0:0:0:
256,192,179424,1,0,0:0:0:0:
329,192,179451,1,0,0:0:0:0:
402,192,179477,1,0,0:0:0:0:
475,192,179503,1,0,0:0:0:0:
36,192,179582,1,0,0:0:0:0:
109,192,179608,1,0,0:0:0:0:
182,192,179635,1,0,0:0:0:0:
256,192,179661,1,0,0:0:0:0:
329,192,179687,1,0,0:0:0:0:
402,192,179714,1,0,0:0:0:0:
475,192,179740,1,0,0:0:0:0:
109,192,179740,1,0,0:0:0:0:
182,192,179766,1,0,0:0:0:0:
256,192,179793,1,0,0:0:0:0:
329,192,179819,1,0,0:0:0:0:
402,192,179845,1,0,0:0:0:0:
475,192,179872,1,0,0:0:0:0:
182,192,179898,1,0,0:0:0:0:
109,192,179898,1,0,0:0:0:0:
36,192,179898,1,0,0:0:0:0:
182,192,180530,128,0,180608:0:0:0:0:
329,192,180530,128,0,180608:0:0:0:0:
256,192,180687,1,0,0:0:0:0:
182,192,180766,1,0,0:0:0:0:
329,192,180766,1,0,0:0:0:0:
109,192,181003,1,0,0:0:0:0:
402,192,181003,1,0,0:0:0:0:
182,192,181161,128,0,181240:0:0:0:0:
329,192,181161,128,0,181240:0:0:0:0:
256,192,181319,1,0,0:0:0:0:
182,192,181398,1,0,0:0:0:0:
329,192,181398,1,0,0:0:0:0:
256,192,181635,1,0,0:0:0:0:
182,192,181793,128,0,181872:0:0:0:0:
329,192,181793,128,0,181872:0:0:0:0:
36,192,181977,1,0,0:0:0:0:
256,192,181977,1,0,0:0:0:0:
109,192,182214,1,0,0:0:0:0:
329,192,182214,1,0,0:0:0:0:
182,192,182266,1,0,0:0:0:0:
402,192,182266,1,0,0:0:0:0:
182,192,182424,1,0,0:0:0:0:
402,192,182424,1,0,0:0:0:0:
475,192,182424,1,0,0:0:0:0:
256,192,182424,1,0,0:0:0:0:
182,192,182661,1,0,0:0:0:0:
402,192,182661,1,0,0:0:0:0:
109,192,182898,1,0,0:0:0:0:
329,192,182898,1,0,0:0:0:0:
36,192,183056,1,0,0:0:0:0:
109,192,183056,1,0,0:0:0:0:
256,192,183056,1,0,0:0:0:0:
36,192,183293,1,0,0:0:0:0:
182,192,183293,1,0,0:0:0:0:
109,192,183530,1,0,0:0:0:0:
256,192,183530,1,0,0:0:0:0:
329,192,183608,1,0,0:0:0:0:
475,192,183608,1,0,0:0:0:0:
109,192,183687,1,0,0:0:0:0:
182,192,183687,1,0,0:0:0:0:
182,192,183766,1,0,0:0:0:0:
109,192,183766,1,0,0:0:0:0:
402,192,183845,1,0,0:0:0:0:
475,192,183845,1,0,0:0:0:0:
256,192,183924,1,0,0:0:0:0:
182,192,183924,1,0,0:0:0:0:
402,192,184003,1,0,0:0:0:0:
475,192,184003,1,0,0:0:0:0:
36,192,184082,1,0,0:0:0:0:
109,192,184082,1,0,0:0:0:0:
256,192,184161,1,0,0:0:0:0:
329,192,184161,1,0,0:0:0:0:
256,192,184240,1,0,0:0:0:0:
329,192,184240,1,0,0:0:0:0:
36,192,184319,1,0,0:0:0:0:
109,192,184319,1,0,0:0:0:0:
182,192,184398,1,0,0:0:0:0:
256,192,184398,1,0,0:0:0:0:
329,192,184477,1,0,0:0:0:0:
402,192,184477,1,0,0:0:0:0:
475,192,184477,1,0,0:0:0:0:
36,192,184635,1,0,0:0:0:0:
109,192,184635,1,0,0:0:0:0:
182,192,184635,1,0,0:0:0:0:
329,192,184635,1,0,0:0:0:0:
402,192,184635,1,0,0:0:0:0:
475,192,184635,1,0,0:0:0:0:
36,192,184951,1,0,0:0:0:0:
109,192,184951,1,0,0:0:0:0:
256,192,184951,1,0,0:0:0:0:
402,192,184951,1,0,0:0:0:0:
475,192,184951,1,0,0:0:0:0:
109,192,185108,1,0,0:0:0:0:
256,192,185108,1,0,0:0:0:0:
182,192,185187,1,0,0:0:0:0:
329,192,185187,1,0,0:0:0:0:
402,192,185187,1,0,0:0:0:0:
475,192,185187,1,0,0:0:0:0:
109,192,185266,1,0,0:0:0:0:
36,192,185266,1,0,0:0:0:0:
402,192,185266,1,0,0:0:0:0:
475,192,185266,1,0,0:0:0:0:
36,192,185424,1,0,0:0:0:0:
329,192,185424,1,0,0:0:0:0:
402,192,185477,1,0,0:0:0:0:
256,192,185530,1,0,0:0:0:0:
182,192,185582,1,0,0:0:0:0:
36,192,185582,1,0,0:0:0:0:
475,192,185582,1,0,0:0:0:0:
109,192,185661,1,0,0:0:0:0:
329,192,185661,1,0,0:0:0:0:
402,192,185661,1,0,0:0:0:0:
182,192,185740,1,0,0:0:0:0:
256,192,185740,1,0,0:0:0:0:
402,192,185819,1,0,0:0:0:0:
329,192,185819,1,0,0:0:0:0:
36,192,185898,1,0,0:0:0:0:
109,192,185898,1,0,0:0:0:0:
182,192,185898,1,0,0:0:0:0:
475,192,185898,1,0,0:0:0:0:
36,192,186056,1,0,0:0:0:0:
329,192,186056,1,0,0:0:0:0:
402,192,186056,1,0,0:0:0:0:
475,192,186056,1,0,0:0:0:0:
36,192,186214,1,0,0:0:0:0:
109,192,186214,1,0,0:0:0:0:
256,192,186214,1,0,0:0:0:0:
475,192,186214,1,0,0:0:0:0:
109,192,186372,1,0,0:0:0:0:
182,192,186372,1,0,0:0:0:0:
256,192,186451,1,0,0:0:0:0:
402,192,186451,1,0,0:0:0:0:
475,192,186451,1,0,0:0:0:0:
329,192,186451,1,0,0:0:0:0:
36,192,186530,1,0,0:0:0:0:
329,192,186530,1,0,0:0:0:0:
402,192,186530,1,0,0:0:0:0:
109,192,186530,1,0,0:0:0:0:
36,192,186687,1,0,0:0:0:0:
256,192,186687,1,0,0:0:0:0:
329,192,186740,1,0,0:0:0:0:
182,192,186793,1,0,0:0:0:0:
109,192,186845,1,0,0:0:0:0:
36,192,186845,1,0,0:0:0:0:
475,192,186845,1,0,0:0:0:0:
256,192,186924,1,0,0:0:0:0:
329,192,186924,1,0,0:0:0:0:
402,192,186924,1,0,0:0:0:0:
182,192,187003,1,0,0:0:0:0:
36,192,187003,1,0,0:0:0:0:
475,192,187082,1,0,0:0:0:0:
329,192,187082,1,0,0:0:0:0:
36,192,187161,1,0,0:0:0:0:
109,192,187161,1,0,0:0:0:0:
182,192,187161,1,0,0:0:0:0:
402,192,187161,1,0,0:0:0:0:
109,192,187319,1,0,0:0:0:0:
329,192,187319,1,0,0:0:0:0:
402,192,187319,1,0,0:0:0:0:
475,192,187319,1,0,0:0:0:0:
182,192,187398,1,0,0:0:0:0:
256,192,187398,1,0,0:0:0:0:
109,192,187477,1,0,0:0:0:0:
36,192,187477,1,0,0:0:0:0:
475,192,187477,1,0,0:0:0:0:
329,192,187477,1,0,0:0:0:0:
36,192,187635,1,0,0:0:0:0:
182,192,187635,1,0,0:0:0:0:
256,192,187714,1,0,0:0:0:0:
402,192,187714,1,0,0:0:0:0:
329,192,187714,1,0,0:0:0:0:
475,192,187714,1,0,0:0:0:0:
182,192,187793,1,0,0:0:0:0:
36,192,187793,1,0,0:0:0:0:
256,192,187793,1,0,0:0:0:0:
329,192,187793,1,0,0:0:0:0:
36,192,187951,1,0,0:0:0:0:
402,192,187951,1,0,0:0:0:0:
329,192,188003,1,0,0:0:0:0:
256,192,188056,1,0,0:0:0:0:
182,192,188108,1,0,0:0:0:0:
109,192,188108,1,0,0:0:0:0:
475,192,188108,1,0,0:0:0:0:
256,192,188187,1,0,0:0:0:0:
329,192,188187,1,0,0:0:0:0:
402,192,188187,1,0,0:0:0:0:
36,192,188266,1,0,0:0:0:0:
182,192,188266,1,0,0:0:0:0:
182,192,188345,1,0,0:0:0:0:
36,192,188345,1,0,0:0:0:0:
402,192,188424,1,0,0:0:0:0:
329,192,188424,1,0,0:0:0:0:
256,192,188424,1,0,0:0:0:0:
475,192,188424,1,0,0:0:0:0:
36,192,188582,1,0,0:0:0:0:
329,192,188582,1,0,0:0:0:0:
109,192,188582,1,0,0:0:0:0:
475,192,188582,1,0,0:0:0:0:
329,192,188661,1,0,0:0:0:0:
475,192,188661,1,0,0:0:0:0:
256,192,188740,1,0,0:0:0:0:
109,192,188740,1,0,0:0:0:0:
36,192,188740,1,0,0:0:0:0:
182,192,188740,1,0,0:0:0:0:
36,192,188898,1,0,0:0:0:0:
329,192,188898,1,0,0:0:0:0:
109,192,188977,1,0,0:0:0:0:
256,192,188977,1,0,0:0:0:0:
402,192,188977,1,0,0:0:0:0:
475,192,188977,1,0,0:0:0:0:
256,192,189056,1,8,0:0:0:0:
36,192,189056,1,0,0:0:0:0:
402,192,189056,1,0,0:0:0:0:
475,192,189056,1,0,0:0:0:0:
36,192,189214,1,0,0:0:0:0:
109,192,189214,1,0,0:0:0:0:
329,192,189214,1,0,0:0:0:0:
182,192,189293,1,0,0:0:0:0:
256,192,189293,1,0,0:0:0:0:
329,192,189372,1,0,0:0:0:0:
36,192,189372,1,0,0:0:0:0:
475,192,189372,1,0,0:0:0:0:
109,192,189451,1,0,0:0:0:0:
256,192,189451,1,0,0:0:0:0:
182,192,189530,1,0,0:0:0:0:
329,192,189530,1,0,0:0:0:0:
402,192,189608,1,0,0:0:0:0:
109,192,189608,1,0,0:0:0:0:
36,192,189687,1,0,0:0:0:0:
475,192,189687,1,0,0:0:0:0:
256,192,189687,1,0,0:0:0:0:
109,192,189766,1,0,0:0:0:0:
402,192,189766,1,0,0:0:0:0:
182,192,189845,1,0,0:0:0:0:
329,192,189845,1,0,0:0:0:0:
256,192,189924,1,0,0:0:0:0:
109,192,190003,1,0,0:0:0:0:
36,192,190003,1,0,0:0:0:0:
402,192,190003,1,0,0:0:0:0:
475,192,190003,1,0,0:0:0:0:
109,192,190161,1,0,0:0:0:0:
256,192,190161,1,0,0:0:0:0:
182,192,190240,1,0,0:0:0:0:
329,192,190240,1,0,0:0:0:0:
402,192,190240,1,0,0:0:0:0:
475,192,190240,1,0,0:0:0:0:
109,192,190319,1,0,0:0:0:0:
36,192,190319,1,0,0:0:0:0:
402,192,190319,1,0,0:0:0:0:
475,192,190319,1,0,0:0:0:0:
36,192,190477,1,0,0:0:0:0:
329,192,190477,1,0,0:0:0:0:
402,192,190530,1,0,0:0:0:0:
256,192,190582,1,0,0:0:0:0:
182,192,190635,1,0,0:0:0:0:
36,192,190635,1,0,0:0:0:0:
475,192,190635,1,0,0:0:0:0:
109,192,190714,1,0,0:0:0:0:
329,192,190714,1,0,0:0:0:0:
402,192,190714,1,0,0:0:0:0:
182,192,190793,1,0,0:0:0:0:
256,192,190793,1,0,0:0:0:0:
402,192,190872,1,0,0:0:0:0:
329,192,190872,1,0,0:0:0:0:
36,192,190951,1,0,0:0:0:0:
109,192,190951,1,0,0:0:0:0:
182,192,190951,1,0,0:0:0:0:
475,192,190951,1,0,0:0:0:0:
36,192,191108,1,0,0:0:0:0:
329,192,191108,1,0,0:0:0:0:
402,192,191108,1,0,0:0:0:0:
475,192,191108,1,0,0:0:0:0:
36,192,191266,1,0,0:0:0:0:
109,192,191266,1,0,0:0:0:0:
256,192,191266,1,0,0:0:0:0:
475,192,191266,1,0,0:0:0:0:
109,192,191424,1,0,0:0:0:0:
182,192,191424,1,0,0:0:0:0:
256,192,191503,1,0,0:0:0:0:
402,192,191503,1,0,0:0:0:0:
475,192,191503,1,0,0:0:0:0:
329,192,191503,1,0,0:0:0:0:
36,192,191582,1,0,0:0:0:0:
329,192,191582,1,0,0:0:0:0:
402,192,191582,1,0,0:0:0:0:
109,192,191582,1,0,0:0:0:0:
36,192,191740,1,0,0:0:0:0:
256,192,191740,1,0,0:0:0:0:
329,192,191793,1,0,0:0:0:0:
182,192,191845,1,0,0:0:0:0:
109,192,191898,1,0,0:0:0:0:
36,192,191898,1,0,0:0:0:0:
475,192,191898,1,0,0:0:0:0:
256,192,191977,1,0,0:0:0:0:
329,192,191977,1,0,0:0:0:0:
402,192,191977,1,0,0:0:0:0:
182,192,192056,1,0,0:0:0:0:
36,192,192056,1,0,0:0:0:0:
475,192,192135,1,0,0:0:0:0:
329,192,192135,1,0,0:0:0:0:
36,192,192214,1,0,0:0:0:0:
109,192,192214,1,0,0:0:0:0:
182,192,192214,1,0,0:0:0:0:
402,192,192214,1,0,0:0:0:0:
109,192,192372,1,0,0:0:0:0:
329,192,192372,1,0,0:0:0:0:
402,192,192372,1,0,0:0:0:0:
475,192,192372,1,0,0:0:0:0:
182,192,192451,1,0,0:0:0:0:
256,192,192451,1,0,0:0:0:0:
109,192,192530,1,0,0:0:0:0:
36,192,192530,1,0,0:0:0:0:
475,192,192530,1,0,0:0:0:0:
329,192,192530,1,0,0:0:0:0:
182,192,192687,1,0,0:0:0:0:
256,192,192687,1,0,0:0:0:0:
109,192,192766,1,0,0:0:0:0:
329,192,192766,1,0,0:0:0:0:
36,192,192766,1,0,0:0:0:0:
475,192,192766,1,0,0:0:0:0:
109,192,192845,1,0,0:0:0:0:
36,192,192845,1,0,0:0:0:0:
329,192,192845,1,0,0:0:0:0:
475,192,192845,1,0,0:0:0:0:
36,192,193003,1,0,0:0:0:0:
329,192,193003,1,0,0:0:0:0:
256,192,193056,1,0,0:0:0:0:
109,192,193108,1,0,0:0:0:0:
182,192,193161,1,0,0:0:0:0:
475,192,193161,1,0,0:0:0:0:
36,192,193161,1,0,0:0:0:0:
329,192,193161,1,0,0:0:0:0:
256,192,193319,1,0,0:0:0:0:
329,192,193319,1,0,0:0:0:0:
109,192,193398,1,0,0:0:0:0:
182,192,193398,1,0,0:0:0:0:
475,192,193398,1,0,0:0:0:0:
36,192,193398,1,0,0:0:0:0:
109,192,193477,1,0,0:0:0:0:
182,192,193477,1,0,0:0:0:0:
36,192,193477,1,0,0:0:0:0:
475,192,193477,1,0,0:0:0:0:
36,192,193635,1,0,0:0:0:0:
402,192,193635,1,0,0:0:0:0:
109,192,193635,1,0,0:0:0:0:
329,192,193714,1,0,0:0:0:0:
182,192,193714,1,0,0:0:0:0:
256,192,193793,1,0,0:0:0:0:
36,192,193793,1,0,0:0:0:0:
402,192,193793,1,0,0:0:0:0:
475,192,193793,1,0,0:0:0:0:
109,192,193793,1,0,0:0:0:0:
36,192,194030,1,0,0:0:0:0:
109,192,194030,1,0,0:0:0:0:
256,192,194030,1,0,0:0:0:0:
402,192,194030,1,0,0:0:0:0:
475,192,194030,1,0,0:0:0:0:
36,192,194266,1,0,0:0:0:0:
109,192,194266,1,0,0:0:0:0:
256,192,194266,1,0,0:0:0:0:
402,192,194266,1,0,0:0:0:0:
475,192,194266,1,0,0:0:0:0:
329,192,194424,1,0,0:0:0:0:
475,192,194424,1,0,0:0:0:0:
402,192,194503,1,0,0:0:0:0:
256,192,194503,1,0,0:0:0:0:
182,192,194582,1,0,0:0:0:0:
329,192,194582,1,0,0:0:0:0:
256,192,194661,1,0,0:0:0:0:
109,192,194661,1,0,0:0:0:0:
36,192,194740,1,0,0:0:0:0:
475,192,194740,1,0,0:0:0:0:
402,192,194740,1,0,0:0:0:0:
109,192,194819,1,0,0:0:0:0:
182,192,194819,1,0,0:0:0:0:
329,192,194819,1,0,0:0:0:0:
402,192,194898,1,0,0:0:0:0:
475,192,194898,1,0,0:0:0:0:
36,192,194898,1,0,0:0:0:0:
109,192,194977,1,0,0:0:0:0:
182,192,194977,1,0,0:0:0:0:
329,192,194977,1,0,0:0:0:0:
256,192,195056,1,0,0:0:0:0:
36,192,195056,1,0,0:0:0:0:
402,192,195056,1,0,0:0:0:0:
475,192,195056,1,0,0:0:0:0:
182,192,195214,1,0,0:0:0:0:
329,192,195214,1,0,0:0:0:0:
109,192,195293,1,0,0:0:0:0:
402,192,195293,1,0,0:0:0:0:
36,192,195293,1,0,0:0:0:0:
475,192,195293,1,0,0:0:0:0:
109,192,195372,1,0,0:0:0:0:
36,192,195372,1,0,0:0:0:0:
402,192,195372,1,0,0:0:0:0:
475,192,195372,1,0,0:0:0:0:
36,192,195530,1,0,0:0:0:0:
182,192,195530,1,0,0:0:0:0:
256,192,195582,1,0,0:0:0:0:
329,192,195635,1,0,0:0:0:0:
402,192,195687,1,0,0:0:0:0:
36,192,195687,1,0,0:0:0:0:
475,192,195687,1,0,0:0:0:0:
109,192,195766,1,0,0:0:0:0:
329,192,195766,1,0,0:0:0:0:
182,192,195766,1,0,0:0:0:0:
36,192,195845,1,0,0:0:0:0:
402,192,195845,1,0,0:0:0:0:
329,192,195924,1,0,0:0:0:0:
182,192,195924,1,0,0:0:0:0:
36,192,196003,1,0,0:0:0:0:
109,192,196003,1,0,0:0:0:0:
402,192,196003,1,0,0:0:0:0:
475,192,196003,1,0,0:0:0:0:
36,192,196161,1,0,0:0:0:0:
182,192,196161,1,0,0:0:0:0:
329,192,196161,1,0,0:0:0:0:
402,192,196161,1,0,0:0:0:0:
36,192,196319,1,0,0:0:0:0:
109,192,196319,1,0,0:0:0:0:
256,192,196319,1,0,0:0:0:0:
475,192,196319,1,0,0:0:0:0:
182,192,196477,1,0,0:0:0:0:
475,192,196477,1,0,0:0:0:0:
109,192,196556,1,0,0:0:0:0:
36,192,196556,1,0,0:0:0:0:
402,192,196556,1,0,0:0:0:0:
329,192,196556,1,0,0:0:0:0:
36,192,196635,1,0,0:0:0:0:
329,192,196635,1,0,0:0:0:0:
402,192,196635,1,0,0:0:0:0:
109,192,196635,1,0,0:0:0:0:
36,192,196793,1,0,0:0:0:0:
475,192,196793,1,0,0:0:0:0:
329,192,196845,1,0,0:0:0:0:
182,192,196898,1,0,0:0:0:0:
402,192,196951,1,0,0:0:0:0:
36,192,196951,1,0,0:0:0:0:
475,192,196951,1,0,0:0:0:0:
182,192,197030,1,0,0:0:0:0:
329,192,197030,1,0,0:0:0:0:
109,192,197030,1,0,0:0:0:0:
475,192,197108,1,0,0:0:0:0:
36,192,197108,1,0,0:0:0:0:
182,192,197187,1,0,0:0:0:0:
329,192,197187,1,0,0:0:0:0:
36,192,197266,1,0,0:0:0:0:
475,192,197266,1,0,0:0:0:0:
256,192,197266,1,0,0:0:0:0:
402,192,197266,1,0,0:0:0:0:
329,192,197424,1,0,0:0:0:0:
182,192,197424,1,0,0:0:0:0:
109,192,197424,1,0,0:0:0:0:
36,192,197424,1,0,0:0:0:0:
402,192,197503,1,0,0:0:0:0:
256,192,197503,1,0,0:0:0:0:
182,192,197582,128,0,197740:0:0:0:0:
329,192,197582,128,0,197740:0:0:0:0:
182,192,197819,1,0,0:0:0:0:
402,192,197819,1,0,0:0:0:0:
329,192,197819,1,0,0:0:0:0:
475,192,197819,1,0,0:0:0:0:
182,192,197898,1,0,0:0:0:0:
36,192,197898,1,0,0:0:0:0:
329,192,197898,1,0,0:0:0:0:
109,192,197898,1,0,0:0:0:0:
36,192,198056,1,0,0:0:0:0:
402,192,198056,1,0,0:0:0:0:
329,192,198108,1,0,0:0:0:0:
256,192,198161,1,0,0:0:0:0:
182,192,198214,1,0,0:0:0:0:
109,192,198214,1,0,0:0:0:0:
475,192,198214,1,0,0:0:0:0:
256,192,198293,1,0,0:0:0:0:
329,192,198293,1,0,0:0:0:0:
402,192,198293,1,0,0:0:0:0:
36,192,198372,1,0,0:0:0:0:
182,192,198372,1,0,0:0:0:0:
182,192,198451,1,0,0:0:0:0:
36,192,198451,1,0,0:0:0:0:
402,192,198530,1,0,0:0:0:0:
329,192,198530,1,0,0:0:0:0:
256,192,198530,1,0,0:0:0:0:
475,192,198530,1,0,0:0:0:0:
36,192,198687,1,0,0:0:0:0:
329,192,198687,1,0,0:0:0:0:
109,192,198687,1,0,0:0:0:0:
475,192,198687,1,0,0:0:0:0:
329,192,198766,1,0,0:0:0:0:
475,192,198766,1,0,0:0:0:0:
256,192,198845,1,0,0:0:0:0:
109,192,198845,1,0,0:0:0:0:
36,192,198845,1,0,0:0:0:0:
182,192,198845,1,0,0:0:0:0:
36,192,199003,1,0,0:0:0:0:
329,192,199003,1,0,0:0:0:0:
109,192,199082,1,0,0:0:0:0:
182,192,199082,1,0,0:0:0:0:
402,192,199082,1,0,0:0:0:0:
475,192,199082,1,0,0:0:0:0:
36,192,199161,1,0,0:0:0:0:
402,192,199161,1,0,0:0:0:0:
475,192,199161,1,0,0:0:0:0:
256,192,199161,1,0,0:0:0:0:
36,192,199319,1,0,0:0:0:0:
475,192,199319,1,0,0:0:0:0:
329,192,199319,1,0,0:0:0:0:
109,192,199398,1,0,0:0:0:0:
256,192,199398,1,0,0:0:0:0:
329,192,199477,1,0,0:0:0:0:
36,192,199477,1,0,0:0:0:0:
475,192,199477,1,0,0:0:0:0:
402,192,199556,1,0,0:0:0:0:
256,192,199556,1,0,0:0:0:0:
182,192,199635,1,0,0:0:0:0:
329,192,199635,1,0,0:0:0:0:
402,192,199714,1,0,0:0:0:0:
109,192,199714,1,0,0:0:0:0:
36,192,199793,1,0,0:0:0:0:
475,192,199793,1,0,0:0:0:0:
256,192,199793,1,0,0:0:0:0:
109,192,199872,1,0,0:0:0:0:
402,192,199872,1,0,0:0:0:0:
182,192,199951,1,0,0:0:0:0:
329,192,199951,1,0,0:0:0:0:
256,192,200030,1,0,0:0:0:0:
109,192,200108,1,0,0:0:0:0:
36,192,200108,1,0,0:0:0:0:
402,192,200108,1,0,0:0:0:0:
475,192,200108,1,0,0:0:0:0:
109,192,200266,1,0,0:0:0:0:
182,192,200266,1,0,0:0:0:0:
36,192,200266,1,0,0:0:0:0:
256,192,200345,1,0,0:0:0:0:
329,192,200345,1,0,0:0:0:0:
402,192,200345,1,0,0:0:0:0:
475,192,200345,1,0,0:0:0:0:
36,192,200503,1,0,0:0:0:0:
109,192,200503,1,0,0:0:0:0:
182,192,200503,1,0,0:0:0:0:
256,192,200582,1,0,0:0:0:0:
329,192,200582,1,0,0:0:0:0:
402,192,200582,1,0,0:0:0:0:
475,192,200582,1,0,0:0:0:0:
182,192,200740,1,0,0:0:0:0:
329,192,200740,1,0,0:0:0:0:
36,192,200819,1,0,0:0:0:0:
109,192,200819,1,0,0:0:0:0:
475,192,200819,1,0,0:0:0:0:
402,192,200819,1,0,0:0:0:0:
182,192,200898,1,0,0:0:0:0:
329,192,200898,1,0,0:0:0:0:
109,192,200977,1,0,0:0:0:0:
36,192,200977,1,0,0:0:0:0:
256,192,200977,1,0,0:0:0:0:
182,192,201056,1,0,0:0:0:0:
402,192,201056,1,0,0:0:0:0:
475,192,201056,1,0,0:0:0:0:
109,192,201135,1,0,0:0:0:0:
36,192,201135,1,0,0:0:0:0:
256,192,201135,1,0,0:0:0:0:
182,192,201214,1,0,0:0:0:0:
329,192,201214,1,0,0:0:0:0:
402,192,201214,1,0,0:0:0:0:
475,192,201214,1,0,0:0:0:0:
36,192,201372,1,0,0:0:0:0:
109,192,201372,1,0,0:0:0:0:
182,192,201372,1,0,0:0:0:0:
256,192,201451,1,0,0:0:0:0:
329,192,201451,1,0,0:0:0:0:
402,192,201451,1,0,0:0:0:0:
475,192,201451,1,0,0:0:0:0:
36,192,201608,1,0,0:0:0:0:
109,192,201608,1,0,0:0:0:0:
329,192,201608,1,0,0:0:0:0:
256,192,201608,1,0,0:0:0:0:
402,192,201766,1,0,0:0:0:0:
475,192,201766,1,0,0:0:0:0:
329,192,201766,1,0,0:0:0:0:
182,192,201845,1,0,0:0:0:0:
256,192,201845,1,0,0:0:0:0:
109,192,201845,1,0,0:0:0:0:
36,192,201845,1,0,0:0:0:0:
36,192,202003,1,0,0:0:0:0:
109,192,202003,1,0,0:0:0:0:
402,192,202003,1,0,0:0:0:0:
475,192,202003,1,0,0:0:0:0:
329,192,202056,1,0,0:0:0:0:
256,192,202108,1,0,0:0:0:0:
36,192,202161,1,0,0:0:0:0:
109,192,202214,1,0,0:0:0:0:
182,192,202266,1,0,0:0:0:0:
256,192,202319,1,0,0:0:0:0:
329,192,202372,1,0,0:0:0:0:
402,192,202424,1,0,0:0:0:0:
182,192,202477,1,0,0:0:0:0:
256,192,202530,1,0,0:0:0:0:
329,192,202582,1,0,0:0:0:0:
475,192,202635,1,0,0:0:0:0:
109,192,202635,1,0,0:0:0:0:
36,192,202635,1,0,0:0:0:0:
402,192,202635,1,0,0:0:0:0:
182,192,202674,1,0,0:0:0:0:
256,192,202714,1,0,0:0:0:0:
329,192,202753,1,0,0:0:0:0:
402,192,202793,1,0,0:0:0:0:
475,192,202793,1,0,0:0:0:0:
36,192,202793,1,0,0:0:0:0:
109,192,202832,1,0,0:0:0:0:
182,192,202872,1,0,0:0:0:0:
256,192,202911,1,0,0:0:0:0:
36,192,202951,1,0,0:0:0:0:
475,192,202951,1,0,0:0:0:0:
109,192,202951,1,0,0:0:0:0:
402,192,202990,1,0,0:0:0:0:
329,192,203030,1,0,0:0:0:0:
256,192,203069,1,0,0:0:0:0:
182,192,203108,1,0,0:0:0:0:
36,192,203108,1,0,0:0:0:0:
475,192,203148,1,0,0:0:0:0:
402,192,203187,1,0,0:0:0:0:
329,192,203227,1,0,0:0:0:0:
256,192,203266,1,0,0:0:0:0:
109,192,203266,1,0,0:0:0:0:
36,192,203306,1,0,0:0:0:0:
329,192,203345,1,0,0:0:0:0:
402,192,203385,1,0,0:0:0:0:
475,192,203424,1,0,0:0:0:0:
182,192,203424,1,0,0:0:0:0:
109,192,203464,1,0,0:0:0:0:
36,192,203503,1,0,0:0:0:0:
256,192,203543,1,0,0:0:0:0:
402,192,203582,1,0,0:0:0:0:
475,192,203582,1,0,0:0:0:0:
109,192,203622,1,0,0:0:0:0:
182,192,203661,1,0,0:0:0:0:
256,192,203701,1,0,0:0:0:0:
329,192,203740,1,0,0:0:0:0:
402,192,203780,1,0,0:0:0:0:
36,192,203780,1,0,0:0:0:0:
109,192,203819,1,0,0:0:0:0:
182,192,203858,1,0,0:0:0:0:
329,192,203898,1,0,0:0:0:0:
402,192,203898,1,0,0:0:0:0:
475,192,203898,1,0,0:0:0:0:
256,192,203898,1,0,0:0:0:0:
182,192,203977,1,0,0:0:0:0:
109,192,203977,1,0,0:0:0:0:
36,192,203977,1,0,0:0:0:0:
329,192,204056,1,0,0:0:0:0:
402,192,204056,1,0,0:0:0:0:
475,192,204056,1,0,0:0:0:0:
36,192,204135,1,0,0:0:0:0:
109,192,204135,1,0,0:0:0:0:
256,192,204135,1,0,0:0:0:0:
182,192,204135,1,0,0:0:0:0:
329,192,204214,1,0,0:0:0:0:
402,192,204214,1,0,0:0:0:0:
475,192,204214,1,0,0:0:0:0:
36,192,204293,1,0,0:0:0:0:
109,192,204293,1,0,0:0:0:0:
182,192,204293,1,0,0:0:0:0:
256,192,204372,1,0,0:0:0:0:
329,192,204372,1,0,0:0:0:0:
402,192,204372,1,0,0:0:0:0:
475,192,204372,1,0,0:0:0:0:
109,192,204451,1,0,0:0:0:0:
36,192,204451,1,0,0:0:0:0:
182,192,204451,1,0,0:0:0:0:
329,192,204530,1,0,0:0:0:0:
402,192,204530,1,0,0:0:0:0:
475,192,204530,1,0,0:0:0:0:
256,192,204608,1,0,0:0:0:0:
182,192,204608,1,0,0:0:0:0:
36,192,204608,1,0,0:0:0:0:
109,192,204608,1,0,0:0:0:0:
329,192,204687,1,0,0:0:0:0:
402,192,204687,1,0,0:0:0:0:
475,192,204687,1,0,0:0:0:0:
36,192,204766,128,0,204845:0:0:0:0:
109,192,204766,128,0,204845:0:0:0:0:
182,192,204766,128,0,204845:0:0:0:0:
109,192,205161,1,0,0:0:0:0:
36,192,205161,1,0,0:0:0:0:
182,192,205161,1,0,0:0:0:0:
329,192,205161,1,0,0:0:0:0:
402,192,205161,1,0,0:0:0:0:
475,192,205161,1,0,0:0:0:0:
329,192,205451,1,0,0:0:0:0:
182,192,205451,1,0,0:0:0:0:
256,192,205740,1,0,0:0:0:0:
402,192,205740,1,0,0:0:0:0:
256,192,205924,1,0,0:0:0:0:
402,192,205924,1,0,0:0:0:0:
256,192,206161,1,0,0:0:0:0:
475,192,206161,1,0,0:0:0:0:
402,192,206266,1,0,0:0:0:0:
182,192,206266,1,0,0:0:0:0:
36,192,206424,1,0,0:0:0:0:
109,192,206424,1,0,0:0:0:0:
329,192,206424,1,0,0:0:0:0:
256,192,206424,1,0,0:0:0:0:
36,192,206661,1,0,0:0:0:0:
109,192,206661,1,0,0:0:0:0:
329,192,206661,1,0,0:0:0:0:
256,192,206661,1,0,0:0:0:0:
109,192,206898,1,0,0:0:0:0:
182,192,206898,1,0,0:0:0:0:
402,192,206898,1,0,0:0:0:0:
475,192,206898,1,0,0:0:0:0:
109,192,207135,1,0,0:0:0:0:
182,192,207135,1,0,0:0:0:0:
402,192,207135,1,0,0:0:0:0:
475,192,207135,1,0,0:0:0:0:
36,192,207372,1,0,0:0:0:0:
109,192,207372,1,0,0:0:0:0:
329,192,207372,1,0,0:0:0:0:
402,192,207372,1,0,0:0:0:0:
36,192,207687,1,0,0:0:0:0:
109,192,207687,1,0,0:0:0:0:
256,192,207687,1,0,0:0:0:0:
402,192,207687,1,0,0:0:0:0:
475,192,207687,1,0,0:0:0:0:
329,192,207872,1,0,0:0:0:0:
182,192,207872,1,0,0:0:0:0:
402,192,207951,1,0,0:0:0:0:
109,192,207951,1,0,0:0:0:0:
182,192,208187,1,0,0:0:0:0:
475,192,208187,1,0,0:0:0:0:
109,192,208372,1,0,0:0:0:0:
256,192,208372,1,0,0:0:0:0:
182,192,208424,1,0,0:0:0:0:
329,192,208424,1,0,0:0:0:0:
256,192,208635,1,0,0:0:0:0:
475,192,208635,1,0,0:0:0:0:
182,192,208793,1,0,0:0:0:0:
402,192,208793,1,0,0:0:0:0:
109,192,208951,1,0,0:0:0:0:
36,192,208951,1,0,0:0:0:0:
329,192,208951,1,0,0:0:0:0:
475,192,208951,1,0,0:0:0:0:
36,192,209187,1,0,0:0:0:0:
109,192,209187,1,0,0:0:0:0:
329,192,209187,1,0,0:0:0:0:
475,192,209187,1,0,0:0:0:0:
36,192,209424,1,0,0:0:0:0:
182,192,209424,1,0,0:0:0:0:
402,192,209424,1,0,0:0:0:0:
475,192,209424,1,0,0:0:0:0:
36,192,209661,1,0,0:0:0:0:
182,192,209661,1,0,0:0:0:0:
402,192,209661,1,0,0:0:0:0:
475,192,209661,1,0,0:0:0:0:
36,192,209898,1,0,0:0:0:0:
475,192,209898,1,0,0:0:0:0:
402,192,209898,1,0,0:0:0:0:
182,192,209898,1,0,0:0:0:0:
36,192,210214,1,0,0:0:0:0:
182,192,210214,1,0,0:0:0:0:
256,192,210214,1,0,0:0:0:0:
329,192,210214,1,0,0:0:0:0:
475,192,210214,1,0,0:0:0:0:
182,192,210451,1,0,0:0:0:0:
329,192,210451,1,0,0:0:0:0:
256,192,210687,1,0,0:0:0:0:
475,192,210687,1,0,0:0:0:0:
256,192,210924,1,0,0:0:0:0:
475,192,210924,1,0,0:0:0:0:
329,192,211161,1,0,0:0:0:0:
475,192,211161,1,0,0:0:0:0:
182,192,211319,1,0,0:0:0:0:
36,192,211319,1,0,0:0:0:0:
109,192,211477,1,0,0:0:0:0:
329,192,211477,1,0,0:0:0:0:
402,192,211477,1,0,0:0:0:0:
475,192,211477,1,0,0:0:0:0:
109,192,211714,1,0,0:0:0:0:
329,192,211714,1,0,0:0:0:0:
402,192,211714,1,0,0:0:0:0:
475,192,211714,1,0,0:0:0:0:
36,192,211951,1,0,0:0:0:0:
109,192,211951,1,0,0:0:0:0:
182,192,211951,1,0,0:0:0:0:
402,192,211951,1,0,0:0:0:0:
36,192,212187,1,0,0:0:0:0:
109,192,212187,1,0,0:0:0:0:
182,192,212187,1,0,0:0:0:0:
402,192,212187,1,0,0:0:0:0:
109,192,212424,1,0,0:0:0:0:
329,192,212424,1,0,0:0:0:0:
402,192,212424,1,0,0:0:0:0:
475,192,212424,1,0,0:0:0:0:
36,192,212740,1,0,0:0:0:0:
182,192,212740,1,0,0:0:0:0:
329,192,212740,1,0,0:0:0:0:
475,192,212740,1,0,0:0:0:0:
109,192,212898,1,0,0:0:0:0:
256,192,212898,1,0,0:0:0:0:
329,192,212977,1,0,0:0:0:0:
475,192,212977,1,0,0:0:0:0:
256,192,213135,1,0,0:0:0:0:
402,192,213135,1,0,0:0:0:0:
182,192,213293,1,0,0:0:0:0:
256,192,213293,1,0,0:0:0:0:
329,192,213372,1,0,0:0:0:0:
402,192,213372,1,0,0:0:0:0:
109,192,213451,1,0,0:0:0:0:
182,192,213451,1,0,0:0:0:0:
329,192,213530,1,0,0:0:0:0:
402,192,213530,1,0,0:0:0:0:
36,192,213608,1,0,0:0:0:0:
109,192,213608,1,0,0:0:0:0:
256,192,213687,1,0,0:0:0:0:
329,192,213687,1,0,0:0:0:0:
182,192,213766,1,0,0:0:0:0:
109,192,213845,1,0,0:0:0:0:
36,192,213845,1,0,0:0:0:0:
256,192,213924,1,0,0:0:0:0:
402,192,214003,1,0,0:0:0:0:
475,192,214003,1,0,0:0:0:0:
109,192,214082,1,0,0:0:0:0:
182,192,214082,1,0,0:0:0:0:
329,192,214161,1,0,0:0:0:0:
402,192,214161,1,0,0:0:0:0:
109,192,214240,1,0,0:0:0:0:
36,192,214240,1,0,0:0:0:0:
256,192,214319,1,0,0:0:0:0:
329,192,214319,1,0,0:0:0:0:
109,192,214398,1,0,0:0:0:0:
36,192,214398,1,0,0:0:0:0:
402,192,214477,1,0,0:0:0:0:
329,192,214477,1,0,0:0:0:0:
182,192,214556,1,0,0:0:0:0:
109,192,214556,1,0,0:0:0:0:
402,192,214635,1,0,0:0:0:0:
475,192,214635,1,0,0:0:0:0:
36,192,214714,1,0,0:0:0:0:
109,192,214714,1,0,0:0:0:0:
329,192,214793,1,0,0:0:0:0:
256,192,214793,1,0,0:0:0:0:
256,192,214951,1,0,0:0:0:0:
36,192,215030,1,0,0:0:0:0:
475,192,215030,1,0,0:0:0:0:
109,192,215108,1,0,0:0:0:0:
402,192,215108,1,0,0:0:0:0:
182,192,215187,1,0,0:0:0:0:
329,192,215187,1,0,0:0:0:0:
256,192,215266,1,0,0:0:0:0:
36,192,215266,1,0,0:0:0:0:
109,192,215266,1,0,0:0:0:0:
402,192,215266,1,0,0:0:0:0:
475,192,215266,1,0,0:0:0:0:
109,192,215503,1,0,0:0:0:0:
256,192,215503,1,0,0:0:0:0:
182,192,215740,1,0,0:0:0:0:
329,192,215740,1,0,0:0:0:0:
182,192,215977,1,0,0:0:0:0:
329,192,215977,1,0,0:0:0:0:
402,192,216214,1,0,0:0:0:0:
475,192,216214,1,0,0:0:0:0:
256,192,216372,1,0,0:0:0:0:
182,192,216372,1,0,0:0:0:0:
36,192,216530,1,0,0:0:0:0:
109,192,216530,1,0,0:0:0:0:
329,192,216530,1,0,0:0:0:0:
475,192,216530,1,0,0:0:0:0:
36,192,216766,1,0,0:0:0:0:
109,192,216766,1,0,0:0:0:0:
329,192,216766,1,0,0:0:0:0:
475,192,216766,1,0,0:0:0:0:
109,192,217003,1,0,0:0:0:0:
182,192,217003,1,0,0:0:0:0:
329,192,217003,1,0,0:0:0:0:
475,192,217003,1,0,0:0:0:0:
109,192,217240,1,0,0:0:0:0:
182,192,217240,1,0,0:0:0:0:
329,192,217240,1,0,0:0:0:0:
475,192,217240,1,0,0:0:0:0:
36,192,217477,1,0,0:0:0:0:
109,192,217477,1,0,0:0:0:0:
329,192,217477,1,0,0:0:0:0:
475,192,217477,1,0,0:0:0:0:
36,192,217793,1,0,0:0:0:0:
109,192,217793,1,0,0:0:0:0:
256,192,217793,1,0,0:0:0:0:
329,192,217793,1,0,0:0:0:0:
475,192,217793,1,0,0:0:0:0:
36,192,218030,1,0,0:0:0:0:
256,192,218030,1,0,0:0:0:0:
109,192,218266,1,0,0:0:0:0:
329,192,218266,1,0,0:0:0:0:
109,192,218503,1,0,0:0:0:0:
329,192,218503,1,0,0:0:0:0:
256,192,218740,1,0,0:0:0:0:
475,192,218740,1,0,0:0:0:0:
402,192,218898,1,0,0:0:0:0:
182,192,218898,1,0,0:0:0:0:
256,192,219056,1,0,0:0:0:0:
329,192,219056,1,0,0:0:0:0:
109,192,219056,1,0,0:0:0:0:
36,192,219056,1,0,0:0:0:0:
36,192,219293,1,0,0:0:0:0:
109,192,219293,1,0,0:0:0:0:
256,192,219293,1,0,0:0:0:0:
329,192,219293,1,0,0:0:0:0:
36,192,219530,1,0,0:0:0:0:
109,192,219530,1,0,0:0:0:0:
402,192,219530,1,0,0:0:0:0:
329,192,219530,1,0,0:0:0:0:
36,192,219766,1,0,0:0:0:0:
109,192,219766,1,0,0:0:0:0:
329,192,219766,1,0,0:0:0:0:
402,192,219766,1,0,0:0:0:0:
109,192,220003,1,0,0:0:0:0:
36,192,220003,1,0,0:0:0:0:
329,192,220003,1,0,0:0:0:0:
402,192,220003,1,0,0:0:0:0:
36,192,220319,1,0,0:0:0:0:
109,192,220319,1,0,0:0:0:0:
256,192,220319,1,0,0:0:0:0:
329,192,220319,1,0,0:0:0:0:
475,192,220319,1,0,0:0:0:0:
109,192,220556,1,0,0:0:0:0:
36,192,220556,1,0,0:0:0:0:
182,192,220793,1,0,0:0:0:0:
256,192,220793,1,0,0:0:0:0:
182,192,221030,1,0,0:0:0:0:
256,192,221030,1,0,0:0:0:0:
329,192,221266,1,0,0:0:0:0:
402,192,221266,1,0,0:0:0:0:
256,192,221424,1,0,0:0:0:0:
182,192,221424,1,0,0:0:0:0:
109,192,221582,1,0,0:0:0:0:
36,192,221582,1,0,0:0:0:0:
329,192,221582,1,0,0:0:0:0:
475,192,221582,1,0,0:0:0:0:
36,192,221819,1,0,0:0:0:0:
109,192,221819,1,0,0:0:0:0:
329,192,221819,1,0,0:0:0:0:
475,192,221819,1,0,0:0:0:0:
109,192,222056,1,0,0:0:0:0:
256,192,222056,1,0,0:0:0:0:
402,192,222056,1,0,0:0:0:0:
475,192,222056,1,0,0:0:0:0:
109,192,222293,1,0,0:0:0:0:
256,192,222293,1,0,0:0:0:0:
402,192,222293,1,0,0:0:0:0:
475,192,222293,1,0,0:0:0:0:
36,192,222530,1,0,0:0:0:0:
109,192,222530,1,0,0:0:0:0:
329,192,222530,1,0,0:0:0:0:
475,192,222530,1,0,0:0:0:0:
36,192,222845,1,0,0:0:0:0:
109,192,222845,1,0,0:0:0:0:
256,192,222845,1,0,0:0:0:0:
402,192,222845,1,0,0:0:0:0:
475,192,222845,1,0,0:0:0:0:
36,192,223082,1,0,0:0:0:0:
109,192,223082,1,0,0:0:0:0:
182,192,223082,1,0,0:0:0:0:
402,192,223082,1,0,0:0:0:0:
329,192,223082,1,0,0:0:0:0:
475,192,223082,1,0,0:0:0:0:
36,192,223319,1,0,0:0:0:0:
475,192,223319,1,0,0:0:0:0:
182,192,223319,1,0,0:0:0:0:
329,192,223319,1,0,0:0:0:0:
109,192,223398,1,0,0:0:0:0:
402,192,223398,1,0,0:0:0:0:
36,192,223477,1,0,0:0:0:0:
475,192,223477,1,0,0:0:0:0:
182,192,223477,1,0,0:0:0:0:
329,192,223477,1,0,0:0:0:0:
182,192,223714,1,0,0:0:0:0:
36,192,223714,1,0,0:0:0:0:
109,192,223714,1,0,0:0:0:0:
329,192,223714,1,0,0:0:0:0:
402,192,223714,1,0,0:0:0:0:
475,192,223714,1,0,0:0:0:0:
36,192,223951,1,0,0:0:0:0:
109,192,223951,1,0,0:0:0:0:
402,192,223951,1,0,0:0:0:0:
475,192,223951,1,0,0:0:0:0:
182,192,224030,1,0,0:0:0:0:
329,192,224030,1,0,0:0:0:0:
109,192,224108,1,0,0:0:0:0:
36,192,224108,1,0,0:0:0:0:
256,192,224108,1,0,0:0:0:0:
402,192,224108,1,0,0:0:0:0:
475,192,224108,1,0,0:0:0:0:
109,192,224266,1,0,0:0:0:0:
36,192,224266,1,0,0:0:0:0:
256,192,224266,1,0,0:0:0:0:
182,192,224424,1,0,0:0:0:0:
329,192,224424,1,0,0:0:0:0:
402,192,224424,1,0,0:0:0:0:
475,192,224424,1,0,0:0:0:0:
182,192,224582,1,0,0:0:0:0:
329,192,224582,1,0,0:0:0:0:
475,192,224582,1,0,0:0:0:0:
256,192,224740,1,0,0:0:0:0:
402,192,224740,1,0,0:0:0:0:
109,192,224740,1,0,0:0:0:0:
36,192,224740,1,0,0:0:0:0:
36,192,224898,1,0,0:0:0:0:
256,192,224898,1,0,0:0:0:0:
402,192,224898,1,0,0:0:0:0:
109,192,225056,1,0,0:0:0:0:
329,192,225056,1,0,0:0:0:0:
182,192,225135,1,0,0:0:0:0:
402,192,225135,1,0,0:0:0:0:
109,192,225214,1,0,0:0:0:0:
329,192,225214,1,0,0:0:0:0:
402,192,225293,1,0,0:0:0:0:
182,192,225293,1,0,0:0:0:0:
256,192,225372,1,0,0:0:0:0:
475,192,225372,1,0,0:0:0:0:
109,192,225372,1,0,0:0:0:0:
36,192,225372,1,0,0:0:0:0:
256,192,225687,1,0,0:0:0:0:
109,192,225687,1,0,0:0:0:0:
36,192,225687,1,0,0:0:0:0:
109,192,226003,1,0,0:0:0:0:
36,192,226003,1,0,0:0:0:0:
256,192,226003,1,0,0:0:0:0:
402,192,226319,1,0,0:0:0:0:
256,192,226319,1,0,0:0:0:0:
109,192,226319,1,0,0:0:0:0:
36,192,226319,1,0,0:0:0:0:
256,192,226635,1,0,0:0:0:0:
109,192,226635,1,0,0:0:0:0:
36,192,226635,1,0,0:0:0:0:
256,192,226951,1,0,0:0:0:0:
109,192,226951,1,0,0:0:0:0:
36,192,226951,1,0,0:0:0:0:
475,192,226951,1,0,0:0:0:0:
402,192,227108,1,0,0:0:0:0:
256,192,227266,1,0,0:0:0:0:
109,192,227266,1,0,0:0:0:0:
36,192,227266,1,0,0:0:0:0:
329,192,227266,1,0,0:0:0:0:
402,192,227424,1,0,0:0:0:0:
475,192,227582,1,0,0:0:0:0:
256,192,227582,1,0,0:0:0:0:
109,192,227582,1,0,0:0:0:0:
36,192,227582,1,0,0:0:0:0:
256,192,227740,1,0,0:0:0:0:
109,192,227740,1,0,0:0:0:0:
36,192,227740,1,0,0:0:0:0:
256,192,227898,1,0,0:0:0:0:
36,192,227898,1,0,0:0:0:0:
109,192,227898,1,0,0:0:0:0:
402,192,227898,1,0,0:0:0:0:
256,192,228214,1,0,0:0:0:0:
109,192,228214,1,0,0:0:0:0:
36,192,228214,1,0,0:0:0:0:
256,192,228530,1,0,0:0:0:0:
109,192,228530,1,0,0:0:0:0:
36,192,228530,1,0,0:0:0:0:
256,192,228845,1,0,0:0:0:0:
109,192,228845,1,0,0:0:0:0:
36,192,228845,1,0,0:0:0:0:
475,192,228845,1,0,0:0:0:0:
402,192,229161,128,0,229240:0:0:0:0:
329,192,229161,128,0,229240:0:0:0:0:
36,192,229161,1,0,0:0:0:0:
329,192,229319,128,0,229398:0:0:0:0:
402,192,229319,128,0,229398:0:0:0:0:
329,192,229477,128,0,229635:0:0:0:0:
402,192,229477,128,0,229635:0:0:0:0:
36,192,229477,1,0,0:0:0:0:
475,192,229635,1,0,0:0:0:0:
402,192,229793,1,0,0:0:0:0:
36,192,229793,1,0,0:0:0:0:
329,192,229845,1,0,0:0:0:0:
256,192,229898,1,0,0:0:0:0:
182,192,229951,1,0,0:0:0:0:
36,192,230030,1,0,0:0:0:0:
36,192,230266,1,0,0:0:0:0:
329,192,230424,1,0,0:0:0:0:
402,192,230424,1,0,0:0:0:0:
475,192,230424,1,0,0:0:0:0:
109,192,230424,1,0,0:0:0:0:
329,192,230740,1,0,0:0:0:0:
402,192,230740,1,0,0:0:0:0:
475,192,230740,1,0,0:0:0:0:
329,192,231056,1,0,0:0:0:0:
402,192,231056,1,0,0:0:0:0:
475,192,231056,1,0,0:0:0:0:
182,192,231372,1,0,0:0:0:0:
329,192,231372,1,0,0:0:0:0:
402,192,231372,1,0,0:0:0:0:
475,192,231372,1,0,0:0:0:0:
329,192,231687,1,0,0:0:0:0:
402,192,231687,1,0,0:0:0:0:
475,192,231687,1,0,0:0:0:0:
329,192,232003,1,0,0:0:0:0:
402,192,232003,1,0,0:0:0:0:
475,192,232003,1,0,0:0:0:0:
36,192,232003,1,0,0:0:0:0:
109,192,232161,1,0,0:0:0:0:
329,192,232319,1,0,0:0:0:0:
402,192,232319,1,0,0:0:0:0:
475,192,232319,1,0,0:0:0:0:
182,192,232319,1,0,0:0:0:0:
109,192,232477,1,0,0:0:0:0:
329,192,232635,1,0,0:0:0:0:
402,192,232635,1,0,0:0:0:0:
475,192,232635,1,0,0:0:0:0:
36,192,232635,1,0,0:0:0:0:
329,192,232793,1,0,0:0:0:0:
475,192,232793,1,0,0:0:0:0:
402,192,232793,1,0,0:0:0:0:
256,192,232793,1,0,0:0:0:0:
329,192,232951,1,0,0:0:0:0:
402,192,232951,1,0,0:0:0:0:
475,192,232951,1,0,0:0:0:0:
182,192,232951,1,0,0:0:0:0:
329,192,233266,1,0,0:0:0:0:
402,192,233266,1,0,0:0:0:0:
475,192,233266,1,0,0:0:0:0:
109,192,233424,1,0,0:0:0:0:
329,192,233582,1,0,0:0:0:0:
402,192,233582,1,0,0:0:0:0:
475,192,233582,1,0,0:0:0:0:
329,192,233898,1,0,0:0:0:0:
402,192,233898,1,0,0:0:0:0:
475,192,233898,1,0,0:0:0:0:
36,192,233898,1,0,0:0:0:0:
329,192,234214,1,0,0:0:0:0:
402,192,234214,1,0,0:0:0:0:
475,192,234214,1,0,0:0:0:0:
109,192,234372,1,0,0:0:0:0:
329,192,234530,1,0,0:0:0:0:
402,192,234530,1,0,0:0:0:0:
475,192,234530,1,0,0:0:0:0:
182,192,234687,1,0,0:0:0:0:
256,192,234766,1,0,0:0:0:0:
109,192,234845,1,0,0:0:0:0:
36,192,234845,1,0,0:0:0:0:
329,192,234845,1,0,0:0:0:0:
256,192,235003,1,0,0:0:0:0:
109,192,235082,1,0,0:0:0:0:
329,192,235082,1,0,0:0:0:0:
402,192,235082,1,0,0:0:0:0:
475,192,235161,1,0,0:0:0:0:
402,192,235240,1,0,0:0:0:0:
109,192,235319,1,0,0:0:0:0:
36,192,235319,1,0,0:0:0:0:
256,192,235319,1,0,0:0:0:0:
329,192,235398,1,0,0:0:0:0:
36,192,235477,1,0,0:0:0:0:
109,192,235477,1,0,0:0:0:0:
256,192,235477,1,0,0:0:0:0:
402,192,235477,1,0,0:0:0:0:
475,192,235477,1,0,0:0:0:0:
329,192,235635,1,0,0:0:0:0:
402,192,235635,1,0,0:0:0:0:
182,192,235714,1,0,0:0:0:0:
109,192,235714,1,0,0:0:0:0:
329,192,235793,1,0,0:0:0:0:
402,192,235793,1,0,0:0:0:0:
256,192,235951,1,0,0:0:0:0:
109,192,235951,1,0,0:0:0:0:
36,192,235951,1,0,0:0:0:0:
475,192,235951,1,0,0:0:0:0:
182,192,236108,1,0,0:0:0:0:
109,192,236108,1,0,0:0:0:0:
329,192,236187,1,0,0:0:0:0:
402,192,236187,1,0,0:0:0:0:
182,192,236266,1,0,0:0:0:0:
109,192,236266,1,0,0:0:0:0:
36,192,236424,1,0,0:0:0:0:
256,192,236424,1,0,0:0:0:0:
402,192,236424,1,0,0:0:0:0:
475,192,236424,1,0,0:0:0:0:
109,192,236582,1,0,0:0:0:0:
402,192,236582,1,0,0:0:0:0:
182,192,236661,1,0,0:0:0:0:
329,192,236661,1,0,0:0:0:0:
109,192,236740,1,0,0:0:0:0:
402,192,236740,1,0,0:0:0:0:
475,192,236740,1,0,0:0:0:0:
36,192,236740,1,0,0:0:0:0:
109,192,236898,1,0,0:0:0:0:
329,192,236898,1,0,0:0:0:0:
182,192,236977,1,0,0:0:0:0:
402,192,236977,1,0,0:0:0:0:
329,192,237056,1,0,0:0:0:0:
109,192,237056,1,0,0:0:0:0:
256,192,237214,1,0,0:0:0:0:
182,192,237214,1,0,0:0:0:0:
36,192,237214,1,0,0:0:0:0:
475,192,237214,1,0,0:0:0:0:
182,192,237372,1,0,0:0:0:0:
402,192,237372,1,0,0:0:0:0:
109,192,237451,1,0,0:0:0:0:
329,192,237451,1,0,0:0:0:0:
182,192,237530,1,0,0:0:0:0:
402,192,237530,1,0,0:0:0:0:
329,192,237687,1,0,0:0:0:0:
475,192,237687,1,0,0:0:0:0:
36,192,237687,1,0,0:0:0:0:
256,192,237687,1,0,0:0:0:0:
402,192,237766,1,0,0:0:0:0:
109,192,237766,1,0,0:0:0:0:
329,192,237845,1,0,0:0:0:0:
36,192,237845,1,0,0:0:0:0:
402,192,237924,1,0,0:0:0:0:
475,192,237924,1,0,0:0:0:0:
109,192,237924,1,0,0:0:0:0:
182,192,237924,1,0,0:0:0:0:
36,192,238003,1,0,0:0:0:0:
329,192,238003,1,0,0:0:0:0:
256,192,238003,1,0,0:0:0:0:
329,192,238161,1,0,0:0:0:0:
475,192,238161,1,0,0:0:0:0:
402,192,238240,1,0,0:0:0:0:
256,192,238240,1,0,0:0:0:0:
329,192,238319,1,0,0:0:0:0:
475,192,238319,1,0,0:0:0:0:
475,192,238477,1,0,0:0:0:0:
402,192,238477,1,0,0:0:0:0:
109,192,238477,1,0,0:0:0:0:
182,192,238477,1,0,0:0:0:0:
36,192,238635,1,0,0:0:0:0:
182,192,238635,1,0,0:0:0:0:
109,192,238714,1,0,0:0:0:0:
256,192,238714,1,0,0:0:0:0:
182,192,238793,1,0,0:0:0:0:
36,192,238793,1,0,0:0:0:0:
109,192,238951,1,0,0:0:0:0:
182,192,238951,1,0,0:0:0:0:
402,192,238951,1,0,0:0:0:0:
475,192,238951,1,0,0:0:0:0:
36,192,239108,1,0,0:0:0:0:
329,192,239108,1,0,0:0:0:0:
109,192,239187,1,0,0:0:0:0:
256,192,239187,1,0,0:0:0:0:
182,192,239266,1,0,0:0:0:0:
402,192,239266,1,0,0:0:0:0:
475,192,239266,1,0,0:0:0:0:
36,192,239266,1,0,0:0:0:0:
36,192,239424,1,0,0:0:0:0:
475,192,239424,1,0,0:0:0:0:
182,192,239503,1,0,0:0:0:0:
329,192,239503,1,0,0:0:0:0:
36,192,239582,1,0,0:0:0:0:
475,192,239582,1,0,0:0:0:0:
109,192,239740,1,0,0:0:0:0:
182,192,239740,1,0,0:0:0:0:
329,192,239740,1,0,0:0:0:0:
402,192,239740,1,0,0:0:0:0:
36,192,239898,1,0,0:0:0:0:
329,192,239898,1,0,0:0:0:0:
182,192,239977,1,0,0:0:0:0:
475,192,239977,1,0,0:0:0:0:
36,192,240056,1,0,0:0:0:0:
329,192,240056,1,0,0:0:0:0:
402,192,240214,1,0,0:0:0:0:
475,192,240214,1,0,0:0:0:0:
36,192,240214,1,0,0:0:0:0:
182,192,240214,1,0,0:0:0:0:
109,192,240293,1,0,0:0:0:0:
256,192,240293,1,0,0:0:0:0:
182,192,240372,1,0,0:0:0:0:
329,192,240372,1,0,0:0:0:0:
256,192,240451,1,0,0:0:0:0:
402,192,240451,1,0,0:0:0:0:
329,192,240530,1,0,0:0:0:0:
475,192,240530,1,0,0:0:0:0:
109,192,240530,1,0,0:0:0:0:
36,192,240530,1,0,0:0:0:0:
182,192,240608,1,0,0:0:0:0:
109,192,240687,1,0,0:0:0:0:
36,192,240687,1,0,0:0:0:0:
182,192,240766,1,0,0:0:0:0:
109,192,240845,1,0,0:0:0:0:
36,192,240845,1,0,0:0:0:0:
475,192,240845,1,0,0:0:0:0:
402,192,240845,1,0,0:0:0:0:
329,192,240924,1,0,0:0:0:0:
402,192,241003,1,0,0:0:0:0:
475,192,241003,1,0,0:0:0:0:
329,192,241082,1,0,0:0:0:0:
402,192,241161,1,0,0:0:0:0:
475,192,241161,1,0,0:0:0:0:
182,192,241161,1,0,0:0:0:0:
36,192,241161,1,0,0:0:0:0:
109,192,241240,1,0,0:0:0:0:
256,192,241240,1,0,0:0:0:0:
182,192,241319,1,0,0:0:0:0:
329,192,241319,1,0,0:0:0:0:
256,192,241398,1,0,0:0:0:0:
402,192,241398,1,0,0:0:0:0:
329,192,241477,1,0,0:0:0:0:
475,192,241477,1,0,0:0:0:0:
109,192,241477,1,0,0:0:0:0:
36,192,241477,1,0,0:0:0:0:
256,192,241556,1,0,0:0:0:0:
402,192,241556,1,0,0:0:0:0:
329,192,241635,1,0,0:0:0:0:
182,192,241635,1,0,0:0:0:0:
109,192,241714,1,0,0:0:0:0:
256,192,241714,1,0,0:0:0:0:
182,192,241793,1,0,0:0:0:0:
36,192,241793,1,0,0:0:0:0:
475,192,241793,1,0,0:0:0:0:
402,192,241793,1,0,0:0:0:0:
329,192,241832,1,0,0:0:0:0:
256,192,241872,1,0,0:0:0:0:
182,192,241911,1,0,0:0:0:0:
109,192,241951,1,0,0:0:0:0:
36,192,241990,1,0,0:0:0:0:
475,192,242030,1,0,0:0:0:0:
402,192,242069,1,0,0:0:0:0:
329,192,242108,1,0,0:0:0:0:
182,192,242108,1,0,0:0:0:0:
109,192,242148,1,0,0:0:0:0:
36,192,242187,1,0,0:0:0:0:
256,192,242227,1,0,0:0:0:0:
402,192,242266,1,0,0:0:0:0:
182,192,242306,1,0,0:0:0:0:
329,192,242345,1,0,0:0:0:0:
475,192,242385,1,0,0:0:0:0:
256,192,242424,1,0,0:0:0:0:
36,192,242424,1,0,0:0:0:0:
109,192,242464,1,0,0:0:0:0:
329,192,242503,1,0,0:0:0:0:
182,192,242503,1,0,0:0:0:0:
402,192,242543,1,0,0:0:0:0:
475,192,242582,1,0,0:0:0:0:
36,192,242582,1,0,0:0:0:0:
109,192,242622,1,0,0:0:0:0:
182,192,242661,1,0,0:0:0:0:
329,192,242661,1,0,0:0:0:0:
402,192,242701,1,0,0:0:0:0:
256,192,242740,1,0,0:0:0:0:
475,192,242740,1,0,0:0:0:0:
36,192,242740,1,0,0:0:0:0:
109,192,242780,1,0,0:0:0:0:
329,192,242819,1,0,0:0:0:0:
182,192,242819,1,0,0:0:0:0:
402,192,242858,1,0,0:0:0:0:
256,192,242898,1,0,0:0:0:0:
475,192,242898,1,0,0:0:0:0:
36,192,242898,1,0,0:0:0:0:
109,192,242937,1,0,0:0:0:0:
329,192,242977,1,0,0:0:0:0:
182,192,242977,1,0,0:0:0:0:
402,192,243016,1,0,0:0:0:0:
256,192,243056,1,0,0:0:0:0:
475,192,243056,1,0,0:0:0:0:
36,192,243056,1,0,0:0:0:0:
109,192,244319,1,0,0:0:0:0:
36,192,244319,1,0,0:0:0:0:
182,192,244398,1,0,0:0:0:0:
256,192,244398,1,0,0:0:0:0:
329,192,244477,1,0,0:0:0:0:
475,192,244477,1,0,0:0:0:0:
256,192,244556,1,0,0:0:0:0:
402,192,244556,1,0,0:0:0:0:
475,192,244635,1,0,0:0:0:0:
329,192,244635,1,0,0:0:0:0:
256,192,244793,1,0,0:0:0:0:
36,192,244793,1,0,0:0:0:0:
109,192,244872,1,0,0:0:0:0:
329,192,244872,1,0,0:0:0:0:
402,192,244951,1,0,0:0:0:0:
475,192,244951,1,0,0:0:0:0:
329,192,245030,1,0,0:0:0:0:
256,192,245030,1,0,0:0:0:0:
182,192,245108,1,0,0:0:0:0:
109,192,245108,1,0,0:0:0:0:
36,192,245108,1,0,0:0:0:0:
36,192,245266,1,0,0:0:0:0:
256,192,245266,1,0,0:0:0:0:
402,192,245266,1,0,0:0:0:0:
475,192,245266,1,0,0:0:0:0:
329,192,245266,1,0,0:0:0:0:
36,192,245582,1,0,0:0:0:0:
109,192,245582,1,0,0:0:0:0:
256,192,245582,1,0,0:0:0:0:
402,192,245582,1,0,0:0:0:0:
475,192,245582,1,0,0:0:0:0:
109,192,245740,1,0,0:0:0:0:
256,192,245740,1,0,0:0:0:0:
182,192,245819,1,0,0:0:0:0:
329,192,245819,1,0,0:0:0:0:
475,192,245819,1,0,0:0:0:0:
109,192,245898,1,0,0:0:0:0:
256,192,245898,1,0,0:0:0:0:
402,192,245898,1,0,0:0:0:0:
36,192,245977,1,0,0:0:0:0:
329,192,245977,1,0,0:0:0:0:
182,192,246056,1,0,0:0:0:0:
475,192,246056,1,0,0:0:0:0:
402,192,246056,1,0,0:0:0:0:
109,192,246135,1,0,0:0:0:0:
329,192,246135,1,0,0:0:0:0:
256,192,246214,1,0,0:0:0:0:
36,192,246214,1,0,0:0:0:0:
475,192,246214,1,0,0:0:0:0:
109,192,246293,1,0,0:0:0:0:
329,192,246293,1,0,0:0:0:0:
402,192,246293,1,0,0:0:0:0:
182,192,246372,1,0,0:0:0:0:
256,192,246372,1,0,0:0:0:0:
402,192,246451,1,0,0:0:0:0:
475,192,246451,1,0,0:0:0:0:
36,192,246530,1,0,0:0:0:0:
109,192,246530,1,0,0:0:0:0:
182,192,246530,1,0,0:0:0:0:
256,192,246530,1,0,0:0:0:0:
329,192,246608,1,0,0:0:0:0:
402,192,246608,1,0,0:0:0:0:
109,192,246687,128,0,246845:0:0:0:0:
182,192,246687,128,0,246845:0:0:0:0:
36,192,246845,1,0,0:0:0:0:
329,192,246845,1,0,0:0:0:0:
402,192,246845,1,0,0:0:0:0:
475,192,246845,1,0,0:0:0:0:
36,192,247003,1,0,0:0:0:0:
256,192,247003,1,0,0:0:0:0:
109,192,247082,1,0,0:0:0:0:
329,192,247082,1,0,0:0:0:0:
475,192,247082,1,0,0:0:0:0:
182,192,247161,1,0,0:0:0:0:
256,192,247161,1,0,0:0:0:0:
402,192,247161,1,0,0:0:0:0:
109,192,247240,1,0,0:0:0:0:
329,192,247240,1,0,0:0:0:0:
36,192,247319,1,0,0:0:0:0:
475,192,247319,1,0,0:0:0:0:
402,192,247319,1,0,0:0:0:0:
182,192,247398,1,0,0:0:0:0:
329,192,247398,1,0,0:0:0:0:
256,192,247477,1,0,0:0:0:0:
36,192,247477,1,0,0:0:0:0:
475,192,247477,1,0,0:0:0:0:
109,192,247556,1,0,0:0:0:0:
182,192,247556,1,0,0:0:0:0:
402,192,247556,1,0,0:0:0:0:
329,192,247635,1,0,0:0:0:0:
256,192,247635,1,0,0:0:0:0:
402,192,247714,1,0,0:0:0:0:
475,192,247714,1,0,0:0:0:0:
36,192,247793,1,0,0:0:0:0:
182,192,247793,1,0,0:0:0:0:
329,192,247793,1,0,0:0:0:0:
475,192,247872,1,0,0:0:0:0:
256,192,247872,1,0,0:0:0:0:
182,192,247951,1,0,0:0:0:0:
402,192,247951,1,0,0:0:0:0:
109,192,248030,1,0,0:0:0:0:
329,192,248030,1,0,0:0:0:0:
256,192,248108,1,0,0:0:0:0:
475,192,248108,1,0,0:0:0:0:
402,192,248108,1,0,0:0:0:0:
36,192,248108,1,0,0:0:0:0:
109,192,248266,1,0,0:0:0:0:
329,192,248266,1,0,0:0:0:0:
182,192,248345,1,0,0:0:0:0:
402,192,248345,1,0,0:0:0:0:
475,192,248345,1,0,0:0:0:0:
109,192,248424,1,0,0:0:0:0:
36,192,248424,1,0,0:0:0:0:
329,192,248424,1,0,0:0:0:0:
256,192,248503,1,0,0:0:0:0:
402,192,248503,1,0,0:0:0:0:
182,192,248582,1,0,0:0:0:0:
475,192,248582,1,0,0:0:0:0:
36,192,248582,1,0,0:0:0:0:
109,192,248661,1,0,0:0:0:0:
329,192,248661,1,0,0:0:0:0:
256,192,248740,1,0,0:0:0:0:
182,192,248740,1,0,0:0:0:0:
475,192,248740,1,0,0:0:0:0:
36,192,248819,1,0,0:0:0:0:
329,192,248819,1,0,0:0:0:0:
402,192,248819,1,0,0:0:0:0:
182,192,248898,1,0,0:0:0:0:
109,192,248898,1,0,0:0:0:0:
329,192,248977,1,0,0:0:0:0:
402,192,248977,1,0,0:0:0:0:
36,192,249056,1,0,0:0:0:0:
109,192,249056,1,0,0:0:0:0:
182,192,249056,1,0,0:0:0:0:
256,192,249056,1,0,0:0:0:0:
475,192,249135,1,0,0:0:0:0:
402,192,249135,1,0,0:0:0:0:
109,192,249214,128,0,249372:0:0:0:0:
36,192,249214,128,0,249372:0:0:0:0:
182,192,249372,1,0,0:0:0:0:
329,192,249372,1,0,0:0:0:0:
402,192,249372,1,0,0:0:0:0:
475,192,249372,1,0,0:0:0:0:
36,192,249530,1,0,0:0:0:0:
182,192,249530,1,0,0:0:0:0:
109,192,249608,1,0,0:0:0:0:
256,192,249608,1,0,0:0:0:0:
402,192,249608,1,0,0:0:0:0:
182,192,249687,1,0,0:0:0:0:
329,192,249687,1,0,0:0:0:0:
475,192,249687,1,0,0:0:0:0:
109,192,249766,1,0,0:0:0:0:
36,192,249766,1,0,0:0:0:0:
256,192,249845,1,0,0:0:0:0:
475,192,249845,1,0,0:0:0:0:
402,192,249845,1,0,0:0:0:0:
182,192,249924,1,0,0:0:0:0:
329,192,249924,1,0,0:0:0:0:
256,192,250003,1,0,0:0:0:0:
109,192,250003,1,0,0:0:0:0:
402,192,250003,1,0,0:0:0:0:
36,192,250082,1,0,0:0:0:0:
182,192,250082,1,0,0:0:0:0:
475,192,250082,1,0,0:0:0:0:
329,192,250161,1,0,0:0:0:0:
402,192,250161,1,0,0:0:0:0:
182,192,250240,1,0,0:0:0:0:
475,192,250240,1,0,0:0:0:0:
36,192,250319,1,0,0:0:0:0:
109,192,250319,1,0,0:0:0:0:
329,192,250319,1,0,0:0:0:0:
475,192,250398,1,0,0:0:0:0:
402,192,250398,1,0,0:0:0:0:
182,192,250477,1,0,0:0:0:0:
329,192,250477,1,0,0:0:0:0:
475,192,250556,1,0,0:0:0:0:
402,192,250556,1,0,0:0:0:0:
182,192,250635,1,0,0:0:0:0:
109,192,250635,1,0,0:0:0:0:
329,192,250635,1,0,0:0:0:0:
36,192,250635,1,0,0:0:0:0:
36,192,250793,1,0,0:0:0:0:
329,192,250793,1,0,0:0:0:0:
475,192,250872,1,0,0:0:0:0:
109,192,250872,1,0,0:0:0:0:
182,192,250872,1,0,0:0:0:0:
36,192,250951,1,0,0:0:0:0:
402,192,250951,1,0,0:0:0:0:
329,192,250951,1,0,0:0:0:0:
109,192,251030,1,0,0:0:0:0:
256,192,251030,1,0,0:0:0:0:
182,192,251108,1,0,0:0:0:0:
475,192,251108,1,0,0:0:0:0:
402,192,251108,1,0,0:0:0:0:
109,192,251187,1,0,0:0:0:0:
329,192,251187,1,0,0:0:0:0:
256,192,251266,1,0,0:0:0:0:
36,192,251266,1,0,0:0:0:0:
475,192,251266,1,0,0:0:0:0:
109,192,251345,1,0,0:0:0:0:
182,192,251345,1,0,0:0:0:0:
329,192,251345,1,0,0:0:0:0:
402,192,251424,1,0,0:0:0:0:
256,192,251424,1,0,0:0:0:0:
329,192,251503,1,0,0:0:0:0:
475,192,251503,1,0,0:0:0:0:
36,192,251582,1,0,0:0:0:0:
109,192,251582,1,0,0:0:0:0:
182,192,251582,1,0,0:0:0:0:
256,192,251582,1,0,0:0:0:0:
329,192,251661,1,0,0:0:0:0:
402,192,251661,1,0,0:0:0:0:
109,192,251740,128,0,251898:0:0:0:0:
182,192,251740,128,0,251898:0:0:0:0:
36,192,251898,1,0,0:0:0:0:
329,192,251898,1,0,0:0:0:0:
402,192,251898,1,0,0:0:0:0:
475,192,251898,1,0,0:0:0:0:
36,192,252056,1,0,0:0:0:0:
329,192,252056,1,0,0:0:0:0:
109,192,252135,1,0,0:0:0:0:
402,192,252135,1,0,0:0:0:0:
475,192,252135,1,0,0:0:0:0:
182,192,252214,1,0,0:0:0:0:
256,192,252214,1,0,0:0:0:0:
329,192,252214,1,0,0:0:0:0:
109,192,252293,1,0,0:0:0:0:
402,192,252293,1,0,0:0:0:0:
36,192,252372,1,0,0:0:0:0:
475,192,252372,1,0,0:0:0:0:
256,192,252372,1,0,0:0:0:0:
182,192,252451,1,0,0:0:0:0:
329,192,252451,1,0,0:0:0:0:
109,192,252530,1,0,0:0:0:0:
36,192,252530,1,0,0:0:0:0:
475,192,252530,1,0,0:0:0:0:
182,192,252608,1,0,0:0:0:0:
256,192,252608,1,0,0:0:0:0:
402,192,252608,1,0,0:0:0:0:
329,192,252687,1,0,0:0:0:0:
36,192,252687,1,0,0:0:0:0:
109,192,252766,1,0,0:0:0:0:
256,192,252766,1,0,0:0:0:0:
475,192,252845,1,0,0:0:0:0:
36,192,252845,1,0,0:0:0:0:
329,192,252845,1,0,0:0:0:0:
402,192,252924,1,0,0:0:0:0:
256,192,252924,1,0,0:0:0:0:
182,192,253003,1,0,0:0:0:0:
329,192,253003,1,0,0:0:0:0:
109,192,253082,1,0,0:0:0:0:
256,192,253082,1,0,0:0:0:0:
182,192,253161,1,0,0:0:0:0:
475,192,253161,1,0,0:0:0:0:
402,192,253161,1,0,0:0:0:0:
36,192,253161,1,0,0:0:0:0:
256,192,253240,1,0,0:0:0:0:
329,192,253319,1,0,0:0:0:0:
402,192,253398,1,0,0:0:0:0:
475,192,253398,1,0,0:0:0:0:
36,192,253398,1,0,0:0:0:0:
109,192,253398,1,0,0:0:0:0:
329,192,253477,1,0,0:0:0:0:
402,192,253556,1,0,0:0:0:0:
475,192,253556,1,0,0:0:0:0:
329,192,253635,1,0,0:0:0:0:
109,192,253635,1,0,0:0:0:0:
36,192,253635,1,0,0:0:0:0:
402,192,253714,1,0,0:0:0:0:
475,192,253714,1,0,0:0:0:0:
329,192,253793,1,0,0:0:0:0:
402,192,253872,1,0,0:0:0:0:
475,192,253872,1,0,0:0:0:0:
36,192,253872,1,0,0:0:0:0:
109,192,253872,1,0,0:0:0:0:
182,192,253951,1,0,0:0:0:0:
256,192,253951,1,0,0:0:0:0:
329,192,254030,1,0,0:0:0:0:
402,192,254030,1,0,0:0:0:0:
36,192,254108,1,0,0:0:0:0:
109,192,254108,1,0,0:0:0:0:
475,192,254108,1,0,0:0:0:0:
182,192,254187,1,0,0:0:0:0:
402,192,254187,1,0,0:0:0:0:
109,192,254266,1,0,0:0:0:0:
329,192,254266,1,0,0:0:0:0:
402,192,254345,1,0,0:0:0:0:
182,192,254345,1,0,0:0:0:0:
109,192,254424,1,0,0:0:0:0:
36,192,254424,1,0,0:0:0:0:
475,192,254424,1,0,0:0:0:0:
256,192,254424,1,0,0:0:0:0:
329,192,254503,1,0,0:0:0:0:
475,192,254582,1,0,0:0:0:0:
36,192,254661,1,0,0:0:0:0:
109,192,254661,1,0,0:0:0:0:
329,192,254661,1,0,0:0:0:0:
475,192,254740,1,0,0:0:0:0:
256,192,254819,1,0,0:0:0:0:
402,192,254898,1,0,0:0:0:0:
109,192,254898,1,0,0:0:0:0:
36,192,254898,1,0,0:0:0:0:
182,192,254977,1,0,0:0:0:0:
329,192,255056,1,0,0:0:0:0:
256,192,255056,1,0,0:0:0:0:
402,192,255135,1,0,0:0:0:0:
475,192,255135,1,0,0:0:0:0:
36,192,255135,1,0,0:0:0:0:
182,192,255214,1,0,0:0:0:0:
329,192,255214,1,0,0:0:0:0:
36,192,255293,1,0,0:0:0:0:
475,192,255293,1,0,0:0:0:0:
402,192,255372,1,0,0:0:0:0:
109,192,255372,1,0,0:0:0:0:
182,192,255451,1,0,0:0:0:0:
329,192,255451,1,0,0:0:0:0:
109,192,255530,1,0,0:0:0:0:
402,192,255530,1,0,0:0:0:0:
36,192,255608,1,0,0:0:0:0:
475,192,255608,1,0,0:0:0:0:
109,192,255687,1,0,0:0:0:0:
182,192,255687,1,0,0:0:0:0:
329,192,255687,1,0,0:0:0:0:
402,192,255687,1,0,0:0:0:0:
109,192,255845,1,0,0:0:0:0:
256,192,255845,1,0,0:0:0:0:
182,192,255924,1,0,0:0:0:0:
329,192,255924,1,0,0:0:0:0:
475,192,255924,1,0,0:0:0:0:
109,192,256003,1,0,0:0:0:0:
256,192,256003,1,0,0:0:0:0:
402,192,256003,1,0,0:0:0:0:
36,192,256082,1,0,0:0:0:0:
329,192,256082,1,0,0:0:0:0:
182,192,256161,1,0,0:0:0:0:
475,192,256161,1,0,0:0:0:0:
402,192,256161,1,0,0:0:0:0:
109,192,256240,1,0,0:0:0:0:
329,192,256240,1,0,0:0:0:0:
256,192,256319,1,0,0:0:0:0:
36,192,256319,1,0,0:0:0:0:
475,192,256319,1,0,0:0:0:0:
109,192,256398,1,0,0:0:0:0:
329,192,256398,1,0,0:0:0:0:
402,192,256398,1,0,0:0:0:0:
182,192,256477,1,0,0:0:0:0:
256,192,256477,1,0,0:0:0:0:
402,192,256556,1,0,0:0:0:0:
475,192,256556,1,0,0:0:0:0:
36,192,256635,1,0,0:0:0:0:
109,192,256635,1,0,0:0:0:0:
182,192,256635,1,0,0:0:0:0:
256,192,256635,1,0,0:0:0:0:
329,192,256714,1,0,0:0:0:0:
402,192,256714,1,0,0:0:0:0:
109,192,256793,128,0,256951:0:0:0:0:
182,192,256793,128,0,256951:0:0:0:0:
36,192,256951,1,0,0:0:0:0:
329,192,256951,1,0,0:0:0:0:
402,192,256951,1,0,0:0:0:0:
475,192,256951,1,0,0:0:0:0:
36,192,257108,1,0,0:0:0:0:
256,192,257108,1,0,0:0:0:0:
109,192,257187,1,0,0:0:0:0:
329,192,257187,1,0,0:0:0:0:
475,192,257187,1,0,0:0:0:0:
182,192,257266,1,0,0:0:0:0:
256,192,257266,1,0,0:0:0:0:
402,192,257266,1,0,0:0:0:0:
109,192,257345,1,0,0:0:0:0:
329,192,257345,1,0,0:0:0:0:
36,192,257424,1,0,0:0:0:0:
475,192,257424,1,0,0:0:0:0:
402,192,257424,1,0,0:0:0:0:
182,192,257503,1,0,0:0:0:0:
329,192,257503,1,0,0:0:0:0:
256,192,257582,1,0,0:0:0:0:
36,192,257582,1,0,0:0:0:0:
475,192,257582,1,0,0:0:0:0:
109,192,257661,1,0,0:0:0:0:
182,192,257661,1,0,0:0:0:0:
402,192,257661,1,0,0:0:0:0:
329,192,257740,1,0,0:0:0:0:
256,192,257740,1,0,0:0:0:0:
402,192,257819,1,0,0:0:0:0:
475,192,257819,1,0,0:0:0:0:
36,192,257898,1,0,0:0:0:0:
182,192,257898,1,0,0:0:0:0:
329,192,257898,1,0,0:0:0:0:
475,192,257977,1,0,0:0:0:0:
256,192,257977,1,0,0:0:0:0:
182,192,258056,1,0,0:0:0:0:
402,192,258056,1,0,0:0:0:0:
109,192,258135,1,0,0:0:0:0:
329,192,258135,1,0,0:0:0:0:
36,192,258214,128,0,258845:0:0:0:0:
256,192,258214,1,0,0:0:0:0:
475,192,258214,1,0,0:0:0:0:
402,192,258266,1,0,0:0:0:0:
329,192,258319,1,0,0:0:0:0:
256,192,258372,1,0,0:0:0:0:
182,192,258424,1,0,0:0:0:0:
109,192,258477,1,0,0:0:0:0:
475,192,258530,1,0,0:0:0:0:
402,192,258582,1,0,0:0:0:0:
329,192,258635,1,0,0:0:0:0:
256,192,258687,1,0,0:0:0:0:
182,192,258740,1,0,0:0:0:0:
109,192,258793,1,0,0:0:0:0:
402,192,258845,1,0,0:0:0:0:
475,192,258845,1,0,0:0:0:0:
256,192,258845,1,0,0:0:0:0:
329,192,258845,1,0,0:0:0:0:
182,192,258924,1,0,0:0:0:0:
109,192,258924,1,0,0:0:0:0:
329,192,259003,1,0,0:0:0:0:
402,192,259003,1,0,0:0:0:0:
256,192,259082,1,0,0:0:0:0:
182,192,259082,1,0,0:0:0:0:
109,192,259082,1,0,0:0:0:0:
36,192,259082,1,0,0:0:0:0:
329,192,259161,1,0,0:0:0:0:
402,192,259161,1,0,0:0:0:0:
475,192,259161,1,0,0:0:0:0:
36,192,259240,128,0,259319:0:0:0:0:
109,192,259240,128,0,259319:0:0:0:0:
256,192,259240,128,0,259319:0:0:0:0:
182,192,259319,1,0,0:0:0:0:
329,192,259319,1,0,0:0:0:0:
475,192,259319,1,0,0:0:0:0:
256,192,259398,1,0,0:0:0:0:
402,192,259398,1,0,0:0:0:0:
36,192,259477,1,0,0:0:0:0:
329,192,259477,1,0,0:0:0:0:
182,192,259477,1,0,0:0:0:0:
256,192,259556,1,0,0:0:0:0:
402,192,259556,1,0,0:0:0:0:
475,192,259556,1,0,0:0:0:0:
182,192,259635,128,0,259714:0:0:0:0:
329,192,259635,128,0,259714:0:0:0:0:
109,192,259635,128,0,259714:0:0:0:0:
36,192,259793,1,0,0:0:0:0:
182,192,259793,1,0,0:0:0:0:
329,192,259793,1,0,0:0:0:0:
402,192,259793,1,0,0:0:0:0:
256,192,259872,1,0,0:0:0:0:
109,192,259872,1,0,0:0:0:0:
36,192,259951,1,0,0:0:0:0:
182,192,259951,1,0,0:0:0:0:
109,192,260030,1,0,0:0:0:0:
256,192,260030,1,0,0:0:0:0:
329,192,260108,1,0,0:0:0:0:
475,192,260108,1,0,0:0:0:0:
36,192,260108,1,0,0:0:0:0:
182,192,260187,128,0,260266:0:0:0:0:
256,192,260187,128,0,260266:0:0:0:0:
402,192,260187,128,0,260266:0:0:0:0:
109,192,260266,1,0,0:0:0:0:
36,192,260266,1,0,0:0:0:0:
329,192,260266,1,0,0:0:0:0:
182,192,260345,1,0,0:0:0:0:
256,192,260345,1,0,0:0:0:0:
402,192,260424,1,0,0:0:0:0:
475,192,260424,1,0,0:0:0:0:
329,192,260503,1,0,0:0:0:0:
182,192,260503,1,0,0:0:0:0:
36,192,260503,1,0,0:0:0:0:
402,192,260582,1,0,0:0:0:0:
475,192,260582,1,0,0:0:0:0:
256,192,260661,1,0,0:0:0:0:
109,192,260661,1,0,0:0:0:0:
36,192,260661,1,0,0:0:0:0:
182,192,260740,128,0,260898:0:0:0:0:
329,192,260740,128,0,260819:0:0:0:0:
402,192,260740,128,0,260819:0:0:0:0:
475,192,260740,128,0,260898:0:0:0:0:
402,192,260898,1,0,0:0:0:0:
329,192,260898,1,0,0:0:0:0:
36,192,261056,1,0,0:0:0:0:
109,192,261056,1,0,0:0:0:0:
182,192,261056,1,0,0:0:0:0:
256,192,261056,1,0,0:0:0:0:
475,192,261056,1,0,0:0:0:0:
402,192,261108,1,0,0:0:0:0:
329,192,261161,1,0,0:0:0:0:
109,192,261214,1,0,0:0:0:0:
182,192,261266,1,0,0:0:0:0:
256,192,261319,1,0,0:0:0:0:
182,192,261372,128,0,261451:0:0:0:0:
402,192,261372,128,0,261530:0:0:0:0:
329,192,261372,128,0,261451:0:0:0:0:
109,192,261372,128,0,261530:0:0:0:0:
329,192,261530,1,0,0:0:0:0:
182,192,261530,1,0,0:0:0:0:
36,192,261687,1,0,0:0:0:0:
109,192,261687,1,0,0:0:0:0:
402,192,261687,1,0,0:0:0:0:
475,192,261687,1,0,0:0:0:0:
256,192,261687,1,0,0:0:0:0:
402,192,261845,1,0,0:0:0:0:
475,192,261845,1,0,0:0:0:0:
109,192,262003,128,0,262082:0:0:0:0:
329,192,262003,128,0,262161:0:0:0:0:
182,192,262003,128,0,262082:0:0:0:0:
36,192,262003,128,0,262161:0:0:0:0:
182,192,262161,1,0,0:0:0:0:
109,192,262161,1,0,0:0:0:0:
36,192,262319,1,0,0:0:0:0:
256,192,262319,1,0,0:0:0:0:
329,192,262319,1,0,0:0:0:0:
402,192,262319,1,0,0:0:0:0:
475,192,262319,1,0,0:0:0:0:
109,192,262372,1,0,0:0:0:0:
182,192,262424,1,0,0:0:0:0:
402,192,262477,1,0,0:0:0:0:
329,192,262530,1,0,0:0:0:0:
256,192,262582,1,0,0:0:0:0:
182,192,262635,1,0,0:0:0:0:
109,192,262635,1,0,0:0:0:0:
36,192,262635,1,0,0:0:0:0:
402,192,262635,1,0,0:0:0:0:
475,192,262635,1,0,0:0:0:0:
36,192,262845,1,0,0:0:0:0:
109,192,262845,1,0,0:0:0:0:
402,192,262845,1,0,0:0:0:0:
329,192,262845,1,0,0:0:0:0:
475,192,262845,1,0,0:0:0:0:
182,192,263056,1,0,0:0:0:0:
109,192,263056,1,0,0:0:0:0:
36,192,263056,1,0,0:0:0:0:
402,192,263056,1,0,0:0:0:0:
475,192,263056,1,0,0:0:0:0:
36,192,263266,1,0,0:0:0:0:
109,192,263266,1,0,0:0:0:0:
402,192,263266,1,0,0:0:0:0:
475,192,263266,1,0,0:0:0:0:
256,192,263266,128,0,265556:0:0:0:0:
402,192,263424,128,0,263503:0:0:0:0:
475,192,263424,128,0,263503:0:0:0:0:
402,192,263582,128,0,263661:0:0:0:0:
475,192,263582,128,0,263661:0:0:0:0:
402,192,263740,128,0,263819:0:0:0:0:
475,192,263740,128,0,263819:0:0:0:0:
36,192,263740,1,0,0:0:0:0:
109,192,263793,1,0,0:0:0:0:
182,192,263845,1,0,0:0:0:0:
402,192,263898,128,0,263977:0:0:0:0:
475,192,263898,128,0,263977:0:0:0:0:
329,192,263898,1,0,0:0:0:0:
36,192,263951,1,0,0:0:0:0:
182,192,264003,1,0,0:0:0:0:
402,192,264056,128,0,264135:0:0:0:0:
475,192,264056,128,0,264135:0:0:0:0:
329,192,264056,1,0,0:0:0:0:
402,192,264214,128,0,264530:0:0:0:0:
475,192,264214,128,0,264530:0:0:0:0:
36,192,264530,1,0,0:0:0:0:
109,192,264530,1,0,0:0:0:0:
109,192,264687,128,0,264766:0:0:0:0:
36,192,264687,128,0,264766:0:0:0:0:
36,192,264845,128,0,264924:0:0:0:0:
109,192,264845,128,0,264924:0:0:0:0:
475,192,264845,1,0,0:0:0:0:
402,192,264898,1,0,0:0:0:0:
329,192,264951,1,0,0:0:0:0:
109,192,265003,128,0,265082:0:0:0:0:
36,192,265003,128,0,265082:0:0:0:0:
182,192,265003,1,0,0:0:0:0:
475,192,265056,1,0,0:0:0:0:
329,192,265108,1,0,0:0:0:0:
36,192,265161,128,0,265240:0:0:0:0:
109,192,265161,128,0,265240:0:0:0:0:
182,192,265161,1,0,0:0:0:0:
402,192,265214,1,0,0:0:0:0:
329,192,265266,1,0,0:0:0:0:
109,192,265319,128,0,265398:0:0:0:0:
36,192,265319,128,0,265398:0:0:0:0:
182,192,265319,1,0,0:0:0:0:
402,192,265372,1,0,0:0:0:0:
329,192,265424,1,0,0:0:0:0:
109,192,265477,128,0,265556:0:0:0:0:
36,192,265477,128,0,265556:0:0:0:0:
182,192,265477,128,0,265556:0:0:0:0:
256,192,265635,128,0,265793:0:0:0:0:
182,192,265793,1,0,0:0:0:0:
109,192,265793,1,0,0:0:0:0:
36,192,265793,1,0,0:0:0:0:
329,192,265793,1,0,0:0:0:0:
402,192,265793,1,0,0:0:0:0:
475,192,265793,1,0,0:0:0:0:
182,192,266740,1,0,0:0:0:0:
475,192,266740,1,0,0:0:0:0:
256,192,267372,1,0,0:0:0:0:
329,192,267530,1,0,0:0:0:0:
475,192,267687,1,0,0:0:0:0:
402,192,267845,1,0,0:0:0:0:
329,192,268003,1,0,0:0:0:0:
109,192,268003,1,0,0:0:0:0:
182,192,268319,1,0,0:0:0:0:
402,192,268319,1,0,0:0:0:0:
36,192,269266,1,0,0:0:0:0:
109,192,269266,1,0,0:0:0:0:
475,192,270056,1,0,0:0:0:0:
475,192,270214,1,0,0:0:0:0:
329,192,270266,1,0,0:0:0:0:
182,192,270319,1,0,0:0:0:0:
36,192,270372,1,0,0:0:0:0:
