osu file format v14

[General]
AudioFilename: overcomplexification.mp3
AudioLeadIn: 0
PreviewTime: 61367
Countdown: 0
SampleSet: Soft
StackLeniency: 0.3
Mode: 0
LetterboxInBreaks: 0
WidescreenStoryboard: 1

[Editor]
Bookmarks: 10841,13367,15893,18420,20946,23472,25999,28525,31051,33578,36420,38630,41157,43683,46209,51262,56314,61367,63893,66420,68946,71472,75262,76525,79051,80314,84104,86630,89157,91683,94209,96736,99262,101788,104314,105578,106841
DistanceSpacing: 1.4
BeatDivisor: 8
GridSize: 4
TimelineZoom: 2.2

[Metadata]
Title:overcomplexification
TitleUnicode:overcomplexification
Artist:Camellia
ArtistUnicode:かめりあ
Creator:Arnyxa
Version:Extreme
Source:
Tags:jubeat prop yaspo
BeatmapID:710434
BeatmapSetID:318760

[Difficulty]
HPDrainRate:5.5
CircleSize:4.2
OverallDifficulty:8.2
ApproachRate:9.6
SliderMultiplier:1.8
SliderTickRate:1

[Events]
//Background and Video events
0,0,"BG.png",0,0
//Break Periods
//Storyboard Layer 0 (Background)
//Storyboard Layer 1 (Fail)
//Storyboard Layer 2 (Pass)
//Storyboard Layer 3 (Foreground)
//Storyboard Sound Samples

[TimingPoints]
736,315.789473684211,4,2,0,60,1,0
10525,-75.187969924812,4,2,0,60,0,0
10841,-100,4,2,0,60,0,0
13051,-149.253731343284,4,2,0,60,0,0
13367,-86.2068965517241,4,2,0,60,0,0
20630,-400,4,2,0,60,0,0
20907,-400,4,2,0,5,0,0
20946,-86.2068965517241,4,2,0,60,0,1
21578,-86.2068965517241,4,2,0,60,0,0
24104,-86.2068965517241,4,2,0,60,0,1
25525,-200,4,2,0,60,0,0
25841,-75.187969924812,4,2,0,60,0,1
26630,-86.2068965517241,4,2,0,60,0,0
28525,-75.187969924812,4,2,0,60,0,1
28525,-75.187969924812,4,2,0,60,0,1
30736,-75.187969924812,4,2,0,60,0,0
31051,-64.5161290322581,4,2,0,60,0,1
31525,-75.187969924812,4,2,0,60,0,1
31683,-86.2068965517241,4,2,0,60,0,0
33578,-133.333333333333,4,2,0,60,0,0
34209,-75.187969924812,4,2,0,60,0,1
35630,-112.359550561798,4,2,0,60,0,0
36104,-64.5161290322581,4,2,0,60,0,0
36420,-75.187969924812,4,2,0,60,0,0
41157,-100,4,2,0,60,0,0
70999,-86.2068965517241,4,2,0,60,0,0
75578,-64.5161290322581,4,2,0,60,0,0
78736,-100,4,2,0,60,0,0
79209,-75.187969924812,4,2,0,60,0,0
80314,-52.9100529100529,4,2,0,60,0,0
85367,-75.187969924812,4,2,0,60,0,0
86314,-666.666666666667,4,2,0,60,0,0
86630,-64.5161290322581,4,2,0,60,0,1
91051,-64.5161290322581,4,2,0,60,0,0
91683,-64.5161290322581,4,2,0,60,0,1
96104,-64.5161290322581,4,2,0,60,0,0
96736,-64.5161290322581,4,2,0,60,0,1
101157,-64.5161290322581,4,2,0,60,0,0
101788,-64.5161290322581,4,2,0,60,0,1
106525,-100,4,2,0,60,0,0

[Colours]
Combo1 : 255,128,128
Combo2 : 0,255,255
Combo3 : 255,128,64
Combo4 : 128,255,255

[HitObjects]
414,233,10525,6,0,P|466:289|396:319,1,179.549992602768
373,314,10841,6,0,L|398:223,1,90
415,151,11078,1,0,0:0:0:0:
415,151,11157,1,0,0:0:0:0:
446,62,11314,5,0,0:0:0:0:
469,83,11392,1,0,0:0:0:0:
492,104,11471,1,0,0:0:0:0:
369,109,11630,5,0,0:0:0:0:
392,130,11708,1,0,0:0:0:0:
415,151,11787,1,0,0:0:0:0:
292,158,11946,5,0,0:0:0:0:
315,179,12024,1,0,0:0:0:0:
338,200,12103,1,0,0:0:0:0:
215,205,12262,5,0,0:0:0:0:
238,226,12340,1,0,0:0:0:0:
261,247,12419,1,0,0:0:0:0:
338,200,12578,5,0,0:0:0:0:
215,205,12736,1,0,0:0:0:0:
221,327,12893,1,0,0:0:0:0:
344,322,13051,6,0,B|379:320|379:320|406:307|406:307|434:304,1,90.4499957215121
453,301,13367,6,0,P|494:271|503:221,1,104.400003186035
432,231,13604,1,0,0:0:0:0:
432,231,13683,1,0,0:0:0:0:
476,149,13841,5,0,0:0:0:0:
480,112,13919,1,0,0:0:0:0:
468,79,13998,1,0,0:0:0:0:
365,8,14157,5,0,0:0:0:0:
361,45,14235,1,0,0:0:0:0:
373,78,14314,1,0,0:0:0:0:
362,168,14472,5,0,0:0:0:0:
325,163,14550,1,0,0:0:0:0:
289,159,14630,2,0,L|238:186,1,52.2000015930176
119,130,14788,2,0,L|92:78,1,52.2000015930176
223,0,14946,6,0,P|243:66|187:133,1,156.600004779053
168,54,15262,1,0,0:0:0:0:
289,158,15420,1,0,0:0:0:0:
168,262,15578,1,0,0:0:0:0:
342,207,15736,2,0,L|301:173,1,52.2000015930176
305,38,15893,5,0,0:0:0:0:
345,30,15971,1,0,0:0:0:0:
386,38,16050,1,0,0:0:0:0:
422,60,16129,1,0,0:0:0:0:
448,92,16208,1,0,0:0:0:0:
460,132,16287,1,0,0:0:0:0:
459,173,16367,2,0,P|452:219|443:243,1,52.2000015930176
397,326,16525,5,0,0:0:0:0:
352,322,16603,1,0,0:0:0:0:
308,319,16682,1,0,0:0:0:0:
264,316,16761,1,0,0:0:0:0:
219,313,16840,1,0,0:0:0:0:
175,310,16919,1,0,0:0:0:0:
131,307,16999,2,0,L|79:303,1,52.2000015930176
41,189,17157,5,0,0:0:0:0:
49,142,17235,1,0,0:0:0:0:
58,96,17314,2,0,L|67:45,1,52.2000015930176
177,161,17472,1,0,0:0:0:0:
185,114,17550,1,0,0:0:0:0:
194,68,17629,2,0,L|203:16,1,52.2000015930176
313,133,17788,6,0,L|321:157,7,26.1000007965088
385,85,18104,2,0,L|408:96,7,26.1000007965088
311,48,18420,5,0,0:0:0:0:
256,192,18499,12,0,19525,0:0:0:0:
321,165,19683,5,0,0:0:0:0:
426,209,19841,1,0,0:0:0:0:
436,233,19919,1,0,0:0:0:0:
446,257,19998,1,0,0:0:0:0:
350,236,20157,5,0,0:0:0:0:
455,280,20315,1,0,0:0:0:0:
465,304,20393,1,0,0:0:0:0:
475,328,20472,1,0,0:0:0:0:
377,305,20630,5,0,0:0:0:0:
377,305,20946,6,0,B|343:326|316:328|316:328|250:309|250:309|205:336|205:336|147:293|87:327,1,313.200009558106
205,248,21578,6,0,P|208:196|188:149,1,104.400003186035
125,95,21814,1,0,0:0:0:0:
174,77,21892,1,0,0:0:0:0:
223,59,21971,1,0,0:0:0:0:
272,42,22050,1,0,0:0:0:0:
205,248,22209,1,0,0:0:0:0:
272,42,22367,5,0,0:0:0:0:
205,248,22525,1,0,0:0:0:0:
13,148,22683,1,0,0:0:0:0:
180,349,22841,6,0,P|205:353|231:349,1,52.2000015930176
307,262,22999,2,0,P|332:258|358:262,1,52.2000015930176
471,286,23157,6,0,P|475:261|471:235,1,52.2000015930176
384,159,23315,2,0,P|380:134|384:108,1,52.2000015930176
491,134,23472,5,0,0:0:0:0:
386,257,23630,1,0,0:0:0:0:
377,25,23788,1,0,0:0:0:0:
230,20,23946,2,0,P|204:21|178:21,1,52.2000015930176
83,37,24104,5,0,0:0:0:0:
76,89,24182,1,0,0:0:0:0:
87,141,24261,1,0,0:0:0:0:
80,193,24340,1,0,0:0:0:0:
83,245,24420,2,0,P|82:273|82:297,1,52.2000015930176
256,378,24578,5,0,0:0:0:0:
248,325,24656,1,0,0:0:0:0:
263,273,24735,1,0,0:0:0:0:
253,221,24814,1,0,0:0:0:0:
255,169,24894,2,0,P|256:141|255:116,1,52.2000015930176
429,37,25051,5,0,0:0:0:0:
438,89,25129,1,0,0:0:0:0:
423,141,25208,1,0,0:0:0:0:
433,193,25287,1,0,0:0:0:0:
428,245,25367,2,0,P|430:273|429:297,1,52.2000015930176
256,377,25525,6,0,P|223:384|190:377,1,67.5
165,370,25841,6,0,P|172:341|169:311,1,59.8499975342561
83,245,25999,6,0,B|60:185|94:143|94:143|68:96|68:96|138:81|109:21|109:21|56:22|56:22|74:40|72:61,1,359.099985205536
179,1,26630,2,0,P|190:52|180:105,1,104.400003186035
166,180,26867,1,0,0:0:0:0:
218,178,26945,1,0,0:0:0:0:
270,177,27024,1,0,0:0:0:0:
322,176,27103,1,0,0:0:0:0:
179,1,27262,1,0,0:0:0:0:
322,176,27420,5,0,0:0:0:0:
166,180,27578,1,0,0:0:0:0:
315,355,27736,1,0,0:0:0:0:
427,239,27893,6,0,L|479:242,1,52.2000015930176
374,173,28051,2,0,L|321:176,1,52.2000015930176
432,114,28209,2,0,L|484:117,1,52.2000015930176
379,48,28367,2,0,L|326:51,1,52.2000015930176
179,0,28525,6,0,P|156:55|172:112,1,119.699995068512
291,57,28841,1,0,0:0:0:0:
261,58,28919,1,0,0:0:0:0:
239,60,28999,1,0,0:0:0:0:
374,173,29157,6,0,L|418:212,1,59.8499975342561
419,302,29314,2,0,L|463:341,1,59.8499975342561
389,157,29472,6,0,L|422:206,1,59.8499975342561
399,293,29629,2,0,L|432:342,1,59.8499975342561
323,345,29788,5,0,0:0:0:0:
295,356,29866,1,0,0:0:0:0:
265,360,29945,1,0,0:0:0:0:
235,358,30024,1,0,0:0:0:0:
207,349,30104,5,0,0:0:0:0:
237,347,30182,1,0,0:0:0:0:
265,338,30261,1,0,0:0:0:0:
291,324,30340,1,0,0:0:0:0:
313,303,30420,6,0,P|309:274|297:246,1,59.8499975342561
214,180,30578,2,0,P|202:152|198:122,1,59.8499975342561
254,32,30736,5,0,0:0:0:0:
283,29,30814,1,0,0:0:0:0:
313,27,30893,1,0,0:0:0:0:
343,25,30972,1,0,0:0:0:0:
373,22,31051,6,0,B|412:21|412:21|437:49|437:49|437:109|437:109|406:106|406:106|406:198|406:198|431:203|431:203|448:267|448:267|405:266|405:266|412:237,1,418.500003192902
331,208,31683,2,0,L|331:103,1,104.400003186035
251,98,31920,1,0,0:0:0:0:
199,102,31998,1,0,0:0:0:0:
147,107,32077,1,0,0:0:0:0:
95,112,32156,1,0,0:0:0:0:
331,208,32314,1,0,0:0:0:0:
95,112,32472,5,0,0:0:0:0:
271,287,32630,1,0,0:0:0:0:
251,98,32788,1,0,0:0:0:0:
77,98,32946,6,0,P|50:99|24:102,1,52.2000015930176
102,173,33104,2,0,P|127:175|154:177,1,52.2000015930176
73,248,33262,2,0,P|46:249|20:252,1,52.2000015930176
97,323,33420,2,0,P|122:325|149:327,1,52.2000015930176
249,362,33578,6,0,P|346:317|308:216,1,236.250009012223
271,287,34209,5,0,0:0:0:0:
315,324,34287,1,0,0:0:0:0:
373,323,34366,1,0,0:0:0:0:
416,282,34445,1,0,0:0:0:0:
420,224,34525,2,0,P|415:195|402:168,1,59.8499975342561
358,287,34683,5,0,0:0:0:0:
416,282,34761,1,0,0:0:0:0:
456,239,34840,1,0,0:0:0:0:
457,181,34919,1,0,0:0:0:0:
419,137,34999,2,0,P|394:119|366:110,1,59.8499975342561
420,224,35157,5,0,0:0:0:0:
457,179,35235,1,0,0:0:0:0:
455,120,35314,1,0,0:0:0:0:
415,79,35393,1,0,0:0:0:0:
357,74,35473,2,0,P|327:78|301:92,1,59.8499975342561
195,126,35630,6,0,B|114:140|59:100|59:100|85:90,1,160.200000122223
75,93,36025,1,0,0:0:0:0:
75,93,36104,6,0,B|74:142|74:142|87:175|87:175|88:215|88:215|75:247|75:247|74:300,1,209.250001596451
0,340,36420,6,0,P|75:382|147:337,1,179.549992602768
184,262,36736,2,0,P|256:216|330:258,1,179.549992602768
256,300,37051,1,0,0:0:0:0:
435,379,37209,1,0,0:0:0:0:
486,193,37367,6,0,P|488:163|485:133,1,59.8499975342561
384,28,37525,2,0,P|380:57|382:87,1,59.8499975342561
289,145,37683,6,0,B|218:146|218:146|176:115|176:115|119:115,1,179.549992602768
45,119,37999,1,0,0:0:0:0:
256,300,38209,1,0,0:0:0:0:
467,119,38420,1,0,0:0:0:0:
257,378,38630,5,0,0:0:0:0:
