osu file format v14

[General]
AudioFilename: overcomplexification.mp3
AudioLeadIn: 0
PreviewTime: 87869
Countdown: 0
SampleSet: Normal
StackLeniency: 0.5
Mode: 0
LetterboxInBreaks: 0
WidescreenStoryboard: 0

[Editor]
Bookmarks: 12080,22185,27238,42396,62606,72711,77764,82817,87869,97975,108080
DistanceSpacing: 0.8
BeatDivisor: 4
GridSize: 4
TimelineZoom: 1.8

[Metadata]
Title:overcomplexification
TitleUnicode:overcomplexification
Artist:Camellia
ArtistUnicode:かめりあ
Creator:Ambient
Version:Strategas' Extra
Source:jubeat prop
Tags:eeezzzeee HB24 -Tochi FCL Strategas Nwolf Ntiger
BeatmapID:870323
BeatmapSetID:378212

[Difficulty]
HPDrainRate:6
CircleSize:4
OverallDifficulty:8.5
ApproachRate:9.3
SliderMultiplier:1.8
SliderTickRate:1

[Events]
//Background and Video events
0,0,"complex.jpg",0,0
//Break Periods
2,9714,10894
//Storyboard Layer 0 (Background)
//Storyboard Layer 1 (Fail)
//Storyboard Layer 2 (Pass)
//Storyboard Layer 3 (Foreground)
//Storyboard Sound Samples

[TimingPoints]
1975,315.789473684211,4,2,0,35,1,0
4185,-100,4,2,0,70,0,0
4501,-100,4,2,0,35,0,0
5685,-100,4,2,0,5,0,0
5764,-100,4,2,0,70,0,0
6317,-100,4,2,0,20,0,0
6396,-100,4,2,0,70,0,0
6711,-100,4,2,0,35,0,0
6869,-100,4,2,0,70,0,0
11448,-83.3333333333333,4,2,0,90,0,0
11685,-83.3333333333333,4,2,0,5,0,0
11764,-83.3333333333333,4,2,0,90,0,0
12001,-83.3333333333333,4,2,0,5,0,0
12080,-100,4,2,69,70,0,0
15869,-66.6666666666667,4,2,69,70,0,0
17132,-100,4,2,69,70,0,0
20922,-100,4,2,69,50,0,0
22185,-133.333333333333,4,2,69,70,0,0
22817,-90.9090909090909,4,2,69,70,0,0
25027,-66.6666666666667,4,2,69,70,0,0
25185,-90.9090909090909,4,2,69,70,0,0
25659,-66.6666666666667,4,2,69,70,0,0
25817,-90.9090909090909,4,2,69,70,0,0
26132,-66.6666666666667,4,2,69,70,0,0
26290,-90.9090909090909,4,2,69,70,0,0
26606,-66.6666666666667,4,2,69,70,0,0
26764,-90.9090909090909,4,2,69,70,0,0
27238,-133.333333333333,4,2,69,70,0,0
27869,-90.9090909090909,4,2,69,70,0,0
32290,-133.333333333333,4,2,69,70,0,0
32922,-90.9090909090909,4,2,69,70,0,0
34817,-133.333333333333,4,2,69,70,0,0
35448,-90.9090909090909,4,2,69,70,0,0
35764,-66.6666666666667,4,2,69,70,0,0
35922,-90.9090909090909,4,2,69,70,0,0
36238,-66.6666666666667,4,2,69,70,0,0
36396,-90.9090909090909,4,2,69,70,0,0
36711,-66.6666666666667,4,2,69,70,0,0
36869,-90.9090909090909,4,2,69,70,0,0
37659,-133.333333333333,4,2,69,70,0,0
37975,-90.9090909090909,4,2,69,70,0,0
38606,-83.3333333333333,4,2,69,70,0,0
38922,-66.6666666666667,4,2,69,70,0,0
39238,-83.3333333333333,4,2,69,70,0,0
39869,-133.333333333333,4,2,69,50,0,0
41132,-133.333333333333,4,2,69,80,0,0
41448,-133.333333333333,4,2,69,50,0,0
42396,-100,4,2,69,60,0,0
43975,-100,4,2,0,40,0,0
44922,-100,4,2,69,60,0,0
46185,-100,4,2,69,20,0,0
46501,-100,4,2,69,30,0,0
46817,-100,4,2,69,40,0,0
47132,-100,4,2,69,50,0,0
47448,-100,4,2,69,60,0,0
48711,-133.333333333333,4,2,0,40,0,0
49501,-100,4,2,69,45,0,0
49659,-66.6666666666667,4,2,69,50,0,0
49817,-50,4,2,69,60,0,0
49975,-100,4,2,69,60,0,0
56922,-83.3333333333333,4,2,69,70,0,0
57159,-100,4,2,69,60,0,0
72711,-100,4,2,0,35,0,0
77764,-100,4,2,0,60,0,0
79027,-83.3333333333333,4,2,0,65,0,0
80290,-66.6666666666667,4,2,69,70,0,0
81553,-50,4,2,69,75,0,0
82896,-133.333333333333,4,2,69,20,0,0
85343,-100,4,2,69,50,0,0
87869,-83.3333333333333,4,1,69,50,0,1
100501,-100,4,1,69,50,0,1
100817,-83.3333333333333,4,1,69,50,0,1
104922,-133.333333333333,4,1,69,50,0,1
105553,-66.6666666666667,4,1,69,50,0,1
107764,-200,4,1,69,50,0,1
108080,-100,4,2,0,35,0,0

[Colours]
Combo1 : 245,163,10
Combo2 : 128,255,255
Combo3 : 31,88,241

[HitObjects]
286,87,1975,5,2,0:0:0:0:
286,87,2922,1,2,0:0:0:0:
286,87,3553,5,2,0:0:0:0:
414,118,3711,1,2,0:0:0:0:
156,108,3869,1,2,0:0:0:0:
288,67,4027,1,2,0:0:0:0:
270,258,4185,2,0,L|268:280,6,22.5,2|0|0|0|0|0|0,0:0|0:0|0:0|0:0|0:0|0:0|0:0,0:0:0:0:
272,238,4501,5,2,0:0:0:0:
272,238,5448,1,2,0:0:0:0:
272,238,5764,6,0,L|319:234,1,45
297,64,5922,2,0,L|250:68,1,45
221,155,6080,2,0,L|355:143,1,135
444,139,6396,5,2,0:0:0:0:
444,139,6475,1,2,0:0:0:0:
444,139,6553,1,2,0:0:0:0:
469,229,6711,2,0,L|476:272,4,22.5
272,238,7027,5,2,0:0:0:0:
272,238,7975,1,2,0:0:0:0:
272,238,8606,5,2,0:0:0:0:
400,207,8764,1,2,0:0:0:0:
142,217,8922,1,2,0:0:0:0:
274,258,9080,1,2,0:0:0:0:
239,69,9238,2,0,L|236:45,7,22.5,2|0|0|0|0|0|0|0,0:0|0:0|0:0|0:0|0:0|0:0|0:0|0:0,0:0:0:0:
169,192,11448,6,0,P|247:179|335:190,1,161.999995056153
262,260,11764,2,0,P|249:182|260:94,1,161.999995056153
284,29,12080,5,2,0:3:0:0:
165,101,12238,1,0,0:0:0:0:
348,101,12396,1,2,0:3:0:0:
269,267,12553,1,0,0:0:0:0:
269,267,12632,1,0,0:0:0:0:
269,267,12711,2,0,L|277:211,1,45,2|0,0:3|0:0,0:0:0:0:
444,143,12869,1,0,0:0:0:0:
444,143,12948,1,0,0:0:0:0:
444,143,13027,2,0,L|452:199,1,45,2|0,0:3|0:0,0:0:0:0:
387,259,13185,1,0,0:0:0:0:
348,101,13343,6,0,L|243:88,1,90,2|0,0:3|0:0,0:0:0:0:
217,116,13580,1,0,0:0:0:0:
217,116,13659,2,0,L|112:103,1,90,2|2,0:3|0:0,0:0:0:0:
89,137,13896,1,0,0:0:0:0:
89,137,13975,2,0,L|-16:124,1,90,2|2,0:3|0:0,0:0:0:0:
128,219,14290,2,0,L|132:261,4,22.5,2|0|0|0|0,0:3|0:0|0:0|0:0|0:0,0:0:0:0:
265,41,14606,6,0,P|324:25|455:53,1,180,2|2,0:3|0:3,0:0:0:0:
461,221,15080,1,0,0:0:0:0:
456,222,15159,1,0,0:0:0:0:
451,223,15238,2,0,L|407:233,1,45,2|0,0:3|0:0,0:0:0:0:
239,132,15396,1,0,0:0:0:0:
243,134,15474,1,0,0:0:0:0:
247,136,15553,2,0,L|290:146,1,45,2|0,0:3|0:0,0:0:0:0:
170,306,15711,1,0,0:0:0:0:
291,307,15869,6,0,P|289:278|280:234,1,67.5000025749208,2|0,0:3|0:0,0:0:0:0:
243,134,16027,2,0,P|228:108|201:73,1,67.5000025749208
68,207,16185,2,0,P|144:223|218:210,1,135.000005149842,2|0,0:3|0:0,0:0:0:0:
253,195,16422,1,0,0:0:0:0:
253,195,16501,1,2,0:3:0:0:
135,133,16659,1,0,0:0:0:0:
129,311,16817,1,2,0:3:0:0:
46,120,16975,1,0,0:0:0:0:
201,76,17132,5,2,0:3:0:0:
79,203,17290,1,2,0:3:0:0:
286,98,17448,5,2,0:3:0:0:
184,240,17606,1,2,0:3:0:0:
371,76,17764,5,2,0:3:0:0:
289,277,17922,1,2,0:3:0:0:
453,41,18080,5,2,0:3:0:0:
394,314,18238,1,2,0:3:0:0:
286,98,18396,5,2,0:3:0:0:
251,81,18474,1,2,0:3:0:0:
214,69,18553,1,2,0:3:0:0:
176,63,18632,1,2,0:3:0:0:
138,62,18711,5,2,0:3:0:0:
122,101,18789,1,2,0:3:0:0:
95,134,18868,1,2,0:3:0:0:
59,157,18947,1,2,0:3:0:0:
18,169,19027,5,2,0:3:0:0:
27,214,19105,1,2,0:3:0:0:
53,253,19184,1,2,0:3:0:0:
92,280,19263,1,2,0:3:0:0:
138,289,19343,5,2,0:3:0:0:
172,247,19421,1,2,0:3:0:0:
219,221,19500,1,2,0:3:0:0:
272,216,19579,1,2,0:3:0:0:
324,230,19658,1,6,0:3:0:0:
211,132,20922,5,4,0:3:0:0:
320,56,21080,1,4,0:3:0:0:
320,56,21159,1,4,0:3:0:0:
320,56,21238,1,8,0:0:0:0:
300,141,21396,1,4,0:3:0:0:
225,43,21553,1,4,0:3:0:0:
225,43,21632,1,4,0:3:0:0:
225,43,21711,1,2,0:3:0:0:
387,117,21869,1,8,0:0:0:0:
212,130,22185,6,0,B|166:152|112:154|74:141|74:141|105:170|153:169,1,202.500007724762,4|2,0:0|0:3,0:0:0:0:
251,211,22817,5,8,0:0:0:0:
310,131,22975,1,2,0:0:0:0:
312,127,23053,1,2,0:0:0:0:
314,123,23132,2,0,L|307:66,1,49.5000015106202,2|0,0:3|0:0,0:0:0:0:
303,295,23290,1,8,0:0:0:0:
215,119,23448,5,2,0:3:0:0:
360,214,23606,1,8,0:0:0:0:
164,203,23764,1,2,0:3:0:0:
251,377,23922,1,2,0:3:0:0:
164,203,24080,1,8,0:0:0:0:
129,217,24158,1,2,0:0:0:0:
93,223,24237,1,2,0:0:0:0:
56,221,24316,1,2,0:0:0:0:
21,209,24396,2,0,L|28:145,1,49.5000015106202,2|2,0:0|0:0,0:0:0:0:
202,184,24553,2,0,L|209:248,1,49.5000015106202,2|2,0:0|0:0,0:0:0:0:
110,361,24711,6,0,L|229:356,1,99.0000030212403,2|0,0:3|0:0,0:0:0:0:
299,202,25027,6,0,P|300:165|283:101,1,67.5000025749208
172,35,25185,1,2,0:3:0:0:
172,35,25264,1,2,0:3:0:0:
172,35,25343,5,8,0:0:0:0:
207,46,25422,1,2,0:0:0:0:
243,51,25501,1,2,0:0:0:0:
280,49,25580,1,2,0:0:0:0:
316,39,25659,6,0,P|351:37|393:41,1,67.5000025749208,2|0,0:3|0:0,0:0:0:0:
484,100,25817,5,10,0:0:0:0:
495,135,25896,1,2,0:0:0:0:
500,171,25975,1,2,0:0:0:0:
498,208,26054,1,2,0:0:0:0:
488,244,26133,6,0,P|485:278|489:320,1,67.5000025749208,2|0,0:3|0:0,0:0:0:0:
380,363,26290,5,10,0:0:0:0:
345,352,26369,1,2,0:0:0:0:
309,347,26448,1,2,0:0:0:0:
272,349,26527,1,2,0:0:0:0:
236,359,26606,6,0,P|201:361|159:357,1,67.5000025749208,2|0,0:3|0:0,0:0:0:0:
50,309,26764,5,10,0:0:0:0:
56,210,26922,1,0,0:0:0:0:
139,265,27080,1,0,0:0:0:0:
328,221,27238,6,0,B|350:162|344:116|326:87|326:87|326:126|306:157,1,202.500007724762,4|0,0:0|0:0,0:0:0:0:
235,287,27869,5,8,0:0:0:0:
334,332,28027,1,2,0:0:0:0:
338,334,28106,1,2,0:0:0:0:
342,335,28185,2,0,L|415:342,1,49.5000015106202,2|2,0:3|0:0,0:0:0:0:
156,347,28343,1,8,0:0:0:0:
162,202,28501,5,2,0:3:0:0:
325,223,28659,1,8,0:0:0:0:
235,287,28817,1,2,0:3:0:0:
253,138,28975,1,2,0:3:0:0:
84,262,29132,5,10,0:0:0:0:
68,229,29210,1,2,0:0:0:0:
64,192,29289,1,2,0:0:0:0:
76,157,29368,1,2,0:0:0:0:
98,126,29449,5,2,0:0:0:0:
132,140,29527,1,2,0:0:0:0:
169,143,29606,1,2,0:0:0:0:
205,134,29685,1,2,0:0:0:0:
236,113,29764,5,4,0:3:0:0:
201,221,29922,1,4,0:3:0:0:
159,33,30080,1,4,0:3:0:0:
342,91,30238,1,4,0:3:0:0:
273,284,30396,5,4,0:3:0:0:
201,221,30553,1,4,0:3:0:0:
364,256,30711,1,4,0:3:0:0:
252,379,30869,1,4,0:3:0:0:
138,271,31027,5,4,0:3:0:0:
201,221,31185,1,4,0:3:0:0:
149,352,31343,1,4,0:3:0:0:
62,241,31501,1,4,0:3:0:0:
267,98,31659,5,4,0:3:0:0:
269,73,31737,1,4,0:3:0:0:
270,48,31816,1,4,0:3:0:0:
270,23,31895,1,4,0:3:0:0:
269,0,31975,2,0,L|318:15,3,49.5000015106202,2|2|2|2,0:3|0:3|0:3|0:3,0:0:0:0:
359,52,32290,6,0,B|328:142|413:157|366:255,1,202.500007724762,4|2,0:0|0:3,0:0:0:0:
448,90,32922,5,8,0:0:0:0:
285,201,33080,1,2,0:0:0:0:
281,201,33159,1,2,0:0:0:0:
277,201,33238,2,0,L|221:202,1,49.5000015106202,2|2,0:3|0:0,0:0:0:0:
104,136,33396,1,8,0:0:0:0:
177,288,33553,5,2,0:3:0:0:
200,106,33711,1,8,0:0:0:0:
275,300,33869,1,2,0:3:0:0:
91,236,34027,1,2,0:3:0:0:
365,256,34185,1,10,0:0:0:0:
377,221,34263,1,2,0:0:0:0:
377,184,34342,1,2,0:0:0:0:
364,149,34421,1,2,0:0:0:0:
340,121,34501,2,0,P|317:120|290:122,1,49.5000015106202,2|2,0:0|0:0,0:0:0:0:
378,288,34659,2,0,P|403:292|428:288,1,49.5000015106202,2|2,0:0|0:0,0:0:0:0:
445,134,34817,6,0,B|454:88|452:52|424:32|424:32|384:53|341:58|289:15,1,236.250009012223,2|0,0:3|0:0,0:0:0:0:
271,40,35448,5,10,0:0:0:0:
236,50,35526,1,2,0:0:0:0:
199,54,35605,1,2,0:0:0:0:
162,51,35684,1,2,0:0:0:0:
126,42,35764,6,0,P|90:40|58:43,1,67.5000025749208,2|0,0:3|0:0,0:0:0:0:
179,238,35922,5,10,0:0:0:0:
214,248,36000,1,2,0:0:0:0:
251,252,36079,1,2,0:0:0:0:
288,249,36158,1,2,0:0:0:0:
324,240,36238,6,0,P|360:238|392:241,1,67.5000025749208,2|0,0:3|0:0,0:0:0:0:
181,383,36396,5,10,0:0:0:0:
171,348,36474,1,2,0:0:0:0:
167,311,36553,1,2,0:0:0:0:
170,274,36632,1,2,0:0:0:0:
179,238,36711,6,0,P|181:202|178:170,1,67.5000025749208,2|0,0:3|0:0,0:0:0:0:
85,76,36869,5,10,0:0:0:0:
79,174,37027,1,0,0:0:0:0:
73,272,37185,1,0,0:0:0:0:
271,200,37343,6,0,P|328:195|374:203,1,99.0000030212403,4|0,0:3|0:0,0:0:0:0:
198,265,37659,6,0,P|177:220|180:164,1,101.250003862381,2|0,0:3|0:0,0:0:0:0:
191,142,37975,6,0,L|171:76,2,49.5000015106202,4|0|0,0:3|0:0|0:0,0:0:0:0:
261,347,38290,1,2,0:3:0:0:
261,347,38448,1,0,0:0:0:0:
435,240,38606,6,0,B|449:207|444:165|411:140|411:140|406:114|419:67,1,161.999995056153
365,204,38922,6,0,P|278:217|173:198,1,180.000006866455,2|0,0:3|0:0,0:0:0:0:
298,292,39238,6,0,P|344:287|386:277,1,71.9999978027344,2|0,0:3|0:0,0:0:0:0:
289,143,39448,2,0,P|241:140|199:128,1,71.9999978027344,2|0,0:3|0:0,0:0:0:0:
151,270,39659,2,0,P|187:281|222:287,1,71.9999978027344,2|0,0:3|0:0,0:0:0:0:
140,134,39869,5,2,0:3:0:0:
178,45,40027,2,0,L|264:41,1,67.5000025749208,0|2,0:0|0:0,0:0:0:0:
396,46,40343,2,0,L|328:42,1,67.5000025749208,2|2,0:0|0:0,0:0:0:0:
285,112,40659,1,2,0:0:0:0:
431,129,40817,2,0,L|363:125,1,67.5000025749208,2|0,0:0|0:0,0:0:0:0:
313,189,41132,6,0,L|311:205,6,16.8750006437302,2|0|0|0|0|0|0,0:0|0:0|0:0|0:0|0:0|0:0|0:0,0:0:0:0:
285,112,41448,2,0,L|205:103,1,67.5000025749208,2|0,0:0|0:0,0:0:0:0:
93,109,41764,1,0,0:0:0:0:
89,261,41922,1,0,0:0:0:0:
83,119,42080,1,0,0:0:0:0:
79,271,42238,1,0,0:0:0:0:
229,271,42396,6,0,B|272:247|317:239|362:273|362:273|406:239|441:241|500:266,1,270,2|2,0:3|0:3,0:0:0:0:
359,164,43027,2,0,L|355:63,1,90,8|0,0:0|0:0,0:0:0:0:
296,347,43343,1,2,0:3:0:0:
430,344,43501,1,2,0:3:0:0:
102,107,43975,6,0,L|98:65,6,22.5,8|0|8|0|8|0|8,0:0|0:0|0:0|0:0|0:0|0:0|0:0,0:0:0:0:
58,167,44290,2,0,P|113:181|158:155,1,90,0|8,0:0|0:0,0:0:0:0:
216,117,44606,1,2,0:0:0:0:
229,115,44685,1,2,0:0:0:0:
273,98,44764,1,2,0:0:0:0:
286,96,44843,1,2,0:0:0:0:
329,76,44922,6,0,P|338:168|327:262,1,180,4|0,0:0|0:0,0:0:0:0:
170,334,45396,1,2,0:3:0:0:
170,334,45475,1,2,0:3:0:0:
170,334,45553,1,8,0:0:0:0:
403,319,45711,1,0,0:0:0:0:
440,178,45869,1,2,0:3:0:0:
440,178,46027,1,2,0:3:0:0:
472,261,46185,5,0,0:0:0:0:
403,319,46343,1,2,0:0:0:0:
403,319,46422,1,2,0:0:0:0:
403,319,46501,5,2,0:0:0:0:
387,328,46580,1,2,0:0:0:0:
370,334,46659,1,2,0:0:0:0:
353,338,46738,1,2,0:0:0:0:
321,332,46817,5,2,0:0:0:0:
294,331,46895,1,2,0:0:0:0:
267,331,46974,1,2,0:0:0:0:
240,331,47053,1,2,0:0:0:0:
253,300,47132,5,2,0:0:0:0:
265,268,47210,1,2,0:0:0:0:
272,235,47289,1,2,0:0:0:0:
272,202,47368,1,2,0:0:0:0:
266,169,47448,6,0,B|229:137|175:135|132:160|132:160|78:142|37:167|37:167|48:132,1,270,4|2,0:0|0:3,0:0:0:0:
89,249,48080,1,8,0:0:0:0:
122,59,48238,1,0,0:0:0:0:
195,239,48396,1,2,0:3:0:0:
122,59,48553,1,2,0:3:0:0:
238,47,48711,6,0,B|277:42|306:46|329:32|329:32|351:51|343:76,1,135.000005149842,0|8,0:0|0:0,0:0:0:0:
303,158,49185,1,2,0:0:0:0:
303,158,49264,1,2,0:0:0:0:
303,158,49343,1,2,0:3:0:0:
397,157,49501,6,0,L|415:152,3,15,12|0|0|0,0:3|0:0|0:0|0:0,0:0:0:0:
351,241,49659,2,0,L|379:250,3,22.5000008583069,12|0|0|0,0:3|0:0|0:0|0:0,0:0:0:0:
271,294,49817,2,0,L|283:342,2,45,12|0|0,0:3|0:0|0:0,0:0:0:0:
178,318,49975,5,2,0:3:0:0:
206,233,50132,1,0,0:0:0:0:
117,251,50290,1,0,0:0:0:0:
145,166,50447,1,2,0:0:0:0:
99,163,50527,1,2,0:0:0:0:
54,160,50606,1,8,0:0:0:0:
337,97,50922,5,2,0:3:0:0:
423,124,51080,1,8,0:0:0:0:
426,78,51159,1,2,0:0:0:0:
429,33,51239,1,2,0:0:0:0:
358,186,51396,5,2,0:3:0:0:
258,56,51553,1,8,0:0:0:0:
442,212,51711,1,2,0:0:0:0:
161,191,51869,1,2,0:3:0:0:
423,124,52027,1,8,0:0:0:0:
179,279,52185,1,0,0:0:0:0:
236,143,52343,1,2,0:0:0:0:
236,143,52422,1,2,0:0:0:0:
236,143,52501,6,0,B|251:92|250:55|220:28|220:28|163:67|52:37,1,270,4|2,0:0|0:3,0:0:0:0:
161,191,53132,1,8,0:0:0:0:
324,155,53290,1,2,0:0:0:0:
163,216,53448,1,2,0:3:0:0:
0,180,53606,1,8,0:0:0:0:
60,318,53764,5,2,0:3:0:0:
78,43,53922,1,8,0:0:0:0:
163,216,54080,1,2,0:3:0:0:
275,38,54238,1,2,0:3:0:0:
251,336,54396,1,8,0:0:0:0:
354,234,54553,1,0,0:0:0:0:
163,216,54711,1,2,0:0:0:0:
129,211,54789,1,2,0:0:0:0:
95,210,54868,1,2,0:0:0:0:
62,211,54947,1,2,0:0:0:0:
28,216,55027,6,0,B|14:158|26:124|53:83|53:83|101:108|172:85,1,225,4|0,0:0|0:0,0:0:0:0:
219,79,55501,1,2,0:3:0:0:
219,79,55580,1,2,0:3:0:0:
219,79,55659,1,8,0:0:0:0:
105,0,55817,1,2,0:0:0:0:
190,166,55975,1,2,0:3:0:0:
426,166,56132,2,0,P|427:114|421:54,1,90,8|0,0:0|0:0,0:0:0:0:
361,228,56448,5,2,0:3:0:0:
336,29,56606,2,0,P|332:73|334:118,1,90,8|0,0:0|0:0,0:0:0:0:
337,121,56843,1,2,0:3:0:0:
340,124,56922,6,0,P|289:134|202:126,1,107.999996704102,2|2,0:0|0:3,0:0:0:0:
201,116,57159,1,2,0:0:0:0:
166,104,57237,1,10,0:0:0:0:
131,98,57316,1,2,0:0:0:0:
95,98,57395,1,2,0:0:0:0:
60,104,57474,1,2,0:0:0:0:
26,116,57553,6,0,B|31:159|40:206|87:240|87:240|169:210|239:254,1,270,4|2,0:0|0:3,0:0:0:0:
9,290,58185,1,8,0:0:0:0:
150,320,58343,1,2,0:0:0:0:
121,139,58501,1,2,0:3:0:0:
68,357,58659,1,8,0:0:0:0:
121,231,58817,5,2,0:3:0:0:
216,379,58975,1,8,0:0:0:0:
197,185,59132,1,2,0:3:0:0:
68,357,59290,1,2,0:3:0:0:
320,285,59448,1,10,0:0:0:0:
197,185,59606,1,2,0:0:0:0:
408,292,59764,1,2,0:0:0:0:
363,45,59922,1,2,0:0:0:0:
458,209,60080,6,0,P|413:208|369:211,1,90,2|0,0:3|0:0,0:0:0:0:
144,247,60396,1,8,0:0:0:0:
268,145,60553,2,0,B|284:111|285:80|285:53|285:53|257:41|215:48|166:57,1,180,2|10,0:3|0:0,0:0:0:0:
196,52,60948,1,2,0:0:0:0:
191,53,61027,1,2,0:0:0:0:
186,54,61106,1,2,0:0:0:0:
144,71,61185,5,10,0:0:0:0:
137,115,61264,1,10,0:0:0:0:
144,159,61343,6,0,P|152:207|138:264,1,90,2|0,0:3|0:0,0:0:0:0:
73,363,61659,1,8,0:0:0:0:
20,205,61817,2,0,P|11:115|30:7,1,180,2|8,0:3|0:0,0:0:0:0:
23,26,62211,1,0,0:0:0:0:
23,26,62290,1,0,0:0:0:0:
144,71,62448,1,2,0:0:0:0:
144,71,62527,1,2,0:0:0:0:
144,71,62606,6,0,P|196:78|251:74,1,90,4|0,0:0|0:0,0:0:0:0:
295,64,62843,1,0,0:0:0:0:
295,64,62922,2,0,L|330:61,3,30,2|0|0|0,0:0|0:0|0:0|0:0,0:0:0:0:
281,166,63238,5,8,0:0:0:0:
278,199,63316,1,0,0:0:0:0:
277,233,63395,1,0,0:0:0:0:
279,267,63474,1,0,0:0:0:0:
301,313,63553,5,2,0:3:0:0:
334,315,63631,1,0,0:0:0:0:
368,316,63710,1,0,0:0:0:0:
401,312,63789,1,0,0:0:0:0:
435,309,63869,2,0,L|468:305,3,30,2|0|0|0,0:0|0:0|0:0|0:0,0:0:0:0:
183,273,64185,5,2,0:3:0:0:
150,268,64265,2,0,L|115:263,2,22.5,2|0|0,0:0|0:0|0:0,0:0:0:0:
338,115,64500,5,8,0:0:0:0:
303,117,64579,1,0,0:0:0:0:
268,114,64659,1,2,0:3:0:0:
234,107,64737,1,0,0:0:0:0:
200,99,64817,6,0,L|159:101,2,22.5,2|0|2,0:0|0:0|0:3,0:0:0:0:
215,190,64975,2,0,L|262:192,1,45,2|2,0:3|0:3,0:0:0:0:
135,173,65132,5,2,0:3:0:0:
130,172,65211,1,2,0:0:0:0:
125,172,65290,2,0,L|31:167,1,90,2|0,0:0|0:0,0:0:0:0:
0,96,65527,1,2,0:0:0:0:
5,96,65606,2,0,L|99:91,1,90,2|8,0:0|0:0,0:0:0:0:
44,246,65843,2,0,L|-21:244,1,45,2|0,0:0|0:0,0:0:0:0:
165,253,66001,1,2,0:0:0:0:
169,253,66080,1,2,0:3:0:0:
173,254,66159,2,0,L|231:259,1,45,2|0,0:0|0:0,0:0:0:0:
215,31,66317,6,0,L|157:26,1,45,2|0,0:0|0:0,0:0:0:0:
301,167,66475,1,2,0:3:0:0:
301,162,66553,2,2,L|301:100,1,45,2|2,0:3|0:0,0:0:0:0:
443,63,66711,1,2,0:3:0:0:
443,68,66790,2,0,L|443:130,1,45,2|2,0:3|0:3,0:0:0:0:
301,305,66948,2,0,L|301:230,1,45,2|0,0:0|0:0,0:0:0:0:
111,166,67106,1,2,0:0:0:0:
111,161,67185,2,0,L|111:99,1,45,2|0,0:3|0:0,0:0:0:0:
191,64,67343,5,14,1:3:0:0:
194,141,67448,5,14,1:3:0:0:
197,218,67553,5,14,1:3:0:0:
200,296,67659,6,0,P|159:305|79:294,1,90,4|0,0:0|0:0,0:0:0:0:
82,299,67896,1,0,0:0:0:0:
53,295,67975,5,0,0:0:0:0:
56,262,68054,1,0,0:0:0:0:
65,229,68133,1,0,0:0:0:0:
79,199,68211,1,0,0:0:0:0:
94,169,68290,5,8,0:0:0:0:
76,140,68369,1,0,0:0:0:0:
63,110,68448,1,0,0:0:0:0:
55,77,68527,1,0,0:0:0:0:
90,40,68606,5,2,0:3:0:0:
123,40,68684,1,0,0:0:0:0:
157,41,68763,1,0,0:0:0:0:
191,42,68842,1,0,0:0:0:0:
226,45,68922,6,0,L|266:46,4,22.5,2|0|0|0|2,0:0|0:0|0:0|0:0|0:3,0:0:0:0:
180,118,69159,2,0,L|140:119,2,22.5,2|0|2,0:0|0:0|0:3,0:0:0:0:
338,94,69396,6,0,P|365:91|396:95,1,45,2|2,0:0|0:0,0:0:0:0:
354,277,69553,2,0,P|343:301|324:326,1,45,8|2,0:0|0:0,0:0:0:0:
183,190,69711,2,0,P|166:168|154:139,1,45,2|2,0:3|0:0,0:0:0:0:
309,171,69869,6,0,P|316:183|318:197,1,22.5,2|0,0:3|0:0,0:0:0:0:
286,199,69948,2,0,P|289:212|288:228,1,22.5,2|0,0:3|0:0,0:0:0:0:
258,222,70027,2,0,P|258:242|243:271,1,45,2|2,0:3|0:3,0:0:0:0:
25,206,70185,5,2,0:0:0:0:
25,201,70264,1,2,0:0:0:0:
25,196,70343,2,0,P|22:153|30:94,1,90,10|0,0:0|0:0,0:0:0:0:
160,153,70580,1,2,0:0:0:0:
160,148,70659,2,0,P|162:105|155:46,1,90,10|8,0:0|0:0,0:0:0:0:
320,61,70896,2,0,P|318:95|313:120,1,45,2|0,0:0|0:0,0:0:0:0:
239,187,71053,1,2,0:0:0:0:
239,182,71132,1,2,0:3:0:0:
239,177,71211,2,0,P|242:154|242:132,1,45,2|8,0:0|0:0,0:0:0:0:
27,106,71369,1,2,0:0:0:0:
28,101,71448,6,0,L|28:60,4,22.5,2|0|0|0|2,0:0|0:0|0:0|0:0|0:3,0:0:0:0:
45,204,71685,1,0,0:0:0:0:
46,208,71764,1,10,0:0:0:0:
47,212,71843,2,0,L|50:268,2,45,2|2|2,0:0|0:0|0:0,0:0:0:0:
108,142,72080,5,2,0:3:0:0:
234,174,72396,2,0,L|233:190,10,15,2|0|0|0|0|0|0|0|0|0|0,0:0|0:0|0:0|0:0|0:0|0:0|0:0|0:0|0:0|0:0|0:0,0:0:0:0:
236,154,72711,5,6,0:0:0:0:
235,159,73659,1,2,0:0:0:0:
235,159,74290,5,2,0:0:0:0:
215,247,74448,1,2,0:0:0:0:
294,90,74606,1,2,0:0:0:0:
323,175,74764,1,2,0:0:0:0:
151,133,74922,2,0,L|128:129,6,22.5,2|0|0|0|0|0|0,0:0|0:0|0:0|0:0|0:0|0:0|0:0,0:0:0:0:
109,126,75238,5,2,0:0:0:0:
109,126,76185,1,2,0:0:0:0:
109,126,76501,6,0,P|105:148|109:170,1,45,2|0,0:0|0:0,0:0:0:0:
308,112,76659,2,0,P|311:134|308:156,1,45,2|0,0:0|0:0,0:0:0:0:
269,292,76817,2,2,P|212:322|155:267,1,135
365,338,77132,5,8,0:0:0:0:
437,284,77290,1,0,0:0:0:0:
426,194,77448,1,0,0:0:0:0:
353,247,77606,1,0,0:0:0:0:
456,110,77764,5,2,0:3:0:0:
344,158,77922,1,0,0:0:0:0:
437,284,78080,1,2,0:3:0:0:
325,332,78238,1,0,0:0:0:0:
325,332,78317,1,0,0:0:0:0:
325,332,78396,1,2,0:3:0:0:
426,194,78553,1,0,0:0:0:0:
426,194,78632,1,0,0:0:0:0:
426,194,78711,1,2,0:3:0:0:
250,159,78869,1,0,0:0:0:0:
250,159,78948,1,0,0:0:0:0:
250,159,79027,5,2,0:3:0:0:
164,317,79185,1,0,0:0:0:0:
164,317,79264,1,0,0:0:0:0:
164,317,79343,2,0,L|159:226,1,53.9999983520508,2|0,0:3|0:0,0:0:0:0:
147,90,79501,1,2,0:0:0:0:
147,90,79580,1,0,0:0:0:0:
147,90,79659,1,2,0:3:0:0:
32,228,79817,1,2,0:0:0:0:
32,228,79896,1,0,0:0:0:0:
32,228,79975,2,0,L|113:201,1,53.9999983520508,2|0,0:3|0:0,0:0:0:0:
250,159,80132,1,0,0:0:0:0:
250,159,80211,1,0,0:0:0:0:
250,159,80290,5,8,0:0:0:0:
340,359,80448,1,2,0:3:0:0:
331,357,80527,1,2,0:3:0:0:
322,356,80606,2,0,L|241:349,1,67.5000025749208,8|0,0:0|0:0,0:0:0:0:
374,115,80764,1,2,0:3:0:0:
383,113,80843,1,2,0:3:0:0:
392,112,80922,2,0,L|472:104,1,67.5000025749208,8|0,0:0|0:0,0:0:0:0:
114,179,81080,1,2,0:3:0:0:
105,177,81159,1,2,0:3:0:0:
96,176,81238,2,0,L|16:168,1,67.5000025749208,8|0,0:0|0:0,0:0:0:0:
301,235,81396,1,2,0:3:0:0:
354,237,81475,1,2,0:3:0:0:
407,239,81553,6,0,L|515:244,1,90,8|0,0:0|0:0,0:0:0:0:
317,314,81711,1,2,0:3:0:0:
264,316,81790,2,0,L|156:321,1,90,8|0,0:0|0:0,0:0:0:0:
385,166,81948,1,2,0:3:0:0:
383,113,82027,2,0,L|378:5,1,90,8|0,0:0|0:0,0:0:0:0:
204,101,82185,1,2,0:3:0:0:
206,154,82264,2,0,L|211:262,1,90,8|0,0:0|0:0,0:0:0:0:
28,169,82422,1,2,0:3:0:0:
30,116,82501,6,0,L|36:9,1,90,8|0,0:0|0:0,0:0:0:0:
204,101,82659,2,0,L|209:11,1,90,8|0,0:0|0:0,0:0:0:0:
383,113,82817,1,6,1:3:0:0:
256,192,82896,12,0,85264,0:0:0:0:
216,209,85343,6,0,L|107:207,1,90,2|0,0:0|0:0,0:0:0:0:
260,141,85580,2,0,L|369:139,1,90,2|0,0:0|0:0,0:0:0:0:
193,96,85817,2,0,L|84:94,2,90,2|2|0,0:0|0:0|0:0,0:0:0:0:
294,216,86211,2,0,L|296:325,1,90,2|0,0:0|0:0,0:0:0:0:
295,305,86448,1,2,0:0:0:0:
295,305,86527,1,2,0:0:0:0:
295,305,86606,5,2,0:3:0:0:
326,318,86684,1,2,0:3:0:0:
360,322,86763,1,2,0:3:0:0:
393,317,86842,1,2,0:3:0:0:
423,303,86922,2,0,P|436:247|416:194,1,90,8|0,0:3|0:0,0:0:0:0:
400,182,87159,1,2,0:0:0:0:
387,150,87237,1,2,0:0:0:0:
383,117,87316,1,2,0:0:0:0:
388,84,87395,1,2,0:3:0:0:
360,247,87553,2,0,P|313:242|264:218,1,90,8|0,0:0|0:0,0:0:0:0:
85,92,87869,6,0,P|80:152|81:199,1,107.999996704102,4|0,0:0|0:0,0:0:0:0:
274,224,88106,1,2,0:3:0:0:
274,224,88185,2,0,P|279:164|277:116,1,107.999996704102,2|0,0:3|0:0,0:0:0:0:
194,302,88501,1,2,0:3:0:0:
226,325,88579,1,0,0:0:0:0:
265,335,88658,1,2,0:2:0:0:
306,330,88737,1,0,0:0:0:0:
341,312,88817,2,0,P|411:300|459:313,1,107.999996704102,2|0,0:3|0:0,0:0:0:0:
396,189,89053,1,2,0:3:0:0:
377,153,89133,6,0,P|364:83|377:35,1,107.999996704102,2|0,0:3|0:0,0:0:0:0:
274,224,89448,2,0,P|218:212|171:167,1,107.999996704102,2|0,0:3|0:0,0:0:0:0:
172,313,89764,1,2,0:3:0:0:
132,323,89842,1,0,0:0:0:0:
92,324,89921,1,2,0:2:0:0:
53,315,90000,1,2,0:3:0:0:
17,296,90080,2,0,P|13:249|32:181,1,107.999996704102,2|0,0:3|0:0,0:0:0:0:
114,96,90317,1,2,0:3:0:0:
114,96,90396,6,0,L|230:86,1,107.999996704102,2|0,0:3|0:0,0:0:0:0:
287,189,90632,1,2,0:3:0:0:
287,189,90711,2,0,L|171:179,1,107.999996704102,2|0,0:3|0:0,0:0:0:0:
318,100,90948,1,2,0:3:0:0:
318,100,91027,2,0,L|434:110,1,107.999996704102,2|0,0:3|0:0,0:0:0:0:
490,193,91264,1,2,0:3:0:0:
490,193,91343,2,0,L|374:203,1,107.999996704102,2|0,0:3|0:0,0:0:0:0:
382,202,91580,1,2,0:3:0:0:
382,202,91659,5,2,0:3:0:0:
221,86,91817,1,0,0:0:0:0:
221,86,91896,1,2,0:3:0:0:
221,86,91975,1,2,0:3:0:0:
162,283,92132,1,0,0:0:0:0:
198,300,92210,1,2,0:3:0:0:
237,308,92289,1,0,0:0:0:0:
278,306,92368,1,0,0:0:0:0:
316,294,92448,1,0,0:0:0:0:
172,186,92606,5,2,0:3:0:0:
132,152,92684,1,2,0:2:0:0:
112,102,92763,1,2,0:2:0:0:
116,49,92842,1,2,0:3:0:0:
144,4,92922,6,0,B|190:-2|240:10|274:25|274:25|318:7|386:7,1,215.999993408203,4|2,0:0|0:3,0:0:0:0:
343,186,93396,2,0,L|289:190,1,53.9999983520508
112,102,93553,2,0,L|58:106,1,53.9999983520508,2|0,0:3|0:0,0:0:0:0:
3,196,93711,1,2,0:2:0:0:
1,250,93790,1,2,0:3:0:0:
3,303,93869,1,2,0:3:0:0:
112,102,94027,1,0,0:0:0:0:
98,317,94185,6,0,P|163:349|228:333,1,107.999996704102,2|0,0:3|0:0,0:0:0:0:
220,231,94422,1,2,0:3:0:0:
177,240,94501,2,0,P|145:175|161:110,1,107.999996704102,2|0,0:3|0:0,0:0:0:0:
353,306,94817,2,0,L|300:309,1,53.9999983520508,2|0,0:3|0:0,0:0:0:0:
98,317,94975,1,0,0:0:0:0:
70,271,95053,1,2,0:3:0:0:
69,217,95132,1,2,0:3:0:0:
293,101,95290,1,0,0:0:0:0:
320,146,95368,1,2,0:3:0:0:
321,200,95448,6,0,P|403:195|462:110,1,161.999995056153,2|2,0:3|0:3,0:0:0:0:
468,283,95764,2,0,P|424:314|371:316,1,107.999996704102,2|0,0:3|0:0,0:0:0:0:
262,294,96001,1,2,0:3:0:0:
262,294,96080,2,0,B|229:319|229:319|162:321,1,107.999996704102,2|2,0:3|0:2,0:0:0:0:
221,167,96317,1,2,0:3:0:0:
221,167,96396,2,0,B|188:142|188:142|121:140,1,107.999996704102,2|2,0:3|0:2,0:0:0:0:
334,229,96632,1,2,0:3:0:0:
345,207,96711,6,0,P|349:138|342:87,1,107.999996704102,2|0,0:3|0:0,0:0:0:0:
281,18,96948,2,0,P|313:80|363:104,1,107.999996704102,2|0,0:3|0:0,0:0:0:0:
372,54,97185,2,0,P|350:93|300:117,1,53.9999983520508,2|0,0:3|0:0,0:0:0:0:
175,40,97343,2,0,L|103:31,1,53.9999983520508,2|2,0:3|0:3,0:0:0:0:
34,253,97501,2,0,L|88:247,1,53.9999983520508,2|0,0:2|0:0,0:0:0:0:
370,203,97659,5,2,0:3:0:0:
317,192,97737,1,2,0:3:0:0:
264,181,97816,1,2,0:3:0:0:
211,171,97895,1,2,0:3:0:0:
158,160,97975,6,0,B|111:116|54:118|12:153|12:153|26:112|75:107,1,215.999993408203,4|2,0:0|0:3,0:0:0:0:
174,39,98448,1,0,0:0:0:0:
81,239,98606,1,2,0:3:0:0:
211,171,98764,1,2,0:2:0:0:
264,181,98843,1,2,0:3:0:0:
317,192,98922,1,2,0:3:0:0:
142,327,99080,1,0,0:0:0:0:
362,294,99238,6,0,P|415:241|423:169,1,107.999996704102,2|0,0:3|0:0,0:0:0:0:
323,59,99475,1,2,0:3:0:0:
311,83,99553,2,0,P|258:30|250:-42,1,107.999996704102,2|0,0:3|0:0,0:0:0:0:
48,185,99869,1,2,0:3:0:0:
101,183,99947,1,2,0:2:0:0:
155,182,100026,1,2,0:2:0:0:
209,181,100105,1,2,0:3:0:0:
263,180,100185,2,0,L|122:151,1,107.999996704102,2|0,0:3|0:0,0:0:0:0:
226,279,100422,1,2,0:3:0:0:
245,287,100501,6,0,P|330:266|371:196,1,135,2|2,0:3|0:3,0:0:0:0:
457,265,100817,6,0,P|371:244|334:190,1,107.999996704102,2|0,0:3|0:0,0:0:0:0:
296,29,101132,1,2,0:3:0:0:
242,33,101210,1,0,0:0:0:0:
196,60,101289,1,2,0:2:0:0:
166,104,101368,1,2,0:3:0:0:
158,157,101448,2,0,P|174:82|138:37,1,107.999996704102,2|0,0:3|0:0,0:0:0:0:
235,239,101685,1,2,0:3:0:0:
257,228,101764,6,0,P|292:215|359:232,1,107.999996704102,2|0,0:3|0:0,0:0:0:0:
189,315,102080,1,2,0:3:0:0:
422,321,102238,1,0,0:0:0:0:
422,321,102317,1,2,0:3:0:0:
422,321,102396,5,2,0:2:0:0:
449,291,102474,1,2,0:2:0:0:
464,254,102553,1,2,0:2:0:0:
465,213,102632,1,2,0:3:0:0:
451,176,102711,5,2,0:3:0:0:
385,191,102789,1,2,0:2:0:0:
318,197,102868,1,2,0:2:0:0:
251,194,102947,1,2,0:3:0:0:
184,183,103027,6,0,L|203:331,1,107.999996704102,6|0,0:3|0:0,0:0:0:0:
102,209,103264,2,0,L|88:316,1,107.999996704102,2|0,0:3|0:0,0:0:0:0:
19,184,103501,2,0,L|-6:248,1,53.9999983520508,2|0,0:3|0:0,0:0:0:0:
112,98,103659,6,0,P|155:76|249:93,1,107.999996704102,2|0,0:3|0:0,0:0:0:0:
205,284,103896,2,0,P|182:236|184:183,1,107.999996704102,2|0,0:3|0:0,0:0:0:0:
290,211,104132,1,2,0:3:0:0:
391,49,104290,5,2,0:3:0:0:
321,51,104369,1,2,0:3:0:0:
474,123,104527,1,2,0:3:0:0:
413,305,104685,1,2,0:3:0:0:
415,235,104764,1,2,0:3:0:0:
184,182,104922,6,0,B|137:196|104:201|52:175|52:175|1:200|56:280,1,236.250009012223,8|0,0:0|0:0,0:0:0:0:
78,328,105553,5,8,0:0:0:0:
184,182,105711,1,2,0:3:0:0:
173,384,105869,1,8,0:0:0:0:
218,369,105948,1,2,0:2:0:0:
263,354,106027,1,2,0:3:0:0:
424,174,106185,1,8,0:0:0:0:
244,88,106343,5,2,0:2:0:0:
198,73,106422,1,2,0:2:0:0:
154,58,106501,5,8,0:0:0:0:
207,54,106579,1,2,0:2:0:0:
261,55,106658,1,2,0:3:0:0:
315,63,106737,1,2,0:2:0:0:
369,75,106817,5,8,0:0:0:0:
347,131,106895,1,2,0:2:0:0:
339,191,106974,1,2,0:3:0:0:
343,252,107053,1,2,0:2:0:0:
360,310,107132,5,14,0:2:0:0:
424,330,107211,1,2,0:2:0:0:
486,303,107290,6,0,L|485:227,1,67.5000025749208,2|0,0:3|0:0,0:0:0:0:
197,140,107448,2,0,L|197:72,1,67.5000025749208,14|0,0:2|0:0,0:0:0:0:
251,312,107606,2,0,L|251:379,1,67.5000025749208,2|0,0:3|0:0,0:0:0:0:
153,295,107764,6,0,L|116:291,2,22.5
219,225,108080,5,6,1:2:0:0:
219,225,109027,1,2,0:0:0:0:
219,225,109659,5,2,0:0:0:0:
240,93,109817,1,2,0:0:0:0:
319,302,109975,1,2,0:0:0:0:
298,170,110133,1,2,0:0:0:0:
226,320,110290,1,2,0:0:0:0:
219,225,110606,5,2,0:0:0:0:
219,225,111553,1,2,0:0:0:0:
219,225,112343,5,2,0:0:0:0:
241,131,112501,2,0,L|250:84,3,30,2|2|2|2,0:0|0:0|0:0|0:0,0:0:0:0:
