osu file format v14

[General]
AudioFilename: overcomplexification.mp3
AudioLeadIn: 0
PreviewTime: 87869
Countdown: 0
SampleSet: Normal
StackLeniency: 0.7
Mode: 1
LetterboxInBreaks: 0
WidescreenStoryboard: 0

[Editor]
DistanceSpacing: 0.8
BeatDivisor: 4
GridSize: 32
TimelineZoom: 2.5

[Metadata]
Title:overcomplexification
TitleUnicode:overcomplexification
Artist:Camellia
ArtistUnicode:かめりあ
Creator:Ambient
Version:Nwolf's Muzukashii
Source:jubeat prop
Tags:eeezzzeee HB24 -Tochi FCL Strategas Nwolf Ntiger
BeatmapID:869323
BeatmapSetID:378212

[Difficulty]
HPDrainRate:6
CircleSize:4
OverallDifficulty:5
ApproachRate:8
SliderMultiplier:1.4
SliderTickRate:1

[Events]
//Background and Video events
0,0,"complex.jpg",0,0
//Break Periods
//Storyboard Layer 0 (Background)
//Storyboard Layer 1 (Fail)
//Storyboard Layer 2 (Pass)
//Storyboard Layer 3 (Foreground)
//Storyboard Sound Samples

[TimingPoints]
1975,315.789473684211,4,1,0,40,1,0
1975,-100,4,1,0,40,0,0
11922,-100,4,1,0,50,0,0
12238,-100,4,1,0,52,0,0
12553,-100,4,1,0,54,0,0
12869,-100,4,1,0,56,0,0
13501,-100,4,1,0,60,0,0
13738,-100,4,1,0,62,0,0
13896,-100,4,1,0,64,0,0
14211,-100,4,1,0,66,0,0
14448,-100,4,1,0,68,0,0
14764,-100,4,1,0,70,0,0
15080,-100,4,1,0,72,0,0
15396,-100,4,1,0,74,0,0
15711,-100,4,1,0,76,0,0
15948,-100,4,1,0,77,0,0
16106,-100,4,1,0,78,0,0
16343,-100,4,1,0,80,0,0
17053,-100,4,1,0,84,0,0
17211,-100,4,1,0,85,0,0
17369,-100,4,1,0,86,0,0
17527,-100,4,1,0,87,0,0
17685,-100,4,1,0,89,0,0
17843,-100,4,1,0,90,0,0
18001,-100,4,1,0,91,0,0
18159,-100,4,1,0,92,0,0
18317,-100,4,1,0,93,0,0
19817,-100,4,1,0,50,0,0
22106,-100,4,1,0,95,0,0
40027,-100,4,1,0,75,0,0
42317,-100,4,1,0,85,0,0
43975,-100,4,1,0,70,0,0
44843,-100,4,1,0,85,0,0
46106,-100,4,1,0,70,0,0
47369,-100,4,1,0,85,0,0
48869,-100,4,1,0,70,0,0
49659,-100,4,1,0,85,0,0
62606,-100,4,1,0,90,0,0
72869,-100,4,1,0,40,0,0
76975,-100,4,1,0,60,0,0
86527,-100,4,1,0,50,0,0
87869,-100,4,1,0,95,0,1
107685,-100,4,1,0,95,0,0
108080,-100,4,1,0,80,0,0
108238,-100,4,1,0,40,0,0

[HitObjects]
224,160,1975,5,0,0:0:0:0:
288,160,2922,1,8,0:0:0:0:
224,160,3553,1,0,0:0:0:0:
288,160,3711,1,8,0:0:0:0:
224,160,3869,1,0,0:0:0:0:
224,224,4185,1,4,0:0:0:0:
288,160,4501,1,8,0:0:0:0:
224,160,5448,1,0,0:0:0:0:
288,224,5764,1,12,0:0:0:0:
288,224,5922,1,12,0:0:0:0:
288,224,6080,1,12,0:0:0:0:
224,160,6396,1,0,0:0:0:0:
224,160,7027,1,0,0:0:0:0:
288,160,7975,1,8,0:0:0:0:
224,160,8606,1,0,0:0:0:0:
288,160,8764,1,8,0:0:0:0:
224,160,8922,1,0,0:0:0:0:
224,224,9238,1,4,0:0:0:0:
288,160,10027,1,8,0:0:0:0:
224,160,10501,1,0,0:0:0:0:
224,160,10975,1,0,0:0:0:0:
288,160,11369,1,8,0:0:0:0:
224,224,12080,1,4,0:0:0:0:
224,160,12396,1,0,0:0:0:0:
224,160,12711,1,0,0:0:0:0:
288,160,13027,1,8,0:0:0:0:
224,160,13343,1,0,0:0:0:0:
224,160,13659,1,0,0:0:0:0:
288,160,13817,1,8,0:0:0:0:
224,160,13975,1,0,0:0:0:0:
224,224,14290,1,4,0:0:0:0:
288,160,14606,1,8,0:0:0:0:
224,160,14922,1,0,0:0:0:0:
224,160,15238,1,0,0:0:0:0:
288,160,15553,1,8,0:0:0:0:
288,224,15869,1,12,0:0:0:0:
288,224,16027,1,12,0:0:0:0:
288,224,16185,1,12,0:0:0:0:
224,160,16501,1,0,0:0:0:0:
224,160,17132,1,0,0:0:0:0:
224,160,17290,1,0,0:0:0:0:
224,160,17448,1,0,0:0:0:0:
224,160,17606,1,0,0:0:0:0:
224,160,17764,1,0,0:0:0:0:
224,160,18080,1,0,0:0:0:0:
224,160,18238,1,0,0:0:0:0:
288,160,18396,1,8,0:0:0:0:
288,160,18553,1,8,0:0:0:0:
224,160,18711,1,0,0:0:0:0:
224,160,18869,1,0,0:0:0:0:
288,160,19027,1,8,0:0:0:0:
288,160,19106,1,8,0:0:0:0:
288,160,19185,1,8,0:0:0:0:
224,160,19343,1,0,0:0:0:0:
224,160,19501,1,0,0:0:0:0:
288,224,19659,1,12,0:0:0:0:
224,160,20922,1,0,0:0:0:0:
224,160,21396,1,0,0:0:0:0:
288,160,21869,1,8,0:0:0:0:
224,224,22185,5,4,0:0:0:0:
224,160,22659,1,0,0:0:0:0:
288,160,22817,1,8,0:0:0:0:
224,160,23132,1,0,0:0:0:0:
288,160,23290,1,8,0:0:0:0:
224,160,23448,1,0,0:0:0:0:
288,160,23606,1,8,0:0:0:0:
224,160,23764,1,0,0:0:0:0:
224,160,23922,1,0,0:0:0:0:
288,160,24080,1,8,0:0:0:0:
224,160,24396,1,0,0:0:0:0:
224,160,24711,1,0,0:0:0:0:
224,160,24869,1,0,0:0:0:0:
288,224,25027,1,12,0:0:0:0:
224,160,25185,1,0,0:0:0:0:
288,160,25343,1,8,0:0:0:0:
288,160,25659,1,8,0:0:0:0:
288,160,25738,1,8,0:0:0:0:
288,160,25817,1,8,0:0:0:0:
288,160,26132,1,8,0:0:0:0:
288,160,26211,1,8,0:0:0:0:
288,160,26290,1,8,0:0:0:0:
288,160,26606,1,8,0:0:0:0:
288,160,26685,1,8,0:0:0:0:
288,160,26764,1,8,0:0:0:0:
224,224,27238,1,4,0:0:0:0:
224,160,27711,1,0,0:0:0:0:
288,160,27869,1,8,0:0:0:0:
224,160,28185,1,0,0:0:0:0:
288,160,28343,1,8,0:0:0:0:
224,160,28501,1,0,0:0:0:0:
288,160,28659,1,8,0:0:0:0:
224,160,28817,1,0,0:0:0:0:
224,160,28975,1,0,0:0:0:0:
288,160,29132,1,8,0:0:0:0:
224,160,29448,1,0,0:0:0:0:
288,160,29764,1,8,0:0:0:0:
288,160,29922,1,8,0:0:0:0:
288,160,30080,1,8,0:0:0:0:
288,160,30238,1,8,0:0:0:0:
288,160,30396,1,0,0:0:0:0:
288,160,30711,1,8,0:0:0:0:
288,160,31027,1,8,0:0:0:0:
288,160,31185,1,8,0:0:0:0:
288,160,31343,1,8,0:0:0:0:
288,160,31501,1,8,0:0:0:0:
224,160,31659,1,0,0:0:0:0:
288,160,31975,1,8,0:0:0:0:
288,160,32053,1,8,0:0:0:0:
288,160,32132,1,8,0:0:0:0:
224,224,32290,5,4,0:0:0:0:
224,160,32764,1,0,0:0:0:0:
288,160,32922,1,8,0:0:0:0:
224,160,33238,1,0,0:0:0:0:
288,160,33396,1,8,0:0:0:0:
224,160,33553,1,0,0:0:0:0:
288,160,33711,1,8,0:0:0:0:
224,160,33869,1,0,0:0:0:0:
224,160,34027,1,0,0:0:0:0:
288,160,34185,1,8,0:0:0:0:
224,160,34501,1,0,0:0:0:0:
224,160,34817,1,0,0:0:0:0:
224,160,35290,1,0,0:0:0:0:
288,224,35448,1,12,0:0:0:0:
224,160,35606,1,0,0:0:0:0:
288,160,35764,1,8,0:0:0:0:
288,160,35843,1,8,0:0:0:0:
288,160,35922,1,8,0:0:0:0:
288,160,36238,1,8,0:0:0:0:
288,160,36317,1,8,0:0:0:0:
288,160,36396,1,8,0:0:0:0:
288,160,36711,1,8,0:0:0:0:
288,160,36790,1,8,0:0:0:0:
288,160,36869,1,8,0:0:0:0:
224,160,37343,1,0,0:0:0:0:
288,160,37501,1,8,0:0:0:0:
224,224,37659,1,4,0:0:0:0:
288,160,37975,1,8,0:0:0:0:
224,160,38132,1,0,0:0:0:0:
288,224,38290,1,12,0:0:0:0:
224,160,38606,1,0,0:0:0:0:
288,160,38764,1,8,0:0:0:0:
224,224,38922,1,4,0:0:0:0:
224,224,39238,1,4,0:0:0:0:
224,224,39448,1,4,0:0:0:0:
224,224,39659,1,4,0:0:0:0:
288,224,39869,1,12,0:0:0:0:
224,160,40659,1,0,0:0:0:0:
288,224,41132,1,12,0:0:0:0:
288,160,41764,1,8,0:0:0:0:
224,160,41922,1,0,0:0:0:0:
288,160,42080,1,8,0:0:0:0:
288,160,42238,1,8,0:0:0:0:
224,224,42396,5,4,0:0:0:0:
224,160,42869,1,0,0:0:0:0:
288,160,43027,1,8,0:0:0:0:
224,160,43185,1,0,0:0:0:0:
288,160,43343,1,8,0:0:0:0:
224,160,43501,1,0,0:0:0:0:
32,32,43975,2,0,L|256:32,1,210
288,160,44606,1,8,0:0:0:0:
288,160,44685,1,8,0:0:0:0:
288,160,44764,1,8,0:0:0:0:
224,224,44922,1,4,0:0:0:0:
224,160,45396,1,0,0:0:0:0:
288,160,45553,1,8,0:0:0:0:
288,160,45711,1,8,0:0:0:0:
224,160,45869,1,0,0:0:0:0:
288,160,46027,1,8,0:0:0:0:
32,32,46185,2,0,L|256:32,1,210
224,160,46817,1,0,0:0:0:0:
224,160,46896,1,0,0:0:0:0:
224,160,46975,1,0,0:0:0:0:
288,160,47132,1,8,0:0:0:0:
288,160,47211,1,8,0:0:0:0:
288,160,47290,1,8,0:0:0:0:
224,224,47448,1,4,0:0:0:0:
224,160,47922,1,0,0:0:0:0:
288,160,48080,1,8,0:0:0:0:
224,160,48238,1,0,0:0:0:0:
288,160,48396,1,8,0:0:0:0:
224,160,48553,1,0,0:0:0:0:
288,160,49027,1,8,0:0:0:0:
288,160,49264,1,8,0:0:0:0:
288,160,49501,1,8,0:0:0:0:
224,160,49659,1,0,0:0:0:0:
288,160,49817,1,8,0:0:0:0:
224,224,49975,1,4,0:0:0:0:
288,160,50132,1,8,0:0:0:0:
224,160,50290,1,0,0:0:0:0:
224,160,50448,1,0,0:0:0:0:
224,160,50764,1,0,0:0:0:0:
288,160,51080,1,8,0:0:0:0:
224,160,51238,1,0,0:0:0:0:
288,160,51396,1,8,0:0:0:0:
224,160,51553,1,0,0:0:0:0:
288,160,51711,1,8,0:0:0:0:
288,160,52027,1,8,0:0:0:0:
224,224,52501,1,4,0:0:0:0:
224,160,52975,1,0,0:0:0:0:
288,160,53132,1,8,0:0:0:0:
224,160,53290,1,0,0:0:0:0:
288,160,53448,1,8,0:0:0:0:
224,160,53606,1,0,0:0:0:0:
224,224,54080,1,4,0:0:0:0:
224,224,54238,1,4,0:0:0:0:
288,224,54396,1,12,0:0:0:0:
288,160,54711,1,8,0:0:0:0:
288,160,54790,1,8,0:0:0:0:
288,160,54869,1,8,0:0:0:0:
224,224,55027,1,4,0:0:0:0:
224,160,55501,1,0,0:0:0:0:
288,160,55659,1,8,0:0:0:0:
288,160,55817,1,8,0:0:0:0:
224,160,55975,1,0,0:0:0:0:
288,160,56132,1,8,0:0:0:0:
224,160,56448,1,0,0:0:0:0:
288,160,56606,1,8,0:0:0:0:
224,160,56843,1,0,0:0:0:0:
224,160,57080,1,0,0:0:0:0:
288,160,57238,1,8,0:0:0:0:
288,160,57317,1,8,0:0:0:0:
288,160,57396,1,8,0:0:0:0:
224,224,57553,1,4,0:0:0:0:
224,160,58027,1,0,0:0:0:0:
288,160,58185,1,8,0:0:0:0:
224,160,58343,1,0,0:0:0:0:
288,160,58501,1,8,0:0:0:0:
224,160,58659,1,0,0:0:0:0:
224,224,59132,1,4,0:0:0:0:
224,224,59290,1,4,0:0:0:0:
288,224,59448,1,12,0:0:0:0:
288,160,59764,1,8,0:0:0:0:
288,160,59922,1,8,0:0:0:0:
224,224,60080,1,4,0:0:0:0:
224,160,60396,1,0,0:0:0:0:
288,224,60553,1,12,0:0:0:0:
288,160,61185,1,8,0:0:0:0:
224,224,61343,1,4,0:0:0:0:
224,160,61659,1,0,0:0:0:0:
288,224,61817,1,12,0:0:0:0:
224,160,62606,5,0,0:0:0:0:
224,160,62685,1,0,0:0:0:0:
224,160,62764,1,0,0:0:0:0:
288,160,62922,1,8,0:0:0:0:
224,160,63080,1,0,0:0:0:0:
224,160,63159,1,0,0:0:0:0:
224,160,63238,1,0,0:0:0:0:
288,160,63553,1,8,0:0:0:0:
224,160,63711,1,0,0:0:0:0:
224,160,63869,1,0,0:0:0:0:
224,160,63948,1,0,0:0:0:0:
224,160,64027,1,0,0:0:0:0:
288,160,64185,1,8,0:0:0:0:
224,160,64343,1,0,0:0:0:0:
224,160,64422,1,0,0:0:0:0:
224,160,64501,1,0,0:0:0:0:
288,160,64817,1,8,0:0:0:0:
224,160,65132,1,0,0:0:0:0:
288,160,65448,1,8,0:0:0:0:
288,160,65606,1,8,0:0:0:0:
224,160,65764,1,0,0:0:0:0:
288,160,66080,1,8,0:0:0:0:
288,160,66396,1,0,0:0:0:0:
288,160,66711,1,8,0:0:0:0:
288,160,66869,1,8,0:0:0:0:
224,160,67027,1,0,0:0:0:0:
288,160,67343,1,8,0:0:0:0:
224,160,67659,1,0,0:0:0:0:
288,160,67817,1,8,0:0:0:0:
288,160,67896,1,8,0:0:0:0:
288,160,67975,1,8,0:0:0:0:
224,160,68132,1,0,0:0:0:0:
288,160,68290,1,8,0:0:0:0:
288,160,68606,1,8,0:0:0:0:
288,160,68685,1,8,0:0:0:0:
288,160,68764,1,8,0:0:0:0:
224,160,68922,1,0,0:0:0:0:
288,160,69080,1,8,0:0:0:0:
288,160,69159,1,8,0:0:0:0:
288,160,69238,1,8,0:0:0:0:
224,160,69396,1,0,0:0:0:0:
288,160,69553,1,8,0:0:0:0:
288,160,69869,1,8,0:0:0:0:
288,160,69948,1,8,0:0:0:0:
288,160,70027,1,8,0:0:0:0:
224,160,70185,1,0,0:0:0:0:
288,160,70501,1,8,0:0:0:0:
288,160,70659,1,8,0:0:0:0:
224,160,70817,1,0,0:0:0:0:
288,160,71132,1,8,0:0:0:0:
224,160,71448,1,0,0:0:0:0:
224,160,71606,1,0,0:0:0:0:
288,160,71764,1,8,0:0:0:0:
288,160,71922,1,8,0:0:0:0:
224,160,72080,1,0,0:0:0:0:
224,224,72711,5,4,0:0:0:0:
288,160,73659,1,8,0:0:0:0:
224,160,74290,1,0,0:0:0:0:
288,160,74448,1,8,0:0:0:0:
224,160,74606,1,0,0:0:0:0:
224,224,74922,1,4,0:0:0:0:
288,160,75238,1,8,0:0:0:0:
224,160,76185,1,0,0:0:0:0:
288,224,76501,1,12,0:0:0:0:
288,224,76659,1,12,0:0:0:0:
288,224,76817,1,12,0:0:0:0:
288,160,77132,1,8,0:0:0:0:
288,224,77764,1,12,0:0:0:0:
224,160,78080,1,0,0:0:0:0:
224,160,78238,1,0,0:0:0:0:
224,160,78396,1,0,0:0:0:0:
224,160,78711,1,0,0:0:0:0:
224,160,78869,1,0,0:0:0:0:
288,160,79027,1,8,0:0:0:0:
288,160,79343,1,8,0:0:0:0:
224,160,79501,1,0,0:0:0:0:
288,160,79659,1,8,0:0:0:0:
288,160,79975,1,8,0:0:0:0:
224,160,80132,1,0,0:0:0:0:
288,160,80290,1,8,0:0:0:0:
224,160,80448,1,0,0:0:0:0:
288,160,80606,1,8,0:0:0:0:
288,160,80764,1,8,0:0:0:0:
288,160,80843,1,8,0:0:0:0:
288,160,80922,1,8,0:0:0:0:
224,160,81238,1,0,0:0:0:0:
224,160,81316,1,0,0:0:0:0:
224,160,81395,1,0,0:0:0:0:
288,160,81553,1,8,0:0:0:0:
288,160,81790,1,8,0:0:0:0:
288,160,82027,1,8,0:0:0:0:
288,160,82264,1,8,0:0:0:0:
288,160,82501,1,8,0:0:0:0:
288,160,82659,1,8,0:0:0:0:
224,224,82817,1,4,0:0:0:0:
32,32,82975,2,0,L|96:32,28,35
224,224,85343,1,4,0:0:0:0:
224,160,86606,1,0,0:0:0:0:
224,160,87080,1,0,0:0:0:0:
288,160,87553,1,8,0:0:0:0:
224,224,87869,5,4,0:0:0:0:
224,160,88106,1,0,0:0:0:0:
224,160,88343,1,0,0:0:0:0:
288,160,88501,1,8,0:0:0:0:
288,160,88738,1,8,0:0:0:0:
288,160,88975,1,8,0:0:0:0:
224,160,89132,1,0,0:0:0:0:
288,160,89369,1,8,0:0:0:0:
224,160,89606,1,0,0:0:0:0:
288,160,89764,1,8,0:0:0:0:
224,160,90080,1,0,0:0:0:0:
288,160,90396,1,8,0:0:0:0:
288,160,90632,1,8,0:0:0:0:
224,160,90869,1,0,0:0:0:0:
288,160,91027,1,8,0:0:0:0:
288,160,91264,1,8,0:0:0:0:
224,160,91501,1,0,0:0:0:0:
224,160,91659,1,0,0:0:0:0:
288,160,91896,1,8,0:0:0:0:
288,160,92132,1,8,0:0:0:0:
224,160,92290,1,0,0:0:0:0:
288,224,92922,1,12,0:0:0:0:
288,160,93159,1,8,0:0:0:0:
288,160,93396,1,8,0:0:0:0:
224,160,93553,1,0,0:0:0:0:
224,160,93790,1,0,0:0:0:0:
224,160,94027,1,0,0:0:0:0:
288,160,94185,1,8,0:0:0:0:
224,160,94422,1,0,0:0:0:0:
288,160,94659,1,8,0:0:0:0:
224,160,94817,1,0,0:0:0:0:
288,160,95132,1,8,0:0:0:0:
224,160,95448,1,0,0:0:0:0:
224,160,95685,1,0,0:0:0:0:
288,160,95922,1,8,0:0:0:0:
224,160,96080,1,0,0:0:0:0:
224,160,96317,1,0,0:0:0:0:
288,160,96553,1,8,0:0:0:0:
288,160,96711,1,8,0:0:0:0:
224,160,96948,1,0,0:0:0:0:
224,160,97185,1,0,0:0:0:0:
288,160,97343,1,8,0:0:0:0:
288,160,97422,1,8,0:0:0:0:
288,160,97501,1,8,0:0:0:0:
224,160,97659,1,0,0:0:0:0:
224,224,97975,1,4,0:0:0:0:
288,160,98211,1,8,0:0:0:0:
224,160,98448,1,0,0:0:0:0:
288,160,98606,1,8,0:0:0:0:
224,160,98843,1,0,0:0:0:0:
288,160,99080,1,8,0:0:0:0:
224,160,99238,1,0,0:0:0:0:
224,160,99475,1,0,0:0:0:0:
288,160,99711,1,8,0:0:0:0:
288,160,99869,1,8,0:0:0:0:
224,160,100185,1,0,0:0:0:0:
224,160,100501,1,0,0:0:0:0:
288,160,100738,1,8,0:0:0:0:
224,160,100975,1,0,0:0:0:0:
288,160,101132,1,8,0:0:0:0:
224,160,101369,1,0,0:0:0:0:
288,160,101606,1,8,0:0:0:0:
224,160,101764,1,0,0:0:0:0:
288,160,102001,1,8,0:0:0:0:
288,160,102238,1,8,0:0:0:0:
224,160,102396,1,0,0:0:0:0:
288,224,103027,5,12,0:0:0:0:
224,160,103264,1,0,0:0:0:0:
224,160,103501,1,0,0:0:0:0:
288,160,103659,1,8,0:0:0:0:
224,160,103896,1,0,0:0:0:0:
224,160,104132,1,0,0:0:0:0:
288,160,104290,1,8,0:0:0:0:
224,160,104527,1,0,0:0:0:0:
224,160,104764,1,0,0:0:0:0:
288,160,104922,1,8,0:0:0:0:
288,224,105553,1,12,0:0:0:0:
224,160,105711,1,0,0:0:0:0:
288,160,105869,1,8,0:0:0:0:
288,160,106185,1,8,0:0:0:0:
224,160,106343,1,0,0:0:0:0:
288,160,106501,1,8,0:0:0:0:
224,160,106659,1,0,0:0:0:0:
288,160,106817,1,8,0:0:0:0:
288,160,107053,1,8,0:0:0:0:
288,160,107290,1,8,0:0:0:0:
288,160,107448,1,8,0:0:0:0:
288,160,107527,1,8,0:0:0:0:
288,160,107606,1,8,0:0:0:0:
288,160,107685,1,8,0:0:0:0:
224,224,108080,5,4,0:0:0:0:
288,160,109027,1,8,0:0:0:0:
224,160,109659,1,0,0:0:0:0:
288,160,109817,1,8,0:0:0:0:
224,160,109975,1,0,0:0:0:0:
224,160,110290,1,0,0:0:0:0:
288,160,110606,1,8,0:0:0:0:
224,160,111553,1,0,0:0:0:0:
224,160,112343,1,0,0:0:0:0:
288,160,112501,1,8,0:0:0:0:
224,160,112659,1,0,0:0:0:0:
