osu file format v14

[General]
AudioFilename: overcomplexification.mp3
AudioLeadIn: 0
PreviewTime: 87869
Countdown: 0
SampleSet: Normal
StackLeniency: 0.7
Mode: 1
LetterboxInBreaks: 0
WidescreenStoryboard: 0

[Editor]
Bookmarks: 106738
DistanceSpacing: 0.8
BeatDivisor: 4
GridSize: 32
TimelineZoom: 2.5

[Metadata]
Title:overcomplexification
TitleUnicode:overcomplexification
Artist:Camellia
ArtistUnicode:かめりあ
Creator:Ambient
Version:Nwolf's Inner Oni
Source:jubeat prop
Tags:eeezzzeee HB24 -Tochi FCL Strategas Nwolf Ntiger
BeatmapID:869322
BeatmapSetID:378212

[Difficulty]
HPDrainRate:6.5
CircleSize:4
OverallDifficulty:6.5
ApproachRate:8
SliderMultiplier:1.4
SliderTickRate:1

[Events]
//Background and Video events
0,0,"complex.jpg",0,0
//Break Periods
//Storyboard Layer 0 (Background)
//Storyboard Layer 1 (Fail)
//Storyboard Layer 2 (Pass)
//Storyboard Layer 3 (Foreground)
//Storyboard Sound Samples

[TimingPoints]
1975,315.789473684211,4,1,0,40,1,0
1975,-133.333333333333,4,1,0,40,0,0
5685,-100,4,1,0,40,0,0
7106,-133.333333333333,4,1,0,40,0,0
11922,-125,4,1,0,50,0,0
12238,-121.951219512195,4,1,0,52,0,0
12553,-119.047619047619,4,1,0,54,0,0
12869,-116.279069767442,4,1,0,56,0,0
13185,-113.636363636364,4,1,0,58,0,0
13501,-111.111111111111,4,1,0,60,0,0
13738,-109.89010989011,4,1,0,62,0,0
13896,-108.695652173913,4,1,0,64,0,0
14053,-107.52688172043,4,1,0,66,0,0
14211,-106.382978723404,4,1,0,66,0,0
14448,-104.166666666667,4,1,0,68,0,0
14764,-102.040816326531,4,1,0,70,0,0
15080,-100,4,1,0,72,0,0
15396,-98.0392156862745,4,1,0,74,0,0
15711,-96.1538461538461,4,1,0,76,0,0
15948,-95.2380952380952,4,1,0,77,0,0
16106,-94.3396226415094,4,1,0,78,0,0
16343,-93.4579439252336,4,1,0,80,0,0
16580,-92.5925925925926,4,1,0,81,0,0
16659,-91.743119266055,4,1,0,81,0,0
16738,-90.9090909090909,4,1,0,82,0,0
16896,-90.0900900900901,4,1,0,83,0,0
17053,-89.2857142857143,4,1,0,84,0,0
17211,-88.4955752212389,4,1,0,85,0,0
17369,-87.719298245614,4,1,0,86,0,0
17448,-86.9565217391304,4,1,0,87,0,0
17527,-86.2068965517241,4,1,0,87,0,0
17685,-86.2068965517241,4,1,0,88,0,0
17843,-85.4700854700855,4,1,0,89,0,0
17922,-84.7457627118644,4,1,0,90,0,0
18001,-84.0336134453781,4,1,0,91,0,0
18159,-83.3333333333333,4,1,0,92,0,0
18317,-82.6446280991736,4,1,0,94,0,0
19817,-111.111111111111,4,1,0,50,0,0
22106,-80,4,1,0,95,0,0
22343,-100,4,1,0,95,0,0
24948,-105.263157894737,4,1,0,95,0,0
25106,-106.382978723404,4,1,0,95,0,0
25264,-107.52688172043,4,1,0,95,0,0
25343,-108.695652173913,4,1,0,95,0,0
25422,-109.89010989011,4,1,0,95,0,0
25501,-111.111111111111,4,1,0,95,0,0
25580,-80,4,1,0,95,0,0
25738,-80.6451612903226,4,1,0,95,0,0
25817,-81.3008130081301,4,1,0,95,0,0
25896,-81.9672131147541,4,1,0,95,0,0
25975,-82.6446280991736,4,1,0,95,0,0
26053,-86.2068965517241,4,1,0,95,0,0
26211,-86.9565217391304,4,1,0,95,0,0
26290,-87.719298245614,4,1,0,95,0,0
26369,-88.4955752212389,4,1,0,95,0,0
26448,-89.2857142857143,4,1,0,95,0,0
26527,-93.4579439252336,4,1,0,95,0,0
26685,-94.3396226415094,4,1,0,95,0,0
26764,-95.2380952380952,4,1,0,95,0,0
26843,-96.1538461538461,4,1,0,95,0,0
26922,-97.0873786407767,4,1,0,95,0,0
27001,-98.0392156862745,4,1,0,95,0,0
27080,-99.009900990099,4,1,0,95,0,0
27159,-80,4,1,0,95,0,0
27396,-100,4,1,0,95,0,0
32211,-80,4,1,0,95,0,0
32369,-100,4,1,0,95,0,0
35211,-111.111111111111,4,1,0,95,0,0
35685,-80,4,1,0,95,0,0
35843,-80.6451612903226,4,1,0,95,0,0
35922,-81.3008130081301,4,1,0,95,0,0
36001,-81.9672131147541,4,1,0,95,0,0
36080,-82.6446280991736,4,1,0,95,0,0
36159,-86.2068965517241,4,1,0,95,0,0
36317,-86.9565217391304,4,1,0,95,0,0
36396,-87.719298245614,4,1,0,95,0,0
36475,-88.4955752212389,4,1,0,95,0,0
36553,-89.2857142857143,4,1,0,95,0,0
36632,-93.4579439252336,4,1,0,95,0,0
36790,-94.3396226415094,4,1,0,95,0,0
36869,-95.2380952380952,4,1,0,95,0,0
36948,-96.1538461538461,4,1,0,95,0,0
37027,-97.0873786407767,4,1,0,95,0,0
37106,-98.0392156862745,4,1,0,95,0,0
37185,-99.009900990099,4,1,0,95,0,0
37264,-100,4,1,0,95,0,0
37580,-80,4,1,0,95,0,0
37738,-90.9090909090909,4,1,0,95,0,0
38211,-80,4,1,0,95,0,0
38369,-83.3333333333333,4,1,0,95,0,0
38843,-80,4,1,0,95,0,0
40027,-111.111111111111,4,1,0,75,0,0
42001,-107.52688172043,4,1,0,75,0,0
42159,-105.263157894737,4,1,0,75,0,0
42238,-103.092783505155,4,1,0,75,0,0
42317,-100,4,1,0,95,0,0
43817,-111.111111111111,4,1,0,70,0,0
44527,-108.695652173913,4,1,0,70,0,0
44606,-106.382978723404,4,1,0,70,0,0
44685,-104.166666666667,4,1,0,70,0,0
44764,-102.040816326531,4,1,0,70,0,0
44843,-100,4,1,0,95,0,0
46106,-100,4,1,0,70,0,0
47369,-100,4,1,0,95,0,0
48869,-111.111111111111,4,1,0,70,0,0
49738,-105.263157894737,4,1,0,70,0,0
49896,-100,4,1,0,95,0,0
53843,-95.2380952380952,4,1,0,95,0,0
54001,-90.9090909090909,4,1,0,95,0,0
54159,-86.9565217391304,4,1,0,95,0,0
54317,-83.3333333333333,4,1,0,95,0,0
54632,-92.5925925925926,4,1,0,95,0,0
54790,-94.3396226415094,4,1,0,95,0,0
54869,-96.1538461538461,4,1,0,95,0,0
54948,-100,4,1,0,95,0,0
56290,-105.263157894737,4,1,0,95,0,0
57159,-104.166666666667,4,1,0,95,0,0
57238,-103.092783505155,4,1,0,95,0,0
57317,-102.040816326531,4,1,0,95,0,0
57396,-101.010101010101,4,1,0,95,0,0
57475,-100,4,1,0,95,0,0
58896,-93.4579439252336,4,1,0,95,0,0
59053,-87.719298245614,4,1,0,95,0,0
59211,-82.6446280991736,4,1,0,95,0,0
59369,-78.125,4,1,0,95,0,0
59685,-90.9090909090909,4,1,0,95,0,0
59843,-95.2380952380952,4,1,0,95,0,0
60001,-100,4,1,0,95,0,0
62606,-100,4,1,0,95,0,0
72317,-114.942528735632,4,1,0,85,0,0
72553,-133.333333333333,4,1,0,85,0,0
72869,-133.333333333333,4,1,0,40,0,0
76975,-120.481927710843,4,1,0,60,0,0
77211,-114.942528735632,4,1,0,60,0,0
77369,-109.89010989011,4,1,0,60,0,0
77527,-107.52688172043,4,1,0,60,0,0
77606,-105.263157894737,4,1,0,60,0,0
77685,-100,4,1,0,60,0,0
78159,-99.009900990099,4,1,0,60,0,0
78475,-98.0392156862745,4,1,0,60,0,0
78790,-97.0873786407767,4,1,0,60,0,0
79106,-96.1538461538461,4,1,0,60,0,0
79422,-95.2380952380952,4,1,0,60,0,0
79738,-94.3396226415094,4,1,0,60,0,0
80053,-93.4579439252336,4,1,0,60,0,0
80290,-92.5925925925926,4,1,0,60,0,0
80606,-91.743119266055,4,1,0,60,0,0
80922,-90.9090909090909,4,1,0,60,0,0
81238,-90.0900900900901,4,1,0,60,0,0
81553,-89.2857142857143,4,1,0,60,0,0
81790,-88.4955752212389,4,1,0,60,0,0
82027,-87.719298245614,4,1,0,60,0,0
82264,-86.9565217391304,4,1,0,60,0,0
82501,-86.2068965517241,4,1,0,60,0,0
82738,-83.3333333333333,4,1,0,60,0,0
86527,-133.333333333333,4,1,0,68,0,0
87869,-100,4,1,0,95,0,1
107685,-100,4,1,0,95,0,0
108080,-80,4,1,0,80,0,0
108238,-133.333333333333,4,1,0,40,0,0

[HitObjects]
224,160,1975,5,0,0:0:0:0:
288,160,2922,1,8,0:0:0:0:
224,160,3553,1,0,0:0:0:0:
288,160,3711,1,8,0:0:0:0:
224,160,3869,1,0,0:0:0:0:
288,160,4027,1,8,0:0:0:0:
224,224,4185,1,4,0:0:0:0:
288,160,4501,1,8,0:0:0:0:
224,160,5448,1,0,0:0:0:0:
288,224,5764,1,12,0:0:0:0:
288,224,5922,1,12,0:0:0:0:
288,224,6080,1,12,0:0:0:0:
224,160,6396,1,0,0:0:0:0:
288,160,6475,1,8,0:0:0:0:
224,160,6553,1,0,0:0:0:0:
288,160,6711,1,8,0:0:0:0:
288,160,6790,1,8,0:0:0:0:
224,160,6869,1,0,0:0:0:0:
224,160,6948,1,0,0:0:0:0:
288,160,7027,1,8,0:0:0:0:
288,160,7975,1,8,0:0:0:0:
224,160,8606,1,0,0:0:0:0:
288,160,8764,1,8,0:0:0:0:
224,160,8922,1,0,0:0:0:0:
288,160,9080,1,8,0:0:0:0:
224,224,9238,1,4,0:0:0:0:
224,160,9553,1,0,0:0:0:0:
288,160,10027,1,8,0:0:0:0:
224,160,10501,1,0,0:0:0:0:
224,160,10975,1,0,0:0:0:0:
288,160,11369,1,8,0:0:0:0:
288,160,11764,1,8,0:0:0:0:
224,224,12080,1,4,0:0:0:0:
224,160,12396,1,0,0:0:0:0:
224,160,12711,1,0,0:0:0:0:
288,160,13027,1,8,0:0:0:0:
224,160,13343,1,0,0:0:0:0:
224,160,13659,1,0,0:0:0:0:
288,160,13817,1,8,0:0:0:0:
224,160,13975,1,0,0:0:0:0:
288,160,14132,1,8,0:0:0:0:
224,224,14290,1,4,0:0:0:0:
288,160,14606,1,8,0:0:0:0:
224,160,14922,1,0,0:0:0:0:
224,160,15238,1,0,0:0:0:0:
288,160,15553,1,8,0:0:0:0:
288,224,15869,1,12,0:0:0:0:
288,224,16027,1,12,0:0:0:0:
288,224,16185,1,12,0:0:0:0:
224,160,16501,1,0,0:0:0:0:
288,160,16580,1,8,0:0:0:0:
224,160,16659,1,0,0:0:0:0:
224,160,16817,1,0,0:0:0:0:
288,160,16975,1,8,0:0:0:0:
224,160,17132,1,0,0:0:0:0:
224,160,17290,1,0,0:0:0:0:
224,160,17369,1,0,0:0:0:0:
224,160,17448,1,0,0:0:0:0:
224,160,17606,1,0,0:0:0:0:
224,160,17764,1,0,0:0:0:0:
224,160,17843,1,0,0:0:0:0:
224,160,17922,1,0,0:0:0:0:
224,160,18080,1,0,0:0:0:0:
224,160,18238,1,0,0:0:0:0:
288,160,18396,1,8,0:0:0:0:
224,160,18475,1,0,0:0:0:0:
288,160,18553,1,8,0:0:0:0:
288,160,18632,1,8,0:0:0:0:
224,160,18711,1,0,0:0:0:0:
224,160,18790,1,0,0:0:0:0:
288,160,18869,1,8,0:0:0:0:
224,160,18948,1,0,0:0:0:0:
288,160,19027,1,8,0:0:0:0:
288,160,19106,1,8,0:0:0:0:
288,160,19185,1,8,0:0:0:0:
288,160,19264,1,8,0:0:0:0:
224,160,19343,1,0,0:0:0:0:
224,160,19422,1,0,0:0:0:0:
224,160,19501,1,0,0:0:0:0:
224,160,19580,1,0,0:0:0:0:
288,224,19659,1,12,0:0:0:0:
224,160,20922,1,0,0:0:0:0:
224,160,21001,1,0,0:0:0:0:
288,160,21080,1,8,0:0:0:0:
288,160,21238,1,8,0:0:0:0:
224,160,21396,1,0,0:0:0:0:
224,160,21475,1,0,0:0:0:0:
288,160,21553,1,8,0:0:0:0:
288,160,21711,1,8,0:0:0:0:
224,160,21869,1,0,0:0:0:0:
288,160,22027,1,8,0:0:0:0:
224,224,22185,5,4,0:0:0:0:
224,160,22659,1,0,0:0:0:0:
288,160,22817,1,8,0:0:0:0:
288,160,22896,1,8,0:0:0:0:
288,160,22975,1,8,0:0:0:0:
288,160,23053,1,8,0:0:0:0:
224,160,23132,1,0,0:0:0:0:
288,160,23290,1,8,0:0:0:0:
224,160,23448,1,0,0:0:0:0:
224,160,23527,1,0,0:0:0:0:
288,160,23606,1,8,0:0:0:0:
288,160,23685,1,8,0:0:0:0:
224,160,23764,1,0,0:0:0:0:
224,160,23922,1,0,0:0:0:0:
224,160,24001,1,0,0:0:0:0:
288,160,24080,1,8,0:0:0:0:
224,160,24159,1,0,0:0:0:0:
288,160,24238,1,8,0:0:0:0:
224,160,24317,1,0,0:0:0:0:
288,160,24396,1,8,0:0:0:0:
288,160,24475,1,8,0:0:0:0:
288,160,24553,1,8,0:0:0:0:
288,160,24632,1,8,0:0:0:0:
224,160,24711,1,0,0:0:0:0:
224,160,24790,1,0,0:0:0:0:
224,160,24869,1,0,0:0:0:0:
288,224,25027,1,12,0:0:0:0:
224,160,25185,1,0,0:0:0:0:
224,160,25264,1,0,0:0:0:0:
288,160,25343,1,8,0:0:0:0:
288,160,25422,1,8,0:0:0:0:
288,160,25501,1,8,0:0:0:0:
288,160,25659,1,8,0:0:0:0:
288,160,25738,1,8,0:0:0:0:
288,160,25817,1,8,0:0:0:0:
288,160,25896,1,8,0:0:0:0:
224,160,25975,1,0,0:0:0:0:
288,160,26132,1,8,0:0:0:0:
288,160,26211,1,8,0:0:0:0:
288,160,26290,1,8,0:0:0:0:
224,160,26369,1,0,0:0:0:0:
224,160,26448,1,0,0:0:0:0:
288,160,26606,1,8,0:0:0:0:
288,160,26685,1,8,0:0:0:0:
224,160,26764,1,0,0:0:0:0:
224,160,26843,1,0,0:0:0:0:
288,160,26922,1,8,0:0:0:0:
288,160,27001,1,8,0:0:0:0:
288,160,27080,1,8,0:0:0:0:
224,224,27238,1,4,0:0:0:0:
224,160,27711,1,0,0:0:0:0:
288,160,27869,1,8,0:0:0:0:
288,160,27948,1,8,0:0:0:0:
288,160,28027,1,8,0:0:0:0:
288,160,28106,1,8,0:0:0:0:
224,160,28185,1,0,0:0:0:0:
288,160,28343,1,8,0:0:0:0:
224,160,28501,1,0,0:0:0:0:
288,160,28580,1,8,0:0:0:0:
288,160,28659,1,8,0:0:0:0:
224,160,28738,1,0,0:0:0:0:
288,160,28817,1,8,0:0:0:0:
224,160,28975,1,0,0:0:0:0:
224,160,29053,1,0,0:0:0:0:
288,160,29132,1,8,0:0:0:0:
288,160,29211,1,8,0:0:0:0:
288,160,29290,1,8,0:0:0:0:
288,160,29369,1,8,0:0:0:0:
224,160,29448,1,0,0:0:0:0:
288,160,29527,1,8,0:0:0:0:
224,160,29606,1,0,0:0:0:0:
288,160,29764,1,8,0:0:0:0:
224,160,29843,1,0,0:0:0:0:
288,160,29922,1,8,0:0:0:0:
288,160,30080,1,8,0:0:0:0:
224,160,30159,1,0,0:0:0:0:
288,160,30238,1,8,0:0:0:0:
288,160,30317,1,8,0:0:0:0:
288,160,30396,1,8,0:0:0:0:
224,160,30475,1,0,0:0:0:0:
288,160,30553,1,8,0:0:0:0:
288,160,30711,1,8,0:0:0:0:
224,160,30790,1,0,0:0:0:0:
224,160,30869,1,0,0:0:0:0:
224,160,30948,1,0,0:0:0:0:
288,160,31027,1,8,0:0:0:0:
224,160,31106,1,0,0:0:0:0:
288,160,31185,1,8,0:0:0:0:
224,160,31264,1,0,0:0:0:0:
288,160,31343,1,8,0:0:0:0:
224,160,31422,1,0,0:0:0:0:
288,160,31501,1,8,0:0:0:0:
288,160,31580,1,8,0:0:0:0:
224,160,31659,1,0,0:0:0:0:
288,160,31975,1,8,0:0:0:0:
288,160,32053,1,8,0:0:0:0:
288,160,32132,1,8,0:0:0:0:
224,224,32290,5,4,0:0:0:0:
224,160,32764,1,0,0:0:0:0:
288,160,32922,1,8,0:0:0:0:
224,160,33001,1,0,0:0:0:0:
288,160,33080,1,8,0:0:0:0:
288,160,33159,1,8,0:0:0:0:
224,160,33238,1,0,0:0:0:0:
288,160,33396,1,8,0:0:0:0:
224,160,33553,1,0,0:0:0:0:
224,160,33632,1,0,0:0:0:0:
288,160,33711,1,8,0:0:0:0:
288,160,33790,1,8,0:0:0:0:
224,160,33869,1,0,0:0:0:0:
224,160,34027,1,0,0:0:0:0:
288,160,34185,1,8,0:0:0:0:
224,160,34264,1,0,0:0:0:0:
288,160,34343,1,8,0:0:0:0:
224,160,34422,1,0,0:0:0:0:
288,160,34501,1,8,0:0:0:0:
288,160,34580,1,8,0:0:0:0:
288,160,34659,1,8,0:0:0:0:
288,160,34738,1,8,0:0:0:0:
224,160,34817,1,0,0:0:0:0:
224,160,35290,1,0,0:0:0:0:
224,160,35369,1,0,0:0:0:0:
288,160,35448,1,8,0:0:0:0:
288,160,35527,1,8,0:0:0:0:
224,160,35606,1,0,0:0:0:0:
288,160,35764,1,8,0:0:0:0:
288,160,35843,1,8,0:0:0:0:
288,160,35922,1,8,0:0:0:0:
224,160,36001,1,0,0:0:0:0:
224,160,36080,1,0,0:0:0:0:
288,160,36238,1,8,0:0:0:0:
288,160,36317,1,8,0:0:0:0:
224,160,36396,1,0,0:0:0:0:
224,160,36475,1,0,0:0:0:0:
224,160,36553,1,0,0:0:0:0:
288,160,36711,1,8,0:0:0:0:
224,160,36790,1,0,0:0:0:0:
224,160,36869,1,0,0:0:0:0:
224,160,36948,1,0,0:0:0:0:
288,160,37027,1,8,0:0:0:0:
224,160,37106,1,0,0:0:0:0:
288,160,37185,1,8,0:0:0:0:
224,160,37343,1,0,0:0:0:0:
224,160,37422,1,0,0:0:0:0:
288,160,37501,1,8,0:0:0:0:
224,224,37659,1,4,0:0:0:0:
288,160,37975,1,8,0:0:0:0:
288,160,38053,1,8,0:0:0:0:
224,160,38132,1,0,0:0:0:0:
288,224,38290,1,12,0:0:0:0:
224,160,38606,1,0,0:0:0:0:
224,160,38659,1,0,0:0:0:0:
224,160,38711,1,0,0:0:0:0:
288,160,38764,1,8,0:0:0:0:
224,224,38922,1,4,0:0:0:0:
288,224,39080,1,12,0:0:0:0:
224,224,39238,1,4,0:0:0:0:
224,224,39448,1,4,0:0:0:0:
224,224,39659,1,4,0:0:0:0:
288,224,39869,1,12,0:0:0:0:
224,160,40343,1,0,0:0:0:0:
224,160,40422,1,0,0:0:0:0:
288,160,40501,1,8,0:0:0:0:
224,160,40659,1,0,0:0:0:0:
224,160,40817,1,0,0:0:0:0:
224,160,40975,1,0,0:0:0:0:
288,224,41132,1,12,0:0:0:0:
224,160,41290,1,0,0:0:0:0:
288,160,41448,1,8,0:0:0:0:
288,160,41527,1,8,0:0:0:0:
224,160,41606,1,0,0:0:0:0:
288,160,41764,1,8,0:0:0:0:
224,160,41843,1,0,0:0:0:0:
288,160,41922,1,8,0:0:0:0:
224,160,42080,1,0,0:0:0:0:
288,160,42159,1,8,0:0:0:0:
288,160,42238,1,8,0:0:0:0:
224,224,42396,5,4,0:0:0:0:
224,160,42869,1,0,0:0:0:0:
224,160,42948,1,0,0:0:0:0:
288,160,43027,1,8,0:0:0:0:
224,160,43185,1,0,0:0:0:0:
288,160,43343,1,8,0:0:0:0:
224,160,43422,1,0,0:0:0:0:
224,160,43501,1,0,0:0:0:0:
288,160,43580,1,8,0:0:0:0:
288,160,43659,1,8,0:0:0:0:
288,160,43975,1,8,0:0:0:0:
224,160,44027,1,0,0:0:0:0:
224,160,44080,1,0,0:0:0:0:
288,160,44132,1,8,0:0:0:0:
288,160,44211,1,8,0:0:0:0:
224,160,44290,1,0,0:0:0:0:
224,160,44448,1,0,0:0:0:0:
224,160,44527,1,0,0:0:0:0:
288,160,44606,1,8,0:0:0:0:
224,160,44685,1,0,0:0:0:0:
288,160,44764,1,8,0:0:0:0:
224,224,44922,1,4,0:0:0:0:
224,160,45396,1,0,0:0:0:0:
224,160,45475,1,0,0:0:0:0:
288,160,45553,1,8,0:0:0:0:
288,160,45711,1,8,0:0:0:0:
224,160,45869,1,0,0:0:0:0:
224,160,45948,1,0,0:0:0:0:
224,160,46027,1,0,0:0:0:0:
32,32,46185,2,0,L|192:32,1,140
288,160,46659,1,8,0:0:0:0:
288,160,46738,1,8,0:0:0:0:
224,160,46817,1,0,0:0:0:0:
224,160,46896,1,0,0:0:0:0:
224,160,46975,1,0,0:0:0:0:
224,160,47053,1,0,0:0:0:0:
288,160,47132,1,8,0:0:0:0:
288,160,47211,1,8,0:0:0:0:
288,160,47290,1,8,0:0:0:0:
224,224,47448,1,4,0:0:0:0:
224,160,47922,1,0,0:0:0:0:
224,160,48001,1,0,0:0:0:0:
288,160,48080,1,8,0:0:0:0:
224,160,48238,1,0,0:0:0:0:
288,160,48396,1,8,0:0:0:0:
224,160,48475,1,0,0:0:0:0:
224,160,48553,1,0,0:0:0:0:
288,160,48632,1,8,0:0:0:0:
288,160,48711,1,8,0:0:0:0:
288,160,49027,1,8,0:0:0:0:
288,160,49264,1,8,0:0:0:0:
224,160,49343,1,0,0:0:0:0:
288,160,49501,1,8,0:0:0:0:
288,160,49553,1,8,0:0:0:0:
288,160,49606,1,8,0:0:0:0:
224,160,49659,1,0,0:0:0:0:
288,160,49817,1,8,0:0:0:0:
224,224,49975,1,4,0:0:0:0:
288,160,50132,1,8,0:0:0:0:
224,160,50290,1,0,0:0:0:0:
224,160,50448,1,0,0:0:0:0:
224,160,50527,1,0,0:0:0:0:
288,160,50606,1,8,0:0:0:0:
288,160,50764,1,8,0:0:0:0:
288,160,50817,1,8,0:0:0:0:
224,160,50869,1,0,0:0:0:0:
224,160,50922,1,0,0:0:0:0:
288,160,51080,1,8,0:0:0:0:
288,160,51159,1,8,0:0:0:0:
224,160,51238,1,0,0:0:0:0:
224,160,51317,1,0,0:0:0:0:
288,160,51396,1,8,0:0:0:0:
288,160,51553,1,8,0:0:0:0:
288,160,51711,1,8,0:0:0:0:
288,160,51790,1,8,0:0:0:0:
224,160,51869,1,0,0:0:0:0:
288,160,52027,1,8,0:0:0:0:
224,160,52106,1,0,0:0:0:0:
224,160,52185,1,0,0:0:0:0:
224,160,52264,1,0,0:0:0:0:
288,160,52343,1,8,0:0:0:0:
224,224,52501,1,4,0:0:0:0:
224,160,52975,1,0,0:0:0:0:
224,160,53053,1,0,0:0:0:0:
288,160,53132,1,8,0:0:0:0:
224,160,53290,1,0,0:0:0:0:
288,160,53448,1,8,0:0:0:0:
288,160,53527,1,8,0:0:0:0:
224,160,53606,1,0,0:0:0:0:
288,160,53685,1,8,0:0:0:0:
224,160,53764,1,0,0:0:0:0:
288,160,53922,1,8,0:0:0:0:
224,224,54080,1,4,0:0:0:0:
224,224,54238,1,4,0:0:0:0:
288,224,54396,1,12,0:0:0:0:
288,160,54711,1,8,0:0:0:0:
224,160,54790,1,0,0:0:0:0:
288,160,54869,1,8,0:0:0:0:
224,224,55027,1,4,0:0:0:0:
224,160,55501,1,0,0:0:0:0:
224,160,55580,1,0,0:0:0:0:
288,160,55659,1,8,0:0:0:0:
288,160,55817,1,8,0:0:0:0:
224,160,55975,1,0,0:0:0:0:
224,160,56053,1,0,0:0:0:0:
288,160,56132,1,8,0:0:0:0:
224,160,56448,1,0,0:0:0:0:
288,160,56606,1,8,0:0:0:0:
224,160,56843,1,0,0:0:0:0:
224,160,57080,1,0,0:0:0:0:
224,160,57159,1,0,0:0:0:0:
288,160,57238,1,8,0:0:0:0:
224,160,57317,1,0,0:0:0:0:
288,160,57396,1,8,0:0:0:0:
224,224,57553,1,4,0:0:0:0:
224,160,58027,1,0,0:0:0:0:
224,160,58106,1,0,0:0:0:0:
288,160,58185,1,8,0:0:0:0:
224,160,58343,1,0,0:0:0:0:
288,160,58501,1,8,0:0:0:0:
288,160,58580,1,8,0:0:0:0:
224,160,58659,1,0,0:0:0:0:
288,160,58738,1,8,0:0:0:0:
224,160,58817,1,0,0:0:0:0:
288,160,58975,1,8,0:0:0:0:
224,224,59132,1,4,0:0:0:0:
224,224,59290,1,4,0:0:0:0:
288,224,59448,1,12,0:0:0:0:
288,160,59764,1,8,0:0:0:0:
288,160,59922,1,8,0:0:0:0:
224,224,60080,1,4,0:0:0:0:
288,160,60238,1,8,0:0:0:0:
224,160,60317,1,0,0:0:0:0:
288,160,60396,1,8,0:0:0:0:
224,224,60553,1,4,0:0:0:0:
288,160,60869,1,8,0:0:0:0:
288,160,60922,1,8,0:0:0:0:
224,160,60975,1,0,0:0:0:0:
224,160,61027,1,0,0:0:0:0:
288,160,61185,1,8,0:0:0:0:
224,224,61343,1,4,0:0:0:0:
288,160,61501,1,8,0:0:0:0:
288,160,61580,1,8,0:0:0:0:
224,160,61659,1,0,0:0:0:0:
288,224,61817,1,12,0:0:0:0:
288,160,62132,1,8,0:0:0:0:
224,160,62290,1,0,0:0:0:0:
224,160,62369,1,0,0:0:0:0:
224,160,62448,1,0,0:0:0:0:
288,160,62606,5,8,0:0:0:0:
288,160,62685,1,8,0:0:0:0:
288,160,62764,1,8,0:0:0:0:
288,160,62843,1,8,0:0:0:0:
224,160,62922,1,0,0:0:0:0:
288,160,63001,1,8,0:0:0:0:
224,160,63080,1,0,0:0:0:0:
224,160,63159,1,0,0:0:0:0:
288,160,63238,1,8,0:0:0:0:
288,160,63317,1,8,0:0:0:0:
288,160,63396,1,8,0:0:0:0:
288,160,63475,1,8,0:0:0:0:
224,160,63553,1,0,0:0:0:0:
224,160,63632,1,0,0:0:0:0:
288,160,63711,1,8,0:0:0:0:
288,160,63790,1,8,0:0:0:0:
224,160,63869,1,0,0:0:0:0:
288,160,63948,1,8,0:0:0:0:
288,160,64027,1,8,0:0:0:0:
288,160,64106,1,8,0:0:0:0:
224,160,64185,1,0,0:0:0:0:
288,160,64264,1,8,0:0:0:0:
224,160,64343,1,0,0:0:0:0:
224,160,64422,1,0,0:0:0:0:
288,160,64501,1,8,0:0:0:0:
288,160,64580,1,8,0:0:0:0:
288,160,64659,1,8,0:0:0:0:
288,160,64738,1,8,0:0:0:0:
224,160,64817,1,0,0:0:0:0:
224,160,64896,1,0,0:0:0:0:
288,160,64975,1,8,0:0:0:0:
288,160,65053,1,8,0:0:0:0:
224,160,65132,1,0,0:0:0:0:
288,160,65211,1,8,0:0:0:0:
288,160,65290,1,8,0:0:0:0:
224,160,65448,1,0,0:0:0:0:
288,160,65527,1,8,0:0:0:0:
288,160,65606,1,8,0:0:0:0:
224,160,65764,1,0,0:0:0:0:
288,160,65843,1,8,0:0:0:0:
224,160,66001,1,0,0:0:0:0:
288,160,66080,1,8,0:0:0:0:
224,160,66159,1,0,0:0:0:0:
288,160,66317,1,8,0:0:0:0:
288,160,66475,1,8,0:0:0:0:
288,160,66553,1,8,0:0:0:0:
224,160,66711,1,0,0:0:0:0:
288,160,66790,1,8,0:0:0:0:
224,160,66869,1,0,0:0:0:0:
288,160,66948,1,8,0:0:0:0:
288,160,67106,1,8,0:0:0:0:
224,160,67185,1,0,0:0:0:0:
224,160,67264,1,0,0:0:0:0:
288,160,67343,1,8,0:0:0:0:
288,160,67501,1,8,0:0:0:0:
288,160,67580,1,8,0:0:0:0:
224,160,67659,1,0,0:0:0:0:
224,160,67738,1,0,0:0:0:0:
224,160,67817,1,0,0:0:0:0:
224,160,67896,1,0,0:0:0:0:
288,160,67975,1,8,0:0:0:0:
288,160,68053,1,8,0:0:0:0:
288,160,68132,1,8,0:0:0:0:
288,160,68211,1,8,0:0:0:0:
224,160,68290,1,0,0:0:0:0:
224,160,68369,1,0,0:0:0:0:
224,160,68448,1,0,0:0:0:0:
224,160,68527,1,0,0:0:0:0:
288,160,68606,1,8,0:0:0:0:
288,160,68685,1,8,0:0:0:0:
224,160,68764,1,0,0:0:0:0:
224,160,68843,1,0,0:0:0:0:
288,160,68922,1,8,0:0:0:0:
288,160,69001,1,8,0:0:0:0:
288,160,69080,1,8,0:0:0:0:
224,160,69159,1,0,0:0:0:0:
288,160,69238,1,8,0:0:0:0:
224,160,69317,1,0,0:0:0:0:
288,160,69396,1,8,0:0:0:0:
288,160,69475,1,8,0:0:0:0:
224,160,69553,1,0,0:0:0:0:
224,160,69632,1,0,0:0:0:0:
224,160,69711,1,0,0:0:0:0:
224,160,69790,1,0,0:0:0:0:
288,160,69869,1,8,0:0:0:0:
224,160,69948,1,0,0:0:0:0:
224,160,70027,1,0,0:0:0:0:
288,160,70106,1,8,0:0:0:0:
224,160,70185,1,0,0:0:0:0:
288,160,70264,1,8,0:0:0:0:
288,160,70343,1,8,0:0:0:0:
224,160,70501,1,0,0:0:0:0:
288,160,70580,1,8,0:0:0:0:
288,160,70659,1,8,0:0:0:0:
224,160,70817,1,0,0:0:0:0:
288,160,70896,1,8,0:0:0:0:
224,160,70975,1,0,0:0:0:0:
288,160,71053,1,8,0:0:0:0:
288,160,71132,1,8,0:0:0:0:
224,160,71211,1,0,0:0:0:0:
288,160,71369,1,8,0:0:0:0:
224,160,71448,1,0,0:0:0:0:
288,160,71527,1,8,0:0:0:0:
288,160,71606,1,8,0:0:0:0:
224,160,71685,1,0,0:0:0:0:
288,160,71764,1,8,0:0:0:0:
288,160,71843,1,8,0:0:0:0:
224,160,71922,1,0,0:0:0:0:
288,160,72001,1,8,0:0:0:0:
224,160,72080,1,0,0:0:0:0:
288,160,72396,1,8,0:0:0:0:
224,224,72711,5,4,0:0:0:0:
288,160,73659,1,8,0:0:0:0:
224,160,74290,1,0,0:0:0:0:
288,160,74448,1,8,0:0:0:0:
224,160,74606,1,0,0:0:0:0:
288,160,74764,1,8,0:0:0:0:
224,224,74922,1,4,0:0:0:0:
288,160,75238,1,8,0:0:0:0:
224,160,76185,1,0,0:0:0:0:
288,224,76501,1,12,0:0:0:0:
288,224,76659,1,12,0:0:0:0:
288,224,76817,1,12,0:0:0:0:
288,160,77132,1,8,0:0:0:0:
224,160,77290,1,0,0:0:0:0:
224,160,77448,1,0,0:0:0:0:
288,160,77527,1,8,0:0:0:0:
224,160,77606,1,0,0:0:0:0:
288,224,77764,1,12,0:0:0:0:
224,160,77922,1,0,0:0:0:0:
224,160,78001,1,0,0:0:0:0:
224,160,78080,1,0,0:0:0:0:
224,160,78238,1,0,0:0:0:0:
224,160,78317,1,0,0:0:0:0:
224,160,78396,1,0,0:0:0:0:
224,160,78553,1,0,0:0:0:0:
224,160,78632,1,0,0:0:0:0:
224,160,78711,1,0,0:0:0:0:
224,160,78869,1,0,0:0:0:0:
224,160,78948,1,0,0:0:0:0:
288,160,79027,1,8,0:0:0:0:
224,160,79185,1,0,0:0:0:0:
224,160,79264,1,0,0:0:0:0:
288,160,79343,1,8,0:0:0:0:
224,160,79501,1,0,0:0:0:0:
224,160,79580,1,0,0:0:0:0:
288,160,79659,1,8,0:0:0:0:
224,160,79817,1,0,0:0:0:0:
224,160,79896,1,0,0:0:0:0:
288,160,79975,1,8,0:0:0:0:
224,160,80132,1,0,0:0:0:0:
224,160,80211,1,0,0:0:0:0:
288,160,80290,1,8,0:0:0:0:
288,160,80369,1,8,0:0:0:0:
224,160,80448,1,0,0:0:0:0:
224,160,80527,1,0,0:0:0:0:
288,160,80606,1,8,0:0:0:0:
288,160,80685,1,8,0:0:0:0:
224,160,80764,1,0,0:0:0:0:
224,160,80843,1,0,0:0:0:0:
288,160,80922,1,8,0:0:0:0:
288,160,81001,1,8,0:0:0:0:
224,160,81080,1,0,0:0:0:0:
224,160,81159,1,0,0:0:0:0:
288,160,81238,1,8,0:0:0:0:
288,160,81317,1,8,0:0:0:0:
224,160,81396,1,0,0:0:0:0:
224,160,81475,1,0,0:0:0:0:
288,160,81553,1,8,0:0:0:0:
224,160,81632,1,0,0:0:0:0:
224,160,81711,1,0,0:0:0:0:
288,160,81790,1,8,0:0:0:0:
224,160,81869,1,0,0:0:0:0:
224,160,81948,1,0,0:0:0:0:
288,160,82027,1,8,0:0:0:0:
224,160,82106,1,0,0:0:0:0:
224,160,82185,1,0,0:0:0:0:
288,160,82264,1,8,0:0:0:0:
224,160,82343,1,0,0:0:0:0:
224,160,82422,1,0,0:0:0:0:
288,160,82501,1,8,0:0:0:0:
224,160,82580,1,0,0:0:0:0:
288,160,82659,1,8,0:0:0:0:
224,224,82817,1,4,0:0:0:0:
32,32,82975,2,0,L|96:32,28,41.9999987182618
224,224,85343,1,4,0:0:0:0:
224,160,86606,1,0,0:0:0:0:
224,160,86764,1,0,0:0:0:0:
224,160,87080,1,0,0:0:0:0:
224,160,87396,1,0,0:0:0:0:
288,160,87553,1,8,0:0:0:0:
224,224,87869,5,4,0:0:0:0:
288,160,88106,1,0,0:0:0:0:
288,160,88185,1,8,0:0:0:0:
224,160,88343,1,0,0:0:0:0:
224,160,88422,1,0,0:0:0:0:
288,160,88501,1,8,0:0:0:0:
224,160,88580,1,0,0:0:0:0:
224,160,88738,1,0,0:0:0:0:
288,160,88817,1,8,0:0:0:0:
288,160,88975,1,8,0:0:0:0:
288,160,89053,1,8,0:0:0:0:
224,160,89132,1,0,0:0:0:0:
288,160,89369,1,8,0:0:0:0:
224,160,89448,1,0,0:0:0:0:
288,160,89606,1,0,0:0:0:0:
288,160,89685,1,8,0:0:0:0:
224,160,89764,1,0,0:0:0:0:
224,160,89843,1,0,0:0:0:0:
288,160,90001,1,8,0:0:0:0:
224,160,90080,1,0,0:0:0:0:
224,160,90238,1,0,0:0:0:0:
224,160,90317,1,0,0:0:0:0:
288,160,90396,1,8,0:0:0:0:
224,160,90632,1,0,0:0:0:0:
288,160,90711,1,8,0:0:0:0:
224,160,90869,1,0,0:0:0:0:
224,160,90948,1,0,0:0:0:0:
288,160,91027,1,8,0:0:0:0:
288,160,91106,1,8,0:0:0:0:
224,160,91185,1,0,0:0:0:0:
224,160,91264,1,0,0:0:0:0:
288,160,91343,1,8,0:0:0:0:
288,160,91580,1,8,0:0:0:0:
224,160,91659,1,0,0:0:0:0:
288,160,91817,1,8,0:0:0:0:
288,160,91896,1,8,0:0:0:0:
224,160,91975,1,0,0:0:0:0:
288,160,92132,1,8,0:0:0:0:
288,160,92211,1,8,0:0:0:0:
224,160,92290,1,0,0:0:0:0:
288,160,92369,1,8,0:0:0:0:
288,160,92448,1,8,0:0:0:0:
224,160,92606,1,0,0:0:0:0:
288,160,92685,1,8,0:0:0:0:
224,160,92764,1,0,0:0:0:0:
288,224,92922,1,12,0:0:0:0:
224,160,93159,1,0,0:0:0:0:
288,160,93238,1,8,0:0:0:0:
224,160,93396,1,0,0:0:0:0:
224,160,93475,1,0,0:0:0:0:
288,160,93553,1,8,0:0:0:0:
224,160,93632,1,0,0:0:0:0:
224,160,93790,1,0,0:0:0:0:
288,160,93869,1,8,0:0:0:0:
224,160,94027,1,0,0:0:0:0:
288,160,94106,1,8,0:0:0:0:
224,160,94185,1,0,0:0:0:0:
288,160,94422,1,8,0:0:0:0:
224,160,94501,1,0,0:0:0:0:
288,160,94659,1,8,0:0:0:0:
288,160,94738,1,8,0:0:0:0:
224,160,94817,1,0,0:0:0:0:
288,160,94896,1,8,0:0:0:0:
288,160,95053,1,8,0:0:0:0:
224,160,95132,1,0,0:0:0:0:
288,160,95290,1,8,0:0:0:0:
224,160,95369,1,0,0:0:0:0:
288,160,95448,1,8,0:0:0:0:
224,160,95685,1,0,0:0:0:0:
288,160,95764,1,8,0:0:0:0:
224,160,95922,1,0,0:0:0:0:
224,160,96001,1,0,0:0:0:0:
288,160,96080,1,8,0:0:0:0:
224,160,96159,1,0,0:0:0:0:
224,160,96317,1,0,0:0:0:0:
288,160,96396,1,8,0:0:0:0:
288,160,96553,1,8,0:0:0:0:
288,160,96632,1,8,0:0:0:0:
224,160,96711,1,0,0:0:0:0:
224,160,96948,1,0,0:0:0:0:
288,160,97027,1,8,0:0:0:0:
224,160,97185,1,0,0:0:0:0:
224,160,97264,1,0,0:0:0:0:
288,160,97343,1,8,0:0:0:0:
224,160,97422,1,0,0:0:0:0:
288,160,97501,1,8,0:0:0:0:
288,160,97580,1,8,0:0:0:0:
224,160,97659,1,0,0:0:0:0:
224,160,97738,1,0,0:0:0:0:
288,160,97817,1,8,0:0:0:0:
224,224,97975,1,4,0:0:0:0:
288,160,98211,1,8,0:0:0:0:
224,160,98290,1,0,0:0:0:0:
288,160,98448,1,8,0:0:0:0:
288,160,98527,1,8,0:0:0:0:
224,160,98606,1,0,0:0:0:0:
288,160,98685,1,8,0:0:0:0:
288,160,98843,1,8,0:0:0:0:
224,160,98922,1,0,0:0:0:0:
288,160,99001,1,8,0:0:0:0:
288,160,99080,1,8,0:0:0:0:
288,160,99238,1,8,0:0:0:0:
224,160,99317,1,0,0:0:0:0:
224,160,99475,1,0,0:0:0:0:
288,160,99553,1,8,0:0:0:0:
224,160,99711,1,0,0:0:0:0:
224,160,99790,1,0,0:0:0:0:
288,160,99869,1,8,0:0:0:0:
224,160,99948,1,0,0:0:0:0:
224,160,100106,1,0,0:0:0:0:
288,160,100185,1,8,0:0:0:0:
288,160,100264,1,8,0:0:0:0:
224,160,100343,1,0,0:0:0:0:
288,160,100422,1,8,0:0:0:0:
224,160,100501,1,0,0:0:0:0:
288,160,100738,1,8,0:0:0:0:
224,160,100817,1,0,0:0:0:0:
288,160,100975,1,8,0:0:0:0:
288,160,101053,1,8,0:0:0:0:
224,160,101132,1,0,0:0:0:0:
288,160,101211,1,8,0:0:0:0:
288,160,101290,1,8,0:0:0:0:
224,160,101369,1,0,0:0:0:0:
288,160,101448,1,8,0:0:0:0:
224,160,101606,1,0,0:0:0:0:
224,160,101685,1,0,0:0:0:0:
288,160,101764,1,8,0:0:0:0:
288,160,101843,1,8,0:0:0:0:
224,160,102001,1,0,0:0:0:0:
288,160,102080,1,8,0:0:0:0:
224,160,102238,1,0,0:0:0:0:
224,160,102317,1,0,0:0:0:0:
288,160,102396,1,8,0:0:0:0:
224,160,102475,1,0,0:0:0:0:
288,160,102553,1,8,0:0:0:0:
288,160,102711,1,8,0:0:0:0:
288,160,102790,1,8,0:0:0:0:
224,160,102869,1,0,0:0:0:0:
288,224,103027,1,12,0:0:0:0:
224,160,103264,1,0,0:0:0:0:
224,160,103501,1,0,0:0:0:0:
288,160,103580,1,8,0:0:0:0:
224,160,103659,1,0,0:0:0:0:
224,160,103896,1,0,0:0:0:0:
224,160,104132,1,0,0:0:0:0:
288,160,104211,1,8,0:0:0:0:
224,160,104290,1,0,0:0:0:0:
224,160,104369,1,0,0:0:0:0:
224,160,104527,1,0,0:0:0:0:
288,160,104606,1,8,0:0:0:0:
224,160,104685,1,0,0:0:0:0:
224,160,104764,1,0,0:0:0:0:
224,160,104843,1,0,0:0:0:0:
288,160,104922,1,8,0:0:0:0:
224,160,105238,1,0,0:0:0:0:
288,224,105553,1,12,0:0:0:0:
224,160,105711,1,0,0:0:0:0:
288,160,105790,1,8,0:0:0:0:
288,160,105869,1,8,0:0:0:0:
224,160,106027,1,0,0:0:0:0:
224,160,106106,1,0,0:0:0:0:
288,160,106185,1,8,0:0:0:0:
224,160,106343,1,0,0:0:0:0:
288,160,106422,1,8,0:0:0:0:
288,160,106501,1,8,0:0:0:0:
224,160,106659,1,0,0:0:0:0:
224,160,106738,1,0,0:0:0:0:
288,160,106817,1,8,0:0:0:0:
224,160,106896,1,0,0:0:0:0:
224,160,106975,1,0,0:0:0:0:
288,160,107053,1,8,0:0:0:0:
224,160,107132,1,0,0:0:0:0:
224,160,107211,1,0,0:0:0:0:
288,160,107290,1,8,0:0:0:0:
224,160,107369,1,0,0:0:0:0:
224,160,107448,1,0,0:0:0:0:
288,160,107527,1,8,0:0:0:0:
224,160,107606,1,0,0:0:0:0:
288,160,107685,1,8,0:0:0:0:
224,224,108080,5,4,0:0:0:0:
288,160,109027,1,8,0:0:0:0:
224,160,109659,1,0,0:0:0:0:
288,160,109817,1,8,0:0:0:0:
224,160,109975,1,0,0:0:0:0:
288,160,110132,1,8,0:0:0:0:
224,160,110290,1,0,0:0:0:0:
288,160,110606,1,8,0:0:0:0:
224,160,111553,1,0,0:0:0:0:
288,160,112343,1,8,0:0:0:0:
224,160,112501,1,0,0:0:0:0:
288,160,112580,1,8,0:0:0:0:
224,160,112659,1,0,0:0:0:0:
