osu file format v14

[General]
AudioFilename: overcomplexification.mp3
AudioLeadIn: 0
PreviewTime: 87869
Countdown: 0
SampleSet: Soft
StackLeniency: 0.7
Mode: 0
LetterboxInBreaks: 0
WidescreenStoryboard: 0

[Editor]
DistanceSpacing: 1.6
BeatDivisor: 4
GridSize: 4
TimelineZoom: 1.850001

[Metadata]
Title:overcomplexification
TitleUnicode:overcomplexification
Artist:Camellia
ArtistUnicode:かめりあ
Creator:Ambient
Version:Insane
Source:jubeat prop
Tags:eeezzzeee HB24 -Tochi FCL Strategas Nwolf Ntiger
BeatmapID:827857
BeatmapSetID:378212

[Difficulty]
HPDrainRate:6
CircleSize:4
OverallDifficulty:7.5
ApproachRate:9.3
SliderMultiplier:1
SliderTickRate:1

[Events]
//Background and Video events
0,0,"complex.jpg",0,0
//Break Periods
//Storyboard Layer 0 (Background)
//Storyboard Layer 1 (Fail)
//Storyboard Layer 2 (Pass)
//Storyboard Layer 3 (Foreground)
//Storyboard Sound Samples

[TimingPoints]
1975,315.789473684211,4,2,0,35,1,0
4185,-100,4,2,0,65,0,0
4501,-100,4,2,0,35,0,0
5764,-66.6666666666667,4,2,0,35,0,0
6080,-100,4,2,0,35,0,0
6869,-100,4,2,0,35,0,0
11764,-100,4,2,0,5,0,0
12080,-80,4,2,69,70,0,0
15869,-66.6666666666667,4,2,69,70,0,0
16185,-66.6666666666667,4,2,69,70,0,0
20922,-66.6666666666667,4,2,69,50,0,0
21869,-66.6666666666667,4,2,69,50,0,0
22185,-66.6666666666667,4,2,69,70,0,0
24396,-57.1428571428571,4,2,69,70,0,0
25185,-66.6666666666667,4,2,69,70,0,0
29764,-66.6666666666667,4,2,69,70,0,0
31975,-66.6666666666667,4,2,69,70,0,0
34817,-100,4,2,69,70,0,0
35922,-66.6666666666667,4,2,69,70,0,0
37343,-80,4,2,69,70,0,0
37659,-80,4,2,69,70,0,0
37975,-57.1428571428571,4,2,69,70,0,0
38290,-66.6666666666667,4,2,69,70,0,0
38606,-57.1428571428571,4,2,69,70,0,0
39869,-57.1428571428571,4,2,69,50,0,0
41132,-57.1428571428571,4,2,69,80,0,0
41448,-57.1428571428571,4,2,69,50,0,0
42396,-80,4,2,69,60,0,0
43027,-66.6666666666667,4,2,69,60,0,0
43975,-80,4,2,0,40,0,0
44922,-80,4,2,69,60,0,0
46185,-80,4,2,69,20,0,0
46501,-80,4,2,69,30,0,0
46817,-80,4,2,69,40,0,0
47132,-80,4,2,69,50,0,0
47448,-80,4,2,69,60,0,0
48080,-66.6666666666667,4,2,69,60,0,0
48711,-80,4,2,0,40,0,0
49501,-80,4,2,69,45,0,0
49659,-80,4,2,69,50,0,0
49817,-80,4,2,69,60,0,0
51238,-66.6666666666667,4,2,69,60,0,0
52501,-80,4,2,69,60,0,0
53132,-66.6666666666667,4,2,69,60,0,0
55027,-80,4,2,69,60,0,0
55975,-66.6666666666667,4,2,69,60,0,0
56922,-66.6666666666667,4,2,69,70,0,0
57159,-66.6666666666667,4,2,69,60,0,0
57553,-80,4,2,69,60,0,0
58185,-66.6666666666667,4,2,69,60,0,0
62606,-66.6666666666667,4,2,69,60,0,0
67343,-66.6666666666667,4,2,69,60,0,0
67659,-66.6666666666667,4,2,69,60,0,0
72396,-57.1428571428571,4,2,69,60,0,0
72711,-57.1428571428571,4,2,0,35,0,0
73659,-57.1428571428571,4,2,0,35,0,0
74922,-57.1428571428571,4,2,0,65,0,0
75238,-100,4,2,0,35,0,0
76501,-66.6666666666667,4,2,0,35,0,0
76817,-100,4,2,0,35,0,0
77132,-100,4,2,0,35,0,0
77764,-100,4,2,0,60,0,0
79027,-100,4,2,0,65,0,0
80290,-66.6666666666667,4,2,69,70,0,0
82817,-66.6666666666667,4,2,69,20,0,0
82975,-80,4,2,69,20,0,0
85343,-80,4,2,69,50,0,0
86211,-66.6666666666667,4,2,69,50,0,0
86606,-66.6666666666667,4,2,69,50,0,0
87553,-66.6666666666667,4,2,69,50,0,0
87869,-57.1428571428571,4,1,69,50,0,1
104922,-125,4,1,69,50,0,1
105553,-57.1428571428571,4,1,69,50,0,1
108080,-57.1428571428571,4,2,0,35,0,0
109027,-66.6666666666667,4,2,0,35,0,0
112501,-66.6666666666667,4,2,0,35,0,0

[Colours]
Combo1 : 60,63,191
Combo2 : 164,32,240
Combo3 : 37,185,239

[HitObjects]
128,136,1975,6,0,P|88:176|184:232,1,200,2|0,0:0|0:0,0:0:0:0:
376,136,2922,2,0,P|412:215|392:272,1,150,2|2,0:0|0:0,0:0:0:0:
320,344,3553,5,0,0:0:0:0:
256,160,3711,1,2,0:0:0:0:
216,256,3869,1,2,0:0:0:0:
327,238,4027,1,2,0:0:0:0:
256,160,4185,1,2,0:0:0:0:
96,320,4501,6,0,B|72:264|72:264|98:125,1,200,2|0,0:0|0:0,0:0:0:0:
216,256,5448,1,2,0:0:0:0:
216,256,5764,6,0,L|201:221,1,37.5000014305115
264,144,5922,2,0,L|250:109,1,37.5000014305115
368,48,6080,2,0,P|344:104|352:128,1,75,0|2,0:0|0:0,0:0:0:0:
360,152,6396,2,0,L|352:176,2,25,2|0|0,0:0|0:0|0:0,0:0:0:0:
328,288,6711,1,0,0:0:0:0:
448,264,6869,1,0,0:0:0:0:
464,56,7027,6,0,B|416:40|416:40|320:64,1,150,2|0,0:0|0:0,0:0:0:0:
216,96,7659,2,0,P|232:120|240:160,1,50
256,272,7975,1,2,0:0:0:0:
256,272,8606,5,2,0:0:0:0:
200,188,8764,1,2,0:0:0:0:
100,172,8922,2,0,L|112:224,1,50,2|2,0:0|0:0,0:0:0:0:
76,316,9238,2,0,P|124:320|176:296,1,100,2|0,0:0|0:0,0:0:0:0:
256,192,9711,12,0,11764,0:0:0:0:
168,296,12080,6,0,L|164:233,1,62.5,2|0,0:3|0:0,0:0:0:0:
248,140,12396,2,0,L|244:202,1,62.5,2|0,0:3|0:0,0:0:0:0:
332,292,12711,2,0,L|328:229,1,62.5,2|0,0:3|0:0,0:0:0:0:
420,152,13027,2,0,L|416:214,1,62.5,2|0,0:3|0:0,0:0:0:0:
248,140,13343,6,0,L|176:136,1,62.5,2|0,0:3|0:0,0:0:0:0:
32,224,13659,2,0,L|104:220,1,62.5,2|0,0:3|0:0,0:0:0:0:
208,272,13975,1,0,0:0:0:0:
208,272,14132,1,0,0:0:0:0:
316,308,14290,2,0,P|324:268|312:232,1,62.5,2|0,0:3|0:0,0:0:0:0:
336,56,14606,6,0,B|328:96|296:128,1,62.5,2|0,0:3|0:0,0:0:0:0:
416,176,14922,2,0,B|424:136|456:104,1,62.5,2|0,0:3|0:0,0:0:0:0:
488,248,15238,2,0,B|472:272|440:288,1,62.5,2|0,0:3|0:0,0:0:0:0:
352,312,15553,1,2,0:3:0:0:
264,288,15711,1,0,0:0:0:0:
92,240,15869,6,0,L|100:200,1,37.5000014305115,2|0,0:3|0:0,0:0:0:0:
200,152,16027,2,0,L|192:192,1,37.5000014305115,2|0,0:3|0:0,0:0:0:0:
152,312,16185,2,0,P|104:336|48:328,1,112.500004291535,2|0,0:3|0:0,0:0:0:0:
24,312,16501,1,2,0:3:0:0:
99,203,16659,1,0,0:0:0:0:
152,312,16817,1,2,0:3:0:0:
16,184,16975,1,0,0:0:0:0:
104,80,17132,6,0,L|120:128,3,37.5000014305115,2|0|2|0,0:3|0:0|0:3|0:0,0:0:0:0:
219,175,17448,2,0,L|235:223,3,37.5000014305115,2|0|2|0,0:3|0:0|0:3|0:0,0:0:0:0:
296,64,17764,2,0,L|312:112,3,37.5000014305115,2|0|2|0,0:3|0:0|0:3|0:0,0:0:0:0:
408,160,18080,2,0,L|424:200,3,37.5000014305115,2|0|2|0,0:3|0:0|0:3|0:0,0:0:0:0:
408,360,18396,5,2,0:3:0:0:
432,336,18475,1,2,0:3:0:0:
448,304,18553,1,2,0:3:0:0:
456,264,18632,1,2,0:3:0:0:
448,224,18711,1,2,0:3:0:0:
432,192,18790,1,2,0:3:0:0:
408,160,18869,1,2,0:3:0:0:
376,136,18948,1,2,0:3:0:0:
344,120,19027,6,0,L|287:106,3,37.5000014305115,2|2|2|2,0:3|0:3|0:3|0:3,0:0:0:0:
136,152,19343,2,0,L|200:168,1,37.5000014305115,2|2,0:3|0:3,0:0:0:0:
304,264,19501,2,0,L|240:248,1,37.5000014305115,2|2,0:3|0:3,0:0:0:0:
104,296,19659,5,6,1:3:0:0:
200,328,20922,6,0,L|204:280,1,37.5000014305115,4|0,0:3|0:0,0:0:0:0:
216,148,21080,1,0,0:0:0:0:
218,121,21159,1,0,0:0:0:0:
221,94,21238,1,8,0:0:0:0:
56,220,21396,2,0,L|104:224,1,37.5000014305115,4|0,0:3|0:0,0:0:0:0:
236,224,21554,1,0,0:0:0:0:
263,226,21633,1,0,0:0:0:0:
289,229,21712,1,4,0:3:0:0:
494,139,21869,1,8,0:0:0:0:
494,139,22185,6,0,P|508:220|484:304,1,150.000005722046,4|0,0:0|0:0,0:0:0:0:
364,328,22659,1,2,0:3:0:0:
428,208,22817,2,0,L|344:204,1,75.0000028610231,8|0,0:0|0:0,0:0:0:0:
196,256,23132,2,0,L|280:252,1,75.0000028610231,0|8,0:0|0:0,0:0:0:0:
384,128,23448,5,2,0:3:0:0:
224,176,23606,1,8,0:0:0:0:
348,284,23764,1,2,0:3:0:0:
296,112,23922,1,2,0:3:0:0:
132,152,24080,2,0,L|120:116,3,37.5000014305115,8|2|2|2,0:0|0:0|0:0|0:0,0:0:0:0:
100,148,24396,2,0,P|84:216|100:276,1,131.250001251698,2|2,0:0|0:0,0:0:0:0:
64,300,24711,6,0,L|156:296,1,87.500000834465
264,212,25027,1,0,0:0:0:0:
396,324,25185,1,2,0:3:0:0:
396,324,25264,1,2,0:3:0:0:
396,324,25343,2,0,L|428:284,2,37.5000014305115,8|2|2,0:0|0:0|0:0,0:0:0:0:
400,152,25659,5,2,0:3:0:0:
272,48,25817,1,10,0:0:0:0:
280,80,25896,1,2,0:0:0:0:
288,112,25975,1,2,0:0:0:0:
320,264,26132,1,2,0:3:0:0:
152,184,26290,6,0,L|88:188,1,37.5000014305115,10|2,0:0|0:0,0:0:0:0:
32,76,26448,2,0,L|96:80,1,37.5000014305115,2|2,0:0|0:0,0:0:0:0:
184,80,26606,1,2,0:3:0:0:
16,188,26764,1,10,0:0:0:0:
232,152,26922,2,0,B|248:196|216:252,1,75.0000028610231
36,312,27238,6,0,B|68:340|68:340|184:332,1,150.000005722046,4|0,0:0|0:0,0:0:0:0:
288,292,27711,1,0,0:0:0:0:
416,332,27869,2,0,P|420:296|404:240,1,75.0000028610231,8|0,0:0|0:0,0:0:0:0:
412,258,28106,1,0,0:0:0:0:
412,258,28185,1,0,0:0:0:0:
316,164,28343,1,8,0:0:0:0:
420,76,28501,5,2,0:3:0:0:
332,268,28659,1,8,0:0:0:0:
332,268,28738,1,0,0:0:0:0:
332,268,28817,1,2,0:3:0:0:
200,148,28975,1,2,0:3:0:0:
335,131,29132,2,0,L|311:171,3,37.5000014305115,10|2|2|2,0:0|0:0|0:0|0:0,0:0:0:0:
420,76,29448,2,0,L|444:116,1,37.5000014305115,2|2,0:0|0:0,0:0:0:0:
460,212,29606,2,0,L|436:252,1,37.5000014305115,2|2,0:0|0:0,0:0:0:0:
354,298,29764,6,0,L|264:296,1,75.0000028610231,4|0,0:3|0:0,0:0:0:0:
164,328,30080,1,4,0:3:0:0:
52,252,30238,1,4,0:3:0:0:
52,252,30317,1,0,0:0:0:0:
52,252,30396,1,4,0:3:0:0:
176,200,30553,2,0,L|216:240,2,37.5000014305115,4|0|4,0:3|0:0|0:3,0:0:0:0:
72,112,30869,1,4,0:3:0:0:
240,56,31027,5,4,0:3:0:0:
368,208,31185,1,4,0:3:0:0:
176,120,31343,1,4,0:3:0:0:
424,128,31501,1,4,0:3:0:0:
176,200,31659,2,0,L|136:216,2,37.5000014305115,4|4|4,0:3|0:3|0:3,0:0:0:0:
240,56,31975,2,0,P|256:96|264:152,1,75.0000028610231,2|2,0:3|0:3,0:0:0:0:
280,296,32290,6,0,P|216:320|144:280,1,150.000005722046,4|0,0:0|0:0,0:0:0:0:
88,176,32764,1,2,0:3:0:0:
168,72,32922,2,0,L|190:42,2,37.5000014305115,8|0|2,0:0|0:0|0:0,0:0:0:0:
88,176,33238,1,2,0:3:0:0:
224,200,33396,1,8,0:0:0:0:
256,208,33475,1,0,0:0:0:0:
288,216,33553,1,2,0:3:0:0:
496,272,33711,5,8,0:0:0:0:
464,288,33790,1,0,0:0:0:0:
440,304,33869,1,2,0:3:0:0:
288,216,34027,1,2,0:3:0:0:
320,352,34185,2,0,L|272:376,1,37.5000014305115,10|2,0:0|0:0,0:0:0:0:
144,288,34343,2,0,L|184:304,1,37.5000014305115,2|2,0:0|0:0,0:0:0:0:
304,240,34501,1,0,0:0:0:0:
288,216,34580,1,0,0:0:0:0:
272,184,34659,1,0,0:0:0:0:
256,152,34738,1,0,0:0:0:0:
240,128,34817,6,0,P|304:56|344:72,1,150,2|0,0:3|0:0,0:0:0:0:
432,128,35448,1,10,0:0:0:0:
464,152,35527,1,2,0:0:0:0:
496,176,35606,1,2,0:0:0:0:
312,224,35764,5,2,0:3:0:0:
336,56,35922,2,0,L|344:16,2,37.5000014305115,10|2|2,0:0|0:0|0:0,0:0:0:0:
312,224,36238,5,2,0:3:0:0:
144,176,36396,2,0,L|96:160,1,37.5000014305115,10|2,0:0|0:0,0:0:0:0:
16,248,36553,2,0,L|56:264,1,37.5000014305115,2|2,0:0|0:0,0:0:0:0:
152,296,36711,1,2,0:3:0:0:
232,208,36869,1,10,0:0:0:0:
32,144,37027,2,0,P|56:104|112:88,1,75.0000028610231,0|0,0:0|0:0,0:0:0:0:
208,96,37343,6,0,B|248:112|256:144,1,62.5,4|0,0:3|0:0,0:0:0:0:
316,228,37659,6,0,P|328:176|376:144,1,93.75,2|0,0:3|0:0,0:0:0:0:
392,220,37975,6,0,P|372:280|300:304,1,131.250001251698,4|0,0:3|0:0,0:0:0:0:
216,312,38290,6,0,L|168:304,1,37.5000014305115,2|0,0:3|0:0,0:0:0:0:
72,216,38448,2,0,L|112:224,1,37.5000014305115,0|0,0:0|0:0,0:0:0:0:
232,200,38606,6,0,P|200:160|224:104,1,87.500000834465,0|0,0:0|0:0,0:0:0:0:
248,40,38922,1,2,0:3:0:0:
248,40,39238,5,0,0:0:0:0:
371,163,39448,5,0,0:0:0:0:
247,287,39659,5,0,0:0:0:0:
124,163,39869,5,0,0:0:0:0:
232,200,40027,1,0,0:0:0:0:
152,336,40185,2,0,B|160:288|160:288|144:248,1,87.500000834465,2|2,0:0|0:0,0:0:0:0:
124,163,40501,2,0,P|164:131|180:91,1,87.500000834465,2|2,0:0|0:0,0:0:0:0:
252,36,40817,2,0,L|292:124,1,87.500000834465,2|0,0:0|0:0,0:0:0:0:
352,280,41132,5,2,0:0:0:0:
440,336,41290,1,0,0:0:0:0:
448,232,41448,2,0,B|416:200|416:200|408:144,1,87.500000834465,2|0,0:0|0:0,0:0:0:0:
392,24,41764,5,0,0:0:0:0:
264,80,41922,1,0,0:0:0:0:
410,158,42080,1,0,0:0:0:0:
264,80,42238,1,0,0:0:0:0:
120,232,42396,6,0,P|152:280|232:264,1,125,2|0,0:3|0:0,0:0:0:0:
304,216,42869,1,2,0:3:0:0:
400,64,43027,2,0,L|352:136,1,75.0000028610231,8|0,0:0|0:0,0:0:0:0:
304,216,43343,1,2,0:3:0:0:
208,160,43501,1,2,0:3:0:0:
208,160,43659,1,0,0:0:0:0:
136,264,43975,6,0,L|112:288,6,20.8333333333333,8|0|0|8|0|0|0,0:0|0:0|0:0|0:0|0:0|0:0|0:0,0:0:0:0:
64,196,44448,1,8,0:0:0:0:
40,96,44606,1,2,0:0:0:0:
48,72,44685,1,2,0:0:0:0:
64,56,44764,1,2,0:0:0:0:
88,48,44843,1,2,0:0:0:0:
112,48,44922,6,0,B|168:80|168:80|192:48|224:48,1,125,4|0,0:0|0:0,0:0:0:0:
328,64,45396,1,2,0:3:0:0:
328,64,45475,1,2,0:3:0:0:
328,64,45553,1,8,0:0:0:0:
432,152,45711,1,0,0:0:0:0:
248,176,45869,1,2,0:3:0:0:
432,152,46027,1,2,0:3:0:0:
352,248,46185,6,0,L|368:272,5,20.8333333333333,0|0|0|2|0|0,0:0|0:0|0:0|0:0|0:0|0:0,0:0:0:0:
272,304,46501,2,0,L|288:328,5,20.8333333333333,2|0|0|2|0|0,0:0|0:0|0:0|0:0|0:0|0:0,0:0:0:0:
178,340,46817,2,0,L|192:368,1,31.25,2|2,0:0|0:0,0:0:0:0:
144,256,46975,1,2,0:0:0:0:
128,224,47053,1,2,0:0:0:0:
128,192,47132,1,2,0:0:0:0:
144,160,47211,1,2,0:0:0:0:
168,136,47290,1,2,0:0:0:0:
200,120,47369,1,2,0:0:0:0:
232,120,47448,6,0,B|280:136|280:136|312:120|360:136,1,125,4|0,0:0|0:0,0:0:0:0:
448,168,47922,1,2,0:3:0:0:
448,280,48080,2,0,P|416:248|368:232,1,75.0000028610231,8|0,0:0|0:0,0:0:0:0:
360,232,48317,1,0,0:0:0:0:
328,240,48396,1,2,0:3:0:0:
176,280,48553,1,2,0:3:0:0:
176,280,48632,1,0,0:0:0:0:
176,280,48711,6,0,P|128:288|64:216,1,125,0|8,0:0|0:0,0:0:0:0:
56,216,49106,1,0,0:0:0:0:
48,184,49185,1,2,0:0:0:0:
64,40,49343,1,2,0:3:0:0:
160,104,49501,2,0,L|184:96,4,15.625,12|0|0|0|12,0:3|0:0|0:0|0:0|0:3,0:0:0:0:
48,152,49817,1,12,0:3:0:0:
48,272,49975,6,0,P|88:304|112:312,1,62.5,2|0,0:3|0:0,0:0:0:0:
200,336,50290,1,0,0:0:0:0:
280,272,50448,1,2,0:0:0:0:
280,272,50527,1,2,0:0:0:0:
280,272,50606,1,8,0:0:0:0:
440,304,50764,1,0,0:0:0:0:
400,176,50922,1,2,0:3:0:0:
336,360,51080,1,8,0:0:0:0:
336,360,51159,1,2,0:0:0:0:
336,360,51238,6,0,L|360:288,1,75.0000028610231,2|2,0:0|0:3,0:0:0:0:
400,176,51553,1,8,0:0:0:0:
368,72,51711,1,2,0:0:0:0:
288,144,51869,1,2,0:3:0:0:
192,56,52027,1,8,0:0:0:0:
160,64,52106,1,0,0:0:0:0:
128,80,52185,1,0,0:0:0:0:
104,104,52264,1,0,0:0:0:0:
88,128,52343,1,2,0:0:0:0:
80,160,52422,1,2,0:0:0:0:
88,192,52501,6,0,B|112:264|112:264|176:288,1,125,4|0,0:0|0:0,0:0:0:0:
256,304,52975,1,2,0:3:0:0:
320,208,53132,2,0,L|336:288,1,75.0000028610231,8|2,0:0|0:0,0:0:0:0:
392,352,53448,1,2,0:3:0:0:
464,288,53606,1,8,0:0:0:0:
464,288,53685,1,0,0:0:0:0:
464,288,53764,1,2,0:3:0:0:
424,112,53922,5,8,0:0:0:0:
312,208,54080,1,2,0:3:0:0:
456,288,54238,1,2,0:3:0:0:
432,120,54396,2,0,B|408:96|408:96|328:88,1,112.500004291535,8|0,0:0|0:0,0:0:0:0:
296,80,54711,1,2,0:0:0:0:
272,96,54790,1,2,0:0:0:0:
240,88,54869,1,2,0:0:0:0:
216,104,54948,1,2,0:0:0:0:
184,96,55027,6,0,B|136:88|136:88|128:128|96:160,1,125,4|0,0:0|0:0,0:0:0:0:
48,248,55501,1,2,0:3:0:0:
48,248,55580,1,2,0:3:0:0:
48,248,55659,1,8,0:0:0:0:
200,304,55817,1,2,0:0:0:0:
48,248,55975,5,2,0:3:0:0:
96,336,56132,2,0,P|120:288|152:248,1,75.0000028610231,8|0,0:0|0:0,0:0:0:0:
208,176,56448,1,2,0:3:0:0:
208,176,56606,2,0,P|240:224|240:256,1,75.0000028610231,8|0,0:0|0:0,0:0:0:0:
312,336,56922,2,0,B|368:312|368:312|400:264,1,112.500004291535,2|2,0:0|0:3,0:0:0:0:
408,240,57238,1,10,0:0:0:0:
416,208,57317,1,2,0:0:0:0:
416,176,57396,1,2,0:0:0:0:
408,144,57475,1,2,0:0:0:0:
392,120,57553,6,0,B|368:80|368:80|320:104|288:72,1,125,4|0,0:0|0:0,0:0:0:0:
200,32,58027,1,2,0:3:0:0:
168,184,58185,2,0,L|136:104,1,75.0000028610231,8|2,0:0|0:0,0:0:0:0:
56,24,58501,1,2,0:3:0:0:
168,184,58659,1,8,0:0:0:0:
88,280,58817,5,2,0:3:0:0:
256,296,58975,1,8,0:0:0:0:
304,168,59132,1,2,0:3:0:0:
216,180,59290,1,2,0:3:0:0:
128,192,59448,1,10,0:0:0:0:
304,168,59606,1,2,0:0:0:0:
160,340,59764,2,0,L|176:252,1,75.0000028610231,2|2,0:0|0:0,0:0:0:0:
272,68,60080,6,0,P|264:108|272:152,1,75.0000028610231,2|0,0:3|0:0,0:0:0:0:
352,204,60396,1,8,0:0:0:0:
280,316,60553,2,0,P|320:324|452:300,1,150.000005722046,0|8,0:0|0:1,0:0:0:0:
468,180,61027,1,0,0:0:0:0:
360,212,61185,1,8,0:1:0:0:
360,212,61264,1,0,0:0:0:0:
360,212,61343,6,0,B|348:172|360:120,1,75.0000028610231,2|0,0:3|0:0,0:0:0:0:
260,212,61659,1,8,0:0:0:0:
156,64,61817,2,0,B|140:112|140:112|156:228,1,150.000005722046,0|8,0:0|0:1,0:0:0:0:
244,332,62290,1,0,0:0:0:0:
320,244,62448,1,4,0:1:0:0:
264,100,62606,6,0,P|248:164|264:196,1,75.0000028610231,4|0,0:0|0:0,0:0:0:0:
256,200,62843,1,0,0:0:0:0:
272,224,62922,1,0,0:0:0:0:
296,240,63001,1,2,0:0:0:0:
328,248,63080,1,0,0:0:0:0:
360,248,63159,1,0,0:0:0:0:
392,240,63238,2,0,L|440:224,1,37.5000014305115,8|0,0:0|0:0,0:0:0:0:
496,304,63396,2,0,L|456:320,1,37.5000014305115
376,344,63553,5,2,0:3:0:0:
344,352,63632,1,0,0:0:0:0:
312,352,63711,1,0,0:0:0:0:
280,344,63790,1,0,0:0:0:0:
248,328,63869,6,0,L|200:292,1,37.5000014305115,2|0,0:0|0:0,0:0:0:0:
140,332,64027,2,0,L|131:272,1,37.5000014305115,2|0,0:0|0:0,0:0:0:0:
60,260,64185,2,0,L|96:211,1,37.5000014305115,2|0,0:0|0:0,0:0:0:0:
40,160,64343,2,0,L|99:151,1,37.5000014305115,2|0,0:0|0:0,0:0:0:0:
244,176,64501,2,0,L|184:167,1,37.5000014305115,2|0,0:0|0:0,0:0:0:0:
72,72,64659,2,0,L|120:84,1,37.5000014305115
216,80,64817,2,0,L|232:72,4,18.7500007152558,2|0|2|0|2,0:0|0:0|0:3|0:0|0:0,0:0:0:0:
40,160,65132,5,2,0:3:0:0:
56,184,65211,1,2,0:0:0:0:
72,208,65290,1,2,0:0:0:0:
108,328,65527,6,0,L|136:292,1,37.5000014305115
206,170,65764,5,8,0:0:0:0:
206,170,65843,1,2,0:0:0:0:
316,240,66001,5,2,0:0:0:0:
316,240,66080,2,0,L|348:220,1,37.5000014305115,2|2,0:3|0:0,0:0:0:0:
192,304,66317,5,2,0:0:0:0:
300,360,66475,1,2,0:3:0:0:
300,360,66554,1,2,0:3:0:0:
404,320,66711,1,2,0:3:0:0:
404,320,66790,2,0,P|428:288|412:232,1,75.0000028610231,2|2,0:3|0:0,0:0:0:0:
416,224,67027,5,0,0:0:0:0:
400,192,67106,1,2,0:0:0:0:
384,168,67185,1,2,0:3:0:0:
368,144,67264,1,0,0:0:0:0:
352,120,67343,2,0,L|328:88,4,25.0000009536744
288,184,67659,6,0,P|312:224|312:256,1,75.0000028610231,4|0,0:0|0:0,0:0:0:0:
304,280,67896,1,0,0:0:0:0:
288,304,67975,1,0,0:0:0:0:
264,320,68053,1,0,0:0:0:0:
232,328,68132,1,0,0:0:0:0:
200,320,68211,1,0,0:0:0:0:
176,304,68290,2,0,L|152:272,1,37.5000014305115,8|0,0:0|0:0,0:0:0:0:
58,301,68448,2,0,L|80:336,1,37.5000014305115
32,216,68606,5,2,0:3:0:0:
24,184,68685,1,0,0:0:0:0:
24,152,68764,1,0,0:0:0:0:
32,120,68843,1,0,0:0:0:0:
40,96,68922,6,0,L|64:64,3,37.5000014305115,0|2|2|0,0:0|0:0|0:3|0:0,0:0:0:0:
182,66,69238,2,0,L|160:96,3,37.5000014305115,2|0|2|2,0:3|0:0|0:0|0:0,0:0:0:0:
112,192,69553,5,8,0:0:0:0:
120,232,69632,1,2,0:0:0:0:
144,264,69711,1,2,0:3:0:0:
176,280,69790,1,2,0:0:0:0:
216,288,69869,2,0,L|200:320,4,18.7500007152558,2|0|2|0|2,0:3|0:0|0:3|0:0|0:3,0:0:0:0:
296,144,70185,5,2,0:0:0:0:
304,172,70264,1,0,0:0:0:0:
312,200,70343,1,10,0:0:0:0:
408,300,70580,6,0,L|428:260,1,37.5000014305115
388,88,70817,5,0,0:0:0:0:
416,92,70896,1,10,0:0:0:0:
308,172,71053,5,2,0:0:0:0:
308,172,71132,2,0,L|316:208,2,37.5000014305115,2|2|8,0:3|0:0|0:0,0:0:0:0:
160,120,71448,6,0,L|144:136,5,18.7500007152558,2|0|0|0|2|0,0:0|0:0|0:0|0:0|0:3|0:0,0:0:0:0:
128,160,71685,1,0,0:0:0:0:
112,184,71764,1,10,0:0:0:0:
104,216,71843,1,2,0:0:0:0:
104,248,71922,1,2,0:0:0:0:
112,280,72001,1,2,0:0:0:0:
128,304,72080,1,2,0:3:0:0:
256,344,72238,1,0,0:0:0:0:
224,248,72396,1,0,0:0:0:0:
432,192,72711,5,0,0:0:0:0:
104,272,73659,1,2,0:0:0:0:
160,152,74290,5,2,0:0:0:0:
232,264,74448,1,2,0:0:0:0:
104,272,74606,1,2,0:0:0:0:
160,152,74764,1,2,0:0:0:0:
160,152,74922,1,0,0:0:0:0:
336,56,75238,6,0,P|376:96|384:144,1,100,2|0,0:0|0:0,0:0:0:0:
400,264,75711,2,0,B|344:256|344:256|296:224,1,100
192,160,76185,1,2,0:0:0:0:
232,320,76343,1,0,0:0:0:0:
380,296,76501,6,2,L|400:264,1,37.5000014305115
327,199,76659,2,0,L|307:231,1,37.5000014305115
232,320,76817,2,0,P|192:272|184:224,1,100,0|8,0:0|0:0,0:0:0:0:
208,136,77290,1,0,0:0:0:0:
272,56,77448,1,0,0:0:0:0:
328,144,77606,1,0,0:0:0:0:
112,48,77764,5,2,0:3:0:0:
16,144,77922,1,0,0:0:0:0:
16,144,78001,1,0,0:0:0:0:
16,144,78080,1,2,0:3:0:0:
112,240,78238,2,0,L|88:272,2,25,0|0|2,0:0|0:0|0:3,0:0:0:0:
216,144,78553,1,0,0:0:0:0:
216,144,78632,1,0,0:0:0:0:
216,144,78711,1,2,0:3:0:0:
288,240,78869,2,0,L|312:272,2,25,0|0|2,0:0|0:0|0:3,0:0:0:0:
216,144,79185,5,0,0:0:0:0:
328,64,79343,1,2,0:3:0:0:
408,176,79501,1,2,0:0:0:0:
328,64,79659,1,2,0:3:0:0:
472,56,79817,1,2,0:0:0:0:
408,176,79975,2,2,L|384:224,1,50,2|0,0:3|0:0,0:0:0:0:
256,352,80290,6,0,P|264:320|240:272,1,75.0000028610231,8|2,0:0|0:3,0:0:0:0:
224,256,80527,1,2,0:3:0:0:
200,232,80606,2,0,P|184:192|200:152,1,75.0000028610231,8|2,0:0|0:3,0:0:0:0:
200,136,80843,1,2,0:3:0:0:
224,112,80922,2,0,B|256:88|304:104,1,75.0000028610231,8|2,0:0|0:3,0:0:0:0:
328,112,81159,1,2,0:3:0:0:
360,128,81238,1,8,0:0:0:0:
400,264,81396,5,2,0:3:0:0:
400,264,81475,1,2,0:3:0:0:
400,264,81553,1,8,0:0:0:0:
464,128,81711,1,2,0:3:0:0:
452,156,81790,1,8,0:0:0:0:
344,136,81948,1,2,0:3:0:0:
328,112,82027,1,8,0:0:0:0:
400,264,82185,5,2,0:3:0:0:
372,272,82264,1,8,0:0:0:0:
212,308,82422,1,2,0:3:0:0:
240,316,82501,1,8,0:0:0:0:
360,352,82659,1,8,0:0:0:0:
220,176,82817,5,6,1:3:0:0:
256,192,82975,12,0,84711,0:0:0:0:
360,80,85343,6,0,P|328:96|304:160,1,93.75,2|2,0:0|0:0,0:0:0:0:
384,320,85817,1,2,0:0:0:0:
272,328,85975,2,0,P|240:304|224:264,1,62.5,2|0,0:0|0:0,0:0:0:0:
216,256,86211,1,2,0:0:0:0:
208,216,86290,1,0,0:0:0:0:
208,176,86369,1,0,0:0:0:0:
216,144,86448,1,2,0:0:0:0:
88,152,86606,6,8,L|72:192,3,37.5000014305115,2|2|2|2,0:3|0:3|0:3|0:3,0:0:0:0:
154,258,86922,2,8,L|168:224,1,37.5000014305115,8|0,0:3|0:0,0:0:0:0:
280,192,87080,2,0,L|264:232,1,37.5000014305115,0|2,0:0|0:0,0:0:0:0:
364,283,87238,2,0,L|376:248,3,37.5000014305115,2|2|2|0,0:0|0:0|0:3|0:0,0:0:0:0:
408,144,87553,1,8,0:0:0:0:
288,48,87869,6,0,P|248:40|184:56,1,87.500000834465,4|0,0:0|0:0,0:0:0:0:
112,44,88106,2,0,L|104:108,1,43.7500004172325,2|2,0:3|0:3,0:0:0:0:
168,224,88343,2,0,P|208:238|251:229,1,87.500000834465,0|2,0:0|0:3,0:0:0:0:
376,248,88580,2,0,L|368:200,2,43.7500004172325,0|2|0,0:0|0:2|0:0,0:0:0:0:
440,344,88817,6,0,P|480:312|472:248,1,87.500000834465,2|0,0:3|0:0,0:0:0:0:
488,240,89053,1,2,0:3:0:0:
480,208,89132,1,2,0:3:0:0:
376,248,89290,2,0,P|336:280|304:288,1,43.7500004172325,0|0,0:0|0:0,0:0:0:0:
260,328,89448,2,0,P|248:276|272:212,1,87.500000834465,2|0,0:3|0:0,0:0:0:0:
352,168,89685,2,0,P|312:128|248:120,1,87.500000834465,0|0,0:0|0:0,0:0:0:0:
200,40,89922,2,0,L|168:80,1,43.7500004172325,2|0,0:2|0:0,0:0:0:0:
80,128,90080,2,0,P|86:171|88:232,1,87.500000834465,2|0,0:3|0:0,0:0:0:0:
160,328,90396,6,0,L|168:224,1,87.500000834465,2|0,0:3|0:0,0:0:0:0:
208,136,90632,2,0,L|218:178,1,43.7500004172325,2|2,0:3|0:3,0:0:0:0:
256,304,90869,2,0,B|264:256|264:256|288:224,1,87.500000834465,0|2,0:0|0:3,0:0:0:0:
360,136,91106,2,0,L|384:200,2,43.7500004172325,0|0|2,0:0|0:0|0:3,0:0:0:0:
304,56,91343,2,0,P|352:40|392:48,1,87.500000834465,2|0,0:3|0:0,0:0:0:0:
424,64,91580,1,2,0:3:0:0:
456,96,91659,6,0,P|472:152|456:192,1,87.500000834465,2|0,0:3|0:0,0:0:0:0:
448,280,91896,2,0,L|488:320,2,43.7500004172325,0|2|0,0:0|0:3|0:0,0:0:0:0:
336,344,92132,2,0,P|352:296|328:256,1,87.500000834465,0|2,0:0|0:3,0:0:0:0:
312,240,92369,1,0,0:0:0:0:
280,224,92448,1,2,0:2:0:0:
248,224,92527,1,0,0:0:0:0:
216,232,92606,2,0,P|192:240|160:280,1,43.7500004172325,2|2,0:3|0:2,0:0:0:0:
88,312,92764,2,0,P|72:264|80:232,1,43.7500004172325,2|2,0:2|0:2,0:0:0:0:
48,88,92922,6,0,P|104:72|160:88,1,87.500000834465,4|0,0:0|0:0,0:0:0:0:
220,64,93159,2,0,L|216:108,1,43.7500004172325,0|2,0:0|0:3,0:0:0:0:
136,232,93396,2,0,P|160:272|232:296,1,87.500000834465,0|2,0:0|0:3,0:0:0:0:
296,328,93632,2,0,L|280:368,2,43.7500004172325,0|2|0,0:0|0:2|0:0,0:0:0:0:
400,296,93869,2,0,P|403:253|372:211,1,87.500000834465,2|0,0:3|0:0,0:0:0:0:
352,192,94106,1,0,0:0:0:0:
320,176,94185,1,2,0:3:0:0:
184,112,94343,6,0,P|200:64|224:48,1,43.7500004172325,0|2,0:0|0:3,0:0:0:0:
296,24,94501,2,0,P|344:24|408:56,1,87.500000834465,2|0,0:3|0:0,0:0:0:0:
425,147,94738,2,0,P|385:179|329:195,1,87.500000834465
256,256,94975,2,0,L|232:296,1,43.7500004172325,0|2,0:0|0:3,0:0:0:0:
120,312,95132,2,0,P|136:248|112:208,1,87.500000834465,2|0,0:3|0:0,0:0:0:0:
96,64,95448,6,0,L|160:160,1,87.500000834465,2|0,0:3|0:0,0:0:0:0:
256,256,95685,2,0,P|264:208|256:184,1,43.7500004172325,2|2,0:3|0:3,0:0:0:0:
216,84,95922,1,0,0:0:0:0:
336,156,96080,2,0,L|460:152,1,87.500000834465,0|2,0:0|0:2,0:0:0:0:
480,252,96317,2,0,P|444:260|400:256,1,43.7500004172325,2|0,0:3|0:0,0:0:0:0:
264,213,96553,1,2,0:3:0:0:
368,328,96711,6,0,P|320:296|304:256,1,87.500000834465,2|0,0:3|0:0,0:0:0:0:
312,149,96948,2,0,L|328:109,2,43.7500004172325,2|0|0,0:3|0:0|0:0,0:0:0:0:
173,200,97185,2,0,P|215:221|231:261,1,87.500000834465,2|2,0:3|0:3,0:0:0:0:
232,288,97422,1,2,0:3:0:0:
216,320,97501,1,2,0:2:0:0:
184,336,97580,1,0,0:0:0:0:
144,344,97659,2,0,L|88:336,1,43.7500004172325,2|2,0:3|0:3,0:0:0:0:
8,240,97817,2,0,L|72:248,1,43.7500004172325,2|2,0:3|0:3,0:0:0:0:
173,200,97975,6,0,P|152:160|112:136,1,87.500000834465,4|0,0:0|0:0,0:0:0:0:
32,148,98211,2,0,L|40:104,1,43.7500004172325,0|2,0:0|0:3,0:0:0:0:
184,72,98448,2,0,P|232:72|280:40,1,87.500000834465,0|2,0:0|0:3,0:0:0:0:
360,112,98685,2,0,L|392:64,2,43.7500004172325,0|2|2,0:0|0:2|0:3,0:0:0:0:
280,176,98922,2,0,P|336:216|392:216,1,87.500000834465,2|0,0:3|0:0,0:0:0:0:
392,224,99159,1,0,0:0:0:0:
424,216,99238,1,2,0:3:0:0:
512,144,99396,6,0,L|504:192,1,43.7500004172325,0|2,0:0|0:3,0:0:0:0:
488,312,99553,2,0,L|400:336,1,87.500000834465,2|0,0:3|0:0,0:0:0:0:
288,328,99790,2,0,L|304:272,1,43.7500004172325
392,224,99948,2,0,L|352:132,1,87.500000834465,2|2,0:2|0:3,0:0:0:0:
392,36,100185,2,0,P|352:64|304:68,1,87.500000834465,2|0,0:3|0:0,0:0:0:0:
256,160,100501,5,2,0:3:0:0:
300,285,100659,1,0,0:0:0:0:
300,285,100738,2,0,L|252:281,1,43.7500004172325,0|2,0:0|0:3,0:0:0:0:
136,312,100975,2,0,P|128:264|144:224,1,87.500000834465,0|2,0:0|0:3,0:0:0:0:
140,132,101211,2,0,L|76:112,2,43.7500004172325,0|2|2,0:0|0:2|0:3,0:0:0:0:
228,54,101448,2,0,P|258:85|264:128,1,87.500000834465,2|0,0:3|0:0,0:0:0:0:
256,160,101685,1,2,0:3:0:0:
248,200,101764,6,0,P|256:248|280:280,1,87.500000834465,2|0,0:3|0:0,0:0:0:0:
400,304,102001,2,0,L|384:344,2,43.7500004172325,0|2|0,0:0|0:3|0:0,0:0:0:0:
464,216,102238,2,0,P|424:176|392:160,1,87.500000834465,0|2,0:0|0:2,0:0:0:0:
368,152,102475,1,2,0:2:0:0:
344,128,102553,1,2,0:2:0:0:
328,96,102632,1,2,0:3:0:0:
328,40,102711,5,2,0:3:0:0:
280,48,102790,1,2,0:2:0:0:
228,54,102869,1,2,0:2:0:0:
176,64,102948,1,2,0:3:0:0:
128,72,103027,6,0,B|96:80|96:80|72:128,1,87.500000834465,6|0,0:3|0:0,0:0:0:0:
32,248,103264,2,0,L|128:192,1,87.500000834465,2|0,0:3|0:0,0:0:0:0:
192,144,103501,2,0,P|200:184|192:232,1,87.500000834465,2|2,0:3|0:3,0:0:0:0:
144,312,103738,2,0,B|192:320|192:320|248:312,1,87.500000834465,0|2,0:0|0:3,0:0:0:0:
320,296,103975,2,0,L|328:200,1,87.500000834465,0|2,0:0|0:3,0:0:0:0:
392,112,104290,6,0,L|416:184,2,43.7500004172325,2|0|0,0:3|0:0|0:0,0:0:0:0:
416,280,104527,2,0,L|392:328,1,43.7500004172325,2|0,0:3|0:0,0:0:0:0:
312,256,104764,1,2,0:3:0:0:
312,256,104843,1,0,0:0:0:0:
312,256,104922,2,0,P|296:192|256:144,1,120
144,88,105553,6,0,L|96:176,1,87.500000834465,8|2,0:0|0:3,0:0:0:0:
88,192,105790,1,0,0:0:0:0:
72,224,105869,2,0,B|80:272|80:272|144:288,1,87.500000834465,8|2,0:0|0:3,0:0:0:0:
152,288,106106,1,0,0:0:0:0:
184,288,106185,2,0,P|216:240|216:200,1,87.500000834465,8|2,0:0|0:2,0:0:0:0:
208,176,106422,5,2,0:2:0:0:
200,144,106501,1,10,0:2:0:0:
208,112,106580,1,2,0:2:0:0:
224,80,106659,1,2,0:3:0:0:
248,56,106738,1,2,0:2:0:0:
280,40,106817,6,0,L|344:56,1,43.7500004172325,10|2,0:2|0:2,0:0:0:0:
416,152,106975,2,0,L|360:136,1,43.7500004172325,2|2,0:3|0:2,0:0:0:0:
208,176,107132,2,0,L|264:192,1,43.7500004172325,14|2,0:2|0:2,0:0:0:0:
352,216,107290,5,2,0:3:0:0:
384,224,107369,1,0,0:0:0:0:
416,232,107448,1,14,0:2:0:0:
464,248,107527,5,0,0:0:0:0:
424,280,107606,1,2,0:3:0:0:
376,304,107685,1,0,0:0:0:0:
328,328,107764,2,0,L|280:352,2,43.7500004172325
144,256,108080,5,6,1:2:0:0:
136,248,109027,5,2,0:0:0:0:
72,184,109659,5,2,0:0:0:0:
160,152,109817,1,2,0:0:0:0:
160,152,109975,1,2,0:0:0:0:
216,216,110132,1,2,0:0:0:0:
136,336,110290,1,2,0:0:0:0:
288,344,110606,5,2,0:0:0:0:
304,336,111553,5,2,0:0:0:0:
408,248,112343,5,2,0:0:0:0:
320,152,112501,2,0,L|304:176,3,25.0000009536744,2|0|0|0,0:0|0:0|0:0|0:0,0:0:0:0:
