osu file format v14

[General]
AudioFilename: overcomplexification.mp3
AudioLeadIn: 0
PreviewTime: 87869
Countdown: 0
SampleSet: Soft
StackLeniency: 0.7
Mode: 0
LetterboxInBreaks: 0
WidescreenStoryboard: 0

[Editor]
Bookmarks: 1981,12086,19665,22191,32296,42402,52507,62612,72717,77770,82823,87875,97981,108086
DistanceSpacing: 2.1
BeatDivisor: 4
GridSize: 4
TimelineZoom: 2.2

[Metadata]
Title:overcomplexification
TitleUnicode:overcomplexification
Artist:Camellia
ArtistUnicode:かめりあ
Creator:Ambient
Version:FCL's Hyper
Source:jubeat prop
Tags:eeezzzeee HB24 -Tochi FCL Strategas Nwolf Ntiger
BeatmapID:866621
BeatmapSetID:378212

[Difficulty]
HPDrainRate:5.5
CircleSize:4
OverallDifficulty:7
ApproachRate:9
SliderMultiplier:1.4
SliderTickRate:1

[Events]
//Background and Video events
0,0,"complex.jpg",0,0
//Break Periods
//Storyboard Layer 0 (Background)
//Storyboard Layer 1 (Fail)
//Storyboard Layer 2 (Pass)
//Storyboard Layer 3 (Foreground)
//Storyboard Sound Samples

[TimingPoints]
1975,315.789473684211,4,2,0,50,1,0
1975,-166.666666666667,4,2,0,50,0,0
4185,-66.6666666666667,4,2,0,50,0,0
4343,-166.666666666667,4,2,2,50,0,0
5764,-83.3333333333334,4,2,0,50,0,0
6080,-100,4,2,2,50,0,0
7027,-166.666666666667,4,2,2,50,0,0
9238,-66.6666666666667,4,2,0,50,0,0
9475,-83.3333333333333,4,2,2,50,0,0
12080,-125,4,2,2,50,0,0
14290,-66.6666666666667,4,2,0,50,0,0
14448,-125,4,2,2,50,0,0
15869,-83.3333333333333,4,2,0,50,0,0
16185,-66.6666666666667,4,2,2,50,0,0
17132,-83.3333333333333,4,2,2,80,0,0
19659,-125,4,2,2,50,0,0
21869,-166.666666666667,4,2,0,50,0,0
22185,-166.666666666667,4,2,69,50,0,0
22817,-83.3333333333333,4,2,69,50,0,0
27238,-166.666666666667,4,2,69,50,0,0
27869,-83.3333333333333,4,2,69,50,0,0
29764,-83.3333333333333,4,2,69,50,0,0
31975,-100,4,2,0,50,0,0
32290,-166.666666666667,4,2,69,50,0,0
32922,-83.3333333333334,4,2,69,50,0,0
34817,-166.666666666667,4,2,69,50,0,0
35448,-83.3333333333333,4,2,69,50,0,0
37343,-83.3333333333333,4,2,0,50,0,0
37659,-166.666666666667,4,2,0,50,0,0
37975,-83.3333333333333,4,2,0,50,0,0
38290,-83.3333333333333,4,2,0,50,0,0
38606,-83.3333333333333,4,2,0,50,0,0
38922,-166.666666666667,4,2,0,50,0,0
39869,-125,4,2,0,50,0,0
42396,-125,4,2,0,50,0,0
52501,-100,4,2,0,50,0,0
62290,-125,4,2,0,50,0,0
62606,-83.3333333333333,4,2,2,50,0,0
67343,-200,4,2,0,50,0,0
67659,-83.3333333333333,4,2,2,50,0,0
72080,-166.666666666667,4,2,0,50,0,0
73027,-166.666666666667,4,2,2,50,0,0
74922,-66.6666666666667,4,2,0,50,0,0
75159,-125,4,2,2,50,0,0
76501,-83.3333333333333,4,2,0,50,0,0
76817,-100,4,2,2,50,0,0
77764,-100,4,2,0,50,0,0
80290,-83.3333333333333,4,2,0,50,0,0
82817,-200,4,2,0,50,0,0
85343,-125,4,2,0,5,0,0
86606,-125,4,2,0,50,0,0
87553,-125,4,2,0,70,0,0
87869,-83.3333333333333,4,1,0,70,0,1
104922,-166.666666666667,4,2,0,70,0,1
105553,-83.3333333333334,4,1,0,70,0,1
108080,-166.666666666667,4,1,2,50,0,0
108396,-166.666666666667,4,2,2,50,0,0

[Colours]
Combo1 : 148,148,148
Combo2 : 128,255,255
Combo3 : 31,88,241
Combo4 : 245,163,10

[HitObjects]
72,320,1975,6,0,L|84:144,1,167.999994873047,2|0,0:0|0:0,0:0:0:0:
152,68,2922,1,2,0:0:0:0:
152,68,3553,5,0,0:0:0:0:
244,56,3711,1,0,0:0:0:0:
152,68,3869,1,0,0:0:0:0:
244,56,4027,1,0,0:0:0:0:
244,56,4185,6,0,B|236:96|236:96|252:120|252:120|240:184,1,105.000004005432,8|0,0:0|0:0,0:0:0:0:
170,204,4501,6,0,P|242:244|318:204,1,167.999994873047,2|0,0:0|0:0,0:0:0:0:
392,116,5448,2,0,L|388:192,1,62.9999980773926,2|0,0:0|0:0,0:0:0:0:
380,264,5764,6,0,P|412:260|456:264,1,41.9999987182618,2|0,0:0|0:0,0:0:0:0:
472,336,5922,2,0,P|440:340|396:336,1,41.9999987182618,2|0,0:0|0:0,0:0:0:0:
328,326,6080,6,0,P|300:278|323:209,1,105
355,171,6396,2,0,L|363:155,10,11.6666666666667
280,163,6711,2,0,P|237:169|205:156,1,70
98,206,7027,6,0,P|102:292|110:386,1,167.999994873047,2|0,0:0|0:0,0:0:0:0:
311,370,7975,1,2,0:0:0:0:
311,370,8606,5,0,0:0:0:0:
338,264,8764,1,0,0:0:0:0:
310,164,8922,1,0,0:0:0:0:
250,76,9080,1,0,0:0:0:0:
157,20,9238,6,0,B|117:12|117:12|89:28|89:28|61:12|5:28,1,157.500006008148,8|0,0:0|0:0,0:0:0:0:
256,192,9553,12,0,11764,0:0:0:0:
128,112,12080,5,0,0:0:0:0:
136,123,12396,1,0,0:0:0:0:
144,134,12711,1,0,0:0:0:0:
152,146,13027,1,0,0:0:0:0:
160,157,13343,1,0,0:0:0:0:
168,168,13659,1,0,0:0:0:0:
176,180,13975,1,0,0:0:0:0:
184,191,14290,6,0,B|216:208|216:208|308:188,1,105.000004005432,8|0,0:0|0:0,0:0:0:0:
384,112,14606,5,0,0:0:0:0:
375,123,14922,1,0,0:0:0:0:
367,134,15237,1,0,0:0:0:0:
359,146,15553,1,0,0:0:0:0:
351,157,15869,1,2,0:0:0:0:
343,168,16185,1,0,0:0:0:0:
335,180,16501,1,0,0:0:0:0:
327,191,16816,6,0,B|288:220|288:220|236:212|236:212|176:248,1,157.500006008148,0|0,0:0|0:0,0:0:0:0:
112,292,17132,6,0,L|68:320,3,41.9999987182618,2|0|0|0,0:0|0:0|0:0|0:0,0:0:0:0:
112,217,17448,2,0,L|147:194,3,41.9999987182618
25,215,17764,2,0,L|48:250,3,41.9999987182618
177,262,18080,2,0,L|200:297,3,41.9999987182618,2|0|0|0,0:0|0:0|0:0|0:0,0:0:0:0:
147,193,18396,6,0,L|124:158,1,41.9999987182618
206,141,18553,2,0,L|192:101,1,41.9999987182618
276,111,18711,2,0,L|273:69,1,41.9999987182618,2|0,0:0|0:0,0:0:0:0:
352,99,18869,2,0,L|360:57,1,41.9999987182618,2|0,0:0|0:0,0:0:0:0:
432,101,19027,6,0,L|444:73,16,20.9999993591309,2|0|0|0|2|0|0|0|2|0|0|0|0|0|0|0|4,0:0|0:0|0:0|0:0|0:0|0:0|0:0|0:0|0:0|0:0|0:0|0:0|0:0|0:0|0:0|0:0|0:0,0:0:0:0:
256,192,20922,12,0,21711,0:0:0:0:
104,144,21869,6,0,L|152:124,1,41.9999987182618,0|0,0:0|0:0,0:0:0:0:
240,84,22185,6,0,B|252:120|252:120|244:176,1,83.9999974365235,4|0,0:0|0:0,0:0:0:0:
220,256,22659,1,0,0:0:0:0:
124,308,22817,2,0,L|36:312,2,83.9999974365235,8|0|0,0:0|0:0|0:0,0:0:0:0:
220,256,23290,2,0,L|308:260,2,83.9999974365235,8|0|8,0:0|0:0|0:0,0:0:0:0:
124,204,23764,1,0,0:0:0:0:
160,136,23922,1,0,0:0:0:0:
60,92,24080,6,0,B|80:56|80:56|140:28,1,83.9999974365235,8|0,0:0|0:0,0:0:0:0:
139,41,24317,1,0,0:0:0:0:
160,45,24396,1,0,0:0:0:0:
180,48,24475,1,0,0:0:0:0:
201,51,24554,1,0,0:0:0:0:
222,47,24633,1,0,0:0:0:0:
242,43,24711,6,0,B|263:87|263:87|259:151,2,83.9999974365235
348,12,25185,1,0,0:0:0:0:
348,12,25264,1,0,0:0:0:0:
348,12,25343,2,0,L|360:84,2,41.9999987182618,4|0|0,0:0|0:0|0:0,0:0:0:0:
484,61,25659,1,0,0:0:0:0:
484,61,25817,6,0,L|508:165,1,83.9999974365235,4|0,0:0|0:0,0:0:0:0:
362,151,26132,1,0,0:0:0:0:
362,151,26290,2,0,L|338:255,1,83.9999974365235,4|0,0:0|0:0,0:0:0:0:
483,237,26606,1,0,0:0:0:0:
483,237,26764,2,0,L|507:341,1,83.9999974365235,4|0,0:0|0:0,0:0:0:0:
460,154,27080,1,0,0:0:0:0:
448,64,27238,6,0,P|396:60|352:68,1,83.9999974365235,4|0,0:0|0:0,0:0:0:0:
272,104,27711,1,0,0:0:0:0:
368,156,27869,2,0,L|372:264,2,83.9999974365235,8|0|0,0:0|0:0|0:0,0:0:0:0:
339,32,28343,1,8,0:0:0:0:
432,116,28501,1,0,0:0:0:0:
268,112,28659,1,8,0:0:0:0:
172,60,28817,5,0,0:0:0:0:
112,112,28975,1,0,0:0:0:0:
268,112,29132,2,0,L|336:56,1,83.9999974365235,8|0,0:0|0:0,0:0:0:0:
347,43,29369,1,0,0:0:0:0:
362,29,29448,1,0,0:0:0:0:
378,16,29527,1,0,0:0:0:0:
399,16,29606,1,0,0:0:0:0:
420,16,29685,1,0,0:0:0:0:
441,16,29764,6,0,P|460:56|448:112,1,83.9999974365235,2|2,0:0|0:0,0:0:0:0:
408,224,30080,2,0,P|389:184|401:128,1,83.9999974365235,2|0,0:0|0:0,0:0:0:0:
316,16,30396,2,0,P|334:56|322:112,1,83.9999974365235,2|0,0:0|0:0,0:0:0:0:
282,224,30712,2,0,P|263:184|275:128,1,83.9999974365235,2|0,0:0|0:0,0:0:0:0:
288,48,31027,6,0,L|192:44,1,83.9999974365235,2|2,0:0|0:0,0:0:0:0:
88,120,31343,2,0,L|184:124,1,83.9999974365235,2|2,0:0|0:0,0:0:0:0:
296,200,31659,2,0,L|200:196,1,83.9999974365235,2|0,0:0|0:0,0:0:0:0:
104,272,31975,6,0,P|116:316|100:364,1,70,12|0,0:0|0:0,0:0:0:0:
104,272,32290,6,0,L|200:276,1,83.9999974365235,4|0,0:0|0:0,0:0:0:0:
320,280,32764,1,0,0:0:0:0:
260,188,32922,6,0,B|244:156|244:156|260:100,1,83.9999974365235,8|0,0:0|0:0,0:0:0:0:
264,90,33159,1,0,0:0:0:0:
272,70,33238,1,0,0:0:0:0:
372,28,33396,1,8,0:0:0:0:
332,144,33554,5,0,0:0:0:0:
400,100,33711,1,8,0:0:0:0:
312,224,33869,2,0,P|268:195|251:146,1,83.9999974365235
332,24,34185,2,0,L|232:20,1,83.9999974365235,8|0,0:0|0:0,0:0:0:0:
165,59,34501,1,0,0:0:0:0:
153,76,34580,1,0,0:0:0:0:
146,96,34659,1,0,0:0:0:0:
144,117,34738,1,0,0:0:0:0:
146,137,34817,6,0,B|196:128|196:128|232:136|232:136|264:120|307:134,1,146.999995513916
311,133,35448,1,4,0:0:0:0:
330,140,35527,1,0,0:0:0:0:
347,151,35606,1,0,0:0:0:0:
361,167,35685,1,0,0:0:0:0:
370,186,35764,6,0,L|472:192,2,83.9999974365235,0|4|0,0:0|0:0|0:0,0:0:0:0:
272,280,36238,2,0,L|170:285,2,83.9999974365235,0|4|0,0:0|0:0|0:0,0:0:0:0:
392,340,36711,2,0,L|493:345,2,83.9999974365235,0|4|0,0:0|0:0|0:0,0:0:0:0:
260,364,37185,1,0,0:0:0:0:
312,220,37343,6,0,L|320:92,1,125.999996154785,4|0,0:0|0:0,0:0:0:0:
319,94,37659,6,0,P|280:96|248:84,1,62.9999980773926,4|0,0:0|0:0,0:0:0:0:
240,76,37975,6,0,B|206:55|206:55|154:51,1,83.9999974365235,4|0,0:0|0:0,0:0:0:0:
28,112,38290,6,0,L|20:240,1,125.999996154785,4|0,0:0|0:0,0:0:0:0:
32,256,38606,6,0,B|72:251|72:251|96:267|96:267|120:255|120:255|180:251,1,125.999996154785,2|0,0:0|0:0,0:0:0:0:
216,240,38922,5,4,0:0:0:0:
216,240,39238,5,4,0:0:0:0:
160,344,39448,5,4,0:0:0:0:
56,286,39659,5,4,0:0:0:0:
113,183,39869,5,4,0:0:0:0:
52,246,41764,6,0,L|47:190,1,56
172,65,42080,2,0,L|167:120,1,56
62,103,42396,6,0,B|98:127|98:127|178:119,1,112,4|0,0:0|0:0,0:0:0:0:
224,23,42869,1,0,0:0:0:0:
288,104,43027,2,0,L|284:184,2,56
392,136,43501,2,0,L|388:252,1,112
284,308,43975,6,0,L|264:316,8,14
388,247,44448,5,0,0:0:0:0:
404,132,44606,1,0,0:0:0:0:
406,118,44684,1,0,0:0:0:0:
408,104,44763,1,0,0:0:0:0:
407,90,44842,1,0,0:0:0:0:
404,76,44922,6,0,L|284:72,1,112,4|0,0:0|0:0,0:0:0:0:
188,168,45396,2,0,P|208:224|184:280,1,112
96,352,45869,1,0,0:0:0:0:
128,224,46027,1,0,0:0:0:0:
92,100,46185,6,0,L|84:76,6,14
152,144,46501,6,0,P|184:148|216:144,1,56
324,56,46817,2,0,P|292:52|260:56,1,56,0|0,0:0|0:0,0:0:0:0:
169,92,47132,1,0,0:0:0:0:
162,104,47210,1,0,0:0:0:0:
157,117,47289,1,0,0:0:0:0:
154,131,47368,1,0,0:0:0:0:
152,144,47448,6,0,L|156:276,1,112,4|0,0:0|0:0,0:0:0:0:
256,328,47922,1,0,0:0:0:0:
336,240,48080,2,0,P|368:236|416:248,2,56
171,331,48553,2,0,P|75:259|171:179,1,280
155,255,49659,6,0,L|231:259,1,56
340,256,49975,1,4,0:0:0:0:
412,172,50132,1,0,0:0:0:0:
304,148,50290,1,0,0:0:0:0:
340,256,50448,2,0,P|384:276|456:248,1,112,0|0,0:0|0:0,0:0:0:0:
488,120,50922,1,0,0:0:0:0:
488,120,51080,6,0,L|360:116,1,112,0|0,0:0|0:0,0:0:0:0:
248,112,51553,1,0,0:0:0:0:
348,196,51711,2,0,P|368:248|340:320,1,112,0|0,0:0|0:0,0:0:0:0:
232,344,52185,1,0,0:0:0:0:
218,344,52263,1,0,0:0:0:0:
204,345,52342,1,0,0:0:0:0:
190,345,52421,1,0,0:0:0:0:
176,346,52501,6,0,L|188:124,1,210,4|0,0:0|0:0,0:0:0:0:
192,32,53132,1,0,0:0:0:0:
96,76,53290,1,0,0:0:0:0:
188,136,53448,1,0,0:0:0:0:
320,72,53606,2,0,P|376:64|440:76,1,105,0|0,0:0|0:0,0:0:0:0:
440,76,53922,1,0,0:0:0:0:
384,184,54080,5,0,0:0:0:0:
380,220,54238,1,0,0:0:0:0:
376,256,54396,1,0,0:0:0:0:
372,292,54553,1,0,0:0:0:0:
280,340,54711,5,0,0:0:0:0:
263,344,54789,1,0,0:0:0:0:
245,347,54868,1,0,0:0:0:0:
228,347,54947,1,0,0:0:0:0:
211,345,55027,6,0,L|204:144,1,175,4|0,0:0|0:0,0:0:0:0:
204,152,55501,2,0,P|256:168|324:156,1,105
324,156,55817,1,0,0:0:0:0:
320,24,55975,1,0,0:0:0:0:
196,12,56132,1,0,0:0:0:0:
196,12,56290,6,0,L|204:160,1,140
212,256,56764,1,0,0:0:0:0:
296,192,56922,2,0,P|340:180|396:192,1,70,0|0,0:0|0:0,0:0:0:0:
460,228,57238,1,0,0:0:0:0:
465,244,57316,1,0,0:0:0:0:
468,261,57395,1,0,0:0:0:0:
466,279,57474,1,0,0:0:0:0:
461,295,57553,6,0,B|368:312|368:312|232:296,1,210,4|0,0:0|0:0,0:0:0:0:
128,224,58185,2,0,L|124:128,1,70,0|0,0:0|0:0,0:0:0:0:
248,108,58501,2,0,L|252:12,1,70,0|0,0:0|0:0,0:0:0:0:
396,136,58817,2,0,P|388:184|400:224,1,70,0|0,0:0|0:0,0:0:0:0:
456,328,59132,5,0,0:0:0:0:
420,336,59290,1,0,0:0:0:0:
384,344,59448,1,0,0:0:0:0:
348,352,59606,1,0,0:0:0:0:
204,296,59764,6,0,L|196:212,1,70,0|0,0:0|0:0,0:0:0:0:
256,88,60080,2,0,P|304:72|348:80,2,70,2|0|0,0:0|0:0|0:0,0:0:0:0:
384,24,60553,2,0,P|400:64|339:147,1,140
236,180,61027,2,0,L|148:176,1,70
104,136,61264,1,0,0:0:0:0:
104,136,61343,6,0,P|108:180|68:252,1,105,2|0,0:0|0:0,0:0:0:0:
56,256,61659,1,0,0:0:0:0:
136,344,61817,2,0,L|284:348,1,140
304,176,62290,2,0,L|224:172,1,56,0|0,0:0|0:0,0:0:0:0:
112,152,62606,6,0,L|60:140,3,41.9999987182618,2|0|0|0,0:0|0:0|0:0|0:0,0:0:0:0:
124,229,62922,2,0,L|176:217,3,41.9999987182618
68,293,63238,2,0,L|108:302,3,41.9999987182618
108,378,63553,2,0,L|148:368,3,41.9999987182618,2|0|0|0,0:0|0:0|0:0|0:0,0:0:0:0:
183,259,63869,6,0,L|195:207,1,41.9999987182618
223,235,64027,2,0,L|235:183,1,41.9999987182618,2|0,0:0|0:0,0:0:0:0:
184,82,64185,6,0,L|172:134,1,41.9999987182618,2|0,0:0|0:0,0:0:0:0:
144,106,64343,2,0,L|132:158,1,41.9999987182618,0|0,0:0|0:0,0:0:0:0:
87,223,64501,6,0,L|127:271,1,41.9999987182618
148,234,64659,2,0,L|199:270,1,41.9999987182618,2|0,0:0|0:0,0:0:0:0:
281,336,64817,6,0,L|338:314,1,41.9999987182618,2|0,0:0|0:0,0:0:0:0:
336,286,64975,2,0,L|386:249,1,41.9999987182618
495,219,65132,6,0,L|503:167,2,41.9999987182618
406,331,65448,2,0,L|398:383,2,41.9999987182618
354,190,65764,1,0,0:0:0:0:
346,182,65843,1,0,0:0:0:0:
240,140,66001,1,0,0:0:0:0:
240,140,66080,1,0,0:0:0:0:
240,140,66159,2,0,L|236:260,1,83.9999974365235,0|0,0:0|0:0,0:0:0:0:
176,356,66475,5,0,0:0:0:0:
168,360,66553,1,0,0:0:0:0:
100,276,66711,1,0,0:0:0:0:
100,276,66790,2,0,L|96:160,1,83.9999974365235,0|0,0:0|0:0,0:0:0:0:
140,56,67106,1,0,0:0:0:0:
152,48,67185,1,0,0:0:0:0:
272,20,67343,6,0,L|268:84,1,52.5,0|0,0:0|0:0,0:0:0:0:
264,168,67659,6,0,L|260:216,3,41.9999987182618,2|0|0|0,0:0|0:0|0:0|0:0,0:0:0:0:
340,120,67975,2,0,L|344:72,3,41.9999987182618,0|0|0|0,0:0|0:0|0:0|0:0,0:0:0:0:
332,200,68290,2,0,L|373:203,3,41.9999987182618,0|0|0|0,0:0|0:0|0:0|0:0,0:0:0:0:
268,92,68606,2,0,L|226:88,3,41.9999987182618,2|0|0|0,0:0|0:0|0:0|0:0,0:0:0:0:
88,88,68922,6,0,P|76:112|72:144,1,41.9999987182618
108,116,69080,2,0,P|96:140|92:172,1,41.9999987182618,2|0,0:0|0:0,0:0:0:0:
147,233,69238,6,0,P|159:209|163:177,1,41.9999987182618
167,261,69396,2,0,P|179:237|183:205,1,41.9999987182618,2|0,0:0|0:0,0:0:0:0:
227,125,69553,6,0,P|242:111|262:103,1,41.9999987182618,2|0,0:0|0:0,0:0:0:0:
227,81,69711,2,0,P|242:67|262:59,1,41.9999987182618
369,113,69869,6,0,P|349:129|317:137,1,41.9999987182618,2|0,0:0|0:0,0:0:0:0:
377,153,70027,2,0,P|357:169|325:177,1,41.9999987182618
268,231,70185,6,0,L|260:291,2,41.9999987182618
227,81,70501,2,0,L|235:21,2,41.9999987182618
109,217,70817,1,0,0:0:0:0:
204,269,70896,1,0,0:0:0:0:
239,160,71053,1,0,0:0:0:0:
239,160,71132,1,0,0:0:0:0:
239,160,71211,2,0,L|351:156,1,83.9999974365235
394,188,71448,6,0,L|399:222,6,20.9999993591309,0|8|0|0|0|0|0,0:0|0:3|0:0|0:0|0:0|0:0|0:0,0:0:0:0:
372,292,71764,1,0,0:0:0:0:
364,300,71843,2,0,L|280:297,1,83.9999974365235
270,309,72080,1,0,0:0:0:0:
220,252,72711,6,0,L|224:68,1,167.999994873047,2|0,0:0|0:0,0:0:0:0:
340,32,73659,1,2,0:0:0:0:
340,32,74290,5,0,0:0:0:0:
430,49,74448,1,0,0:0:0:0:
413,140,74606,1,0,0:0:0:0:
322,122,74764,1,0,0:0:0:0:
340,32,74922,6,2,B|305:41|281:31|281:31|250:40|250:40|216:36|216:36|241:91,1,157.500006008148,10|2,0:0|0:0,0:0:0:0:
220,144,75238,6,0,P|212:232|320:320,1,224,2|0,0:0|0:0,0:0:0:0:
472,344,76185,1,2,0:0:0:0:
472,344,76501,6,0,L|464:272,1,41.9999987182618,2|0,0:0|0:0,0:0:0:0:
380,216,76659,2,0,L|388:288,1,41.9999987182618,2|0,0:0|0:0,0:0:0:0:
360,344,76817,2,0,L|196:356,2,140
496,184,77764,6,0,L|424:184,1,70,2|0,0:0|0:0,0:0:0:0:
364,96,78080,2,0,L|294:114,1,70
216,48,78396,2,0,L|153:84,1,70,0|0,0:0|0:0,0:0:0:0:
52,72,78711,2,0,L|1:122,1,70,2|0,0:0|0:0,0:0:0:0:
56,256,79027,6,0,P|96:260|140:244,1,70
152,356,79343,2,0,P|191:349|230:322,1,70,2|2,0:0|0:0,0:0:0:0:
460,256,79659,6,0,P|420:260|376:244,1,70,2|2,0:0|0:0,0:0:0:0:
364,356,79975,2,0,P|324:349|285:322,1,70,2|2,0:0|0:0,0:0:0:0:
216,200,80290,6,0,L|200:148,3,41.9999987182618,8|0|0|0,0:0|0:0|0:0|0:0,0:0:0:0:
308,159,80606,2,0,L|296:200,3,41.9999987182618,8|0|0|0,0:0|0:0|0:0|0:0,0:0:0:0:
205,193,80922,6,0,L|189:141,3,41.9999987182618,8|0|0|0,0:0|0:0|0:0|0:0,0:0:0:0:
322,153,81238,2,0,L|309:193,3,41.9999987182618,8|0|0|0,0:0|0:0|0:0|0:0,0:0:0:0:
280,284,81553,5,8,0:0:0:0:
265,299,81631,1,0,0:0:0:0:
248,311,81710,1,0,0:0:0:0:
229,320,81789,1,8,0:0:0:0:
209,325,81869,2,0,L|160:328,3,41.9999987182618,0|0|8|0,0:0|0:0|0:0|0:0,0:0:0:0:
76,288,82185,5,0,0:0:0:0:
63,271,82263,1,8,0:0:0:0:
54,252,82342,1,0,0:0:0:0:
52,231,82421,1,0,0:0:0:0:
55,210,82501,2,0,L|64:160,3,41.9999987182618,8|0|8|0,0:0|0:0|0:0|0:0,0:0:0:0:
84,84,82817,6,0,B|132:88|168:48|168:48|192:116|192:116|262:74|368:88|386:185|375:255|350:273|301:308|257:310,1,560,4|0,0:0|0:0,0:0:0:0:
256,192,85422,12,0,87396,0:0:0:0:
88,124,87553,6,0,L|176:120,1,84,2|0,0:0|0:0,0:0:0:0:
264,120,87869,6,0,P|284:180|264:268,1,125.999996154785,2|0,0:0|0:0,0:0:0:0:
244,268,88185,2,0,L|128:272,1,83.9999974365235,2|0,0:0|0:0,0:0:0:0:
46,126,88501,2,0,L|181:119,1,125.999996154785,2|0,0:0|0:0,0:0:0:0:
212,112,88817,2,0,P|228:64|200:12,1,83.9999974365235,2|0,0:0|0:0,0:0:0:0:
112,172,89132,6,0,B|124:224|124:224|112:316,1,125.999996154785,2|0,0:0|0:0,0:0:0:0:
92,332,89448,2,0,P|140:316|204:340,1,83.9999974365235,2|0,0:0|0:0,0:0:0:0:
340,368,89764,1,2,0:0:0:0:
364,288,89922,1,0,0:0:0:0:
276,168,90080,1,2,0:0:0:0:
252,88,90238,1,0,0:0:0:0:
408,16,90396,6,0,L|404:152,1,125.999996154785,4|0,0:0|0:0,0:0:0:0:
392,180,90711,2,0,P|360:208|368:280,1,83.9999974365235,4|0,0:0|0:0,0:0:0:0:
432,352,91027,2,0,L|312:344,1,83.9999974365235,4|0,0:0|0:0,0:0:0:0:
172,332,91343,1,4,0:0:0:0:
256,316,91501,1,0,0:0:0:0:
96,252,91659,6,0,P|64:216|76:120,1,125.999996154785,2|2,0:0|0:0,0:0:0:0:
92,112,91975,2,0,L|204:104,1,83.9999974365235,0|2,0:0|0:0,0:0:0:0:
179,257,92290,2,0,L|95:251,1,83.9999974365235,0|0,0:0|0:0,0:0:0:0:
62,141,92606,1,0,0:0:0:0:
53,121,92684,1,0,0:0:0:0:
50,101,92763,1,0,0:0:0:0:
51,80,92842,1,0,0:0:0:0:
56,59,92922,6,0,B|102:45|102:45|206:53,1,125.999996154785,6|0,0:0|0:0,0:0:0:0:
222,61,93238,2,0,P|190:113|210:157,1,83.9999974365235,2|0,0:0|0:0,0:0:0:0:
224,284,93553,2,0,B|270:298|270:298|374:290,1,125.999996154785,2|0,0:0|0:0,0:0:0:0:
380,264,93869,2,0,P|379:222|351:192,1,83.9999974365235,2|0,0:0|0:0,0:0:0:0:
193,132,94185,6,0,B|169:52|169:52|241:60,1,125.999996154785,2|0,0:0|0:0,0:0:0:0:
253,68,94501,2,0,P|285:76|353:56,1,83.9999974365235,2|0,0:0|0:0,0:0:0:0:
472,8,94817,1,0,0:0:0:0:
460,92,94975,1,0,0:0:0:0:
316,236,95132,1,2,0:0:0:0:
328,152,95290,1,0,0:0:0:0:
208,24,95448,6,0,L|188:180,1,125.999996154785,4|0,0:0|0:0,0:0:0:0:
164,184,95764,2,0,P|156:240|192:272,2,83.9999974365235,4|0|4,0:0|0:0|0:0,0:0:0:0:
252,92,96238,1,0,0:0:0:0:
112,128,96396,1,4,0:0:0:0:
256,188,96553,1,0,0:0:0:0:
356,104,96711,6,0,L|488:96,1,125.999996154785,2|2,0:0|0:0,0:0:0:0:
508,132,97027,2,0,L|456:136,1,41.9999987182618
372,216,97185,2,0,L|424:212,1,41.9999987182618,2|0,0:0|0:0,0:0:0:0:
504,288,97343,2,0,L|420:296,1,83.9999974365235,0|0,0:0|0:0,0:0:0:0:
400,301,97580,1,0,0:0:0:0:
379,302,97660,1,0,0:0:0:0:
358,299,97739,1,0,0:0:0:0:
339,292,97818,1,0,0:0:0:0:
321,280,97897,1,0,0:0:0:0:
306,265,97975,6,0,P|300:216|335:119,1,125.999996154785,6|0,0:0|0:0,0:0:0:0:
344,108,98290,2,0,L|228:96,1,83.9999974365235,2|0,0:0|0:0,0:0:0:0:
44,152,98606,2,0,P|88:200|156:188,1,125.999996154785,2|0,0:0|0:0,0:0:0:0:
180,172,98922,2,0,L|168:276,1,83.9999974365235,2|0,0:0|0:0,0:0:0:0:
308,372,99238,6,0,L|325:224,1,125.999996154785,2|0,0:0|0:0,0:0:0:0:
360,228,99553,2,0,L|372:116,1,83.9999974365235,2|0,0:0|0:0,0:0:0:0:
380,0,99869,1,0,0:0:0:0:
312,48,100027,1,0,0:0:0:0:
504,104,100185,1,2,0:0:0:0:
488,20,100343,1,0,0:0:0:0:
368,144,100501,6,0,P|296:168|232:160,1,125.999996154785,4|0,0:0|0:0,0:0:0:0:
204,172,100817,2,0,P|208:232|176:276,1,83.9999974365235,4|0,0:0|0:0,0:0:0:0:
60,336,101132,2,0,P|56:276|88:232,1,83.9999974365235,6|0,0:0|0:0,0:0:0:0:
204,172,101448,1,4,0:0:0:0:
128,136,101606,1,0,0:0:0:0:
64,256,101764,6,0,B|112:276|112:276|212:264,1,125.999996154785,2|0,0:0|0:0,0:0:0:0:
216,300,102080,2,0,L|320:288,1,83.9999974365235,2|0,0:0|0:0,0:0:0:0:
436,168,102396,2,0,L|424:64,1,83.9999974365235,0|0,0:0|0:0,0:0:0:0:
276,16,102711,1,0,0:0:0:0:
255,16,102789,1,0,0:0:0:0:
234,22,102868,1,0,0:0:0:0:
217,33,102947,1,0,0:0:0:0:
203,48,103027,6,0,B|212:164,1,83.9999974365235,4|0,0:0|0:0,0:0:0:0:
252,200,103264,2,0,P|292:188|408:208,1,125.999996154785,4|4,0:0|0:0,0:0:0:0:
488,76,103659,2,0,L|380:68,1,83.9999974365235,4|0,0:0|0:0,0:0:0:0:
352,12,103896,2,0,P|328:72|360:132,1,125.999996154785,4|0,0:0|0:0,0:0:0:0:
456,244,104290,6,0,L|492:288,2,41.9999987182618,4|0|0,0:0|0:0|0:0,0:0:0:0:
388,284,104527,2,0,B|444:356|444:356|384:340,1,125.999996154785,4|0,0:0|0:0,0:0:0:0:
264,300,104922,6,0,B|220:288|220:288|192:296|192:296|176:288|176:288|144:292|144:292|112:276,1,146.999995513916,0|0,0:0|0:0,0:0:0:0:
60,228,105553,6,0,P|56:184|64:120,1,83.9999974365235,2|0,0:0|0:0,0:0:0:0:
196,24,105869,2,0,P|200:68|192:132,1,83.9999974365235,2|0,0:0|0:0,0:0:0:0:
164,248,106185,1,2,0:0:0:0:
244,220,106343,1,0,0:0:0:0:
117,75,106501,1,0,0:0:0:0:
197,107,106659,1,0,0:0:0:0:
164,248,106817,6,0,L|156:308,3,41.9999987182618,2|0|2|0,0:0|0:0|0:0|0:0,0:0:0:0:
264,184,107132,2,0,L|272:124,3,41.9999987182618,2|0|0|0,0:0|0:0|0:0|0:0,0:0:0:0:
343,28,107448,6,0,L|337:69,1,41.9999987182618,2|0,0:0|0:0,0:0:0:0:
388,142,107606,2,0,L|382:183,1,41.9999987182618
442,249,107764,2,0,L|436:290,1,41.9999987182618,2|0,0:0|0:0,0:0:0:0:
421,378,107922,1,0,0:0:0:0:
323,310,108080,6,0,B|263:314|263:314|147:286,1,167.999994873047,0|0,0:0|0:0,0:0:0:0:
124,172,109027,1,2,0:0:0:0:
124,172,109659,5,2,0:0:0:0:
212,120,109817,1,2,0:0:0:0:
304,156,109975,1,2,0:0:0:0:
380,92,110132,1,2,0:0:0:0:
480,108,110290,1,2,0:0:0:0:
420,300,110606,6,0,B|360:288|360:288|240:304,1,167.999994873047,2|0,0:0|0:0,0:0:0:0:
140,324,111553,1,2,0:0:0:0:
140,324,112343,5,2,0:0:0:0:
192,236,112501,2,0,L|204:212,3,13.9999995727539
