osu file format v14

[General]
AudioFilename: overcomplexification.mp3
AudioLeadIn: 0
PreviewTime: 87869
Countdown: 0
SampleSet: Soft
StackLeniency: 0.3
Mode: 0
LetterboxInBreaks: 0
WidescreenStoryboard: 0

[Editor]
Bookmarks: 12080,22185,42396,62606,72080
DistanceSpacing: 0.5
BeatDivisor: 4
GridSize: 8
TimelineZoom: 2.5

[Metadata]
Title:overcomplexification
TitleUnicode:overcomplexification
Artist:Camellia
ArtistUnicode:かめりあ
Creator:Ambient
Version:-Tochi's Complex
Source:jubeat prop
Tags:eeezzzeee HB24 -Tochi FCL Strategas Nwolf Ntiger
BeatmapID:863563
BeatmapSetID:378212

[Difficulty]
HPDrainRate:6
CircleSize:4
OverallDifficulty:8.8
ApproachRate:9.6
SliderMultiplier:1.9
SliderTickRate:1

[Events]
//Background and Video events
0,0,"complex.jpg",0,0
//Break Periods
//Storyboard Layer 0 (Background)
//Storyboard Layer 1 (Fail)
//Storyboard Layer 2 (Pass)
//Storyboard Layer 3 (Foreground)
//Storyboard Sound Samples

[TimingPoints]
1975,315.789473684211,4,2,10,35,1,0
1975,-200,4,2,10,35,0,0
4185,-142.857142857143,4,2,10,35,0,0
4501,-200,4,2,10,35,0,0
4817,-200,4,2,10,10,0,0
5448,-200,4,2,10,10,0,0
5685,-200,4,2,10,5,0,0
5764,-125,4,2,10,35,0,0
6711,-90.9090909090909,4,2,10,35,0,0
7027,-200,4,2,10,35,0,0
9238,-142.857142857143,4,2,10,35,0,0
10185,-200,4,2,10,35,0,0
11448,-142.857142857143,4,2,10,35,0,0
11685,-142.857142857143,4,2,10,5,0,0
11764,-111.111111111111,4,2,10,35,0,0
12001,-111.111111111111,4,2,10,5,0,0
12080,-100,4,3,10,35,0,0
14290,-90.9090909090909,4,2,10,35,0,0
14606,-100,4,3,10,35,0,0
15869,-76.9230769230769,4,2,10,35,0,0
16185,-142.857142857143,4,2,10,35,0,0
16501,-100,4,2,10,35,0,0
17132,-83.3333333333333,4,3,10,35,0,0
19659,-125,4,2,10,35,0,0
20396,-125,4,2,10,5,0,0
20606,-166.666666666667,4,2,10,35,0,0
20685,-166.666666666667,4,2,10,5,0,0
20764,-166.666666666667,4,2,10,35,0,0
20843,-166.666666666667,4,2,10,5,0,0
20922,-100,4,2,10,35,0,0
21080,-76.9230769230769,4,2,10,35,0,0
21396,-100,4,2,10,35,0,0
21869,-142.857142857143,4,1,10,35,0,0
22106,-142.857142857143,4,1,10,5,0,0
22185,-142.857142857143,4,1,10,45,0,0
22580,-142.857142857143,4,1,10,45,0,0
22659,-142.857142857143,4,1,10,45,0,0
22817,-100,4,1,10,45,0,0
24396,-66.6666666666667,4,1,10,45,0,0
27238,-142.857142857143,4,1,10,45,0,0
27632,-142.857142857143,4,1,10,45,0,0
27711,-142.857142857143,4,1,10,45,0,0
28027,-100,4,1,10,45,0,0
29764,-100,4,3,10,45,0,0
30396,-83.3333333333333,4,3,10,45,0,0
30632,-83.3333333333333,4,3,10,5,0,0
30711,-83.3333333333333,4,3,10,45,0,0
30790,-83.3333333333333,4,3,10,5,0,0
30869,-83.3333333333333,4,3,10,45,0,0
30948,-83.3333333333333,4,3,10,5,0,0
31027,-125,4,3,10,45,0,0
31264,-125,4,3,10,45,0,0
31343,-125,4,3,10,45,0,0
31659,-111.111111111111,4,3,10,45,0,0
31896,-111.111111111111,4,2,10,45,0,0
32290,-142.857142857143,4,1,10,45,0,0
32685,-142.857142857143,4,1,10,45,0,0
32764,-100,4,1,10,45,0,0
34817,-200,4,1,10,45,0,0
35369,-200,4,1,10,5,0,0
35448,-200,4,1,10,45,0,0
36396,-71.4285714285714,4,1,10,45,0,0
37343,-90.9090909090909,4,3,10,45,0,0
37580,-90.9090909090909,4,3,10,5,0,0
37659,-71.4285714285714,4,1,10,45,0,0
37975,-71.4285714285714,4,3,10,45,0,0
38132,-71.4285714285714,4,2,10,45,0,0
38290,-71.4285714285714,4,3,10,45,0,0
38606,-90.9090909090909,4,3,10,45,0,0
38843,-90.9090909090909,4,1,10,45,0,0
38922,-80,4,3,10,45,0,0
39159,-80,4,1,10,5,0,0
39238,-71.4285714285714,4,1,10,45,0,0
39396,-71.4285714285714,4,1,10,5,0,0
39448,-90.9090909090909,4,1,10,45,0,0
39606,-90.9090909090909,4,1,10,5,0,0
39659,-76.9230769230769,4,1,10,45,0,0
39817,-76.9230769230769,4,1,10,5,0,0
39869,-76.9230769230769,4,1,10,45,0,0
40501,-100,4,1,10,45,0,0
41132,-58.8235294117647,4,1,10,45,0,0
41448,-111.111111111111,4,3,10,45,0,0
41685,-111.111111111111,4,1,10,45,0,0
41764,-111.111111111111,4,2,10,45,0,0
42396,-125,4,2,11,45,0,0
43501,-200,4,2,10,45,0,0
43975,-100,4,2,10,45,0,0
44922,-125,4,2,10,45,0,0
45317,-125,4,2,10,45,0,0
45396,-125,4,2,10,45,0,0
45553,-100,4,2,11,45,0,0
46185,-58.8235294117647,4,2,10,45,0,0
47448,-125,4,2,10,45,0,0
48080,-83.3333333333333,4,2,11,45,0,0
48553,-200,4,2,10,45,0,0
49027,-76.9230769230769,4,2,10,45,0,0
49975,-142.857142857143,4,2,10,45,0,0
50606,-100,4,2,11,45,0,0
50843,-100,4,2,10,5,0,0
50922,-100,4,2,11,45,0,0
51159,-71.4285714285714,4,2,10,45,0,0
51317,-71.4285714285714,4,2,10,25,0,0
51396,-90.9090909090909,4,2,11,45,0,0
52501,-125,4,2,10,45,0,0
53132,-125,4,2,11,45,0,0
55027,-125,4,2,10,45,0,0
55659,-100,4,2,11,45,0,0
55896,-100,4,2,10,5,0,0
55975,-100,4,2,11,45,0,0
56764,-100,4,2,11,20,0,0
56843,-100,4,2,11,30,0,0
56922,-100,4,2,11,45,0,0
57948,-100,4,2,10,5,0,0
58027,-100,4,2,11,45,0,0
60080,-125,4,2,10,45,0,0
60553,-100,4,2,10,45,0,0
60790,-100,4,2,10,5,0,0
60869,-100,4,2,11,45,0,0
61580,-100,4,2,10,5,0,0
61659,-100,4,2,11,45,0,0
62053,-100,4,2,10,5,0,0
62132,-100,4,2,11,45,0,0
62290,-100,4,2,10,45,0,0
62606,-76.9230769230769,4,3,10,45,0,0
64975,-90.9090909090909,4,3,10,45,0,0
65132,-76.9230769230769,4,3,10,45,0,0
66159,-100,4,3,10,45,0,0
66869,-76.9230769230769,4,3,10,45,0,0
70027,-90.9090909090909,4,3,10,45,0,0
70185,-76.9230769230769,4,3,10,45,0,0
71211,-100,4,3,10,45,0,0
72080,-200,4,3,10,45,0,0
72632,-200,4,2,10,5,0,0
72711,-200,4,2,10,30,0,0
74922,-142.857142857143,4,2,10,30,0,0
75238,-200,4,2,10,30,0,0
75553,-200,4,2,10,10,0,0
76185,-200,4,2,10,10,0,0
76422,-200,4,2,10,5,0,0
76501,-100,4,2,10,35,0,0
76817,-125,4,2,10,35,0,0
77053,-125,4,2,10,5,0,0
77132,-125,4,2,11,35,0,0
77764,-100,4,3,10,35,0,0
79027,-76.9230769230769,4,3,10,35,0,0
80290,-76.9230769230769,4,2,11,35,0,0
80922,-66.6666666666667,4,2,11,35,0,0
81238,-58.8235294117647,4,2,11,35,0,0
81553,-71.4285714285714,4,2,11,35,0,0
81711,-71.4285714285714,4,2,11,5,0,0
81790,-71.4285714285714,4,2,11,35,0,0
81948,-71.4285714285714,4,2,11,5,0,0
82027,-71.4285714285714,4,2,11,35,0,0
82185,-71.4285714285714,4,2,11,5,0,0
82264,-71.4285714285714,4,2,11,35,0,0
82422,-71.4285714285714,4,2,11,5,0,0
82501,-71.4285714285714,4,2,11,35,0,0
85264,-71.4285714285714,4,2,10,5,0,0
85343,-125,4,2,10,35,0,0
85975,-83.3333333333333,4,2,10,35,0,0
86606,-83.3333333333333,4,2,10,35,0,0
87553,-83.3333333333333,4,2,11,35,0,0
87869,-83.3333333333333,4,2,10,50,0,1
97975,-76.9230769230769,4,2,10,50,0,1
103027,-66.6666666666667,4,2,10,50,0,1
104922,-125,4,2,10,50,0,1
105475,-125,4,2,10,5,0,1
105553,-66.6666666666667,4,2,10,50,0,1
107764,-125,4,2,10,40,0,1
108080,-100,4,2,10,35,0,0
112501,-200,4,2,10,15,0,0

[Colours]
Combo1 : 185,149,74
Combo2 : 48,113,177
Combo3 : 70,120,202
Combo4 : 57,167,208

[HitObjects]
305,327,1975,5,2,0:0:0:0:
340,204,2922,1,2,0:0:0:0:
340,204,3553,5,2,0:0:0:0:
215,217,3711,1,2,0:0:0:0:
340,216,3869,5,2,0:0:0:0:
214,204,4027,1,2,0:0:0:0:
378,131,4185,6,0,L|402:135,4,22.1666659901937,0|0|0|0|0,0:0|0:0|0:0|0:0|0:0,0:0:0:0:
311,66,4501,6,0,L|205:68,1,95,2|0,0:0|0:0,0:0:0:0:
310,77,5448,6,0,L|231:79,1,71.25,2|0,0:0|0:0,0:0:0:0:
166,154,5764,6,0,L|211:157,1,38,2|0,0:0|0:0,0:0:0:0:
317,229,5922,2,0,L|272:232,1,38,2|0,0:0|0:0,0:0:0:0:
165,268,6080,1,2,0:0:0:0:
316,345,6238,1,0,0:0:0:0:
346,155,6396,1,0,0:0:0:0:
346,155,6475,1,0,0:0:0:0:
346,155,6553,1,0,0:0:0:0:
237,323,6711,6,0,P|189:317|132:319,1,104.500003189087,0|0,0:0|0:0,0:0:0:0:
237,323,7027,6,0,P|282:270|225:174,1,190,2|0,0:0|0:0,0:0:0:0:
230,176,7975,1,2,0:0:0:0:
206,252,8606,5,2,0:0:0:0:
76,210,8764,1,2,0:0:0:0:
208,239,8922,5,2,0:0:0:0:
73,222,9080,1,2,0:0:0:0:
247,89,9238,6,0,L|269:89,5,22.1666659901937,0|0|0|0|0|0,0:0|0:0|0:0|0:0|0:0|0:0,0:0:0:0:
135,269,9711,5,0,0:0:0:0:
233,97,9869,1,0,0:0:0:0:
330,266,10027,1,2,0:0:0:0:
98,194,10185,2,0,P|145:186|191:208,1,95,2|2,0:0|0:0,0:0:0:0:
203,209,10975,5,0,0:0:0:0:
117,99,11132,1,0,0:0:0:0:
135,269,11290,1,2,0:0:0:0:
326,215,11448,6,0,B|333:182|333:182|310:143|279:122,1,99.7499969558717,2|0,0:0|0:0,0:0:0:0:
176,155,11764,6,0,B|212:170|212:170|256:162|291:131,1,128.249996086121,0|0,0:0|0:0,0:0:0:0:
312,51,12080,6,0,P|312:28|305:1,3,47.5,0|0|0|0,0:0|0:0|0:0|0:0,0:0:0:0:
398,136,12396,6,0,P|398:159|405:186,3,47.5,0|0|0|0,0:0|0:0|0:0|0:0,0:0:0:0:
306,265,12711,6,0,P|311:288|311:311,3,47.5,0|0|0|0,0:0|0:0|0:0|0:0,0:0:0:0:
211,169,13027,6,0,P|216:145|216:122,3,47.5,0|0|0|0,0:0|0:0|0:0|0:0,0:0:0:0:
147,296,13343,6,0,P|122:299|99:290,3,47.5,0|0|0|0,0:0|0:0|0:0|0:0,0:0:0:0:
211,169,13659,6,0,P|234:164|256:172,3,47.5,0|0|0|0,0:0|0:0|0:0|0:0,0:0:0:0:
320,299,13975,6,0,P|343:303|365:295,3,47.5,0|0|0|0,0:0|0:0|0:0|0:0,0:0:0:0:
428,197,14290,6,0,P|399:161|393:203,1,104.500003189087,0|0,0:0|0:0,0:0:0:0:
443,348,14606,6,0,P|451:326|455:303,1,47.5,0|0,0:0|0:0,0:0:0:0:
462,349,14764,2,0,P|465:325|465:301,1,47.5,0|0,0:0|0:0,0:0:0:0:
351,230,14922,6,0,P|342:207|339:184,1,47.5,0|0,0:0|0:0,0:0:0:0:
328,231,15080,2,0,P|325:207|328:183,1,47.5,0|0,0:0|0:0,0:0:0:0:
465,110,15238,6,0,P|463:133|456:156,1,47.5,0|0,0:0|0:0,0:0:0:0:
480,115,15396,2,0,P|469:136|456:154,1,47.5,0|0,0:0|0:0,0:0:0:0:
252,189,15553,6,0,P|249:166|252:137,1,47.5,0|0,0:0|0:0,0:0:0:0:
236,186,15711,2,0,P|240:162|253:136,1,47.5,0|0,0:0|0:0,0:0:0:0:
376,66,15869,6,0,P|383:96|381:127,1,61.7499971733095,0|0,0:0|0:0,0:0:0:0:
246,249,16027,2,0,P|244:218|251:188,1,61.7499971733095,0|0,0:0|0:0,0:0:0:0:
310,102,16185,6,0,L|308:75,4,22.1666659901937,0|0|0|0|0,0:0|0:0|0:0|0:0|0:0,0:0:0:0:
367,223,16501,6,0,P|344:227|320:226,1,47.5,0|0,0:0|0:0,0:0:0:0:
172,168,16659,2,0,P|148:166|125:171,1,47.5,0|0,0:0|0:0,0:0:0:0:
308,79,16817,2,0,P|331:83|354:82,1,47.5,0|0,0:0|0:0,0:0:0:0:
246,249,16975,2,0,P|222:247|199:252,1,47.5,0|0,0:0|0:0,0:0:0:0:
88,170,17132,5,2,0:0:0:0:
84,105,17210,1,2,0:0:0:0:
128,58,17289,1,2,0:0:0:0:
193,59,17368,1,2,0:0:0:0:
236,108,17448,2,0,P|246:137|241:175,1,56.9999982604981,2|2,0:0|0:0,0:0:0:0:
120,285,17606,2,0,P|119:256|128:229,1,56.9999982604981,2|2,0:0|0:0,0:0:0:0:
327,86,17764,5,2,0:0:0:0:
355,113,17842,1,2,0:0:0:0:
367,151,17921,1,2,0:0:0:0:
362,190,18000,1,2,0:0:0:0:
339,223,18079,1,2,0:0:0:0:
305,242,18158,1,2,0:0:0:0:
265,243,18237,1,2,0:0:0:0:
229,227,18316,1,2,0:0:0:0:
204,196,18396,5,2,0:0:0:0:
161,209,18474,1,2,0:0:0:0:
130,241,18553,1,2,0:0:0:0:
120,285,18632,1,2,0:0:0:0:
134,328,18711,1,2,0:0:0:0:
168,358,18790,1,2,0:0:0:0:
213,366,18869,1,2,0:0:0:0:
255,350,18948,1,2,0:0:0:0:
284,281,19027,5,2,0:0:0:0:
260,229,19105,1,2,0:0:0:0:
255,173,19184,1,2,0:0:0:0:
271,118,19263,1,2,0:0:0:0:
311,77,19343,6,0,L|371:80,1,56.9999982604981,2|2,0:0|0:0,0:0:0:0:
458,205,19501,2,0,L|401:207,1,56.9999982604981,2|2,0:0|0:0,0:0:0:0:
262,272,19659,6,0,B|206:262|206:262|130:283|41:275|41:275|91:239,1,266,0|0,0:0|0:0,0:0:0:0:
162,185,20343,2,0,L|187:183,1,25.3333333333333,0|0,0:0|0:0,0:0:0:0:
387,305,20606,6,0,L|349:310,1,28.4999991302491,2|0,0:0|0:0,0:0:0:0:
257,353,20764,2,0,L|225:348,1,28.4999991302491,2|0,0:0|0:0,0:0:0:0:
140,265,20922,5,8,0:0:0:0:
140,265,21001,1,8,0:0:0:0:
140,265,21080,2,0,L|212:260,1,61.7499971733095,8|8,0:0|0:0,0:0:0:0:
335,115,21238,2,0,L|263:120,1,61.7499971733095,8|8,0:0|0:0,0:0:0:0:
108,186,21396,1,8,0:0:0:0:
278,205,21553,1,8,0:0:0:0:
278,205,21632,1,8,0:0:0:0:
278,205,21711,1,8,0:0:0:0:
41,244,21869,6,0,P|18:196|35:133,1,99.7499969558717,8|0,0:0|0:0,0:0:0:0:
78,86,22185,6,0,B|125:70|189:109|245:86,1,166.249994926453,4|0,0:0|0:0,0:0:0:0:
264,79,22659,1,2,0:0:0:0:
201,272,22817,5,8,0:0:0:0:
201,272,22896,1,0,0:0:0:0:
201,272,22975,2,0,L|197:222,1,47.5,0|0,0:0|0:0,0:0:0:0:
343,137,23132,2,0,L|339:184,1,47.5,2|0,0:0|0:0,0:0:0:0:
301,276,23290,5,8,0:0:0:0:
108,186,23448,1,0,0:0:0:0:
290,287,23606,5,8,0:0:0:0:
201,97,23764,1,8,0:0:0:0:
111,282,23922,1,2,0:0:0:0:
343,137,24080,5,8,0:0:0:0:
276,101,24158,1,0,0:0:0:0:
201,97,24237,1,0,0:0:0:0:
130,123,24316,1,0,0:0:0:0:
81,183,24396,6,0,P|75:220|81:263,1,71.2500027179719,0|0,0:0|0:0,0:0:0:0:
278,261,24553,2,0,P|281:225|275:190,1,71.2500027179719,0|0,0:0|0:0,0:0:0:0:
235,29,24711,1,2,0:0:0:0:
159,222,24869,1,2,0:0:0:0:
402,119,25027,2,0,P|332:113|261:104,1,142.500005435944,0|8,0:0|0:0,0:0:0:0:
147,112,25264,1,8,0:0:0:0:
130,123,25343,5,8,0:0:0:0:
190,155,25421,1,0,0:0:0:0:
204,222,25500,1,0,0:0:0:0:
160,275,25579,1,0,0:0:0:0:
91,274,25658,1,2,0:0:0:0:
242,71,25817,5,8,0:0:0:0:
303,103,25895,1,0,0:0:0:0:
317,170,25974,1,0,0:0:0:0:
273,223,26053,1,0,0:0:0:0:
204,222,26132,1,2,0:0:0:0:
64,72,26290,6,0,L|141:71,1,71.2500027179719,8|0,0:0|0:0,0:0:0:0:
204,222,26448,2,0,L|132:222,1,71.2500027179719,0|0,0:0|0:0,0:0:0:0:
73,58,26606,2,0,L|150:57,1,71.2500027179719,0|0,0:0|0:0,0:0:0:0:
280,138,26764,5,8,0:0:0:0:
49,221,26922,1,0,0:0:0:0:
227,56,27080,1,0,0:0:0:0:
286,220,27238,6,0,B|241:236|174:206|174:206|200:201|225:181,1,166.249994926453,4|0,0:0|0:0,0:0:0:0:
232,174,27711,1,2,0:0:0:0:
315,335,27869,5,8,0:0:0:0:
315,335,27948,1,0,0:0:0:0:
315,335,28027,2,0,L|257:334,1,47.5,0|0,0:0|0:0,0:0:0:0:
175,205,28185,2,0,L|222:205,1,47.5,2|0,0:0|0:0,0:0:0:0:
362,130,28343,5,8,0:0:0:0:
107,55,28501,1,0,0:0:0:0:
360,149,28659,5,8,0:0:0:0:
75,211,28817,1,8,0:0:0:0:
65,213,28975,1,2,0:0:0:0:
254,93,29132,5,8,0:0:0:0:
307,103,29210,1,0,0:0:0:0:
322,155,29289,1,0,0:0:0:0:
284,193,29368,1,0,0:0:0:0:
232,176,29448,2,0,P|210:173|184:176,1,47.5,0|0,0:0|0:0,0:0:0:0:
52,284,29606,2,0,P|74:287|100:284,1,47.5,0|0,0:0|0:0,0:0:0:0:
209,249,29764,5,0,0:0:0:0:
185,90,29922,1,0,0:0:0:0:
319,161,30080,5,0,0:0:0:0:
136,200,30238,1,0,0:0:0:0:
367,214,30396,6,0,B|323:211|323:211|255:253|255:253|208:248,1,170.999994781494,8|0,0:0|0:0,0:0:0:0:
136,200,30711,2,0,P|103:199|80:206,1,56.9999982604981,8|0,0:0|0:0,0:0:0:0:
34,77,30869,2,0,P|61:83|89:82,1,56.9999982604981,0|0,0:0|0:0,0:0:0:0:
195,13,31027,6,0,L|309:12,1,114,0|0,0:0|0:0,0:0:0:0:
329,22,31343,5,8,0:0:0:0:
268,173,31501,1,0,0:0:0:0:
366,324,31659,6,0,L|232:320,1,128.249996086121,8|2,0:0|0:0,0:0:0:0:
237,320,31975,1,2,0:0:0:0:
289,303,32053,1,2,0:0:0:0:
315,256,32132,1,2,0:0:0:0:
301,203,32211,1,2,0:0:0:0:
229,165,32290,6,0,B|180:154|121:199|62:182,1,166.249994926453,4|0,0:0|0:0,0:0:0:0:
46,178,32764,1,2,0:0:0:0:
253,52,32922,5,8,0:0:0:0:
267,51,33001,1,0,0:0:0:0:
281,50,33080,2,0,L|284:106,1,47.5,0|0,0:0|0:0,0:0:0:0:
361,240,33238,2,0,L|361:190,1,47.5,2|0,0:0|0:0,0:0:0:0:
409,90,33396,5,8,0:0:0:0:
167,66,33553,1,0,0:0:0:0:
409,115,33711,5,8,0:0:0:0:
155,184,33869,1,8,0:0:0:0:
354,11,34027,1,2,0:0:0:0:
385,253,34185,5,8,0:0:0:0:
328,250,34264,1,0,0:0:0:0:
271,247,34343,1,0,0:0:0:0:
214,244,34422,1,0,0:0:0:0:
157,241,34501,2,0,L|155:186,1,47.5,0|0,0:0|0:0,0:0:0:0:
299,68,34659,2,0,L|299:125,1,47.5,0|0,0:0|0:0,0:0:0:0:
108,252,34817,6,0,B|106:124|106:124|74:164,1,166.25,4|0,0:0|0:0,0:0:0:0:
30,253,35448,1,8,0:0:0:0:
52,306,35526,1,0,0:0:0:0:
106,329,35605,1,0,0:0:0:0:
160,308,35684,1,0,0:0:0:0:
186,256,35763,1,2,0:0:0:0:
104,48,35922,5,8,0:0:0:0:
71,97,36000,1,0,0:0:0:0:
82,153,36079,1,0,0:0:0:0:
130,187,36158,1,0,0:0:0:0:
187,180,36237,1,2,0:0:0:0:
357,78,36396,6,0,L|286:83,1,66.4999979705811,8|0,0:0|0:0,0:0:0:0:
172,255,36553,2,0,L|238:250,1,66.4999979705811,0|0,0:0|0:0,0:0:0:0:
379,228,36711,1,2,0:0:0:0:
195,42,36869,1,8,0:0:0:0:
130,326,37027,1,0,0:0:0:0:
306,161,37185,1,0,0:0:0:0:
253,166,37264,1,0,0:0:0:0:
200,172,37343,6,0,B|210:291|210:291|219:273|247:262,1,156.750004783631,8|0,0:0|0:0,0:0:0:0:
306,161,37659,6,0,B|243:140|243:140|108:164,1,199.499993911743,0|0,0:0|0:0,0:0:0:0:
60,279,37975,2,0,P|95:277|135:282,1,66.4999979705811,0|0,0:0|0:0,0:0:0:0:
246,336,38132,1,0,0:0:0:0:
246,336,38211,1,0,0:0:0:0:
246,336,38290,6,0,P|240:302|246:266,1,66.4999979705811,8|0,0:0|0:0,0:0:0:0:
346,173,38448,2,0,P|351:205|347:238,1,66.4999979705811,8|0,0:0|0:0,0:0:0:0:
201,337,38606,6,0,P|207:269|199:178,1,156.750004783631,0|0,0:0|0:0,0:0:0:0:
106,97,38922,2,0,P|161:114|224:20,1,178.125,4|0,0:0|0:0,0:0:0:0:
154,41,39238,6,0,L|164:181,1,132.999995941162,4|0,0:0|0:0,0:0:0:0:
262,249,39448,6,0,L|265:142,1,104.500003189087,4|0,0:0|0:0,0:0:0:0:
361,71,39659,6,0,L|369:201,1,123.499994346619,4|0,0:0|0:0,0:0:0:0:
375,274,39869,5,4,0:0:0:0:
184,251,40027,1,2,0:0:0:0:
367,155,40185,1,2,0:0:0:0:
258,332,40343,1,2,0:0:0:0:
178,164,40501,6,0,B|186:142|184:115|184:115|203:130|236:137,1,95,2|0,0:0|0:0,0:0:0:0:
290,258,40817,1,2,0:0:0:0:
90,220,40975,1,0,0:0:0:0:
237,56,41132,6,0,L|276:60,10,26.9166671800613,0|0|0|0|0|0|0|0|0|0|0,0:0|0:0|0:0|0:0|0:0|0:0|0:0|0:0|0:0|0:0|0:0,0:0:0:0:
207,80,41448,6,0,B|195:127|224:162|207:210,1,128.249996086121,0|0,0:0|0:0,0:0:0:0:
202,227,41764,1,8,0:0:0:0:
106,131,41922,1,8,0:0:0:0:
195,247,42080,1,8,0:0:0:0:
304,77,42238,1,8,0:0:0:0:
188,267,42396,6,0,P|266:260|350:275,1,152,4|0,0:0|0:0,0:0:0:0:
338,271,42869,1,2,0:0:0:0:
287,77,43027,1,8,0:0:0:0:
158,257,43185,1,0,0:0:0:0:
386,189,43343,1,0,0:0:0:0:
135,109,43501,6,0,P|102:137|137:148,1,95,8|0,0:0|0:0,0:0:0:0:
327,89,43975,6,0,P|326:61|316:39,4,47.5,2|2|2|2|2,0:0|0:0|0:0|0:0|0:0,0:0:0:0:
245,158,44448,1,0,0:0:0:0:
419,230,44606,1,2,0:0:0:0:
396,222,44685,1,2,0:0:0:0:
381,239,44764,1,2,0:0:0:0:
359,232,44843,1,2,0:0:0:0:
343,249,44922,6,0,B|283:238|210:249|210:249|245:262|258:291,1,190,0|0,0:0|0:0,0:0:0:0:
189,324,45396,1,2,0:0:0:0:
189,324,45475,1,2,0:0:0:0:
189,324,45553,2,0,P|139:318|92:322,1,95,8|0,0:0|0:0,0:0:0:0:
13,232,45869,1,2,0:0:0:0:
145,71,46027,1,0,1:0:0:0:
206,157,46185,6,0,L|205:198,12,26.9166671800613,0|0|0|0|0|0|0|0|0|0|0|0|0,0:0|0:0|0:0|0:0|0:0|0:0|0:0|0:0|0:0|0:0|0:0|0:0|0:0,0:0:0:0:
262,99,46580,5,2,0:0:0:0:
301,88,46659,1,2,0:0:0:0:
341,89,46738,1,2,0:0:0:0:
385,107,46817,5,2,0:0:0:0:
408,149,46896,1,2,0:0:0:0:
416,204,46975,1,2,0:0:0:0:
391,254,47054,1,2,0:0:0:0:
338,289,47132,6,0,L|253:295,1,80.750001540184,10|10,0:0|0:0,0:0:0:0:
253,146,47290,2,0,L|168:152,1,80.750001540184,10|10,0:0|0:0,0:0:0:0:
84,237,47448,6,0,L|244:227,1,152,4|0,0:0|0:0,0:0:0:0:
235,227,47922,1,2,0:0:0:0:
82,332,48080,6,0,L|139:328,1,56.9999982604981,8|0,0:0|0:0,0:0:0:0:
230,184,48238,2,0,L|173:187,1,56.9999982604981,0|0,0:0|0:0,0:0:0:0:
90,352,48396,2,0,L|147:348,1,56.9999982604981,0|0,0:0|0:0,0:0:0:0:
304,223,48553,6,0,P|312:177|293:129,1,95,8|0,0:0|0:0,0:0:0:0:
112,168,49027,6,0,B|154:191|154:191|230:184,1,123.499994346619,2|2,0:0|0:0,0:0:0:0:
304,223,49264,1,2,0:0:0:0:
304,223,49343,1,2,0:0:0:0:
152,320,49501,1,0,0:0:0:0:
172,100,49659,1,2,0:0:0:0:
330,278,49817,1,2,0:0:0:0:
95,222,49975,6,0,P|108:131|206:128,1,199.499993911743,4|2,0:0|0:0,0:0:0:0:
162,191,50527,1,2,0:0:0:0:
158,184,50606,2,0,P|202:163|296:187,1,142.5,8|0,0:0|0:0,0:0:0:0:
312,200,50922,1,0,0:0:0:0:
247,47,51080,1,8,0:0:0:0:
247,47,51159,6,0,L|105:55,1,132.999995941162,0|0,0:0|0:0,0:0:0:0:
88,73,51396,1,0,0:0:0:0:
225,263,51553,2,0,B|346:254|346:254|328:265|317:285,1,156.750004783631,8|0,0:0|0:0,0:0:0:0:
311,291,51869,1,0,0:0:0:0:
255,137,52027,1,8,0:0:0:0:
170,315,52185,1,0,0:0:0:0:
392,328,52343,1,2,0:0:0:0:
392,328,52422,1,2,0:0:0:0:
392,328,52501,6,0,L|384:174,1,152,4|0,0:0|0:0,0:0:0:0:
384,176,52975,1,2,0:0:0:0:
225,263,53132,1,8,0:0:0:0:
290,103,53290,1,0,0:0:0:0:
441,263,53448,1,0,0:0:0:0:
192,272,53606,1,8,0:0:0:0:
192,272,53685,1,0,0:0:0:0:
192,272,53764,1,2,0:0:0:0:
273,67,53922,5,8,0:0:0:0:
313,268,54080,1,0,0:0:0:0:
73,158,54238,1,2,0:0:0:0:
353,124,54396,6,0,B|366:161|366:161|361:201,1,76,8|0,0:0|0:0,0:0:0:0:
154,308,54711,1,2,0:0:0:0:
138,257,54790,1,2,0:0:0:0:
141,200,54869,1,2,0:0:0:0:
151,140,54948,1,2,0:0:0:0:
182,83,55027,6,0,P|266:58|308:176,1,228,4|2,0:0|0:0,0:0:0:0:
243,134,55580,1,2,0:0:0:0:
243,134,55659,2,0,B|276:120|276:120|386:129,1,142.5,8|0,0:0|0:0,0:0:0:0:
406,132,55975,1,2,0:0:0:0:
254,226,56132,1,8,0:0:0:0:
273,40,56290,6,0,L|368:47,1,95,0|2,0:0|0:0,0:0:0:0:
495,145,56606,1,8,0:0:0:0:
368,47,56764,1,2,0:0:0:0:
368,47,56843,1,2,0:0:0:0:
368,47,56922,1,2,0:0:0:0:
363,225,57080,5,2,0:0:0:0:
340,182,57159,1,2,0:0:0:0:
298,150,57238,1,2,0:0:0:0:
243,134,57317,1,2,0:0:0:0:
181,138,57396,1,2,0:0:0:0:
119,163,57475,1,2,0:0:0:0:
77,220,57553,6,0,P|101:312|218:284,1,237.5,4|0,0:0|0:0,0:0:0:0:
229,265,58027,1,2,0:0:0:0:
208,66,58185,1,8,0:0:0:0:
147,250,58343,1,0,0:0:0:0:
248,63,58501,1,2,0:0:0:0:
340,250,58659,1,8,0:0:0:0:
340,250,58738,1,0,0:0:0:0:
340,250,58817,5,2,0:0:0:0:
288,60,58975,1,8,0:0:0:0:
229,265,59132,2,0,L|226:208,1,47.5,2|0,0:0|0:0,0:0:0:0:
152,96,59290,2,0,L|149:143,1,47.5,2|0,0:0|0:0,0:0:0:0:
54,263,59448,2,0,L|51:161,1,95,10|2,0:0|0:0,0:0:0:0:
189,18,59764,1,0,0:0:0:0:
226,217,59922,1,0,0:0:0:0:
16,262,60080,6,0,L|14:178,1,76,4|0,0:0|0:0,0:0:0:0:
80,86,60396,1,8,0:0:0:0:
175,278,60553,2,0,B|176:168|176:168|147:186,1,142.5,4|0,0:0|0:0,0:0:0:0:
135,199,60869,1,8,0:0:0:0:
256,341,61027,2,0,P|279:341|306:332,1,47.5,0|0,0:0|0:0,0:0:0:0:
356,254,61185,1,8,0:0:0:0:
351,206,61264,1,8,0:0:0:0:
347,158,61343,6,0,L|250:159,1,95,8|0,0:0|0:0,0:0:0:0:
148,185,61659,1,8,0:0:0:0:
387,89,61817,2,0,P|425:147|390:224,1,142.5,6|0,0:0|0:0,0:0:0:0:
386,227,62132,1,8,0:0:0:0:
193,274,62290,1,8,0:0:0:0:
145,273,62369,1,8,0:0:0:0:
106,238,62448,1,8,0:0:0:0:
100,181,62527,1,8,0:0:0:0:
141,134,62606,6,0,L|205:133,3,61.7499971733095,4|0|0|0,0:0|0:0|0:0|0:0,0:0:0:0:
253,229,62922,1,0,0:0:0:0:
296,225,63001,1,0,0:0:0:0:
339,221,63080,1,0,0:0:0:0:
382,217,63159,1,0,0:0:0:0:
425,213,63238,2,0,L|412:149,1,61.7499971733095,0|0,0:0|0:0,0:0:0:0:
275,75,63396,2,0,L|287:135,1,61.7499971733095,0|0,0:0|0:0,0:0:0:0:
236,276,63553,5,6,0:0:0:0:
197,293,63631,1,0,0:0:0:0:
154,293,63710,1,0,0:0:0:0:
115,273,63789,1,0,0:0:0:0:
89,239,63868,1,0,0:0:0:0:
80,198,63947,1,0,0:0:0:0:
90,156,64027,6,0,L|165:153,1,61.7499971733095,6|0,0:0|0:0,0:0:0:0:
275,75,64185,1,6,0:0:0:0:
275,75,64264,1,0,0:0:0:0:
275,75,64343,2,0,L|338:78,1,61.7499971733095,0|0,0:0|0:0,0:0:0:0:
443,170,64501,5,0,0:0:0:0:
461,208,64579,1,0,0:0:0:0:
460,251,64658,1,6,0:0:0:0:
438,288,64737,1,0,0:0:0:0:
402,311,64817,6,0,L|371:311,2,30.8749985866547,2|2|2,0:0|0:0|0:0,0:0:0:0:
300,245,64975,6,0,L|270:251,1,26.1250007972718,2|0,0:0|0:0,0:0:0:0:
295,214,65053,2,0,L|265:220,1,26.1250007972718,2|0,0:0|0:0,0:0:0:0:
290,183,65132,6,0,L|355:181,1,61.7499971733095,4|0,0:0|0:0,0:0:0:0:
443,89,65290,1,2,0:0:0:0:
443,89,65369,2,0,L|372:91,1,61.7499971733095,0|0,0:0|0:0,0:0:0:0:
288,32,65527,1,0,0:0:0:0:
288,32,65606,2,0,L|217:34,1,61.7499971733095,2|0,0:0|0:0,0:0:0:0:
119,110,65764,5,8,0:0:0:0:
119,110,65843,1,2,0:0:0:0:
119,110,65922,1,0,0:0:0:0:
119,110,66001,2,0,L|187:113,1,61.7499971733095,2|2,0:0|0:0,0:0:0:0:
290,183,66159,2,0,L|238:185,1,47.5,2|0,0:0|0:0,0:0:0:0:
139,264,66317,2,0,L|192:269,1,47.5,2|0,0:0|0:0,0:0:0:0:
289,268,66475,1,10,0:0:0:0:
289,268,66553,1,10,0:0:0:0:
224,80,66711,6,0,L|226:33,1,47.5,10|2,0:0|0:0,0:0:0:0:
365,190,66869,1,2,0:0:0:0:
365,190,66948,2,0,L|362:127,1,61.7499971733095,10|2,0:0|0:0,0:0:0:0:
227,247,67106,1,10,0:0:0:0:
227,247,67185,2,0,L|230:184,1,61.7499971733095,2|8,0:0|0:0,0:0:0:0:
386,224,67343,6,0,L|468:222,2,82.3333295644126,2|2|2,0:0|0:0|0:0,0:0:0:0:
390,95,67659,6,0,L|322:95,3,61.7499971733095,6|0|0|0,0:0|0:0|0:0|0:0,0:0:0:0:
270,189,67975,1,0,0:0:0:0:
227,187,68053,1,0,0:0:0:0:
183,185,68132,1,0,0:0:0:0:
139,183,68211,1,0,0:0:0:0:
95,182,68290,2,0,L|97:248,1,61.7499971733095,0|0,0:0|0:0,0:0:0:0:
227,337,68448,2,0,L|228:275,1,61.7499971733095,0|0,0:0|0:0,0:0:0:0:
297,143,68606,5,6,0:0:0:0:
339,139,68684,1,0,0:0:0:0:
378,156,68763,1,0,0:0:0:0:
404,190,68842,1,0,0:0:0:0:
410,233,68921,1,0,0:0:0:0:
394,273,69000,1,2,0:0:0:0:
362,300,69080,2,0,L|296:302,1,61.7499971733095,4|0,0:0|0:0,0:0:0:0:
183,185,69238,2,0,L|249:187,1,61.7499971733095,6|0,0:0|0:0,0:0:0:0:
373,74,69396,5,2,0:0:0:0:
311,70,69475,1,2,0:0:0:0:
250,66,69553,1,2,0:0:0:0:
188,62,69632,1,2,0:0:0:0:
126,59,69711,2,0,L|121:127,1,61.7499971733095,0|2,0:0|0:0,0:0:0:0:
240,222,69869,6,0,L|241:252,2,30.8749985866547,2|2|2,0:0|0:0|0:0,0:0:0:0:
307,138,70027,6,0,L|335:137,1,26.1250007972718,2|0,0:0|0:0,0:0:0:0:
309,104,70106,2,0,L|337:103,1,26.1250007972718,2|0,0:0|0:0,0:0:0:0:
311,70,70185,6,0,L|379:69,1,61.7499971733095,4|2,0:0|0:0,0:0:0:0:
478,174,70343,1,2,0:0:0:0:
478,174,70422,2,0,L|413:174,1,61.7499971733095,0|0,0:0|0:0,0:0:0:0:
339,263,70580,1,2,0:0:0:0:
339,263,70659,2,0,L|274:263,1,61.7499971733095,2|0,0:0|0:0,0:0:0:0:
166,182,70817,5,0,0:0:0:0:
166,182,70896,1,2,0:0:0:0:
166,182,70975,1,0,0:0:0:0:
166,182,71053,2,0,L|235:182,1,61.7499971733095,2|6,0:0|0:0,0:0:0:0:
300,110,71211,2,0,L|347:109,2,47.5,2|0|2,0:0|0:0|0:0,0:0:0:0:
210,40,71448,5,8,0:0:0:0:
195,41,71527,1,8,0:0:0:0:
180,42,71606,1,8,0:0:0:0:
97,209,71764,5,8,0:0:0:0:
154,208,71843,1,8,0:0:0:0:
211,207,71922,1,8,0:0:0:0:
268,206,72001,1,8,0:0:0:0:
325,205,72080,6,0,B|326:251|337:287|337:287|326:311|319:331|319:331|310:306|296:287,1,166.25,8|0,0:0|0:0,0:0:0:0:
295,284,72711,5,6,0:0:0:0:
424,232,73659,1,2,0:0:0:0:
422,219,74290,5,2,0:0:0:0:
296,195,74448,1,2,0:0:0:0:
423,204,74606,5,2,0:0:0:0:
294,209,74764,1,2,0:0:0:0:
415,96,74922,6,0,L|441:94,4,22.1666659901937,0|0|0|0|0,0:0|0:0|0:0|0:0|0:0,0:0:0:0:
345,35,75238,6,0,L|246:40,1,95,2|0,0:0|0:0,0:0:0:0:
131,220,76185,6,0,L|202:220,1,71.25,2|0,0:0|0:0,0:0:0:0:
266,145,76501,6,0,L|211:143,1,47.5,2|0,0:0|0:0,0:0:0:0:
114,293,76659,2,0,L|169:291,1,47.5,2|0,0:0|0:0,0:0:0:0:
296,250,76817,6,0,B|301:211|301:211|266:145,1,114,2|0,0:0|0:0,0:0:0:0:
254,129,77132,1,8,0:0:0:0:
69,234,77290,2,0,L|227:226,1,152,2|0,0:0|0:0,0:0:0:0:
105,137,77764,6,0,L|159:140,1,47.5,8|0,0:0|0:0,0:0:0:0:
233,75,77922,2,0,L|287:78,1,47.5,8|0,0:0|0:0,0:0:0:0:
390,167,78080,2,0,L|342:169,1,47.5,8|0,0:0|0:0,0:0:0:0:
246,235,78238,5,2,0:0:0:0:
246,235,78317,1,0,0:0:0:0:
246,235,78396,1,0,0:0:0:0:
372,86,78553,1,2,0:0:0:0:
372,86,78632,1,0,0:0:0:0:
372,86,78711,1,0,0:0:0:0:
430,273,78869,1,0,0:0:0:0:
430,273,78948,1,0,0:0:0:0:
430,273,79027,6,0,P|397:269|369:271,1,61.7499971733095,2|0,0:0|0:0,0:0:0:0:
255,159,79185,2,0,P|285:160|316:157,1,61.7499971733095,2|0,0:0|0:0,0:0:0:0:
446,48,79343,2,0,P|413:44|385:46,1,61.7499971733095,2|0,0:0|0:0,0:0:0:0:
284,63,79501,1,2,0:0:0:0:
200,216,79659,5,2,0:0:0:0:
204,267,79738,1,2,0:0:0:0:
234,309,79817,1,2,0:0:0:0:
282,330,79896,1,2,0:0:0:0:
333,323,79975,1,2,0:0:0:0:
374,290,80054,1,2,0:0:0:0:
391,242,80133,1,2,0:0:0:0:
381,191,80212,1,2,0:0:0:0:
346,153,80290,6,0,B|286:140|286:140|217:153,1,123.499994346619,8|2,0:0|0:0,0:0:0:0:
137,46,80527,1,2,0:0:0:0:
137,46,80606,2,0,L|263:45,1,123.499994346619,8|2,0:0|0:0,0:0:0:0:
352,175,80843,1,2,0:0:0:0:
350,187,80922,2,0,L|203:189,1,142.500005435944,8|2,0:0|0:0,0:0:0:0:
61,245,81159,1,2,0:0:0:0:
55,256,81238,2,0,B|177:257|177:257|158:249|142:227,1,161.500003080368,8|2,0:0|0:0,0:0:0:0:
68,153,81475,1,2,0:0:0:0:
68,153,81553,6,0,L|204:150,1,132.999995941162,8|0,0:0|0:0,0:0:0:0:
305,244,81790,2,0,B|289:256|289:256|176:257,1,132.999995941162,8|0,0:0|0:0,0:0:0:0:
68,153,82027,2,0,P|79:82|140:72,1,132.999995941162,8|0,0:0|0:0,0:0:0:0:
278,152,82264,2,0,B|250:179|250:179|145:174,1,132.999995941162,8|0,0:0|0:0,0:0:0:0:
31,250,82501,2,0,L|97:253,1,66.4999979705811,8|0,0:0|0:0,0:0:0:0:
260,334,82659,2,0,L|194:337,1,66.4999979705811,8|0,0:0|0:0,0:0:0:0:
72,341,82817,5,4,0:0:0:0:
256,192,82896,12,0,85264,0:0:0:0:
318,262,85343,6,0,P|330:206|301:147,1,114,2|0,0:0|0:0,0:0:0:0:
248,214,85659,2,0,P|208:217|167:211,1,76
276,61,85975,6,0,L|406:66,1,113.999996520996,2|2,0:0|0:0,0:0:0:0:
465,71,86211,1,0,0:0:0:0:
465,71,86290,1,8,0:0:0:0:
376,182,86448,1,8,0:0:0:0:
405,322,86606,6,0,L|345:319,1,56.9999982604981,8|8,3:0|0:0,0:0:0:0:
259,313,86764,1,8,3:0:0:0:
241,312,86843,1,8,0:0:0:0:
223,311,86922,1,8,0:0:0:0:
376,182,87080,6,0,P|377:150|371:121,1,56.9999982604981,8|0,3:0|0:0,0:0:0:0:
276,61,87238,1,8,0:0:0:0:
269,76,87316,1,0,0:0:0:0:
262,91,87396,1,2,0:0:0:0:
468,162,87553,5,8,0:0:0:0:
464,185,87869,6,0,L|348:179,1,113.999996520996,6|0,0:0|0:0,0:0:0:0:
264,191,88106,1,0,0:0:0:0:
247,188,88185,1,2,0:0:0:0:
344,311,88343,1,0,0:0:0:0:
464,185,88501,1,2,0:0:0:0:
463,167,88580,2,0,L|460:106,1,56.9999982604981,0|0,0:0|0:0,0:0:0:0:
344,48,88738,1,0,0:0:0:0:
344,65,88817,2,0,L|350:187,1,113.999996520996,2|0,0:0|0:0,0:0:0:0:
263,321,89053,1,0,0:0:0:0:
248,328,89132,6,0,B|208:320|208:320|176:328|176:328|136:320,1,113.999996520996,2|0,0:0|0:0,0:0:0:0:
170,247,89369,1,2,0:0:0:0:
170,247,89448,2,0,P|171:218|166:189,1,56.9999982604981,0|0,0:0|0:0,0:0:0:0:
48,288,89606,2,0,P|43:316|44:344,1,56.9999982604981,2|0,0:0|0:0,0:0:0:0:
236,373,89764,5,0,0:0:0:0:
244,351,89843,1,2,0:0:0:0:
248,328,89922,1,0,0:0:0:0:
238,149,90080,1,2,0:0:0:0:
32,203,90238,1,2,0:0:0:0:
54,205,90317,1,0,0:0:0:0:
76,207,90396,6,0,B|82:179|82:179|80:123|80:123|88:91,1,113.999996520996,6|0,0:0|0:0,0:0:0:0:
147,42,90632,1,0,0:0:0:0:
150,25,90711,2,0,L|217:27,1,56.9999982604981,2|0,0:0|0:0,0:0:0:0:
238,149,90869,2,0,L|294:147,1,56.9999982604981,2|2,0:0|0:0,0:0:0:0:
407,63,91027,5,2,0:0:0:0:
390,66,91106,2,0,P|363:68|333:67,1,56.9999982604981,0|0,0:0|0:0,0:0:0:0:
164,153,91264,1,0,0:0:0:0:
181,150,91343,2,0,P|208:148|238:149,1,56.9999982604981,2|0,0:0|0:0,0:0:0:0:
322,234,91501,2,0,P|324:261|323:291,1,56.9999982604981,2|0,0:0|0:0,0:0:0:0:
238,375,91659,6,0,P|178:380|124:376,1,113.999996520996,2|0,0:0|0:0,0:0:0:0:
48,339,91896,1,2,0:0:0:0:
31,341,91975,2,0,L|35:283,1,56.9999982604981,0|0,0:0|0:0,0:0:0:0:
164,153,92132,2,0,L|160:209,1,56.9999982604981,2|0,0:0|0:0,0:0:0:0:
238,375,92290,5,2,0:0:0:0:
241,352,92369,1,0,0:0:0:0:
244,329,92448,1,2,0:0:0:0:
168,114,92606,5,2,0:0:0:0:
164,153,92684,1,2,0:0:0:0:
161,193,92763,1,2,0:0:0:0:
158,233,92842,1,2,0:0:0:0:
154,273,92922,5,6,0:0:0:0:
283,208,93080,1,2,0:0:0:0:
87,125,93238,1,0,0:0:0:0:
77,157,93317,1,0,0:0:0:0:
77,191,93396,1,2,0:0:0:0:
193,340,93553,5,2,0:0:0:0:
198,323,93632,2,0,L|209:267,1,56.9999982604981,0|0,0:0|0:0,0:0:0:0:
317,279,93790,1,0,0:0:0:0:
316,261,93869,2,0,L|309:204,1,56.9999982604981,2|0,0:0|0:0,0:0:0:0:
168,114,94027,2,0,L|174:170,1,56.9999982604981,2|0,0:0|0:0,0:0:0:0:
75,304,94185,6,0,L|77:185,1,113.999996520996,6|0,0:0|0:0,0:0:0:0:
40,111,94422,1,2,0:0:0:0:
45,94,94501,1,2,0:0:0:0:
174,170,94659,1,2,0:0:0:0:
272,29,94817,5,2,0:0:0:0:
277,51,94896,1,0,0:0:0:0:
283,72,94975,1,0,0:0:0:0:
278,235,95132,1,2,0:0:0:0:
76,190,95290,1,2,0:0:0:0:
92,187,95369,1,2,0:0:0:0:
108,184,95448,6,0,L|105:306,1,113.999996520996,6|0,0:0|0:0,0:0:0:0:
160,368,95685,1,2,0:0:0:0:
177,367,95764,2,0,L|235:366,1,56.9999982604981,6|0,0:0|0:0,0:0:0:0:
284,270,95922,2,0,L|340:270,1,56.9999982604981,2|2,0:0|0:0,0:0:0:0:
455,337,96080,5,6,0:0:0:0:
449,320,96159,2,0,P|447:291|457:258,1,56.9999982604981,0|0,0:0|0:0,0:0:0:0:
283,197,96317,1,0,0:0:0:0:
289,214,96396,2,0,P|291:243|281:276,1,56.9999982604981,6|0,0:0|0:0,0:0:0:0:
233,366,96553,2,0,P|204:368|171:358,1,56.9999982604981,2|2,0:0|0:0,0:0:0:0:
81,310,96711,6,0,P|79:281|89:248,1,56.9999982604981,2|0,0:0|0:0,0:0:0:0:
180,163,96869,1,0,0:0:0:0:
202,160,96948,2,0,L|266:162,1,56.9999982604981,2|0,0:0|0:0,0:0:0:0:
362,268,97106,1,2,0:0:0:0:
340,271,97185,2,0,L|276:269,1,56.9999982604981,2|0,0:0|0:0,0:0:0:0:
177,360,97343,6,0,P|212:363|237:357,1,56.9999982604981,0|0,3:0|0:0,0:0:0:0:
354,185,97501,2,0,P|325:181|297:186,1,56.9999982604981,2|0,0:0|0:0,0:0:0:0:
134,272,97659,1,2,0:0:0:0:
191,271,97737,1,2,0:0:0:0:
248,270,97816,1,2,0:0:0:0:
305,269,97895,1,2,0:0:0:0:
362,268,97975,6,0,L|348:144,1,123.499994346619,6|0,0:0|0:0,0:0:0:0:
402,74,98211,1,0,0:0:0:0:
410,90,98290,1,2,0:0:0:0:
267,192,98448,1,2,0:0:0:0:
448,261,98606,5,2,0:0:0:0:
423,261,98685,2,0,L|357:268,1,61.7499971733095,0|0,0:0|0:0,0:0:0:0:
233,358,98843,1,0,0:0:0:0:
219,336,98922,2,0,P|208:290|225:217,1,123.499994346619,2|2,0:0|0:0,0:0:0:0:
340,129,99159,1,0,0:0:0:0:
348,145,99238,6,0,P|290:155|238:113,1,123.499994346619,2|0,0:0|0:0,0:0:0:0:
298,0,99475,1,2,0:0:0:0:
305,16,99553,2,0,P|312:48|308:80,1,61.7499971733095,2|0,0:0|0:0,0:0:0:0:
161,142,99711,2,0,P|158:111|164:81,1,61.7499971733095,2|2,0:0|0:0,0:0:0:0:
390,17,99869,5,2,0:0:0:0:
393,41,99948,1,0,0:0:0:0:
397,65,100027,1,0,0:0:0:0:
375,241,100185,1,2,0:0:0:0:
240,118,100343,1,2,0:0:0:0:
222,124,100422,1,2,0:0:0:0:
204,130,100501,6,0,L|208:195,3,61.7499971733095,6|0|0|0,0:0|0:0|0:0|0:0,0:0:0:0:
263,253,100817,6,0,P|204:235|147:264,1,123.499994346619,6|2,0:0|0:0,0:0:0:0:
95,333,101053,1,2,0:0:0:0:
99,351,101132,2,0,L|161:350,1,61.7499971733095,6|0,0:0|0:0,0:0:0:0:
265,292,101290,2,0,L|327:291,1,61.7499971733095,2|2,0:0|0:0,0:0:0:0:
435,358,101448,2,0,P|428:297|445:238,1,123.499994346619,6|2,0:0|0:0,0:0:0:0:
505,159,101685,1,0,0:0:0:0:
486,158,101764,6,0,L|356:157,1,123.499994346619,6|0,0:0|0:0,0:0:0:0:
297,234,102001,1,2,0:0:0:0:
281,224,102080,2,0,P|228:211|151:223,1,123.499994346619,0|2,0:0|0:0,0:0:0:0:
97,284,102317,1,2,0:0:0:0:
92,301,102396,2,0,P|115:316|151:321,1,61.7499971733095,2|0,0:0|0:0,0:0:0:0:
249,309,102553,1,0,0:0:0:0:
171,126,102711,5,2,0:0:0:0:
130,138,102790,1,2,0:0:0:0:
107,174,102869,1,2,0:0:0:0:
113,216,102948,1,2,0:0:0:0:
144,244,103027,6,0,L|287:238,1,142.500005435944,6|0,0:0|0:0,0:0:0:0:
362,157,103264,1,6,0:0:0:0:
362,157,103343,2,0,B|318:68|318:68|305:118,1,142.500005435944,0|6,0:0|0:0,0:0:0:0:
286,322,103659,1,4,0:0:0:0:
286,322,103738,1,0,0:0:0:0:
286,322,103817,2,0,L|360:317,1,71.2500027179719,4|6,0:0|0:0,0:0:0:0:
448,234,103975,6,0,B|437:200|437:200|448:162,1,71.2500027179719,0|0,0:0|0:0,0:0:0:0:
224,94,104132,2,0,B|233:128|233:128|222:162,1,71.2500027179719,6|0,0:0|0:0,0:0:0:0:
144,293,104290,5,6,0:0:0:0:
123,297,104369,2,0,P|103:267|105:229,1,71.2500027179719,2|2,0:0|0:0,0:0:0:0:
152,127,104527,1,0,0:0:0:0:
285,284,104685,1,2,0:0:0:0:
305,279,104764,2,0,L|378:269,1,71.2500027179719,2|0,0:0|0:0,0:0:0:0:
412,138,104922,6,0,P|305:178|375:269,1,266,10|0,0:0|0:0,0:0:0:0:
374,198,105553,5,8,0:0:0:0:
251,48,105711,1,0,0:0:0:0:
251,48,105790,1,0,0:0:0:0:
251,48,105869,1,8,0:0:0:0:
161,244,106027,2,0,L|157:172,1,71.2500027179719,0|0,0:0|0:0,0:0:0:0:
42,56,106185,1,8,0:0:0:0:
89,247,106343,1,0,0:0:0:0:
89,247,106422,2,0,L|163:243,1,71.2500027179719,0|8,0:0|0:0,0:0:0:0:
247,119,106580,2,0,L|318:122,1,71.2500027179719
415,287,106817,5,2,0:0:0:0:
415,287,106896,2,0,P|376:290|347:277,1,71.2500027179719,0|0,0:0|0:0,0:0:0:0:
324,49,107053,1,2,0:0:0:0:
324,49,107132,2,0,P|360:62|380:86,1,71.2500027179719,2|2,0:0|0:0,0:0:0:0:
294,332,107290,1,2,0:0:0:0:
294,332,107369,2,0,P|274:298|273:266,1,71.2500027179719,2|2,0:0|0:0,0:0:0:0:
169,105,107527,1,0,0:0:0:0:
169,105,107606,2,0,P|172:139|155:175,1,71.2500027179719,2|2,0:0|0:0,0:0:0:0:
44,271,107764,6,0,L|2:265,2,38,2|0|0,0:0|0:0|0:0,0:0:0:0:
273,266,108080,5,6,0:0:0:0:
157,217,109027,5,2,0:0:0:0:
157,217,109659,5,2,0:0:0:0:
296,193,109817,1,2,0:0:0:0:
172,251,109975,5,2,0:0:0:0:
328,258,110132,1,2,0:0:0:0:
213,131,110290,5,2,0:0:0:0:
251,370,110606,1,2,0:0:0:0:
226,202,111553,5,2,0:0:0:0:
354,216,112343,1,2,0:0:0:0:
359,90,112501,6,0,L|354:65,3,15.8333333333333,2|2|2|2,0:0|0:0|0:0|0:0,0:0:0:0:
