osu file format v14

[General]
AudioFilename: overcomplexification.mp3
AudioLeadIn: 0
PreviewTime: 87869
Countdown: 0
SampleSet: Soft
StackLeniency: 0.7
Mode: 0
LetterboxInBreaks: 0
WidescreenStoryboard: 0

[Editor]
Bookmarks: 87869,97975
DistanceSpacing: 1.1
BeatDivisor: 4
GridSize: 4
TimelineZoom: 1.8

[Metadata]
Title:overcomplexification
TitleUnicode:overcomplexification
Artist:Camellia
ArtistUnicode:かめりあ
Creator:Ambient
Version:Normal
Source:jubeat prop
Tags:eeezzzeee HB24 -Tochi FCL Strategas Nwolf Ntiger
BeatmapID:853858
BeatmapSetID:378212

[Difficulty]
HPDrainRate:3
CircleSize:3
OverallDifficulty:3
ApproachRate:5
SliderMultiplier:0.8
SliderTickRate:1

[Events]
//Background and Video events
0,0,"complex.jpg",0,0
//Break Periods
2,40069,41196
2,72911,81617
//Storyboard Layer 0 (Background)
//Storyboard Layer 1 (Fail)
//Storyboard Layer 2 (Pass)
//Storyboard Layer 3 (Foreground)
//Storyboard Sound Samples

[TimingPoints]
1975,315.789473684211,4,2,0,35,1,0
5764,-100,4,2,0,35,0,0
6080,-100,4,2,0,35,0,0
6396,-100,4,2,0,35,0,0
9238,-100,4,2,0,35,0,0
9553,-100,4,2,0,35,0,0
9869,-100,4,2,0,35,0,0
11764,-100,4,2,0,5,0,0
12080,-100,4,2,69,70,0,0
15869,-100,4,2,69,70,0,0
16185,-100,4,2,69,70,0,0
17132,-100,4,2,69,70,0,0
19027,-100,4,2,69,70,0,0
20922,-100,4,2,69,50,0,0
22185,-100,4,2,69,70,0,0
29764,-100,4,2,69,70,0,0
32290,-100,4,2,69,70,0,0
37343,-100,4,2,69,70,0,0
37659,-100,4,2,69,70,0,0
37975,-100,4,2,69,70,0,0
38290,-100,4,2,69,70,0,0
39869,-100,4,2,69,50,0,0
41132,-100,4,2,69,80,0,0
41448,-100,4,2,69,50,0,0
42396,-100,4,2,69,60,0,0
43975,-100,4,2,0,40,0,0
44922,-100,4,2,69,60,0,0
46185,-100,4,2,69,20,0,0
46501,-100,4,2,69,30,0,0
46817,-100,4,2,69,40,0,0
47132,-100,4,2,69,50,0,0
47448,-100,4,2,69,60,0,0
48711,-100,4,2,0,40,0,0
49501,-100,4,2,69,45,0,0
49659,-100,4,2,69,50,0,0
49817,-100,4,2,69,60,0,0
56922,-100,4,2,69,70,0,0
57159,-100,4,2,69,60,0,0
62606,-100,4,2,69,60,0,0
67343,-100,4,2,69,60,0,0
67659,-100,4,2,69,60,0,0
72080,-100,4,2,69,60,0,0
72711,-100,4,2,0,35,0,0
74922,-100,4,2,0,65,0,0
75238,-100,4,2,0,35,0,0
77764,-100,4,2,0,60,0,0
79027,-100,4,2,0,65,0,0
80290,-100,4,2,69,70,0,0
82817,-100,4,2,69,20,0,0
85343,-100,4,2,69,50,0,0
86606,-100,4,2,69,50,0,0
87869,-100,4,1,69,50,0,1
108080,-100,4,2,0,35,0,0
112501,-100,4,2,0,35,0,0

[Colours]
Combo1 : 60,63,191
Combo2 : 128,0,255
Combo3 : 37,185,239

[HitObjects]
156,100,1975,6,0,B|124:148|148:196|148:196|124:252,1,160,2|0,0:0|0:0,0:0:0:0:
80,336,2922,2,0,P|168:336|216:272,1,160,2|0,0:0|0:0,0:0:0:0:
252,200,3869,1,2,0:0:0:0:
232,108,4185,1,2,0:0:0:0:
304,44,4501,6,0,B|360:116|360:116|352:196,1,160,2|0,0:0|0:0,0:0:0:0:
336,280,5448,1,2,0:0:0:0:
252,324,5764,2,0,L|248:244,1,80,0|0,0:0|0:0,0:0:0:0:
272,152,6396,1,0,0:0:0:0:
220,72,6711,1,0,0:0:0:0:
124,72,7027,6,0,P|84:136|108:224,1,160,2|0,0:0|0:0,0:0:0:0:
164,288,7975,2,0,L|260:152,1,160,2|2,0:0|0:0,0:0:0:0:
316,84,8922,1,2,0:0:0:0:
384,152,9238,1,2,0:0:0:0:
256,192,9553,12,0,11448,0:0:0:0:
368,96,12080,6,0,B|392:136|368:176,1,80,2|2,0:3|0:3,0:0:0:0:
332,260,12711,2,0,P|292:260|252:236,1,80,2|2,0:3|0:3,0:0:0:0:
204,164,13343,1,2,0:3:0:0:
204,164,13659,1,2,0:3:0:0:
128,224,13975,1,0,0:0:0:0:
128,224,14290,1,2,0:3:0:0:
44,176,14606,6,0,P|32:216|40:256,1,80,2|2,0:3|0:3,0:0:0:0:
100,328,15238,2,0,L|192:324,1,80,2|2,0:3|0:3,0:0:0:0:
272,344,15869,1,2,0:3:0:0:
368,316,16185,1,2,0:3:0:0:
300,248,16501,2,0,L|308:164,1,80,2|2,0:3|0:3,0:0:0:0:
356,88,17132,6,0,P|308:72|272:80,1,80,2|2,0:3|0:3,0:0:0:0:
232,92,17606,1,2,0:3:0:0:
200,128,17764,2,0,P|184:176|192:212,1,80,2|2,0:3|0:3,0:0:0:0:
248,280,18396,1,2,0:3:0:0:
248,280,18711,2,0,L|296:292,1,40,2|2,0:3|0:3,0:0:0:0:
332,296,19027,2,0,P|392:276|408:176,1,160,2|6,0:3|1:3,0:0:0:0:
260,72,22185,6,0,B|224:84|224:84|180:80,1,80,4|0,0:0|0:0,0:0:0:0:
136,68,22659,1,2,0:3:0:0:
92,52,22817,2,0,P|72:116|96:176,1,120,8|8,0:0|0:0,0:0:0:0:
168,216,23606,2,0,L|184:168,2,40,8|2|2,0:0|0:3|0:3,0:0:0:0:
148,260,24080,1,8,0:0:0:0:
232,304,24396,1,2,0:0:0:0:
328,270,24711,6,0,L|344:218,2,40,2|0|0,0:0|0:0|0:0,0:0:0:0:
240,226,25343,2,0,P|228:262|236:314,1,80,8|2,0:0|0:3,0:0:0:0:
196,334,25817,2,0,P|152:326|104:346,1,80,10|2,0:0|0:3,0:0:0:0:
76,318,26290,2,0,L|72:230,1,80,8|2,0:0|0:3,0:0:0:0:
72,188,26764,1,10,0:0:0:0:
160,72,27238,6,0,B|204:64|248:68,1,80,4|0,0:0|0:0,0:0:0:0:
288,64,27711,1,0,0:0:0:0:
336,72,27869,2,0,P|352:128|332:204,1,120,8|8,0:0|0:0,0:0:0:0:
308,280,28659,2,0,L|264:276,2,40,8|2|2,0:0|0:3|0:3,0:0:0:0:
356,288,29132,1,10,0:0:0:0:
448,256,29448,1,2,0:0:0:0:
468,160,29764,6,0,L|480:72,2,80,4|4|4,0:3|0:3|0:3,0:0:0:0:
384,112,30711,1,4,0:3:0:0:
304,164,31027,2,0,L|308:252,2,80,4|4|4,0:3|0:3|0:3,0:0:0:0:
220,212,31975,1,2,0:3:0:0:
140,264,32290,6,0,P|128:200|152:148,1,120,4|2,0:0|0:3,0:0:0:0:
172,108,32922,2,0,B|228:100|228:100|300:108,1,120,8|8,0:0|0:0,0:0:0:0:
376,60,33711,2,0,L|380:152,1,80,8|2,0:0|0:3,0:0:0:0:
380,188,34185,2,0,P|344:180|296:196,1,80,10|0,0:0|0:0,0:0:0:0:
228,252,34817,6,0,B|213:194|213:194|221:134,1,120,2|0,0:3|0:0,0:0:0:0:
216,88,35448,2,0,P|184:96|124:80,1,80,10|2,0:0|0:3,0:0:0:0:
92,76,35922,2,0,L|96:160,1,80,10|2,0:0|0:3,0:0:0:0:
100,204,36396,1,10,0:0:0:0:
148,288,36711,1,2,0:3:0:0:
244,272,37027,1,0,0:0:0:0:
208,184,37343,6,0,L|287:187,1,80,4|2,0:3|0:3,0:0:0:0:
376,152,37975,1,4,0:3:0:0:
460,200,38290,2,0,L|464:116,2,80,2|0|2,0:3|0:0|0:3,0:0:0:0:
376,248,39238,2,0,L|392:304,2,53.3333333333333,2|2|2,0:3|0:3|0:3,0:0:0:0:
356,188,39869,1,2,0:3:0:0:
96,320,42396,6,0,P|160:336|224:320,1,120,2|2,0:3|0:3,0:0:0:0:
256,308,43027,1,8,0:0:0:0:
352,324,43343,2,0,L|348:280,1,40,2|2,0:3|0:3,0:0:0:0:
252,176,43975,2,0,L|269:145,3,26.6666666666667,8|0|0|0,0:0|0:0|0:0|0:0,0:0:0:0:
365,141,44922,6,0,P|405:144|440:164,2,80,4|0|8,0:0|0:0|0:0,0:0:0:0:
384,236,45869,1,2,0:3:0:0:
384,236,46027,1,2,0:3:0:0:
396,332,47448,6,0,B|332:316|332:316|264:340,1,120,4|2,0:0|0:3,0:0:0:0:
236,348,48080,1,8,0:0:0:0:
156,296,48396,2,0,L|142:333,2,40,2|2|0,0:3|0:3|0:0,0:0:0:0:
224,228,49027,2,0,L|252:240,3,20,8|0|2|0,0:0|0:0|0:0|0:0,0:0:0:0:
183,88,49975,6,0,L|104:92,2,80,2|0|0,0:3|0:0|0:0,0:0:0:0:
276,56,50922,1,2,0:3:0:0:
372,72,51238,2,0,P|352:112|324:136,1,80,2|8,0:0|0:0,0:0:0:0:
300,176,51711,2,0,P|326:205|362:222,1,80,2|8,0:0|0:0,0:0:0:0:
228,324,52501,6,0,P|216:260|240:204,1,120,4|2,0:0|0:3,0:0:0:0:
264,172,53132,2,0,L|308:176,1,40,8|2,0:0|0:0,0:0:0:0:
348,196,53448,2,0,L|352:168,3,20,2|0|8|0,0:3|0:0|0:0|0:0,0:0:0:0:
140,24,54711,6,0,L|176:20,2,20,2|2|2,0:0|0:0|0:0,0:0:0:0:
100,36,55027,2,0,P|84:92|104:156,1,120,4|2,0:0|0:3,0:0:0:0:
124,180,55659,2,0,P|136:224|120:268,1,80,8|2,0:0|0:3,0:0:0:0:
116,296,56132,2,0,B|152:304|152:304|200:300,1,80,8|2,0:0|0:3,0:0:0:0:
236,292,56606,1,8,0:0:0:0:
404,324,57238,6,0,L|372:320,2,20,10|2|2,0:0|0:0|0:0,0:0:0:0:
440,308,57553,2,0,P|448:248|428:188,1,120,4|2,0:0|0:3,0:0:0:0:
412,156,58185,2,0,L|368:160,1,40,8|2,0:0|0:0,0:0:0:0:
332,152,58501,2,0,L|308:136,3,20,2|0|8|0,0:3|0:0|0:0|0:0,0:0:0:0:
192,276,60080,6,0,L|236:280,2,40,2|0|8,0:3|0:0|0:0,0:0:0:0:
144,276,60553,2,0,L|140:188,1,80,2|10,0:3|0:0,0:0:0:0:
264,124,61343,6,0,L|268:80,2,40,2|0|8,0:3|0:0|0:0,0:0:0:0:
312,128,61817,2,0,P|352:136|400:128,1,80,2|8,0:3|0:0,0:0:0:0:
472,252,62606,6,0,P|432:244|380:256,1,80,4|0,0:0|0:0,0:0:0:0:
308,296,63238,2,0,P|300:256|312:204,1,80,8|2,0:0|0:3,0:0:0:0:
356,136,63869,1,2,0:0:0:0:
292,64,64185,1,2,0:3:0:0:
216,124,64501,2,0,L|124:120,1,80,8|2,0:0|0:0,0:0:0:0:
92,204,65132,6,0,P|84:244|96:288,1,80,2|0,0:3|0:0,0:0:0:0:
176,248,65764,2,0,P|198:281|238:304,1,80,8|2,0:0|0:3,0:0:0:0:
268,220,66396,2,0,P|308:228|352:216,1,80,0|2,0:0|0:3,0:0:0:0:
424,256,67027,2,0,P|432:216|420:172,1,80
460,96,67659,6,0,B|424:92|424:92|372:100,1,80,4|0,0:0|0:0,0:0:0:0:
292,88,68290,2,0,B|300:124|300:124|292:176,1,80,8|2,0:0|0:3,0:0:0:0:
244,240,68922,1,0,0:0:0:0:
176,184,69238,1,2,0:3:0:0:
100,228,69553,2,0,L|84:188,2,40,8|2|2,0:0|0:3|0:3,0:0:0:0:
64,316,70185,6,0,P|102:325|141:317,1,80,2|0,0:0|0:0,0:0:0:0:
232,352,70817,2,0,L|236:260,1,80,8|2,0:0|0:3,0:0:0:0:
176,200,71448,2,0,L|128:212,2,40,2|2|10,0:0|0:3|0:0,0:0:0:0:
264,156,72080,1,2,0:3:0:0:
348,204,72396,1,0,0:0:0:0:
428,152,72711,1,0,0:0:0:0:
256,192,82817,12,2,85343,0:0:0:0:
344,148,86606,6,0,P|328:212|280:260,1,120,2|0,0:3|0:0,0:0:0:0:
244,264,87238,2,0,B|248:320,2,40,2|2|8,0:0|0:3|0:0,0:0:0:0:
220,172,87869,6,0,P|172:180|128:168,1,80,4|2,0:0|0:3,0:0:0:0:
100,152,88343,1,0,0:0:0:0:
56,172,88501,2,0,L|68:268,1,80,2|2,0:3|0:3,0:0:0:0:
144,308,89132,2,0,P|192:300|236:312,1,80,2|2,0:3|0:3,0:0:0:0:
308,348,89764,2,0,P|316:316|304:260,1,80,0|2,0:0|0:3,0:0:0:0:
236,204,90396,5,2,0:3:0:0:
324,168,90711,1,2,0:3:0:0:
404,220,91027,2,0,L|400:304,2,80,2|2|2,0:3|0:3|0:3,0:0:0:0:
456,140,91975,1,2,0:3:0:0:
400,64,92290,2,0,L|304:68,1,80,2|0,0:3|0:0,0:0:0:0:
232,108,92922,6,0,P|240:140|224:200,1,80,4|2,0:0|0:3,0:0:0:0:
208,228,93396,1,0,0:0:0:0:
220,276,93553,2,0,L|316:272,1,80,2|2,0:3|0:3,0:0:0:0:
392,308,94185,2,0,L|388:212,1,80,2|2,0:3|0:3,0:0:0:0:
424,140,94817,2,0,P|380:136|332:152,1,80,0|0,0:0|0:0,0:0:0:0:
264,196,95448,5,2,0:3:0:0:
180,148,95764,1,2,0:3:0:0:
92,188,96080,2,0,L|88:96,2,80,2|2|2,0:3|0:3|0:3,0:0:0:0:
168,248,97027,2,0,L|164:327,2,80,0|2|0,0:0|0:3|0:0,0:0:0:0:
260,216,97975,6,0,P|304:224|344:216,1,80,4|2,0:0|0:3,0:0:0:0:
384,204,98448,1,0,0:0:0:0:
428,220,98606,2,0,P|436:264|424:312,1,80,2|2,0:3|0:3,0:0:0:0:
344,340,99238,1,2,0:3:0:0:
252,308,99553,1,2,0:3:0:0:
160,340,99869,2,0,L|64:344,2,80,0|2|2,0:0|0:3|0:3,0:0:0:0:
156,244,100817,5,2,0:3:0:0:
100,168,101132,1,2,0:3:0:0:
164,96,101448,1,2,0:3:0:0:
228,168,101764,2,0,P|264:176|320:164,1,80,2|2,0:3|0:3,0:0:0:0:
392,216,102396,2,0,L|396:128,1,80,2|0,0:2|0:0,0:0:0:0:
312,88,103027,6,0,L|252:79,2,60,6|2|2,0:3|0:3|0:3,0:0:0:0:
308,136,103659,2,0,L|236:144,2,60,2|2|2,0:3|0:3|0:3,0:0:0:0:
316,184,104290,2,0,P|324:228|316:272,1,80,2|0,0:3|0:0,0:0:0:0:
228,232,104922,1,0,0:0:0:0:
60,324,105553,6,0,B|52:280|52:280|60:232,1,80,8|8,0:0|0:0,0:0:0:0:
136,188,106185,2,0,B|144:232|144:232|138:266,1,80,8|10,0:0|0:2,0:0:0:0:
212,328,106817,2,0,P|256:332|300:328,1,80,10|14,0:2|0:2,0:0:0:0:
340,248,107448,2,0,P|296:244|252:248,1,80,14|0,0:2|0:0,0:0:0:0:
212,164,108080,6,0,P|308:152|380:168,1,160,6|0,1:2|0:0,0:0:0:0:
432,236,109027,2,0,P|460:160|420:80,1,160,2|2,0:0|0:0,0:0:0:0:
264,324,110606,6,0,L|268:152,1,160,2|0,0:0|0:0,0:0:0:0:
176,132,111553,2,0,B|184:176|184:176|180:296,1,160,2|0,0:0|0:0,0:0:0:0:
96,248,112501,2,0,L|60:252,3,20,2|0|0|0,0:0|0:0|0:0|0:0,0:0:0:0:
