osu file format v14

[General]
AudioFilename: overcomplexification.mp3
AudioLeadIn: 0
PreviewTime: 87869
Countdown: 0
SampleSet: Soft
StackLeniency: 0.7
Mode: 0
LetterboxInBreaks: 0
WidescreenStoryboard: 0

[Editor]
Bookmarks: 87869,97975
DistanceSpacing: 1.6
BeatDivisor: 4
GridSize: 4
TimelineZoom: 1.6

[Metadata]
Title:overcomplexification
TitleUnicode:overcomplexification
Artist:Camellia
ArtistUnicode:かめりあ
Creator:Ambient
Version:Hard
Source:jubeat prop
Tags:eeezzzeee HB24 -Tochi FCL Strategas Nwolf Ntiger
BeatmapID:840643
BeatmapSetID:378212

[Difficulty]
HPDrainRate:5
CircleSize:4
OverallDifficulty:4
ApproachRate:8
SliderMultiplier:1
SliderTickRate:1

[Events]
//Background and Video events
0,0,"complex.jpg",0,0
//Break Periods
//Storyboard Layer 0 (Background)
//Storyboard Layer 1 (Fail)
//Storyboard Layer 2 (Pass)
//Storyboard Layer 3 (Foreground)
//Storyboard Sound Samples

[TimingPoints]
1975,315.789473684211,4,2,0,35,1,0
5764,-100,4,2,0,35,0,0
6080,-100,4,2,0,35,0,0
9553,-100,4,2,0,35,0,0
11764,-100,4,2,0,5,0,0
12080,-100,4,2,69,70,0,0
20922,-100,4,2,69,50,0,0
21869,-100,4,2,69,50,0,0
22185,-100,4,2,69,70,0,0
29764,-100,4,2,69,70,0,0
32290,-100,4,2,69,70,0,0
37343,-100,4,2,69,70,0,0
37659,-100,4,2,69,70,0,0
37975,-100,4,2,69,70,0,0
38290,-100,4,2,69,70,0,0
39869,-100,4,2,69,50,0,0
41132,-100,4,2,69,80,0,0
41448,-100,4,2,69,50,0,0
42396,-100,4,2,69,60,0,0
43975,-80,4,2,0,40,0,0
44922,-100,4,2,69,60,0,0
46185,-100,4,2,69,20,0,0
46501,-100,4,2,69,30,0,0
46817,-100,4,2,69,40,0,0
47132,-100,4,2,69,50,0,0
47448,-100,4,2,69,60,0,0
48711,-100,4,2,0,40,0,0
49501,-100,4,2,69,45,0,0
49659,-100,4,2,69,50,0,0
49817,-100,4,2,69,60,0,0
56922,-100,4,2,69,70,0,0
57159,-100,4,2,69,60,0,0
62764,-100,4,2,69,60,0,0
65132,-80,4,2,69,60,0,0
67343,-80,4,2,69,60,0,0
67659,-80,4,2,69,60,0,0
72080,-100,4,2,69,60,0,0
72711,-100,4,2,0,35,0,0
73659,-100,4,2,0,35,0,0
74922,-100,4,2,0,65,0,0
75238,-100,4,2,0,35,0,0
77764,-100,4,2,0,60,0,0
79027,-100,4,2,0,65,0,0
80290,-100,4,2,69,70,0,0
82817,-100,4,2,69,20,0,0
85343,-100,4,2,69,50,0,0
86606,-100,4,2,69,50,0,0
87869,-80,4,1,69,50,0,1
108080,-100,4,2,0,35,0,0
109027,-133.333333333333,4,2,0,35,0,0
112501,-66.6666666666667,4,2,0,35,0,0

[Colours]
Combo1 : 60,63,191
Combo2 : 164,32,240
Combo3 : 37,185,239

[HitObjects]
112,64,1975,6,0,L|128:272,1,200,2|0,0:0|0:0,0:0:0:0:
200,336,2922,2,0,L|224:168,1,150,2|2,0:0|0:0,0:0:0:0:
248,64,3553,2,0,L|264:112,1,50,0|2,0:0|0:0,0:0:0:0:
368,144,3869,2,0,L|348:98,2,50,2|2|2,0:0|0:0|0:0,0:0:0:0:
440,320,4501,6,0,B|344:352|344:352|248:304,1,200,2|0,0:0|0:0,0:0:0:0:
288,216,5448,2,0,B|236:208|236:208|184:240,1,100,2|0,0:0|0:0,0:0:0:0:
136,312,5922,1,0,0:0:0:0:
136,312,6080,2,0,P|104:272|108:208,1,100
180,148,6553,2,0,L|157:103,2,50
264,240,7027,6,0,P|328:240|392:120,1,200,2|0,0:0|0:0,0:0:0:0:
344,64,7975,2,0,P|280:64|224:144,1,150,2|0,0:0|0:0,0:0:0:0:
224,216,8606,2,0,L|264:248,1,50,2|2,0:0|0:0,0:0:0:0:
256,344,8922,2,0,L|216:312,1,50,2|2,0:0|0:0,0:0:0:0:
152,264,9238,1,2,0:0:0:0:
256,192,9553,12,0,11764,0:0:0:0:
80,128,12080,6,0,L|88:184,1,50,2|0,0:3|0:0,0:0:0:0:
108,276,12396,1,2,0:3:0:0:
108,276,12711,1,2,0:3:0:0:
108,276,13027,1,2,0:3:0:0:
212,336,13343,6,0,L|220:280,1,50,2|0,0:3|0:0,0:0:0:0:
240,188,13659,1,2,0:3:0:0:
240,188,13974,1,0,0:0:0:0:
240,188,14290,1,2,0:3:0:0:
320,100,14606,6,0,L|328:156,1,50,2|0,0:3|0:0,0:0:0:0:
348,248,14922,1,2,0:3:0:0:
348,248,15237,1,2,0:3:0:0:
348,248,15553,1,2,0:3:0:0:
440,328,15869,6,0,L|447:278,1,50,2|0,0:3|0:0,0:0:0:0:
508,200,16185,2,0,P|472:184|404:196,1,100,2|2,0:3|0:3,0:0:0:0:
348,248,16659,1,0,0:0:0:0:
316,160,16817,1,2,0:3:0:0:
248,232,16975,1,0,0:0:0:0:
188,128,17132,6,0,P|184:156|192:196,1,50,2|2,0:3|0:3,0:0:0:0:
246,281,17448,2,0,P|250:253|242:213,1,50,2|2,0:3|0:3,0:0:0:0:
120,252,17764,2,0,P|148:256|184:248,1,50,2|2,0:3|0:3,0:0:0:0:
316,160,18080,2,0,P|288:156|252:164,1,50,2|2,0:3|0:3,0:0:0:0:
316,256,18396,6,0,L|324:300,3,25,2|2|2|2,0:3|0:3|0:3|0:3,0:0:0:0:
356,252,18711,2,0,L|364:296,3,25,2|2|2|2,0:3|0:3|0:3|0:3,0:0:0:0:
396,248,19027,2,0,L|404:292,3,25,2|2|2|2,0:3|0:3|0:3|0:3,0:0:0:0:
436,244,19343,2,0,L|444:288,3,25,2|2|2|2,0:3|0:3|0:3|0:3,0:0:0:0:
476,240,19659,5,6,1:3:0:0:
364,96,20922,6,0,L|408:104,3,25,4|0|4|4,0:3|0:0|0:3|0:3,0:0:0:0:
348,120,21238,2,0,L|280:120,1,50,8|4,0:0|0:3,0:0:0:0:
204,60,21553,2,0,L|180:84,2,25,4|4|2,0:3|0:3|0:3,0:0:0:0:
228,168,21869,1,8,0:0:0:0:
364,96,22185,6,0,B|384:120|384:120|372:244,1,150,4|2,0:0|0:3,0:0:0:0:
400,336,22817,1,8,0:0:0:0:
308,292,22975,1,2,0:0:0:0:
224,344,23132,2,0,L|228:284,1,50,2|8,0:3|0:0,0:0:0:0:
311,242,23448,6,0,L|307:302,2,50,2|8|2,0:3|0:0|0:3,0:0:0:0:
232,180,23922,1,2,0:3:0:0:
300,104,24080,2,0,L|328:120,3,25,8|2|2|2,0:0|0:0|0:0|0:0,0:0:0:0:
276,96,24396,2,0,P|228:88|164:116,1,100,2|2,0:0|0:0,0:0:0:0:
232,180,24869,5,0,0:0:0:0:
132,164,25027,2,0,P|136:196|128:224,1,50,0|2,0:0|0:3,0:0:0:0:
76,296,25343,2,0,L|56:332,4,25,8|2|2|0|2,0:0|0:0|0:0|0:0|0:3,0:0:0:0:
56,196,25817,2,0,L|20:176,4,25,10|2|2|0|2,0:0|0:0|0:0|0:0|0:3,0:0:0:0:
168,280,26290,6,0,L|232:284,1,50,8|0,0:0|0:0,0:0:0:0:
300,212,26606,2,0,L|296:152,2,50,2|10|0,0:3|0:0|0:0,0:0:0:0:
460,300,27238,6,0,B|388:284|388:284|316:308,1,150,4|0,0:0|0:0,0:0:0:0:
224,344,27869,1,8,0:0:0:0:
252,248,28027,1,2,0:0:0:0:
252,248,28185,2,0,L|248:176,1,50,2|8,0:3|0:0,0:0:0:0:
328,136,28501,6,0,L|332:208,2,50,2|8|2,0:3|0:0|0:3,0:0:0:0:
424,160,28975,1,2,0:3:0:0:
388,252,29132,2,0,P|420:248|456:252,1,50,10|2,0:0|0:0,0:0:0:0:
380,332,29448,2,0,P|348:336|288:332,1,75,2|2,0:0|0:0,0:0:0:0:
280,312,29764,6,0,P|276:280|280:244,1,50,4|4,0:3|0:3,0:0:0:0:
328,136,30080,2,0,P|332:168|328:204,1,50,4|4,0:3|0:3,0:0:0:0:
232,176,30396,2,0,L|120:184,2,100,4|4|4,0:3|0:3|0:3,0:0:0:0:
276,262,31185,5,4,0:3:0:0:
192,312,31343,2,0,L|184:244,1,50,4|4,0:3|0:3,0:0:0:0:
108,200,31659,2,0,L|84:220,4,25,4|4|4|0|2,0:3|0:3|0:3|0:0|0:3,0:0:0:0:
204,48,32290,6,0,P|220:120|196:200,1,150,4|2,0:0|0:3,0:0:0:0:
140,272,32922,1,8,0:0:0:0:
208,344,33080,1,2,0:0:0:0:
268,264,33238,2,0,L|320:268,1,50,2|8,0:3|0:0,0:0:0:0:
388,340,33553,6,0,L|336:344,2,50,2|8|2,0:3|0:0|0:3,0:0:0:0:
460,268,34027,1,2,0:3:0:0:
380,208,34185,2,0,L|384:172,3,25,10|2|2|2,0:0|0:0|0:0|0:0,0:0:0:0:
348,212,34501,2,0,B|312:204|312:204|276:216,1,75,0|0,0:0|0:0,0:0:0:0:
244,248,34817,6,0,P|260:172|220:92,1,150,2|0,0:3|0:0,0:0:0:0:
308,52,35448,2,0,P|336:80|408:92,1,100,10|2,0:0|0:3,0:0:0:0:
476,128,35922,2,0,P|448:156|436:228,1,100,10|2,0:0|0:3,0:0:0:0:
364,272,36396,2,0,L|360:336,1,50,10|2,0:0|0:0,0:0:0:0:
276,268,36711,2,0,L|280:208,2,50,2|10|0,0:3|0:0|0:0,0:0:0:0:
192,324,37185,1,0,0:0:0:0:
192,324,37343,6,0,L|76:320,1,100,4|2,0:3|0:3,0:0:0:0:
24,220,37975,2,0,L|92:224,1,50,4|0,0:3|0:0,0:0:0:0:
124,136,38290,2,0,L|64:132,1,50,2|0,0:3|0:0,0:0:0:0:
204,88,38606,2,0,L|200:204,1,100,0|2,0:0|0:3,0:0:0:0:
296,264,39238,6,0,L|368:264,2,66.6666666666667,2|2|2,0:3|0:3|0:3,0:0:0:0:
196,300,39869,1,2,0:3:0:0:
396,229,41764,6,0,P|400:200|392:164,1,50,0|0,0:0|0:0,0:0:0:0:
312,232,42080,2,0,P|308:261|316:297,1,50,0|0,0:0|0:0,0:0:0:0:
224,336,42396,6,0,P|232:284|220:232,1,100,2|0,0:3|0:0,0:0:0:0:
172,152,42869,1,2,0:3:0:0:
124,240,43027,2,0,L|128:292,2,50,8|0|2,0:0|0:0|0:3,0:0:0:0:
64,160,43501,1,2,0:3:0:0:
184,68,43975,6,0,L|176:32,4,31.25,8|0|8|0|0,0:0|0:0|0:0|0:0|0:0,0:0:0:0:
296,68,44448,2,0,L|304:32,4,31.25,8|0|2|2|2,0:0|0:0|0:0|0:0|0:0,0:0:0:0:
364,144,44922,2,0,P|320:168|268:160,1,100,4|0,0:0|0:0,0:0:0:0:
192,224,45396,2,0,L|172:256,2,25,2|2|8,0:3|0:3|0:0,0:0:0:0:
212,104,45869,1,2,0:3:0:0:
212,104,46027,1,2,0:3:0:0:
116,132,46185,6,0,L|123:182,2,50,0|2|2,0:0|0:0|0:0,0:0:0:0:
44,200,46659,2,0,L|50:249,2,50,2|2|2,0:0|0:0|0:0,0:0:0:0:
132,268,47132,1,2,0:0:0:0:
220,336,47448,6,0,L|328:332,1,100,4|0,0:0|0:0,0:0:0:0:
420,352,47922,1,2,0:3:0:0:
476,268,48080,2,0,L|472:208,2,50,8|0|2,0:0|0:0|0:3,0:0:0:0:
380,236,48553,1,2,0:3:0:0:
444,132,49027,6,0,L|452:96,4,25,8|0|2|0|2,0:0|0:0|0:0|0:0|0:3,0:0:0:0:
348,96,49501,2,0,L|340:60,4,25,12|0|12|0|12,0:3|0:0|0:3|0:0|0:3,0:0:0:0:
334,190,49975,6,0,P|359:188|384:192,2,50,2|0|0,0:3|0:0|0:0,0:0:0:0:
264,264,50448,2,0,B|245:213|245:213|249:113,1,150,2|2,0:0|0:3,0:0:0:0:
164,68,51080,2,0,L|156:40,2,25,8|2|2,0:0|0:0|0:0,0:0:0:0:
92,140,51396,1,2,0:3:0:0:
172,200,51553,1,8,0:0:0:0:
172,200,51711,2,0,P|140:224|76:224,1,100,2|8,0:0|0:0,0:0:0:0:
24,308,52185,2,0,L|12:348,3,25,0|0|2|2,0:0|0:0|0:0|0:0,0:0:0:0:
60,312,52501,6,0,B|112:320|112:320|164:312,1,100,4|0,0:0|0:0,0:0:0:0:
232,244,52975,1,2,0:3:0:0:
312,304,53132,2,0,L|308:360,2,50,8|2|2,0:0|0:0|0:3,0:0:0:0:
372,224,53606,2,0,L|432:220,2,50,8|2|8,0:0|0:3|0:0,0:0:0:0:
292,164,54080,5,2,0:3:0:0:
232,244,54238,1,2,0:3:0:0:
312,304,54396,1,8,0:0:0:0:
372,224,54553,1,0,0:0:0:0:
292,164,54711,2,0,L|296:132,3,25,2|2|2|2,0:0|0:0|0:0|0:0,0:0:0:0:
256,160,55027,6,0,P|208:152|144:164,1,100,4|0,0:0|0:0,0:0:0:0:
72,212,55501,1,2,0:3:0:0:
72,212,55659,2,0,P|64:162|72:113,1,100,8|2,0:0|0:3,0:0:0:0:
157,159,56132,2,0,L|156:276,1,100,8|2,0:0|0:3,0:0:0:0:
244,212,56606,2,0,P|251:162|243:113,1,100,8|2,0:0|0:0,0:0:0:0:
243,113,57080,1,0,0:0:0:0:
328,60,57238,2,0,L|304:48,3,25,10|2|2|2,0:0|0:0|0:0|0:0,0:0:0:0:
344,76,57553,6,0,B|356:128|356:128|344:188,1,100,4|0,0:0|0:0,0:0:0:0:
304,264,58027,1,2,0:3:0:0:
400,244,58185,2,0,L|464:240,2,50,8|2|2,0:0|0:0|0:3,0:0:0:0:
303,263,58659,2,0,L|307:313,2,50,8|2|8,0:0|0:3|0:0,0:0:0:0:
248,180,59132,5,2,0:3:0:0:
188,260,59290,1,2,0:3:0:0:
164,164,59448,1,10,0:0:0:0:
92,236,59606,1,2,0:0:0:0:
28,156,59764,2,0,L|88:152,1,50,2|2,0:0|0:0,0:0:0:0:
164,65,60080,6,0,P|172:105|160:173,1,100,2|8,0:3|0:0,0:0:0:0:
252,212,60553,2,0,P|244:172|256:104,1,100,2|10,0:3|0:0,0:0:0:0:
336,60,61027,2,0,L|320:32,3,25,2|2|10|10,0:0|0:0|0:0|0:0,0:0:0:0:
352,80,61343,6,0,L|464:76,1,100,2|8,0:3|0:0,0:0:0:0:
496,168,61817,2,0,L|384:164,1,100,2|8,0:3|0:0,0:0:0:0:
324,232,62290,1,0,0:0:0:0:
324,232,62606,6,0,P|326:263|320:288,1,50,4|0,0:0|0:0,0:0:0:0:
232,324,62922,2,0,P|229:293|236:268,1,50,0|0,0:0|0:0,0:0:0:0:
256,176,63238,2,0,L|280:148,3,25,8|0|0|0,0:0|0:0|0:0|0:0,0:0:0:0:
224,172,63553,2,0,L|228:132,3,25,2|0|0|0,0:3|0:0|0:0|0:0,0:0:0:0:
184,176,63869,6,0,P|160:180|132:176,1,50,2|2,0:0|0:3,0:0:0:0:
84,88,64185,2,0,P|108:84|136:88,1,50,2|0,0:3|0:0,0:0:0:0:
224,44,64501,2,0,L|212:16,3,25,8|0|2|0,0:0|0:0|0:3|0:0,0:0:0:0:
260,44,64817,2,0,L|264:12,3,25,2|2|2|0,0:0|0:3|0:0|0:0,0:0:0:0:
300,60,65132,6,0,B|308:92|308:92|300:144,1,62.5,2|2,0:3|0:0,0:0:0:0:
220,233,65448,2,2,B|215:203|215:203|223:171,1,62.5,0|2,0:0|0:0,0:0:0:0:
308,200,65764,2,0,L|380:196,2,62.5,8|0|2,0:0|0:0|0:3,0:0:0:0:
232,100,66238,1,0,0:0:0:0:
144,172,66396,6,0,L|140:96,1,62.5,0|2,0:0|0:3,0:0:0:0:
64,192,66711,2,0,L|66:254,1,62.5,2|0,0:3|0:0,0:0:0:0:
156,324,67027,2,0,L|152:248,1,62.5,0|2,0:0|0:3,0:0:0:0:
236,204,67343,2,0,L|292:196,4,31.25,0|0|0|0|4,0:0|0:0|0:0|0:0|0:0,0:0:0:0:
408,308,67975,6,0,L|416:276,3,31.25,0|0|0|0,0:0|0:0|0:0|0:0,0:0:0:0:
424,240,68290,2,0,L|416:208,3,31.25,8|0|0|0,0:0|0:0|0:0|0:0,0:0:0:0:
416,172,68606,2,0,L|424:140,3,31.25,2|0|0|0,0:3|0:0|0:0|0:0,0:0:0:0:
416,104,68922,6,0,P|384:96|348:104,1,62.5,0|2,0:0|0:3,0:0:0:0:
268,172,69238,2,0,P|300:180|336:172,1,62.5,2|2,0:3|0:0,0:0:0:0:
264,68,69553,2,0,L|272:32,3,31.25,8|2|2|2,0:0|0:0|0:3|0:0,0:0:0:0:
228,72,69869,2,0,L|220:36,3,31.25,2|2|2|0,0:3|0:3|0:3|0:0,0:0:0:0:
196,88,70185,6,0,L|200:168,1,62.5,2|10,0:0|0:0,0:0:0:0:
116,84,70501,2,0,L|120:160,1,62.5,0|10,0:0|0:0,0:0:0:0:
39,142,70817,2,0,L|36:80,2,62.5,8|0|2,0:0|0:0|0:3,0:0:0:0:
108,224,71290,1,8,0:0:0:0:
201,181,71448,6,0,L|198:144,3,31.25,2|0|2|0,0:0|0:0|0:3|0:0,0:0:0:0:
244,180,71764,2,0,L|247:143,3,31.25,10|2|2|2,0:0|0:0|0:0|0:0,0:0:0:0:
280,192,72080,2,0,P|312:280|216:328,1,200,2|0,0:3|0:0,0:0:0:0:
416,332,73659,6,0,P|400:256|408:176,1,150,2|0,0:0|0:0,0:0:0:0:
432,100,74290,2,0,P|404:96|368:104,1,50,2|2,0:0|0:0,0:0:0:0:
304,144,74606,2,0,L|300:88,2,50,2|2|2,0:0|0:0|0:0,0:0:0:0:
172,48,75238,6,0,P|184:100|168:160,1,100,2|0,0:0|0:0,0:0:0:0:
96,208,75711,2,0,L|72:184,2,25,0|0|0,0:0|0:0|0:0,0:0:0:0:
192,236,76185,2,0,P|220:240|296:236,1,100,2|2,0:0|0:0,0:0:0:0:
368,172,76659,1,0,0:0:0:0:
454,123,76817,2,0,B|468:168|468:168|456:220,1,100,0|8,0:0|0:0,0:0:0:0:
368,172,77290,1,0,0:0:0:0:
368,172,77448,2,0,L|364:108,1,50,0|0,0:0|0:0,0:0:0:0:
280,72,77764,6,0,L|288:176,1,100,2|2,0:3|0:3,0:0:0:0:
296,272,78238,1,0,0:0:0:0:
216,212,78396,2,0,L|180:224,2,25,2|0|0,0:3|0:0|0:0,0:0:0:0:
296,272,78711,2,0,L|280:304,2,25,2|0|0,0:3|0:0|0:0,0:0:0:0:
200,308,79027,6,0,L|140:312,1,50,2|0,0:3|0:0,0:0:0:0:
88,232,79343,2,0,L|156:228,1,50,2|2,0:3|0:0,0:0:0:0:
204,152,79659,2,0,L|212:112,2,25,2|0|2,0:3|0:0|0:0,0:0:0:0:
108,120,79975,2,0,L|100:80,2,25,2|0|0,0:3|0:0|0:0,0:0:0:0:
176,48,80290,5,8,0:0:0:0:
284,68,80448,2,0,L|288:36,2,25,2|2|8,0:3|0:3|0:0,0:0:0:0:
364,128,80764,2,0,L|360:96,2,25,2|2|8,0:3|0:3|0:0,0:0:0:0:
280,184,81080,2,0,L|284:152,2,25,2|2|8,0:3|0:3|0:0,0:0:0:0:
364,244,81396,1,2,0:3:0:0:
268,272,81553,6,0,L|172:276,2,66.6666666666667,8|8|8,0:0|0:0|0:0,0:0:0:0:
213,181,82185,2,0,L|279:183,2,66.6666666666667,10|8|8,0:0|0:0|0:0,0:0:0:0:
256,192,82817,12,0,85027,0:0:0:0:
456,152,85343,6,0,P|464:192|456:232,2,75,2|2|2,0:0|0:0|0:0,0:0:0:0:
372,100,85975,2,0,P|360:144|376:208,1,100,2|0,0:0|0:0,0:0:0:0:
336,280,86448,1,2,0:0:0:0:
264,224,86606,2,0,L|256:264,4,25,2|2|2|2|8,0:3|0:3|0:3|0:3|0:3,0:0:0:0:
180,280,87080,2,0,L|188:320,4,25,0|2|2|2|2,0:0|0:0|0:0|0:0|0:3,0:0:0:0:
96,224,87553,1,8,0:0:0:0:
184,44,87869,6,0,P|168:104|188:172,1,125,4|2,0:0|0:3,0:0:0:0:
244,244,88343,1,0,0:0:0:0:
332,200,88501,2,0,P|368:192|404:200,1,62.5,2|2,0:3|0:2,0:0:0:0:
452,276,88817,2,0,P|416:284|380:276,1,62.5,2|0,0:3|0:0,0:0:0:0:
288,328,89132,6,0,B|240:336|240:336|188:324,1,93.75,2|0,0:3|0:0,0:0:0:0:
152,336,89448,2,0,L|148:260,1,62.5,2|0,0:3|0:0,0:0:0:0:
88,184,89764,2,0,L|52:176,2,31.25,0|0|2,0:0|0:0|0:2,0:0:0:0:
176,112,90080,2,0,L|180:188,1,62.5,2|0,0:3|0:0,0:0:0:0:
256,260,90396,6,0,P|288:264|328:260,1,62.5,2|0,0:3|0:0,0:0:0:0:
392,176,90711,2,0,P|360:172|320:176,1,62.5,2|0,0:3|0:0,0:0:0:0:
216,168,91027,2,0,L|176:144,3,31.25,2|0|0|2,0:3|0:0|0:0|0:3,0:0:0:0:
244,140,91343,2,0,L|228:108,3,31.25,2|0|0|2,0:3|0:0|0:0|0:3,0:0:0:0:
276,132,91659,6,0,B|292:176|292:176|284:260,1,125,2|2,0:3|0:3,0:0:0:0:
368,328,92132,1,0,0:0:0:0:
472,296,92291,2,0,L|504:308,2,31.25,2|0|2,0:3|0:0|0:2,0:0:0:0:
464,160,92606,1,0,0:0:0:0:
364,208,92764,1,0,0:0:0:0:
276,132,92922,6,0,B|216:140|216:140|152:128,1,125,4|2,0:0|0:3,0:0:0:0:
92,208,93396,1,0,0:0:0:0:
136,296,93553,2,0,L|73:298,1,62.5,2|2,0:3|0:2,0:0:0:0:
180,228,93869,2,0,L|242:228,1,62.5,2|0,0:3|0:0,0:0:0:0:
324,288,94185,6,0,P|332:236|320:184,1,93.75,2|2,0:3|0:3,0:0:0:0:
308,156,94501,2,0,P|256:152|224:160,1,62.5,2|0,0:3|0:0,0:0:0:0:
160,80,94817,2,0,L|132:44,2,31.25,0|0|0,0:0|0:0|0:0,0:0:0:0:
172,192,95132,2,0,L|175:254,1,62.5,0|2,0:0|0:3,0:0:0:0:
116,336,95448,6,0,P|176:347|235:329,1,125,2|2,0:3|0:3,0:0:0:0:
312,244,95922,1,0,0:0:0:0:
408,288,96080,2,0,L|444:292,3,31.25,2|0|2|2,0:3|0:0|0:2|0:3,0:0:0:0:
408,252,96396,2,0,L|444:248,3,31.25,2|0|0|2,0:3|0:0|0:0|0:3,0:0:0:0:
400,216,96711,6,0,P|392:168|412:108,1,93.75,2|2,0:3|0:3,0:0:0:0:
420,84,97027,2,0,L|348:88,1,62.5,0|2,0:0|0:3,0:0:0:0:
264,52,97343,1,2,0:3:0:0:
300,144,97501,1,2,0:2:0:0:
240,224,97659,2,0,L|248:272,2,31.25
132,284,97975,6,0,L|132:160,1,125,4|2,0:0|0:3,0:0:0:0:
120,60,98448,1,0,0:0:0:0:
204,124,98606,2,0,B|240:128|240:128|272:124,1,62.5,2|2,0:3|0:2,0:0:0:0:
356,84,98922,2,0,B|364:116|364:116|356:160,1,62.5,2|0,0:3|0:0,0:0:0:0:
280,228,99238,6,0,P|328:240|384:232,1,93.75,2|2,0:3|0:3,0:0:0:0:
408,216,99553,2,0,L|416:284,1,62.5,2|0,0:3|0:0,0:0:0:0:
328,332,99869,2,0,L|324:364,2,31.25,0|2|2,0:0|0:2|0:2,0:0:0:0:
252,248,100185,2,0,L|248:312,1,62.5,2|0,0:3|0:0,0:0:0:0:
140,340,100501,6,0,B|152:292|152:292|148:196,1,125,2|2,0:3|0:3,0:0:0:0:
112,124,100975,1,0,0:0:0:0:
52,204,101132,2,0,L|16:200,3,31.25,2|0|2|2,0:3|0:0|0:2|0:3,0:0:0:0:
52,240,101448,2,0,L|16:244,3,31.25,2|0|0|2,0:3|0:0|0:0|0:3,0:0:0:0:
60,276,101764,6,0,P|104:284|172:276,1,93.75,2|0,0:3|0:0,0:0:0:0:
184,300,102080,2,0,L|188:228,1,62.5,2|0,0:3|0:0,0:0:0:0:
144,148,102396,2,0,L|104:128,2,31.25,2|2|2,0:2|0:2|0:2,0:0:0:0:
236,84,102711,1,0,0:0:0:0:
296,180,102869,1,0,0:0:0:0:
388,84,103027,6,0,L|380:184,2,93.75,6|2|2,0:3|0:3|0:3,0:0:0:0:
464,168,103659,2,0,L|472:268,2,93.75,2|2|2,0:3|0:3|0:3,0:0:0:0:
392,252,104290,2,0,L|332:248,2,31.25,2|0|0,0:3|0:0|0:0,0:0:0:0:
284,280,104606,2,0,P|280:244|284:204,1,62.5,0|2,0:0|0:3,0:0:0:0:
368,144,104922,1,0,0:0:0:0:
196,44,105553,6,0,P|200:80|192:124,1,62.5,8|2,0:0|0:3,0:0:0:0:
296,112,105869,2,0,P|273:140|236:165,1,62.5,8|2,0:0|0:3,0:0:0:0:
320,232,106185,2,0,P|283:236|239:228,1,62.5,8|2,0:0|0:2,0:0:0:0:
248,332,106501,2,0,P|219:309|194:272,1,62.5,10|2,0:2|0:3,0:0:0:0:
112,248,106817,6,0,L|72:252,3,31.25,10|2|2|2,0:2|0:2|0:3|0:2,0:0:0:0:
112,212,107132,2,0,L|72:216,3,31.25,14|2|2|0,0:2|0:2|0:3|0:0,0:0:0:0:
112,176,107448,2,0,L|72:180,3,31.25,14|0|2|0,0:2|0:0|0:3|0:0,0:0:0:0:
116,140,107764,1,0,0:0:0:0:
256,60,108080,5,6,1:2:0:0:
256,60,109027,2,0,P|268:120|256:176,1,112.500004291535,2|0,0:0|0:0,0:0:0:0:
192,220,109659,2,0,L|184:176,1,37.5000014305115,2|2,0:0|0:0,0:0:0:0:
104,192,109975,2,0,L|112:148,2,37.5000014305115,2|2|2,0:0|0:0|0:0,0:0:0:0:
180,304,110606,5,2,0:0:0:0:
268,288,111553,1,2,0:0:0:0:
380,188,112343,5,2,0:0:0:0:
300,152,112501,2,0,L|292:188,3,37.5000014305115,2|0|0|0,0:0|0:0|0:0|0:0,0:0:0:0:
