osu file format v14

[General]
AudioFilename: overcomplexification.mp3
AudioLeadIn: 0
PreviewTime: 22191
Countdown: 0
SampleSet: None
StackLeniency: 0.7
Mode: 1
LetterboxInBreaks: 0
WidescreenStoryboard: 0

[Editor]
DistanceSpacing: 1
BeatDivisor: 4
GridSize: 16
TimelineZoom: 4.200004

[Metadata]
Title:overcomplexification
TitleUnicode:overcomplexification
Artist:Camellia
ArtistUnicode:かめりあ
Creator:-Kazu-
Version:Muzukashii
Source:jubeat prop
Tags:
BeatmapID:1829251
BeatmapSetID:871575

[Difficulty]
HPDrainRate:5
CircleSize:5
OverallDifficulty:5.5
ApproachRate:5
SliderMultiplier:1.4
SliderTickRate:1

[Events]
//Background and Video events
0,0,"overcomplexification bg.jpg",0,0
//Break Periods
//Storyboard Layer 0 (Background)
//Storyboard Layer 1 (Fail)
//Storyboard Layer 2 (Pass)
//Storyboard Layer 3 (Foreground)
//Storyboard Sound Samples

[TimingPoints]
1981,315.789473684211,4,1,0,35,1,0
1981,-100,4,1,0,35,0,0
4112,-100,4,1,0,70,0,0
4428,-100,4,1,0,35,0,0
5691,-100,4,1,0,70,0,0
6954,-100,4,1,0,35,0,0
9165,-100,4,1,0,70,0,0
9323,-100,4,1,0,35,0,0
12007,-100,4,1,0,75,0,0
62612,-100,4,1,0,75,0,1
65138,-100,4,1,0,75,0,0
67665,-100,4,1,0,75,0,1
70191,-100,4,1,0,75,0,0
73191,-100,4,1,0,35,0,0
74928,-100,4,1,0,75,0,0
75165,-100,4,1,0,35,0,0
76507,-100,4,1,0,75,0,0
87875,-100,4,1,0,75,0,1
108086,-100,4,1,0,35,0,0
109033,-100,4,1,0,35,0,0
112349,-100,4,1,0,15,0,0

[HitObjects]
256,192,1981,5,0,0:0:0:0:
256,192,2928,1,0,0:0:0:0:
256,192,3559,1,0,0:0:0:0:
256,192,3717,1,8,0:0:0:0:
256,192,3875,1,0,0:0:0:0:
256,192,4191,1,4,0:0:0:0:
256,192,4507,1,8,0:0:0:0:
256,192,4823,1,0,0:0:0:0:
256,192,5454,1,8,0:0:0:0:
256,192,5770,1,8,0:0:0:0:
256,192,5928,1,8,0:0:0:0:
256,192,6086,1,8,0:0:0:0:
256,192,6165,1,8,0:0:0:0:
256,192,6244,1,8,0:0:0:0:
256,192,6402,1,0,0:0:0:0:
256,192,6717,1,8,0:0:0:0:
256,192,7033,1,0,0:0:0:0:
256,192,7665,1,0,0:0:0:0:
256,192,7981,1,8,0:0:0:0:
256,192,8612,1,0,0:0:0:0:
256,192,8770,1,8,0:0:0:0:
256,192,8928,1,0,0:0:0:0:
256,192,9086,1,8,0:0:0:0:
256,192,9244,1,4,0:0:0:0:
256,192,9402,1,0,0:0:0:0:
256,192,9559,1,8,0:0:0:0:
256,192,10033,1,8,0:0:0:0:
256,192,10507,1,0,0:0:0:0:
256,192,10981,1,0,0:0:0:0:
256,192,11375,1,8,0:0:0:0:
256,192,11770,1,0,0:0:0:0:
256,192,12086,1,0,0:0:0:0:
256,192,12402,1,8,0:0:0:0:
256,192,12559,1,0,0:0:0:0:
256,192,12875,1,8,0:0:0:0:
256,192,13033,1,0,0:0:0:0:
256,192,13191,1,0,0:0:0:0:
256,192,13349,1,0,0:0:0:0:
256,192,13665,1,8,0:0:0:0:
256,192,13823,1,0,0:0:0:0:
256,192,14296,1,4,0:0:0:0:
256,192,14612,1,0,0:0:0:0:
256,192,14928,1,8,0:0:0:0:
256,192,15086,1,0,0:0:0:0:
256,192,15402,1,0,0:0:0:0:
256,192,15559,1,0,0:0:0:0:
256,192,15717,1,8,0:0:0:0:
256,192,15875,1,0,0:0:0:0:
256,192,16033,1,0,0:0:0:0:
256,192,16191,1,8,0:0:0:0:
256,192,16270,1,8,0:0:0:0:
256,192,16349,1,8,0:0:0:0:
256,192,16507,1,0,0:0:0:0:
256,192,16823,1,0,0:0:0:0:
256,192,16981,1,8,0:0:0:0:
256,192,17138,1,0,0:0:0:0:
256,192,17217,1,0,0:0:0:0:
256,192,17296,1,0,0:0:0:0:
256,192,17454,1,8,0:0:0:0:
256,192,17612,1,0,0:0:0:0:
256,192,17691,1,0,0:0:0:0:
256,192,17770,1,0,0:0:0:0:
256,192,17928,1,8,0:0:0:0:
256,192,18086,1,0,0:0:0:0:
256,192,18165,1,0,0:0:0:0:
256,192,18244,1,8,0:0:0:0:
256,192,18402,1,0,0:0:0:0:
256,192,18717,1,8,0:0:0:0:
256,192,18875,1,0,0:0:0:0:
256,192,18954,1,0,0:0:0:0:
256,192,19033,1,0,0:0:0:0:
256,192,19191,1,8,0:0:0:0:
256,192,19349,1,0,0:0:0:0:
256,192,19428,1,0,0:0:0:0:
256,192,19507,1,8,0:0:0:0:
256,192,19665,1,0,0:0:0:0:
256,192,20928,1,0,0:0:0:0:
256,192,21086,1,8,0:0:0:0:
256,192,21165,1,8,0:0:0:0:
256,192,21244,1,8,0:0:0:0:
256,192,21402,1,0,0:0:0:0:
256,192,21559,1,8,0:0:0:0:
256,192,21638,1,8,0:0:0:0:
256,192,21717,1,0,0:0:0:0:
256,192,21875,1,8,0:0:0:0:
256,192,22191,1,4,0:0:0:0:
256,192,22665,1,0,0:0:0:0:
256,192,22823,1,8,0:0:0:0:
256,192,22981,1,0,0:0:0:0:
256,192,23059,1,0,0:0:0:0:
256,192,23138,1,0,0:0:0:0:
256,192,23296,1,8,0:0:0:0:
256,192,23454,1,0,0:0:0:0:
256,192,23612,1,8,0:0:0:0:
256,192,23770,1,0,0:0:0:0:
256,192,23928,1,0,0:0:0:0:
256,192,24086,1,8,0:0:0:0:
256,192,24402,1,8,0:0:0:0:
256,192,24481,1,8,0:0:0:0:
256,192,24559,1,8,0:0:0:0:
256,192,24717,1,0,0:0:0:0:
256,192,24875,1,0,0:0:0:0:
256,192,25033,1,8,0:0:0:0:
256,192,25349,1,0,0:0:0:0:
256,192,25507,1,8,0:0:0:0:
256,192,25586,1,8,0:0:0:0:
256,192,25665,1,8,0:0:0:0:
256,192,25823,1,0,0:0:0:0:
256,192,26138,1,8,0:0:0:0:
256,192,26296,1,0,0:0:0:0:
256,192,26454,1,8,0:0:0:0:
256,192,26533,1,8,0:0:0:0:
256,192,26612,1,8,0:0:0:0:
256,192,26770,1,0,0:0:0:0:
256,192,26928,1,8,0:0:0:0:
256,192,27244,1,4,0:0:0:0:
256,192,27717,1,0,0:0:0:0:
256,192,27875,1,8,0:0:0:0:
256,192,28033,1,0,0:0:0:0:
256,192,28112,1,0,0:0:0:0:
256,192,28191,1,0,0:0:0:0:
256,192,28349,1,8,0:0:0:0:
256,192,28507,1,0,0:0:0:0:
256,192,28665,1,8,0:0:0:0:
256,192,28823,1,0,0:0:0:0:
256,192,28981,1,0,0:0:0:0:
256,192,29138,1,8,0:0:0:0:
256,192,29454,1,0,0:0:0:0:
256,192,29770,1,4,0:0:0:0:
256,192,29928,1,4,0:0:0:0:
256,192,30086,1,8,0:0:0:0:
256,192,30244,1,0,0:0:0:0:
256,192,30402,1,8,0:0:0:0:
256,192,30481,1,8,0:0:0:0:
256,192,30559,1,8,0:0:0:0:
256,192,30717,1,4,0:0:0:0:
256,192,30875,1,8,0:0:0:0:
256,192,31033,1,4,0:0:0:0:
256,192,31191,1,8,0:0:0:0:
256,192,31349,1,8,0:0:0:0:
256,192,31428,1,8,0:0:0:0:
256,192,31507,1,8,0:0:0:0:
256,192,31665,1,4,0:0:0:0:
256,192,31823,1,4,0:0:0:0:
256,192,31981,1,8,0:0:0:0:
256,192,32296,1,4,0:0:0:0:
256,192,32770,1,0,0:0:0:0:
256,192,32928,1,8,0:0:0:0:
256,192,33086,1,0,0:0:0:0:
256,192,33165,1,0,0:0:0:0:
256,192,33244,1,0,0:0:0:0:
256,192,33402,1,8,0:0:0:0:
256,192,33559,1,0,0:0:0:0:
256,192,33717,1,8,0:0:0:0:
256,192,33875,1,0,0:0:0:0:
256,192,34033,1,0,0:0:0:0:
256,192,34191,1,8,0:0:0:0:
256,192,34270,1,8,0:0:0:0:
256,192,34349,1,0,0:0:0:0:
256,192,34507,1,8,0:0:0:0:
256,192,34823,1,4,0:0:0:0:
256,192,35454,1,0,0:0:0:0:
256,192,35612,1,8,0:0:0:0:
256,192,35691,1,8,0:0:0:0:
256,192,35770,1,8,0:0:0:0:
256,192,35928,1,0,0:0:0:0:
256,192,36244,1,8,0:0:0:0:
256,192,36402,1,0,0:0:0:0:
256,192,36559,1,8,0:0:0:0:
256,192,36638,1,8,0:0:0:0:
256,192,36717,1,8,0:0:0:0:
256,192,36875,1,0,0:0:0:0:
256,192,37033,1,8,0:0:0:0:
256,192,37349,1,0,0:0:0:0:
256,192,37507,1,8,0:0:0:0:
256,192,37665,1,4,0:0:0:0:
256,192,37981,1,8,0:0:0:0:
256,192,38138,1,0,0:0:0:0:
256,192,38296,1,12,0:0:0:0:
256,192,38454,1,12,0:0:0:0:
256,192,38612,1,0,0:0:0:0:
256,192,38691,1,0,0:0:0:0:
256,192,38770,1,0,0:0:0:0:
256,192,38928,1,12,0:0:0:0:
256,192,39244,1,12,0:0:0:0:
256,192,39454,1,12,0:0:0:0:
256,192,39665,1,12,0:0:0:0:
256,192,39875,1,4,0:0:0:0:
256,192,42402,1,4,0:0:0:0:
256,192,42875,1,0,0:0:0:0:
256,192,43033,1,8,0:0:0:0:
256,192,43349,1,0,0:0:0:0:
256,192,43507,1,0,0:0:0:0:
256,192,43981,1,8,0:0:0:0:
256,192,44059,1,8,0:0:0:0:
256,192,44138,1,8,0:0:0:0:
256,192,44296,1,0,0:0:0:0:
256,192,44454,1,8,0:0:0:0:
256,192,44928,1,4,0:0:0:0:
256,192,45402,1,0,0:0:0:0:
256,192,45481,1,0,0:0:0:0:
256,192,45559,1,0,0:0:0:0:
256,192,45875,1,0,0:0:0:0:
256,192,46033,1,0,0:0:0:0:
256,192,46191,1,0,0:0:0:0:
256,192,46270,1,0,0:0:0:0:
256,192,46349,1,0,0:0:0:0:
256,192,46507,1,8,0:0:0:0:
256,192,46586,1,8,0:0:0:0:
256,192,46665,1,8,0:0:0:0:
256,192,46823,1,0,0:0:0:0:
256,192,46981,1,0,0:0:0:0:
256,192,47138,1,8,0:0:0:0:
256,192,47454,1,4,0:0:0:0:
256,192,47928,1,0,0:0:0:0:
256,192,48086,1,8,0:0:0:0:
256,192,48402,1,0,0:0:0:0:
256,192,48559,1,0,0:0:0:0:
256,192,49033,1,8,0:0:0:0:
256,192,49349,1,0,0:0:0:0:
256,192,49507,1,8,0:0:0:0:
256,192,49586,1,8,0:0:0:0:
256,192,49665,1,8,0:0:0:0:
256,192,49981,1,4,0:0:0:0:
256,192,50454,1,0,0:0:0:0:
256,192,50533,1,0,0:0:0:0:
256,192,50612,1,8,0:0:0:0:
256,192,50928,1,0,0:0:0:0:
256,192,51086,1,8,0:0:0:0:
256,192,51402,1,0,0:0:0:0:
256,192,51559,1,8,0:0:0:0:
256,192,51717,1,0,0:0:0:0:
256,192,51875,1,0,0:0:0:0:
256,192,52033,1,8,0:0:0:0:
256,192,52349,1,8,0:0:0:0:
256,192,52507,1,4,0:0:0:0:
256,192,52981,1,0,0:0:0:0:
256,192,53138,1,8,0:0:0:0:
256,192,53454,1,0,0:0:0:0:
256,192,53612,1,8,0:0:0:0:
256,192,53770,1,0,0:0:0:0:
256,192,53928,1,8,0:0:0:0:
256,192,54086,1,0,0:0:0:0:
256,192,54244,1,0,0:0:0:0:
256,192,54402,1,0,0:0:0:0:
256,192,54559,1,0,0:0:0:0:
256,192,55033,1,4,0:0:0:0:
256,192,55191,1,0,0:0:0:0:
256,192,55507,1,0,0:0:0:0:
256,192,55586,1,0,0:0:0:0:
256,192,55665,1,8,0:0:0:0:
256,192,55981,1,0,0:0:0:0:
256,192,56059,1,0,0:0:0:0:
256,192,56138,1,8,0:0:0:0:
256,192,56454,1,0,0:0:0:0:
256,192,56612,1,8,0:0:0:0:
256,192,56770,1,0,0:0:0:0:
256,192,56849,1,0,0:0:0:0:
256,192,56928,1,0,0:0:0:0:
256,192,57086,1,0,0:0:0:0:
256,192,57244,1,8,0:0:0:0:
256,192,57559,1,4,0:0:0:0:
256,192,58033,1,0,0:0:0:0:
256,192,58191,1,8,0:0:0:0:
256,192,58507,1,0,0:0:0:0:
256,192,58665,1,8,0:0:0:0:
256,192,58823,1,0,0:0:0:0:
256,192,58981,1,8,0:0:0:0:
256,192,59138,1,0,0:0:0:0:
256,192,59296,1,0,0:0:0:0:
256,192,59454,1,0,0:0:0:0:
256,192,59612,1,0,0:0:0:0:
256,192,60086,1,4,0:0:0:0:
256,192,60402,1,0,0:0:0:0:
256,192,60559,1,12,0:0:0:0:
256,192,60875,1,0,0:0:0:0:
256,192,61191,1,8,0:0:0:0:
256,192,61349,1,4,0:0:0:0:
256,192,61665,1,0,0:0:0:0:
256,192,61823,1,12,0:0:0:0:
256,192,62138,1,0,0:0:0:0:
256,192,62612,1,0,0:0:0:0:
256,192,62770,1,8,0:0:0:0:
256,192,62928,1,8,0:0:0:0:
256,192,63007,1,8,0:0:0:0:
256,192,63086,1,8,0:0:0:0:
256,192,63165,1,8,0:0:0:0:
256,192,63244,1,8,0:0:0:0:
256,192,63402,1,8,0:0:0:0:
256,192,63559,1,0,0:0:0:0:
256,192,63717,1,8,0:0:0:0:
256,192,63796,1,8,0:0:0:0:
256,192,63875,1,8,0:0:0:0:
256,192,64033,1,0,0:0:0:0:
256,192,64191,1,0,0:0:0:0:
256,192,64349,1,8,0:0:0:0:
256,192,64507,1,8,0:0:0:0:
256,192,64665,1,0,0:0:0:0:
256,192,64823,1,8,0:0:0:0:
256,192,64981,1,8,0:0:0:0:
256,192,65138,1,0,0:0:0:0:
256,192,65770,1,8,0:0:0:0:
256,192,66086,1,0,0:0:0:0:
256,192,66481,1,8,0:0:0:0:
256,192,66559,1,8,0:0:0:0:
256,192,66717,1,8,0:0:0:0:
256,192,66875,1,8,0:0:0:0:
256,192,67033,1,0,0:0:0:0:
256,192,67270,1,0,0:0:0:0:
256,192,67507,1,0,0:0:0:0:
256,192,67586,1,0,0:0:0:0:
256,192,67665,1,0,0:0:0:0:
256,192,67823,1,8,0:0:0:0:
256,192,67981,1,8,0:0:0:0:
256,192,68059,1,8,0:0:0:0:
256,192,68138,1,8,0:0:0:0:
256,192,68217,1,8,0:0:0:0:
256,192,68296,1,8,0:0:0:0:
256,192,68454,1,8,0:0:0:0:
256,192,68612,1,0,0:0:0:0:
256,192,68770,1,8,0:0:0:0:
256,192,68928,1,8,0:0:0:0:
256,192,69007,1,8,0:0:0:0:
256,192,69086,1,0,0:0:0:0:
256,192,69244,1,0,0:0:0:0:
256,192,69559,1,8,0:0:0:0:
256,192,69717,1,0,0:0:0:0:
256,192,69875,1,8,0:0:0:0:
256,192,70033,1,8,0:0:0:0:
256,192,70112,1,8,0:0:0:0:
256,192,70191,1,0,0:0:0:0:
256,192,70349,1,0,0:0:0:0:
256,192,70665,1,0,0:0:0:0:
256,192,70823,1,0,0:0:0:0:
256,192,71296,1,0,0:0:0:0:
256,192,71454,1,8,0:0:0:0:
256,192,71533,1,8,0:0:0:0:
256,192,71612,1,0,0:0:0:0:
256,192,71770,1,8,0:0:0:0:
256,192,71849,1,8,0:0:0:0:
256,192,71928,1,8,0:0:0:0:
256,192,72086,1,0,0:0:0:0:
256,192,72717,1,4,0:0:0:0:
256,192,73191,1,8,0:0:0:0:
256,192,73349,1,0,0:0:0:0:
256,192,73665,1,0,0:0:0:0:
256,192,73981,1,0,0:0:0:0:
256,192,74138,1,0,0:0:0:0:
256,192,74296,1,8,0:0:0:0:
256,192,74533,1,8,0:0:0:0:
256,192,74612,1,0,0:0:0:0:
256,192,74770,1,8,0:0:0:0:
256,192,74928,1,4,0:0:0:0:
256,192,75244,1,0,0:0:0:0:
256,192,75402,1,0,0:0:0:0:
256,192,75559,1,8,0:0:0:0:
256,192,75875,1,0,0:0:0:0:
256,192,76033,1,8,0:0:0:0:
256,192,76349,1,8,0:0:0:0:
256,192,76507,1,8,0:0:0:0:
256,192,76665,1,8,0:0:0:0:
256,192,76823,1,8,0:0:0:0:
256,192,76902,1,8,0:0:0:0:
256,192,76981,1,0,0:0:0:0:
256,192,77138,1,0,0:0:0:0:
256,192,77770,1,0,0:0:0:0:
256,192,77928,1,8,0:0:0:0:
256,192,78244,1,8,0:0:0:0:
256,192,78559,1,8,0:0:0:0:
256,192,78717,1,0,0:0:0:0:
256,192,78796,1,0,0:0:0:0:
256,192,78875,1,8,0:0:0:0:
256,192,79033,1,0,0:0:0:0:
256,192,79191,1,8,0:0:0:0:
256,192,79507,1,8,0:0:0:0:
256,192,79823,1,8,0:0:0:0:
256,192,79981,1,0,0:0:0:0:
256,192,80059,1,0,0:0:0:0:
256,192,80138,1,0,0:0:0:0:
256,192,80296,1,8,0:0:0:0:
256,192,80612,1,8,0:0:0:0:
256,192,80770,1,0,0:0:0:0:
256,192,80849,1,0,0:0:0:0:
256,192,80928,1,8,0:0:0:0:
256,192,81244,1,8,0:0:0:0:
256,192,81402,1,0,0:0:0:0:
256,192,81481,1,0,0:0:0:0:
256,192,81559,1,8,0:0:0:0:
256,192,81717,1,0,0:0:0:0:
256,192,81796,1,8,0:0:0:0:
256,192,82033,1,8,0:0:0:0:
256,192,82191,1,0,0:0:0:0:
256,192,82270,1,8,0:0:0:0:
256,192,82428,1,0,0:0:0:0:
256,192,82507,1,8,0:0:0:0:
256,192,82665,1,8,0:0:0:0:
256,192,82823,1,4,0:0:0:0:
256,192,85349,1,0,0:0:0:0:
256,192,86612,1,0,0:0:0:0:
256,192,86770,1,8,0:0:0:0:
256,192,86849,1,8,0:0:0:0:
256,192,86928,1,8,0:0:0:0:
256,192,87086,1,0,0:0:0:0:
256,192,87323,1,8,0:0:0:0:
256,192,87402,1,0,0:0:0:0:
256,192,87559,1,8,0:0:0:0:
256,192,87875,1,0,0:0:0:0:
256,192,87954,1,0,0:0:0:0:
256,192,88033,1,0,0:0:0:0:
256,192,88112,1,0,0:0:0:0:
256,192,88191,1,8,0:0:0:0:
256,192,88349,1,0,0:0:0:0:
256,192,88665,1,0,0:0:0:0:
256,192,88823,1,8,0:0:0:0:
256,192,88981,1,0,0:0:0:0:
256,192,89138,1,0,0:0:0:0:
256,192,89217,1,0,0:0:0:0:
256,192,89296,1,0,0:0:0:0:
256,192,89454,1,8,0:0:0:0:
256,192,89612,1,0,0:0:0:0:
256,192,89928,1,0,0:0:0:0:
256,192,90086,1,8,0:0:0:0:
256,192,90244,1,8,0:0:0:0:
256,192,90402,1,0,0:0:0:0:
256,192,90481,1,0,0:0:0:0:
256,192,90559,1,0,0:0:0:0:
256,192,90717,1,8,0:0:0:0:
256,192,90875,1,0,0:0:0:0:
256,192,91191,1,8,0:0:0:0:
256,192,91349,1,8,0:0:0:0:
256,192,91507,1,8,0:0:0:0:
256,192,91665,1,0,0:0:0:0:
256,192,91744,1,0,0:0:0:0:
256,192,91823,1,0,0:0:0:0:
256,192,91981,1,8,0:0:0:0:
256,192,92138,1,0,0:0:0:0:
256,192,92454,1,0,0:0:0:0:
256,192,92612,1,8,0:0:0:0:
256,192,92928,1,0,0:0:0:0:
256,192,93007,1,0,0:0:0:0:
256,192,93086,1,0,0:0:0:0:
256,192,93165,1,0,0:0:0:0:
256,192,93244,1,8,0:0:0:0:
256,192,93402,1,0,0:0:0:0:
256,192,93717,1,0,0:0:0:0:
256,192,93796,1,0,0:0:0:0:
256,192,93875,1,8,0:0:0:0:
256,192,94033,1,0,0:0:0:0:
256,192,94191,1,0,0:0:0:0:
256,192,94270,1,0,0:0:0:0:
256,192,94349,1,0,0:0:0:0:
256,192,94507,1,8,0:0:0:0:
256,192,94665,1,0,0:0:0:0:
256,192,94981,1,0,0:0:0:0:
256,192,95138,1,8,0:0:0:0:
256,192,95454,1,0,0:0:0:0:
256,192,95533,1,0,0:0:0:0:
256,192,95612,1,0,0:0:0:0:
256,192,95691,1,0,0:0:0:0:
256,192,95770,1,8,0:0:0:0:
256,192,95928,1,8,0:0:0:0:
256,192,96244,1,0,0:0:0:0:
256,192,96402,1,8,0:0:0:0:
256,192,96717,1,4,0:0:0:0:
256,192,96954,1,4,0:0:0:0:
256,192,97191,1,4,0:0:0:0:
256,192,97507,1,0,0:0:0:0:
256,192,97665,1,8,0:0:0:0:
256,192,97744,1,8,0:0:0:0:
256,192,97823,1,8,0:0:0:0:
256,192,97981,1,0,0:0:0:0:
256,192,98059,1,0,0:0:0:0:
256,192,98138,1,0,0:0:0:0:
256,192,98296,1,8,0:0:0:0:
256,192,98454,1,0,0:0:0:0:
256,192,98770,1,0,0:0:0:0:
256,192,98928,1,8,0:0:0:0:
256,192,99244,1,0,0:0:0:0:
256,192,99323,1,0,0:0:0:0:
256,192,99402,1,0,0:0:0:0:
256,192,99481,1,0,0:0:0:0:
256,192,99559,1,8,0:0:0:0:
256,192,99717,1,0,0:0:0:0:
256,192,100033,1,0,0:0:0:0:
256,192,100191,1,8,0:0:0:0:
256,192,100507,1,0,0:0:0:0:
256,192,100823,1,8,0:0:0:0:
256,192,100981,1,0,0:0:0:0:
256,192,101296,1,0,0:0:0:0:
256,192,101375,1,0,0:0:0:0:
256,192,101454,1,8,0:0:0:0:
256,192,101612,1,8,0:0:0:0:
256,192,101770,1,0,0:0:0:0:
256,192,101849,1,0,0:0:0:0:
256,192,101928,1,0,0:0:0:0:
256,192,102086,1,8,0:0:0:0:
256,192,102244,1,0,0:0:0:0:
256,192,102323,1,8,0:0:0:0:
256,192,102717,1,8,0:0:0:0:
256,192,102796,1,8,0:0:0:0:
256,192,102875,1,8,0:0:0:0:
256,192,103033,1,4,0:0:0:0:
256,192,103270,1,4,0:0:0:0:
256,192,103665,1,4,0:0:0:0:
256,192,103902,1,4,0:0:0:0:
256,192,104296,1,0,0:0:0:0:
256,192,104375,1,0,0:0:0:0:
256,192,104533,1,0,0:0:0:0:
256,192,104770,1,0,0:0:0:0:
256,192,104928,1,4,0:0:0:0:
256,192,105559,1,0,0:0:0:0:
256,192,105638,1,0,0:0:0:0:
256,192,105717,1,0,0:0:0:0:
256,192,105875,1,8,0:0:0:0:
256,192,106033,1,0,0:0:0:0:
256,192,106191,1,0,0:0:0:0:
256,192,106270,1,0,0:0:0:0:
256,192,106349,1,0,0:0:0:0:
256,192,106507,1,8,0:0:0:0:
256,192,106823,1,8,0:0:0:0:
256,192,106981,1,0,0:0:0:0:
256,192,107059,1,8,0:0:0:0:
256,192,107217,1,0,0:0:0:0:
256,192,107296,1,8,0:0:0:0:
256,192,107612,1,0,0:0:0:0:
256,192,107770,1,8,0:0:0:0:
256,192,107849,1,8,0:0:0:0:
256,192,107928,1,8,0:0:0:0:
256,192,108086,1,4,0:0:0:0:
256,192,109033,1,8,0:0:0:0:
256,192,109665,1,0,0:0:0:0:
256,192,109823,1,8,0:0:0:0:
256,192,109981,1,0,0:0:0:0:
256,192,110138,1,8,0:0:0:0:
256,192,110296,1,0,0:0:0:0:
256,192,110612,1,8,0:0:0:0:
256,192,111559,1,0,0:0:0:0:
256,192,112349,1,8,0:0:0:0:
256,192,112507,1,0,0:0:0:0:
